#VERSION:0.83;
#TITLE:YAKSHA;
#ARTIST:Neulakyussra;
#GENRE:TERROR CORE;
#BANNER:YAKSHA.png;
#BACKGROUND:YAKSHA-bg.png;
#CDTITLE:./CDTitles/bm IIDX 19 Lincle.png;
#MUSIC:YAKSHA.ogg;
#SAMPLESTART:32.821;
#SAMPLELENGTH:15;
#BPMS:0=190;
#STAGE:29;

//--------------- dance-single - Fred-104 ----------------
#NOTEDATA:;
#STEPSTYPE:dance-single;
#DESCRIPTION:Fred-104;
#DIFFICULTY:Beginner;
#METER:4;
#CREDIT:Fred-104;
#NOTES:
0000
0000
0000
0000
,
0000
0000
0000
0000
,
0001
0000
0000
0000
,
1000
0000
0000
0000
,
0010
0000
0000
0000
,
0100
0000
0000
0000
,
0001
0000
0000
0000
,
0010
0000
0000
0000
,
0100
0000
0000
0000
,
2002
0000
3003
0000
,
1000
0000
0010
0000
,
1000
0000
0100
0100
,
0100
0000
1000
0000
,
0001
0000
0100
0100
,
0100
0000
0001
0000
,
0100
0000
0010
0010
,
0010
0000
1000
0000
,
0001
0001
0001
0001
,
1001
0000
0000
0000
,
0000
0000
0000
0000
,
0100
0000
0000
0000
,
0000
0000
0000
0000
,
0010
0000
1000
0000
,
0001
0000
0010
0000
,
0010
0000
0100
0000
,
2002
0000
0000
3003
,
1000
0000
0010
0000
,
1000
0000
0001
0000
,
0001
0000
0100
0000
,
0010
0000
0100
0000
,
0100
0000
0001
0000
,
1000
0000
0001
0000
,
0001
0000
1000
0000
,
2002
0000
0000
3003
,
0100
0000
0010
0000
,
0100
0000
0001
0001
,
0001
0000
1000
0000
,
0010
0000
0100
0100
,
0100
0000
0001
0000
,
0100
0000
1000
1000
,
1000
0000
0001
0000
,
1001
0000
0000
0000
,
1000
0000
0010
0000
,
1000
0000
0001
0000
,
0100
0000
0010
0000
,
0100
0000
0001
0001
,
0001
0000
1000
0000
,
0010
0000
1000
0000
,
0001
0000
1000
0000
,
0001
0000
0001
0001
,
0001
0000
1000
0000
,
0010
0000
1000
0000
,
0100
0000
1000
0000
,
1000
0000
0001
0001
,
0001
0000
1000
0000
,
0001
0000
0100
0000
,
0010
0000
0100
0000
,
0010
0000
0010
0010
,
0010
0000
1000
0000
,
0001
0000
1000
0000
,
0001
0000
1000
0000
,
0001
0000
0001
0001
,
0001
0000
1000
0000
,
0010
0000
1000
0000
,
0001
0000
0001
0000
,
1000
1000
1000
1000
,
1001
0000
0000
0000
,
0000
0000
0000
0000
,
0000
0000
0000
0000
,
0000
0000
0000
0000
,
0000
0000
0000
0000
,
0000
0000
0000
0000
,
0000
0000
0000
0000
,
0000
0000
0000
0000
,
1001
0000
0000
0000
,
0100
0000
0000
0000
,
0110
0000
0000
0000
,
0010
0000
0000
0000
,
1001
0000
0000
0100
,
0100
0000
0000
0010
,
0010
0000
0100
0000
,
0010
0010
0010
0010
,
0220
0000
0000
0000
,
0000
0000
0330
0000
,
1000
0000
1000
0000
,
0001
0000
0001
0001
,
0001
0000
1000
0000
,
0001
0000
1000
1000
,
1000
0000
0001
0000
,
0100
0000
0010
0010
,
0010
0000
0100
0000
,
0010
0000
0100
0100
,
0100
0000
0001
0000
,
1000
0000
0001
0001
,
0001
0000
1000
0000
,
0001
0000
1000
1000
,
1000
0000
0001
0000
,
0100
0000
0010
0010
,
0010
0000
0100
0000
,
0001
0001
0001
0001
,
2002
0000
0000
0000
,
0000
0000
0000
0000
,
3003
0000
0000
0000
;

//--------------- dance-single - Fred-104 ----------------
#NOTEDATA:;
#STEPSTYPE:dance-single;
#DESCRIPTION:Fred-104;
#DIFFICULTY:Easy;
#METER:8;
#CREDIT:Fred-104;
#NOTES:
0000
0000
0000
0000
,
0000
0000
0000
0000
,
0010
0000
1000
0000
,
0001
0000
1000
0000
,
0001
0000
0100
0000
,
0010
0000
0010
0000
,
1000
0000
0001
0000
,
1000
0000
0100
0000
,
0010
0000
0001
0000
,
2002
0000
3003
0000
,
1000
0100
0100
1000
,
0001
0100
0010
0000
,
0001
0010
0100
1000
,
0001
1000
0010
0000
,
0100
0010
1000
0100
,
1000
0001
0010
0100
,
1000
0001
0100
0010
,
0100
0100
0010
0010
,
0120
0000
2030
0000
,
3020
0000
0230
0000
,
0302
0000
2003
0000
,
3002
0000
0023
0000
,
0031
0000
0000
1000
0000
0000
0010
0000
,
0100
0010
0100
0000
,
0001
0000
0000
1000
0000
0000
0001
0000
,
2002
0000
0000
3003
,
1000
0010
1000
0100
,
1000
0001
0100
0010
,
0100
0001
0100
0001
,
1000
0000
0001
0000
0100
0010
0100
0000
,
0001
0010
0100
0100
,
1000
0010
1000
0001
,
0100
0000
0010
0000
1000
0000
0001
1000
,
0001
0000
0000
1000
0000
0000
1001
0000
,
0100
1000
0001
0010
,
0100
0000
0010
0000
0001
1000
0001
0000
,
1000
0100
0010
0001
,
1000
0000
0001
0000
0100
0010
0100
0000
,
0001
0010
0100
1000
,
0001
0000
0100
0000
0010
1000
0010
0000
,
0100
0100
0010
0010
,
0110
0000
0000
0000
,
1000
0100
1000
0010
,
1000
0001
0010
0100
,
1000
0001
0100
0010
,
1000
0100
0100
0001
,
0100
0010
1000
0010
,
1000
0001
0010
1000
,
0100
0001
1000
0001
,
0100
0000
0010
0000
0100
0010
0100
0000
,
0001
1000
0010
0100
,
0010
0010
1000
0100
,
1000
1000
0001
0100
,
0010
0000
1000
0000
0001
0100
0001
0000
,
1000
0100
0010
0001
,
1000
0010
1000
0001
,
0010
0100
1000
0001
,
0100
0000
0100
0000
0010
0100
0010
0100
,
0010
1000
0001
0100
,
0010
0010
1000
0100
,
1001
0001
1000
0010
,
0110
0000
0100
0000
0001
0000
1000
0001
,
1000
0010
0100
0100
,
0110
0010
0001
1000
,
1001
0100
0010
0100
,
0002
0023
0230
1300
,
1001
0000
0000
0000
,
0000
0000
0000
0000
,
0000
0000
0000
0000
,
0000
0000
0000
0000
,
0000
0000
0000
0000
,
0000
0000
0000
0000
,
0000
0000
0000
0000
,
0000
0000
0000
0000
,
1001
0100
0100
0010
,
0002
0100
0103
0010
,
0110
1000
0010
0100
,
0020
1000
1030
0001
,
1001
0000
0000
0010
,
0110
0000
0000
1000
,
1010
0001
0100
0010
,
1000
0100
0010
0001
,
2002
0000
0000
0000
,
0000
0000
3003
0000
,
0001
0010
0001
1000
,
0010
0010
1000
0100
,
1000
0001
0100
0100
,
0010
0000
1000
0000
0001
0100
0001
0000
,
1000
0100
0100
0010
,
0001
1000
0010
0100
,
0001
0010
0100
1000
,
0001
0000
0100
0000
0010
0100
0010
0100
,
0010
1000
0001
1000
,
0100
0000
0010
0000
0001
1000
0001
0000
,
1000
0010
0100
0100
,
0010
0000
1000
0000
0001
0010
0001
0000
,
1000
1000
0010
0100
,
0001
0000
0010
0000
0100
0010
0100
0000
,
1000
1000
0001
0001
,
2000
3200
0320
0031
,
2002
0000
0000
0000
,
0000
0000
0000
0000
,
3003
0000
0000
0000
;

//--------------- dance-single - Fred-104 ----------------
#NOTEDATA:;
#STEPSTYPE:dance-single;
#DESCRIPTION:Fred-104;
#DIFFICULTY:Medium;
#METER:13;
#CREDIT:Fred-104;
#NOTES:
0000
0000
0000
0000
,
0000
0000
0000
0000
,
1000
0000
0010
0000
,
1000
0100
0001
0000
,
0100
0000
1000
0000
,
0001
0100
0010
0000
,
0100
0000
0001
0000
,
1000
0010
0001
0000
,
0100
0000
1000
0000
,
0001
1000
1001
0000
,
1000
0100
1000
0001
0100
0010
0100
0000
,
0001
0100
0010
0000
1000
1000
0000
0001
,
0100
0010
0100
0001
0100
0010
1000
0000
,
0001
0010
0100
0000
1000
1000
0000
0001
,
0100
0010
1000
0010
0100
0010
1000
0000
,
0001
0010
0100
0000
0010
0010
0000
0001
,
1000
0100
1000
0010
0100
0001
1000
0100
,
0010
0001
1000
0001
0100
0010
0100
0010
,
0100
0000
0000
0100
0000
0000
0001
0000
0010
0000
0000
0010
0000
0000
0100
0000
,
1000
0000
0000
1000
0000
0000
0001
0000
0000
0001
0000
0000
0100
0000
0010
0000
,
1000
0000
0000
1000
0000
0000
0100
0000
0010
0000
0000
0010
0000
0000
0001
0000
,
1000
0000
0000
0010
0000
0000
0100
0000
0000
0001
0000
0000
0010
0000
0100
0000
,
1000
0000
0100
0000
0010
0100
0001
0000
,
1000
0000
0001
0000
0100
0100
0000
0010
,
0100
0000
0001
0000
1000
0001
1000
0000
,
2002
0000
0000
3003
,
1000
0000
0000
0010
0000
0000
0100
0000
0001
0000
0000
1000
0000
0000
0100
0000
,
0010
0000
0000
0001
0000
0000
1000
0000
0000
0010
0000
0000
0100
0000
0010
0000
,
1000
0000
0000
0100
0000
0000
0010
0000
0100
0000
0000
1000
0000
0000
0001
0000
,
0100
0000
0000
0001
0000
0000
0010
0000
0000
0100
0000
0000
1000
0000
0001
0000
,
0100
0000
0000
0010
0000
0000
1000
0000
0100
0000
0000
0010
0000
0000
0001
0000
,
1000
0000
0000
0001
0000
0000
0010
0000
0000
0001
0000
0000
0100
0000
0010
0000
,
0100
0000
0000
0010
0000
0000
1000
0000
0100
0000
1000
0000
0001
0000
0010
0000
,
0001
0000
0000
0101
0000
0000
1000
0000
0000
1010
0000
0000
1001
0000
0000
0000
,
0100
0000
0000
0010
0000
0000
0001
0000
1000
0000
0000
0010
0000
0000
0100
0000
,
0001
0010
0001
1000
0010
0100
0001
0000
,
1000
0000
0000
0100
0000
0000
0010
0000
0001
0000
0000
1000
0000
0000
0010
0000
,
1000
0010
0100
0010
1000
0100
0001
0000
,
0100
0000
0000
1000
0000
0000
0001
0000
0100
0000
0000
0010
0000
0000
0100
0000
,
0001
0100
0010
1000
0010
0001
1000
0000
,
0001
0010
0100
1000
0010
0010
0100
0000
,
1001
0000
0000
0000
,
0001
1000
0100
0010
0001
0100
0001
0010
,
0001
0010
0001
0010
0100
0010
1000
0000
,
0010
0100
0010
0100
0001
1000
0010
1000
,
0100
0010
0001
1000
0001
0100
0010
0000
,
0010
1000
0100
0010
0100
1000
0100
0010
,
0100
1000
0010
0100
0010
1000
0001
0000
,
0100
0100
0001
0010
0100
1000
0001
1000
,
0001
0000
0100
0000
0010
0000
0100
0000
0001
0000
1000
0100
1000
0000
0001
0000
,
1000
0100
0010
0001
1000
0010
0100
0000
,
0001
0000
0000
0100
0000
0000
0010
0000
1000
0000
0000
0100
0000
0000
0010
0000
,
0001
0100
0001
1000
0100
0010
0001
0000
,
0100
0000
0000
0010
0000
0000
1000
0000
0010
0000
0000
1000
0000
0000
0001
0000
,
0010
0100
1000
0001
0100
1000
0001
0000
,
0010
0000
0000
1000
0000
0000
0001
0000
0100
0000
0000
0010
0000
0000
1000
0000
,
0100
0000
0000
0010
0000
0000
0001
0000
1000
0000
0000
0001
0000
0000
0100
0000
,
0001
0000
0000
0100
0000
0000
0100
0000
0010
0000
0100
0000
0100
0000
0100
0000
,
0010
0000
0000
1010
0000
0000
0010
0000
0000
0110
0000
0000
0100
0000
0001
0000
,
1000
0000
0000
1100
0000
0000
0001
0000
0000
0101
0000
0000
0100
0000
0010
0000
,
2100
3010
0102
0013
,
1200
0310
0201
0310
,
1000
0000
0000
0010
0000
0000
1000
0000
0000
0001
0000
0000
0010
0000
0010
0000
,
0100
0000
0000
1000
0000
0000
0001
0000
0000
0100
0000
0000
0010
0000
1000
0000
,
0001
0010
0001
0100
0010
1000
0100
1000
,
0001
0001
1000
1000
0010
0100
0010
0000
,
1001
0000
0000
0000
,
0000
0000
0000
0000
,
0000
0000
0000
0000
,
0000
0000
0000
0000
,
0000
0000
0000
0000
,
0000
0000
0000
0000
,
0000
0000
0000
0000
,
0000
0000
0000
0000
,
1001
0000
0010
0000
0100
0010
0001
0000
,
0100
0000
0010
1000
0001
0100
0010
0000
,
1100
0000
0010
0000
0001
1000
0100
0000
,
0010
0000
1000
0100
0001
1000
0100
0000
,
0110
0000
0010
0000
0001
1000
0010
0000
,
0110
0000
0100
0000
1000
0001
0010
0000
,
0012
0103
2010
3100
,
0001
0010
0100
1000
0010
0100
0001
1000
,
2002
0000
0000
0000
,
0000
0000
3003
0000
,
0001
0000
0000
0010
0000
0000
0001
0000
0000
0100
0000
0000
0001
0000
0001
0000
,
1000
0000
0000
0100
0000
0000
0100
0000
0010
0000
0000
0001
0000
0000
0001
0000
,
1000
0000
0000
0010
0000
0000
0100
0000
0000
0010
0000
0000
1000
0000
0001
0000
,
0100
0000
0000
0100
0000
0000
0010
0000
0100
0000
0000
0100
0000
0000
1000
0000
,
0001
0000
0000
0010
0000
0000
0100
0000
0000
0010
0000
0000
0001
0000
0100
0000
,
0010
0000
0000
1000
0000
0000
0100
0000
0010
0000
0000
0001
0000
0000
0100
0000
,
0010
0000
0000
1000
0000
0000
0001
0000
0000
0100
0000
0000
0001
0000
1000
0000
,
0100
0000
0000
1000
0000
0000
0001
0000
0000
0100
0000
0000
0010
0000
0100
0000
,
0001
0100
0001
1000
0010
0100
0001
1000
,
0010
0000
0000
1010
0000
0000
1000
0000
0001
0000
0000
0101
0000
0000
0100
0000
,
0010
1000
0100
0001
0100
1000
0100
0010
,
0001
0000
0000
1001
0000
0000
0100
0000
0010
0000
0000
0110
0000
0000
0100
0000
,
0001
0100
1000
0100
0001
0010
1000
0010
,
0100
0000
0000
1100
0000
0000
0010
0000
0001
0000
0000
0101
0000
0000
0010
0000
,
1000
0001
0100
0010
1000
0100
0010
0001
,
1000
0000
0001
1000
0001
0000
1000
0100
1000
0000
0001
0100
0001
0000
0100
0010
,
0200
0000
0000
0000
,
0000
0000
0000
0000
,
0300
0000
0000
0000
;

//--------------- dance-single - Fred-104 ----------------
#NOTEDATA:;
#STEPSTYPE:dance-single;
#DESCRIPTION:Fred-104;
#DIFFICULTY:Hard;
#METER:17;
#CREDIT:Fred-104;
#NOTES:
0000
0000
0000
0000
,
0000
0000
0000
0000
,
0001
0000
0100
0000
,
1000
0100
0010
0000
,
1000
0000
0100
0000
,
0001
0100
0010
0000
,
1000
0000
0100
0000
,
1000
0100
0010
0000
,
0001
0010
1000
0001
,
2002
0000
3003
0000
,
1000
0100
1000
0001
0100
0110
0000
0010
,
1000
0001
0010
0100
0010
0011
0000
0001
,
1000
0100
1000
0100
0010
0110
0000
0001
,
1000
0010
0100
0010
1000
1001
0000
0001
,
1000
0100
1000
0010
0100
0010
1000
0100
,
0010
0000
0001
0000
1000
0000
0001
0100
0010
0000
0100
0000
0100
0000
1000
0000
,
0001
0010
0100
1000
0001
0100
0010
1000
,
0001
1000
0001
1000
0001
1000
0001
1000
0001
0100
0001
0100
0010
1000
0010
1000
,
0002
0000
0000
0203
0000
0000
0320
0000
2030
0000
0000
3200
0000
0000
0320
0000
,
0032
0000
0000
0203
0000
0000
0320
0000
0000
2030
0000
0000
3200
0000
0320
0000
,
0032
0000
0000
0203
0000
0000
2300
0000
3200
0000
0000
0302
0000
0000
2003
0000
,
3002
0000
0000
0023
0000
0000
0230
0000
0000
2300
0000
0000
3020
0000
0230
0000
,
0301
0000
0101
0000
0100
0010
1000
0010
,
0010
0000
1100
0000
0010
0010
0000
0100
,
0001
0000
1001
0000
0100
0010
0100
1000
,
2002
0000
0000
3003
,
1000
0000
0010
1000
0000
0010
1000
0000
0001
0000
0100
0010
0000
0100
0010
0000
,
1000
0000
0001
0100
0000
0001
0100
0000
0000
0010
0000
0000
1000
0000
0100
0000
,
0010
0000
0001
1000
0000
0001
1000
0000
0100
0000
0010
0001
0000
0010
0001
0000
,
1000
0000
0001
0100
0000
0010
1000
0000
0000
0001
0000
0000
0010
0000
0100
0000
,
1000
0000
0001
0100
0000
0010
1000
0000
0100
0000
0010
0001
0000
1000
0001
0000
,
0100
0000
0010
1000
0000
0010
0100
0000
0000
0001
0000
0000
1000
0000
0001
0000
,
0010
0000
0001
0010
0000
0100
1000
0000
0010
0000
1000
0000
0010
0100
0010
0100
,
0010
0000
0000
1010
0000
0000
0101
0000
0000
1100
0000
0000
0011
0000
0000
0001
,
0100
0000
0001
0100
0000
0010
1000
0000
0100
0000
0010
0001
0000
1000
0001
0000
,
1000
0000
0100
1000
0000
0001
0100
0000
0010
0100
0000
0100
0010
0000
1000
0001
,
1000
0000
0100
1000
0000
0100
0010
0000
0001
0000
1000
0010
0000
1000
0001
0000
,
1000
0000
0001
0010
0000
0010
0100
0000
0100
1000
0000
1000
0001
0000
0100
0010
,
0100
0000
0001
0010
0000
0100
1000
0000
0001
0000
0100
0001
0000
1000
0001
0000
,
1000
0000
0010
0100
0000
0010
1000
0000
0001
0010
0000
0100
1000
0000
0001
1000
,
0001
0000
0100
0000
0010
0000
1000
0000
0001
1000
0001
1000
0100
0010
0100
0010
,
0001
0000
0000
0000
,
1000
0100
1100
0100
0010
0001
1000
0010
,
0100
0010
0110
0010
0001
1000
0010
0100
,
0001
0010
0011
0001
1000
0010
0100
0001
,
1000
0001
1001
1000
0100
0010
0001
1000
,
1010
0010
0100
0001
1001
1000
0100
0010
,
0011
0010
0100
1000
1010
0010
1000
0001
,
0101
0100
0010
1000
1001
0001
0100
0010
,
0100
0000
0010
0000
1000
0000
0001
0000
1000
0000
0001
1000
0001
0000
0100
0000
,
0001
0100
0001
0000
1000
0010
1000
0000
0001
0010
0001
0000
1000
0100
1000
0000
,
1010
0000
0000
0010
0000
0000
0100
0000
0101
0000
0000
0001
0000
0000
0010
0000
,
0100
1000
0100
0000
0010
0100
0010
0000
0001
0100
0001
0000
1000
0001
1000
0000
,
0001
0000
0000
0101
0000
0000
0100
0000
0010
0000
0000
1010
0000
0000
0100
0000
,
0001
1000
0001
0000
1000
0100
1000
0000
0001
0100
0001
0000
0100
0010
0100
0000
,
0010
0000
0000
1010
0000
0000
0100
0000
0010
0000
0000
1001
0000
0000
0100
0000
,
0010
0001
0010
0000
0001
1000
0001
0000
1000
0100
1000
0000
0001
0100
0001
0000
,
1000
0010
1000
0000
0001
0100
0010
0000
0100
0000
0110
0000
0010
0000
0110
0000
,
0100
0000
0000
1100
0000
0000
0110
0000
0000
0011
0000
0000
0001
0000
1000
0000
,
0001
0000
0100
0001
0000
1000
0100
0000
0010
0001
0000
0001
0100
0000
0010
0000
,
1100
0100
0010
0000
0101
0100
0010
0000
,
1001
1000
0100
0001
0100
0010
0110
0100
,
0001
0000
1000
0001
0000
0010
0001
0000
1000
0001
0000
0100
0001
0000
1000
0000
,
0010
0000
1000
0100
0000
1000
0001
0000
1000
0100
0000
0010
0001
0000
1000
0000
,
0010
1000
0100
0010
0001
0100
0010
1000
,
0001
1000
0001
1000
0001
1000
0001
1000
0001
0010
0001
0010
0100
1000
0100
1000
,
0001
0000
0000
0000
,
0000
0000
0000
0000
,
0000
0000
0000
0000
,
0000
0000
0000
0000
,
0000
0000
0000
0000
,
0000
0000
0000
0000
,
0000
0000
0000
0000
,
0000
0000
0000
0000
,
1100
0000
0000
0010
0000
0000
0001
0000
0000
1000
0000
0000
0001
0000
0100
0000
,
0110
0000
0000
0010
0000
0000
1000
0000
0001
0000
0000
0100
0000
0000
0010
0000
,
1010
0000
0000
1000
0000
0000
0001
0000
0000
0010
0000
0000
0100
0000
1000
0000
,
1100
0000
0000
0010
0000
0000
0001
0000
1000
0000
0000
0100
0000
0000
0001
0000
,
0101
0000
0000
0100
0000
0000
0010
0000
1000
0000
0000
0010
0100
0000
0001
0000
,
0011
0000
0000
0100
0000
0000
1000
0000
0001
0000
0000
0100
0010
0000
1000
0000
,
0001
0010
0100
1000
0010
0100
0001
1000
,
0001
0000
0100
0000
0010
0000
1000
0000
0001
0000
0100
0010
0100
0000
0001
1000
,
0200
0000
0000
0000
,
0000
0000
0000
0000
0310
0100
0110
0000
,
1000
0100
0000
0100
0010
0000
0010
0001
0000
0001
1000
0000
0001
0000
0100
0000
,
0010
0000
0000
1100
0000
0000
0100
0000
0010
0000
0000
0101
0000
0000
0100
0000
,
0001
0100
0000
0100
0010
0000
0010
1000
0000
1000
0100
0000
0010
0000
0001
0000
,
1000
0000
0000
1100
0000
0000
0010
0000
0001
0000
0000
0101
0000
0000
0010
0000
,
0100
1000
0000
1000
0001
0000
0001
0100
0000
0100
0010
0000
1000
0000
0001
0000
,
1000
0000
0000
1010
0000
0000
0100
0000
0001
0000
0000
0011
0000
0000
0100
0000
,
1000
0000
0010
1000
0000
0001
1000
0000
0100
0000
0010
0001
0000
1000
0001
0000
,
1000
0100
0000
0010
0100
0000
1000
0100
0000
0010
0100
0000
1000
0000
0001
0000
,
0100
0000
0010
1000
0000
0010
0100
0000
0010
1000
0000
0010
0100
0000
0001
0000
,
0020
0000
0001
1000
0030
0000
0001
0000
0200
0000
0001
1000
0300
0000
0010
0000
,
0001
0000
1000
0100
0000
0010
0001
0000
0001
0100
0000
0010
1000
0000
0001
0010
,
0200
0000
1000
0010
0300
0000
0001
0000
0020
0000
0100
0001
0030
0000
0100
0000
,
1000
0000
0001
0100
0000
0010
1000
0000
0001
0010
0000
0100
1000
0000
0001
0000
,
0200
0000
0001
1000
0300
0000
0010
0000
0200
0000
0010
1000
0300
0000
0010
0000
,
0001
0100
0010
1000
0100
0010
0001
1000
,
0010
0000
1000
0100
1000
0000
0001
0100
0001
1000
0001
1000
0001
0010
0100
1000
,
0002
0000
0000
0000
,
0000
0000
0000
0000
,
0003
0000
0000
0000
;

//--------------- dance-single - Fred-104 ----------------
#NOTEDATA:;
#STEPSTYPE:dance-single;
#DESCRIPTION:Fred-104;
#DIFFICULTY:Challenge;
#METER:18;
#CREDIT:Fred-104;
#NOTES:
0000
0000
0000
0000
,
0000
0000
0000
0000
,
0001
0000
0010
0000
,
0001
0100
1000
0000
,
0010
0000
1000
0000
,
0001
0100
0010
1000
,
0100
0000
1000
0000
,
0001
0100
0010
0000
,
1000
0000
0001
0000
,
1000
0010
0001
0100
,
1000
0100
1000
0001
0100
0010
1000
0001
,
0010
0001
0100
0001
0010
0110
0000
1000
,
0001
0010
0001
1000
0100
0010
0001
1000
,
0010
0000
0100
0000
0001
0000
1000
0100
0010
0000
0011
0000
0000
0000
0010
0000
,
0100
0000
0010
0000
0001
0000
0100
0000
0010
0000
1000
0000
0001
0010
0001
0000
,
1000
0000
0100
0000
0010
0000
0001
1000
0100
0000
1100
0000
0000
0000
0100
0000
,
0010
1000
0001
0100
1000
0100
0001
0010
,
0001
0000
0000
0100
0000
0000
0001
0000
0000
1000
0000
0000
0100
0000
0000
1000
0000
0000
0001
0000
0000
0100
0000
0000
0001
0000
0000
1000
0000
0000
0010
0000
0000
0100
0000
0000
0001
0000
1000
0000
0100
0000
0010
0000
0001
0000
1000
0000
,
0002
0000
0000
0023
0000
0000
2030
0000
3002
0000
0000
0203
0000
0000
0320
0000
,
2030
0000
0000
3020
0000
0000
0032
0000
0000
2003
0000
0000
3200
0000
0320
0000
,
0032
0000
0000
0203
0000
0000
2300
0000
3002
0000
0000
0203
0000
0000
2300
0000
,
3200
0000
0000
0302
0000
0000
0023
0000
0000
0230
0000
0000
0320
0000
2030
0000
,
3001
0000
0100
0000
0100
0000
0001
0000
0100
0000
0100
0000
0010
1000
0001
0000
,
1000
0000
0100
0000
0100
0000
0010
0100
1000
0000
1001
0000
0000
0000
0001
0000
,
0100
0000
0010
0000
0010
0000
1000
0000
0010
0000
0010
0000
1000
0001
1000
0000
,
2002
0000
0000
3003
,
1000
0000
0010
1000
0000
0100
1000
0000
0001
0000
1000
0100
0000
1000
0010
0000
,
0100
0000
0001
0100
0000
1000
0100
0000
0010
0100
0000
0001
1000
0000
0010
0100
,
0010
0000
0001
0010
0000
0100
1000
0000
0100
0000
0010
0001
0000
0010
0100
0000
,
0001
0000
0100
1000
0000
0100
0010
0000
0001
1000
0000
0010
1000
0000
1000
0100
,
1000
0000
0001
0010
0000
0010
0100
0000
1000
0000
0010
1000
0000
1000
0100
0000
,
0010
0000
0001
0100
0000
0100
1000
0000
0001
0010
0000
0010
0100
0000
1000
0001
,
1000
0000
1000
0100
0000
0010
0001
0000
1000
0001
0000
0100
0010
1000
0010
1000
,
0010
0000
0000
1100
0000
0000
0101
0000
0000
1010
0000
0000
1001
0000
0000
0100
,
0010
0000
0001
1000
0000
0010
1000
0000
0010
0000
1000
0100
0000
1000
0001
0000
,
1000
0000
0100
0010
0000
0001
1000
0000
0001
0010
0100
1000
0100
0000
1000
0001
,
1000
0000
0010
0100
0000
0010
0001
0000
0010
0000
0100
1000
0000
0100
0001
0000
,
1000
0000
0100
0010
0000
0001
1000
0000
0010
0100
0001
1000
0100
0000
0100
0010
,
0001
0000
1000
0100
0000
1000
0001
0000
0010
0000
0100
1000
0000
0001
0010
0000
,
0100
0000
0001
0100
0000
1000
0001
0000
1000
0001
0100
0010
1000
0000
0001
1000
,
0001
0000
0010
0000
0100
0000
1000
0000
0001
0010
0100
1000
0010
0100
0010
1000
,
0001
0000
0000
0000
,
0010
0000
0100
0000
0010
0001
1000
0000
0010
0000
0001
0000
0010
0100
0001
0000
,
0010
0000
1000
0000
0010
0100
1000
0000
0010
0000
0001
0000
0010
0100
0001
0000
,
0010
0000
1000
0000
0001
0100
1000
0000
0010
0000
0001
0000
1000
0100
0001
0000
,
0100
0000
1000
0000
0001
0100
0010
0000
0100
0000
0001
0000
1000
0100
0010
0000
,
0001
0000
0101
0000
0001
0100
0010
0000
1000
0000
1100
0000
0100
0010
0001
0000
,
0001
0000
1001
0000
1000
0001
0100
0000
0010
0000
0110
0000
0100
1000
0001
0000
,
1000
0000
1010
0000
0010
0100
0001
0000
0010
0000
0011
0000
0001
1000
0100
0000
,
0010
0000
0110
0000
1000
0001
0100
0000
0110
0000
0010
0100
0010
0000
1000
0000
,
0001
0100
0010
0000
1000
0100
0010
0000
0001
1000
0010
0000
0100
0001
1000
0000
,
0001
1000
0100
0000
1000
0100
0001
0000
0100
1000
0010
0000
1000
0100
0001
0000
,
0100
0010
1000
0000
0001
0010
1000
0000
0010
0001
0100
0000
0001
0010
1000
0000
,
0010
0001
1000
0000
0001
1000
0100
0000
0010
0001
1000
0000
0010
0100
0001
0000
,
1000
0100
1000
0100
0010
0001
1000
0000
0001
0100
0001
0100
0010
1000
0001
0000
,
1000
0100
0010
0001
0010
0100
1000
0000
0001
0100
0010
1000
0010
0100
0001
0000
,
1000
0001
0100
0001
1000
0100
0010
0000
0001
1000
0010
1000
0010
0100
0001
0000
,
1000
0100
0010
0001
0010
0100
1000
0001
0100
0010
1000
0010
0100
0001
1000
0001
,
0010
0000
0010
0001
0000
0001
1000
0000
1000
0100
0000
0100
0010
0000
0011
0000
,
0001
0000
0001
0100
0000
0100
0010
0000
0010
1000
0000
1000
0001
0000
1001
0000
,
1100
0000
0010
0100
0000
1000
0100
0000
0101
0000
0100
0010
0000
0001
1000
0000
,
1001
0000
0001
0010
0000
0100
1000
0000
0010
1000
0000
0100
0010
0000
0001
0000
,
1000
0000
0001
0100
0001
0100
0010
0000
1000
0100
1000
0100
0010
0000
0001
0000
,
0101
0000
0100
0010
1000
0100
0010
0000
0100
0010
0001
0100
0010
0000
0100
0000
,
0010
0000
1000
0100
0010
0000
0001
0100
0010
0000
1000
0100
0010
0000
0001
0100
,
0010
0000
0000
1000
0000
0000
0100
0000
0000
0010
0000
0000
0001
0000
0000
0100
0000
0000
0010
0000
0000
1000
0000
0000
0001
0000
0000
0010
0000
0000
0100
0000
0000
1000
0000
0000
0001
0000
0100
0000
0010
0000
1000
0000
0010
0000
0100
0000
,
0001
0000
0000
0000
,
0000
0000
0000
0000
,
0000
0000
0000
0000
,
0000
0000
0000
0000
,
0000
0000
0000
0000
,
0000
0000
0000
0000
,
0000
0000
0000
0000
,
0000
0000
0000
0000
,
2010
0000
0000
3200
0000
0000
0320
0000
0000
0032
0000
0000
0203
0000
0320
0000
,
2030
0000
0000
3200
0000
0000
0302
0000
2003
0000
0000
3020
0000
0000
0031
0000
,
1002
0000
0000
0203
0000
0000
2300
0000
0000
3002
0000
0000
0203
0000
0320
0000
,
2030
0000
0000
3020
0000
0000
0032
0000
2003
0000
0000
3002
0000
0000
0103
0000
,
1001
0000
0010
1000
0000
0010
0100
0000
0001
0000
0000
0100
0001
0000
0100
0000
,
0110
0000
0001
1000
0000
0100
1000
0000
0010
0000
0000
0010
1000
0000
0100
0000
,
1100
0100
0110
0010
0011
0001
1001
1000
,
0001
0000
0000
0001
0000
0000
1000
0000
0000
1000
0000
0000
0001
0000
0000
1000
0100
0010
0001
0000
0000
0100
0010
1000
,
0002
0000
0000
0000
,
0000
0000
0000
0000
0000
0000
0000
0000
1003
0000
1000
0000
0010
0100
0010
0200
,
0301
1000
0000
0100
0010
0000
0001
1000
0000
0010
0100
0000
0001
0000
1000
0000
,
1001
0000
0001
0100
0000
0100
1000
0000
1001
0000
1000
0100
0000
0100
0001
0000
,
0001
0100
0000
0010
1000
0000
0100
0010
0000
0001
1000
0000
0010
0000
0100
0000
,
0110
0000
0100
1000
0000
1000
0010
0000
0110
0000
0100
0001
0000
0001
0010
0000
,
0100
1000
0000
0001
0100
0000
0010
1000
0000
0001
0010
0000
0100
0000
0010
0000
,
0011
0000
0001
1000
0000
1000
0100
0000
1010
0000
1000
0001
0000
0001
0100
0000
,
0001
0000
1000
0100
0000
0001
0100
0000
1000
0000
0001
0100
0000
1000
0100
0000
,
0010
0000
0000
0001
0000
0000
0000
0000
0000
1000
0000
0000
0001
0000
0000
0000
0000
0000
0100
0000
0000
0010
0000
0000
0000
0000
0000
1000
0000
0000
0010
0000
0000
0000
0000
0000
0100
0000
0000
0000
0000
0000
0010
0000
1000
0000
0001
0000
,
1000
0000
0001
1000
0100
1000
0100
0000
0010
0001
1000
0001
0100
0000
0010
0000
,
0200
0000
1000
0010
0300
0000
0001
1000
0200
0000
0010
0001
0300
0000
0010
1000
,
0100
0000
0010
0001
1000
0010
0100
0000
0001
1000
0100
1000
0010
0000
0100
0000
,
0020
0000
1000
0001
0030
0000
0001
0100
0020
0000
1000
0100
0030
0000
0001
0100
,
1000
0000
0010
1000
0100
0010
0001
0000
1000
0001
0100
0010
1000
0000
0100
0000
,
0110
0000
0010
0001
1000
0001
0100
0000
0001
0010
0100
1000
0001
0000
0100
0000
,
0110
0100
1000
0010
0110
0100
0001
0010
,
0001
0000
0000
0000
0000
0000
1000
0000
0001
0000
0100
0000
0001
0000
0000
0000
0000
0000
1000
0000
0010
0000
0100
0000
0001
0000
0000
0010
0000
0000
0100
0000
0000
1000
0000
0000
0001
0000
0100
0000
0010
0000
1000
0000
0001
0000
0010
0000
,
0200
0000
0000
0000
,
0000
0000
0000
0000
,
0300
0000
0000
0000
;

//--------------- dance-double - Fred-104 ----------------
#NOTEDATA:;
#STEPSTYPE:dance-double;
#DESCRIPTION:Fred-104;
#DIFFICULTY:Easy;
#METER:8;
#CREDIT:Fred-104;
#NOTES:
00000000
00000000
00000000
00000000
,
00000000
00000000
00000000
00000000
,
00001000
00000000
00010000
00000000
,
00100000
00000000
01000000
00000000
,
10000000
00000000
00100000
00000000
,
01000000
00000000
01000000
00000000
,
00010000
00000000
00001000
00000000
,
00010000
00000000
00001000
00000000
,
00000100
00000000
00000001
00000000
,
00002002
00000000
00003003
00000000
,
00000001
00001000
00000001
00000100
,
00000100
00000010
00000100
00000000
,
00001000
00010000
00001000
00010000
,
00001000
00100000
00100000
00000000
,
00010000
01000000
00010000
01000000
,
00100000
10000000
01000000
00000000
,
00100000
00001000
00010000
00001000
,
00010000
00000100
00010000
00010000
,
00012000
00000000
00023000
00000000
,
00230000
00000000
20300000
00000000
,
30020000
00000000
20030000
00000000
,
32000000
00000000
03200000
00000000
,
00301000
00000000
00000000
00010000
00000000
00000000
00001000
00000000
,
00010000
00000100
00010000
00000000
,
00010000
00000000
00000000
01000000
00000000
00000000
00100000
00000000
,
20020000
00000000
00000000
30030000
,
10000000
10000000
01000000
00100000
,
01000000
00010000
01000000
10000000
,
00100000
01000000
00001000
00010000
,
00001000
00000000
00010000
00000000
00001000
00010000
00001000
00000000
,
00010000
00000100
00001000
00000100
,
00000010
00000001
00001000
00000010
,
00000100
00000100
00000010
00001000
,
00000001
00000000
00000000
00001000
00000000
00000000
00001001
00000000
,
00001000
00000100
00000010
00000001
,
00000100
00000000
00000100
00000000
00000010
00000100
00000010
00000000
,
00001000
00000100
00010000
00010000
,
00001000
00000000
01000000
00000000
00001000
00010000
00001000
00000000
,
00100000
00010000
00100000
01000000
,
10000000
00000000
00010000
00000000
01000000
00100000
01000000
00000000
,
00010000
00010000
00001000
00001000
,
00011000
00000000
00000000
00000000
,
10000000
00010000
01000000
00100000
,
10000000
01000000
00100000
00001000
,
00010000
00000100
00010000
00001000
,
00010000
00000010
00001000
00000100
,
00010000
00001000
00000100
00000001
,
00001000
00000100
00000010
00000001
,
00000100
00000010
00001000
00000001
,
00000010
00000000
00000100
00000000
00010000
00001000
00010000
00000000
,
00001000
00100000
00010000
01000000
,
00010000
10000000
01000000
00100000
,
01000000
10000000
00010000
01000000
,
00010000
00000000
00100000
00000000
00001000
00010000
00001000
00000000
,
01000000
00001000
00010000
00000100
,
00010000
00001000
00000100
00000001
,
00001000
00000100
00000001
00001000
,
00000100
00000000
00000010
00000000
00000100
00000010
00000100
00000010
,
00000100
00000100
00000001
00001000
,
00000010
00000010
00000100
00000001
,
00001001
00001000
00000010
00000100
,
00000110
00000010
00001000
00000001
,
00001000
00001000
00000100
00010000
,
00011000
00001000
00100000
00010000
,
10010000
01000000
00100000
10000000
,
01000000
01000000
01000000
01000000
,
01100000
00000000
00000000
00000000
,
00000000
00000000
00000000
00000000
,
00000000
00000000
00000000
00000000
,
00000000
00000000
00000000
00000000
,
00000000
00000000
00000000
00000000
,
00000000
00000000
00000000
00000000
,
00000000
00000000
00000000
00000000
,
00000000
00000000
00000000
00000000
,
10200000
00000000
02300000
00000000
,
03020000
00000000
00130000
00001000
,
00021000
00000000
00030200
00000000
,
00002300
00000000
00003001
00000100
,
00000120
00000000
00002030
00003001
,
00002001
00000000
00003020
00010030
,
00011000
00001000
00100000
00010000
,
10010000
01000000
01000000
00100000
,
20020000
00000000
00000000
00000000
,
00000000
00000000
30030000
00000000
,
00001000
00010000
00001000
00010000
,
00001000
00000100
00000010
00000001
,
00000100
00000001
00000100
00000001
,
00000100
00001000
00010000
00001000
,
00010000
00100000
00010000
00100000
,
10000000
00100000
00010000
00100000
,
10000000
00100000
01000000
00010000
,
00100000
00000000
00001000
00000000
00010000
00001000
00010000
00001000
,
00010000
00001000
00000100
00000001
,
00001000
00000000
00000100
00000000
00000010
00000100
00000010
00000000
,
00000001
00000100
00001000
00000100
,
00000001
00000000
00000100
00000000
00000010
00000100
00000010
00000000
,
00001000
00001000
00000100
00010000
,
00001000
00001000
01000000
00010000
,
00100000
01000000
10000000
00100000
,
01000000
00010000
00100000
00001000
,
00022000
00000000
00000000
00000000
,
00000000
00000000
00000000
00000000
,
00033000
00000000
00000000
00000000
;

//--------------- dance-double - Fred-104 ----------------
#NOTEDATA:;
#STEPSTYPE:dance-double;
#DESCRIPTION:Fred-104;
#DIFFICULTY:Medium;
#METER:13;
#CREDIT:Fred-104;
#NOTES:
00000000
00000000
00000000
00000000
,
00000000
00000000
00000000
00000000
,
00000001
00000000
00000100
00000000
,
00000010
00000100
00000010
00000000
,
00010000
00000000
00001000
00000000
,
00100000
00010000
10000000
00000000
,
00100000
00000000
01000000
00000000
,
00010000
01000000
10000000
00000000
,
01000000
00000000
00010000
00000000
,
00022000
00000000
00033000
00000000
,
00010000
00001000
00010000
00000100
00001000
00000100
00010000
00000000
,
00001000
00000100
00000010
00000000
00000001
00000100
00000000
00000100
,
00000010
00001000
00000010
00000100
00000010
00001000
00000001
00000000
,
00001000
00000100
00000010
00000000
00000001
00000100
00000000
00000100
,
00010000
00001000
00100000
00001000
00010000
00001000
01000000
00000000
,
00001000
00100000
00010000
00000000
01000000
00100000
00000000
00100000
,
10000000
01000000
00100000
01000000
00010000
00100000
00001000
00010000
,
00001000
00010000
00001000
00010000
00001000
00001000
00010000
00010000
,
00001000
00000000
00000000
00010000
00000000
00000000
00000100
00000000
00001000
00000000
00000000
00000001
00000000
00000000
00000100
00000000
,
00000010
00000000
00000000
00001000
00000000
00000000
00000001
00000000
00000000
00000100
00000000
00000000
00000010
00000000
00000100
00000000
,
00000001
00000000
00000000
00000100
00000000
00000000
00001000
00000000
00000100
00000000
00000000
00000001
00000000
00000000
00000100
00000000
,
00000010
00000000
00000000
00001000
00000000
00000000
00000100
00000000
00000000
00010000
00000000
00000000
00001000
00000000
00010000
00000000
,
00001000
00000000
00100000
00000000
00010000
00100000
10000000
00000000
,
00100000
00000000
00010000
00000000
01000000
01000000
00000000
00100000
,
01000000
00000000
00010000
00000000
00100000
00001000
00010000
00000000
,
00022000
00000000
00000000
00033000
,
00010000
00000000
00000000
00010000
00000000
00000000
00001000
00000000
00000100
00000000
00000000
00000100
00000000
00000000
00000010
00000000
,
00000001
00000000
00000000
00000100
00000000
00000000
00001000
00000000
00000000
00000100
00000000
00000000
00000001
00000000
00000100
00000000
,
00000010
00000000
00000000
00001000
00000000
00000000
00000001
00000000
00000010
00000000
00000000
00000100
00000000
00000000
00010000
00000000
,
00001000
00000000
00000000
00010000
00000000
00000000
00000100
00000000
00000000
00010000
00000000
00000000
00001000
00000000
01000000
00000000
,
00010000
00000000
00000000
00100000
00000000
00000000
00001000
00000000
00100000
00000000
00000000
00010000
00000000
00000000
01000000
00000000
,
00100000
00000000
00000000
10000000
00000000
00000000
00010000
00000000
00000000
01000000
00000000
00000000
10000000
00000000
01000000
00000000
,
00100000
00000000
00000000
00001000
00000000
00000000
00010000
00000000
00001000
00000000
00001000
00000000
00010000
00000000
00010000
00000000
,
00001000
00000000
00000000
00101000
00000000
00000000
00010000
00000000
00000000
00010010
00000000
00000000
00011000
00000000
00000000
00000000
,
00010000
00000000
00000000
00001000
00000000
00000000
00000100
00000000
00000001
00000000
00000000
00001000
00000000
00000000
00000100
00000000
,
00000010
00000000
00000000
00000001
00000000
00000000
00001000
00000000
00000000
00000010
00000000
00000000
00000100
00000000
00000100
00000000
,
00000001
00000000
00000000
00000100
00000000
00000000
00000010
00000000
00001000
00000000
00000000
00000100
00000000
00000000
00010000
00000000
,
00001000
00000000
00000000
00010000
00000000
00000000
01000000
00000000
00000000
00010000
00000000
00000000
00001000
00000000
00010000
00000000
,
00001000
00000000
00000000
00000100
00000000
00000000
00001000
00000000
00010000
00000000
00000000
00100000
00000000
00000000
00010000
00000000
,
00001000
00000000
00000000
00100000
00000000
00000000
00010000
00000000
00000000
01000000
00000000
00000000
00100000
00000000
10000000
00000000
,
00010000
10000000
01000000
00010000
00001000
00000100
00000001
00000000
,
00001001
00000000
00000000
00000000
,
00001000
00000100
00000010
00000001
00001000
00000010
00000100
00000000
,
00000001
00000100
00001000
00000100
00001000
00010000
00001000
00000000
,
00010000
01000000
00010000
01000000
10000000
01000000
00010000
00000000
,
10000000
00100000
01000000
00010000
10000000
01000000
00100000
00000000
,
00001000
00010000
00001000
00100000
00001000
00010000
00000100
00000000
,
00001000
00000100
00000001
00000100
00000001
00000100
00001000
00000000
,
00010000
00001000
00010000
00000100
00010000
00001000
00100000
00000000
,
00010000
00000000
10000000
00000000
00100000
00000000
01000000
00000000
00010000
00000000
10000000
00010000
10000000
00000000
00100000
00000000
,
01000000
00100000
10000000
01000000
00100000
00010000
01000000
00000000
,
00001000
00000000
00000000
00100000
00000000
00000000
00010000
00000000
01000000
00000000
00000000
00010000
00000000
00000000
00100000
00000000
,
00001000
00010000
00000100
00001000
00000100
00000010
00010000
00000000
,
00000100
00000000
00000000
00001000
00000000
00000000
00000010
00000000
00010000
00000000
00000000
00001000
00000000
00000000
00000100
00000000
,
00000010
00001000
00000100
00010000
00001000
00100000
00010000
00000000
,
00100000
00000000
00000000
01000000
00000000
00000000
00100000
00000000
00010000
00000000
00000000
00001000
00000000
00000000
00010000
00000000
,
00000100
00000000
00000000
00001000
00000000
00000000
00000100
00000000
00000010
00000000
00000000
00001000
00000000
00000000
00000100
00000000
,
00010000
00000000
00000000
00001000
00000000
00000000
00100000
00000000
00001000
00000000
00001000
00000000
00010000
00000000
00010000
00000000
,
00001000
00000000
00000000
00101000
00000000
00000000
00100000
00000000
00000000
00110000
00000000
00000000
00010000
00000000
01000000
00000000
,
00100000
00000000
00000000
10100000
00000000
00000000
01000000
00000000
00000000
01010000
00000000
00000000
01000000
00000000
10000000
00000000
,
20100000
30100000
00210000
00310000
,
00021000
00031000
00002010
00003010
,
00000001
00000000
00000000
00000100
00000000
00000000
00000010
00000000
00000000
00001000
00000000
00000000
00000001
00000000
00000010
00000000
,
00000100
00000000
00000000
00000100
00000000
00000000
00001000
00000000
00000100
00000000
00000000
00000100
00000000
00000000
00000001
00000000
,
00001000
00000100
00000010
00001000
00000100
00010000
00001000
00100000
,
00010000
00100000
01000000
00100000
00010000
00010000
10000000
10000000
,
10010000
00000000
00000000
00000000
,
00000000
00000000
00000000
00000000
,
00000000
00000000
00000000
00000000
,
00000000
00000000
00000000
00000000
,
00000000
00000000
00000000
00000000
,
00000000
00000000
00000000
00000000
,
00000000
00000000
00000000
00000000
,
00000000
00000000
00000000
00000000
,
00011000
00000000
00000000
00001000
00000000
00000000
00000100
00000000
00000000
00000010
00000000
00000000
00000001
00000000
00000000
00000000
,
00000100
00000000
00000000
00000010
00000000
00000000
00001000
00000000
00000001
00000000
00000000
00000010
00000000
00000000
00000100
00000000
,
00001100
00000000
00000000
00001000
00000000
00000000
00000100
00000000
00000000
00010000
00000000
00000000
00001000
00000000
00000000
00000000
,
00100000
00000000
00000000
00001000
00000000
00000000
00010000
00000000
00001000
00000000
00000000
01000000
00000000
00000000
00010000
00000000
,
00100000
00000000
00000000
00010000
00000000
00000000
10000000
00000000
01000000
00000000
00000000
01000000
00000000
00000000
10000000
00000000
,
00100000
00000000
00000000
10000000
00000000
00000000
01000000
00000000
00100000
00000000
00000000
00100000
00000000
00000000
00001000
00000000
,
00010000
00000100
00001000
00000000
00000001
00001000
00000100
00000000
,
00000010
00000001
00001000
00000010
00000100
00000010
00001000
00000100
,
00020000
00000000
00000000
00000000
,
00000000
00000000
00030000
00000000
,
00001000
00000000
00000000
00010000
00000000
00000000
01000000
00000000
00000000
10000000
00000000
00000000
01000000
00000000
00010000
00000000
,
00001000
00000000
00000000
00010000
00000000
00000000
00100000
00000000
00010000
00000000
00000000
00001000
00000000
00000000
00000010
00000000
,
00001000
00000000
00000000
00010000
00000000
00000000
00001000
00000000
00000000
00000100
00000000
00000000
00000001
00000000
00000100
00000000
,
00001000
00000000
00000000
00010000
00000000
00000000
00001000
00000000
00010000
00000000
00000000
01000000
00000000
00000000
00010000
00000000
,
00001000
00000000
00000000
00010000
00000000
00000000
00100000
00000000
00000000
00010000
00000000
00000000
00001000
00000000
00010000
00000000
,
00001000
00000000
00000000
00000010
00000000
00000000
00001000
00000000
00010000
00000000
00000000
00001000
00000000
00000000
00010000
00000000
,
00100000
00000000
00000000
10000000
00000000
00000000
00010000
00000000
01000000
00000000
00000000
00100000
00000000
00000000
10000000
00000000
,
01000000
00000000
00000000
00100000
00000000
00000000
00001000
00000000
00000000
00010000
00000000
00000000
00001000
00000000
00001000
00000000
,
00010000
00001000
00010000
00000100
00001000
00000001
00000100
00000000
,
00000001
00000000
00000000
00000101
00000000
00000000
00000010
00000000
00001000
00000000
00000000
00001100
00000000
00000000
00000010
00000000
,
00000001
00001000
00000100
00000010
00001000
00000100
00010000
00000000
,
00001000
00000000
00000000
00010100
00000000
00000000
00001000
00000000
00010000
00000000
00000000
00101000
00000000
00000000
00010000
00000000
,
00001000
00010000
00100000
01000000
00010000
10000000
00010000
00000000
,
10000000
00000000
00000000
11000000
00000000
00000000
00100000
00000000
00001000
00000000
00000000
00011000
00000000
00000000
00010000
00000000
,
00001000
00010000
00000100
00001000
00000100
00000010
00000001
00001000
,
00000010
00000000
00000100
00000010
00000100
00000000
00000001
00000100
00000010
00000100
00000010
00000100
00000010
00000000
00000000
00000000
,
00002002
00000000
00000000
00000000
,
00000000
00000000
00000000
00000000
,
00003003
00000000
00000000
00000000
;

//--------------- dance-double - Fred-104 ----------------
#NOTEDATA:;
#STEPSTYPE:dance-double;
#DESCRIPTION:Fred-104;
#DIFFICULTY:Hard;
#METER:16;
#CREDIT:Fred-104;
#NOTES:
00000000
00000000
00000000
00000000
,
00000000
00000000
00000000
00000000
,
00001000
00000000
00000100
00000000
,
00000010
00000010
00000001
00001000
,
00000100
00000000
00000010
00000000
,
00010000
00001000
00010000
00010000
,
00001000
00000000
00010000
00000000
,
01000000
00100000
10000000
01000000
,
00100000
01000000
00010000
01000000
,
20020000
00000000
30030000
00000000
,
10000000
00100000
01000000
00100000
10000000
00100000
01000000
00000000
,
00010000
00100000
00001000
00010000
00001000
00011000
00000000
00010000
,
00000100
00001000
00000100
00010000
00000100
00001000
00000010
00000000
,
00001000
00000100
00000010
00000100
00001000
00001001
00000000
00000001
,
00000100
00000010
00001000
00000001
00000010
00000100
00000010
00000001
,
00001000
00000100
00010000
00001000
00010000
00011000
00000000
00010000
,
00001000
00100000
00010000
00100000
01000000
10000000
00010000
01000000
,
00010000
01000000
00010000
00000000
10000000
01000000
10000000
00000000
00010000
10000000
00010000
10000000
00010000
10000000
00010000
10000000
,
00020000
00000000
00000000
00230000
00000000
00000000
02300000
00000000
23000000
00000000
00000000
30200000
00000000
00000000
02300000
00000000
,
03020000
00000000
00000000
00230000
00000000
00000000
00302000
00000000
00000000
00023000
00000000
00000000
00030020
00000000
00002030
00000000
,
00003002
00000000
00000000
00000203
00000000
00000000
00000320
00000000
00002030
00000000
00000000
00003200
00000000
00000000
00000320
00000000
,
00000032
00000000
00000000
00000203
00000000
00000000
00002300
00000000
00000000
00023000
00000000
00000000
02030000
00000000
23000000
00000000
,
30010000
00000000
10010000
00000000
01000000
00100000
10000000
00000000
,
01000000
00000000
00100000
00001000
00010000
00010000
00000000
00000100
,
00001000
00000000
00001010
00000000
00001000
00000100
00010000
00000000
,
00022000
00000000
00000000
00033000
,
00001000
00000000
00100000
00010000
00000000
00100000
00010000
00000000
01000000
00000000
00100000
01000000
00000000
00100000
01000000
00000000
,
00100000
00000000
00000000
10000000
00000000
00000000
01000000
00000000
00000000
00100000
00000000
00000000
01000000
00000000
10000000
00000000
,
00010000
00000000
01000000
00100000
00000000
01000000
00100000
00000000
10000000
00000000
01000000
10000000
00000000
01000000
00100000
00000000
,
00001000
00000000
00010000
00001000
00000000
00010000
00000100
00000000
00000000
00001000
00000000
00000000
00000010
00000000
00001000
00000000
,
00000001
00000000
00000100
00000001
00000000
00000100
00000001
00000000
00000100
00000000
00000010
00000100
00000000
00000010
00001000
00000000
,
00000001
00000000
00000000
00000010
00000000
00000000
00000100
00000000
00000000
00010000
00000000
00000000
00001000
00000000
00001000
00000000
,
00100000
00000000
00010000
00100000
00000000
01000000
00100000
00000000
00010000
00000000
10000000
00000000
00010000
01000000
00010000
01000000
,
00100000
00000000
00000000
00110000
00000000
00000000
00001000
00000000
00000000
00011000
00000000
00000000
00000100
00000000
00000000
00000100
,
00000010
00000000
00000001
00000100
00000000
00000001
00000100
00000000
00000010
00000000
00001000
00000100
00000000
00001000
00000100
00000000
,
00000010
00000000
00000001
00000100
00000000
00000010
00000100
00000000
00000000
00000010
00000000
00000000
00001000
00000000
00000100
00000000
,
00010000
00000000
00001000
00100000
00000000
00001000
00010000
00000000
00001000
00000000
00100000
00010000
00000000
00100000
01000000
00000000
,
10000000
00000000
00100000
01000000
00000000
00010000
01000000
00000000
00000000
00001000
00000000
00000000
00010000
00000000
00001000
00000000
,
00100000
00000000
00001000
00010000
00000000
00001000
00100000
00000000
00010000
00000000
01000000
00010000
00000000
00100000
00001000
00000000
,
00010000
00000000
00001000
00010000
00000000
00000100
00001000
00000000
00000000
00000010
00000000
00000000
00001000
00000000
00000100
00000000
,
00010000
00000000
00001000
00000000
00010000
00000000
00001000
00000000
00010000
00001000
00010000
00001000
00010000
00001000
00010000
00001000
,
00010000
00000000
00000000
00000000
,
00010000
00001000
00000100
00000001
00001000
00000100
00000110
00000000
,
00000001
00000100
00000010
00000100
00001000
00000100
00000110
00000000
,
00000001
00000100
00001000
00010000
00001000
00010000
00011000
00000000
,
00001000
00010000
00100000
10000000
00010000
01000000
00100000
00100000
,
10000000
01000000
00100000
00001000
00010000
00000100
00001100
00000000
,
00001000
00000100
00000001
00000100
00001000
00000100
00000110
00000000
,
00000010
00000001
00001000
00000001
00000100
00000010
00001010
00000000
,
00000001
00000000
00001000
00000000
00000100
00000000
00000010
00000000
00010000
00000000
00001000
00010000
00001000
00000000
00010000
00000000
,
00001000
00000000
00000000
00100000
00000000
00000000
00010000
00000000
10000000
00000000
00000000
01000000
00000000
00000000
00100000
00000000
,
00010000
00000000
01000000
00100000
00000000
10000000
00100000
00000000
01000000
00000000
00100000
10000000
00000000
00100000
01000000
00000000
,
00010000
00000000
00000000
00100000
00000000
00000000
00001000
00000000
00000000
00010000
00000000
00000000
00000010
00000000
00001000
00000000
,
00000010
00000000
00000100
00000010
00000000
00001000
00000010
00000000
00000100
00000000
00000010
00001000
00000000
00000001
00000010
00000000
,
00000100
00000000
00000000
00001000
00000000
00000000
00000001
00000000
00000000
00000100
00000000
00000000
00000010
00000000
00001000
00000000
,
00000100
00000000
00010000
00001000
00000000
00010000
00001000
00000000
00100000
00000000
00010000
01000000
00000000
00010000
01000000
00000000
,
00100000
00000000
00000000
10000000
00000000
00000000
00010000
00000000
00000000
01000000
00000000
00000000
00001000
00000000
00100000
00000000
,
00010000
00000000
01000000
00010000
00000000
00100000
00001000
00000000
00010000
00000000
00010000
00000000
00001000
00000000
00001000
00000000
,
00010000
00000000
00000100
00001000
00000000
00000100
00010000
00000000
00000010
00000000
00001000
00000010
00000000
00000100
00000010
00000000
,
00001000
00000000
00000000
00000100
00000000
00000000
00000010
00000000
00000000
00000100
00000000
00000000
00001000
00000000
00000001
00000000
,
00000100
00000000
00000000
00000001
00000000
00000000
00000100
00000000
00000010
00000000
00000000
00001000
00000000
00000000
00000100
00000000
,
00010000
00000000
00000000
00001000
00000000
00000000
00100000
00000000
00000000
00001000
00000000
00000000
00010000
00000000
00010000
00000000
,
00001000
00000000
00100000
00010000
00000000
00100000
00010000
00000000
10000000
00100000
00000000
01000000
00100000
00000000
10000000
00000000
,
01000000
00000000
00100000
01000000
00000000
00100000
00010000
00000000
10000000
00100000
00000000
01000000
00010000
00000000
10000000
00000000
,
01000000
00100000
00001000
00010000
00000100
00010000
00001000
00010000
,
00001000
00010000
00001000
00000000
00100000
00010000
00100000
00000000
00001000
00010000
00001000
00010000
00001000
00010000
00001000
00010000
,
00001000
00000000
00000000
00000000
,
00000000
00000000
00000000
00000000
,
00000000
00000000
00000000
00000000
,
00000000
00000000
00000000
00000000
,
00000000
00000000
00000000
00000000
,
00000000
00000000
00000000
00000000
,
00000000
00000000
00000000
00000000
,
00000000
00000000
00000000
00000000
,
00001001
00000000
00000000
00001000
00000000
00000000
00000100
00000000
00000000
00000010
00000000
00000000
00000001
00000000
00001000
00000000
,
00000010
00000000
00000000
00000100
00000000
00000000
00000010
00000000
00001000
00000000
00000000
00000100
00000000
00000000
00010000
00000000
,
00011000
00000000
00000000
00001000
00000000
00000000
00100000
00000000
00000000
00001000
00000000
00000000
00010000
00000000
00010000
00000000
,
00001000
00000000
00000000
00100000
00000000
00000000
00010000
00000000
01000000
00000000
00000000
00100000
00000000
00000000
10000000
00000000
,
11000000
00000000
00000000
01000000
00000000
00000000
00100000
00000000
00010000
00000000
00000000
00010000
01000000
00000000
00001000
00000000
,
00011000
00000000
00000000
00010000
00000000
00000000
00000100
00000000
00001000
00000000
00000000
00001000
00000010
00000000
00000100
00000000
,
00000010
00001000
00000001
00000100
00000010
00001000
00000100
00010000
,
00000010
00000000
00001000
00000000
00000100
00000000
00010000
00000000
00000100
00000000
00001000
00000100
00001000
00000000
00000001
00000100
,
00000020
00000000
00000000
00000000
,
00000000
00000000
00000000
00000000
00000130
00000110
00001001
00000000
,
00001000
00000000
00000001
00000100
00000000
00000010
00000100
00000000
00000001
00000100
00000000
00000010
00000100
00000000
00000001
00000000
,
00001000
00000000
00000000
00000100
00000000
00000000
00000010
00000000
00001000
00000000
00000000
00000100
00000000
00000000
00010000
00000000
,
00001000
00000000
00100000
00001000
00000000
00010000
00001000
00000000
00100000
00001000
00000000
00010000
00001000
00000000
01000000
00000000
,
00010000
00000000
00000000
00100000
00000000
00000000
00001000
00000000
00010000
00000000
00000000
00001000
00000000
00000000
00100000
00000000
,
00010000
00000000
01000000
00100000
00000000
10000000
00100000
00000000
01000000
00100000
00000000
10000000
00100000
00000000
01000000
00000000
,
00010000
00000000
00000000
10000000
00000000
00000000
01000000
00000000
00010000
00000000
00000000
00001000
00000000
00000000
00000100
00000000
,
00000001
00000000
00001000
00000001
00000000
00000100
00000010
00000000
00001000
00000000
00000001
00000010
00000000
00000100
00001000
00000000
,
00000100
00000000
00010000
00001000
00000000
01000000
00002000
00000000
00000000
00023000
00000000
00000000
00031000
00000000
00010000
00001000
,
00010000
00000000
00001000
00010000
00000000
00000100
00001000
00000000
00000001
00000100
00000000
00000010
00001000
00000000
00000001
00000000
,
00000010
00000000
00000100
00000010
00000100
00000000
00000001
00000000
00001000
00000000
00000010
00001000
00000010
00000000
00010000
00000000
,
00001000
00000000
00100000
00001000
00000000
00010000
00001000
00000000
01000000
00001000
00000000
00010000
00001000
00000000
00100000
00000000
,
00010000
00000000
01000000
00100000
10000000
00000000
01000000
00000000
00100000
00000000
01000000
10000000
00010000
00000000
01000000
00000000
,
00100000
00000000
10000000
01000000
00000000
00100000
00001000
00000000
00010000
00001000
00000000
00100000
00001000
00000000
00010000
00000000
,
00000100
00000000
00010000
00000100
00001000
00000000
00000010
00000000
00000100
00000000
00000001
00001000
00000100
00000000
00000010
00000000
,
00000001
00000100
00000001
00000100
00001000
00000100
00001000
00010000
,
00001000
00000000
00010000
00001000
00010000
00000000
01000000
00010000
01000000
00100000
01000000
00100000
10000000
00010000
10000000
00010000
,
20000000
00000000
00000000
00000000
,
00000000
00000000
00000000
00000000
,
30000000
00000000
00000000
00000000
;

//--------------- dance-double - Fred-104 ----------------
#NOTEDATA:;
#STEPSTYPE:dance-double;
#DESCRIPTION:Fred-104;
#DIFFICULTY:Challenge;
#METER:18;
#CREDIT:Fred-104;
#NOTES:
00000000
00000000
00000000
00000000
,
00000000
00000000
00000000
00000000
,
00001000
00000000
00000001
00000000
,
00000100
00001000
00010000
00000000
,
00001000
00000000
00100000
00000000
,
00010000
01000000
10000000
01000000
,
00010000
00000000
00100000
00000000
,
00001000
00010000
00000010
00000000
,
00000100
00000001
00001000
00000100
,
00000220
00000000
00000330
00000000
,
00000001
00000010
00000100
00001000
00010000
00000100
00001000
00000100
,
00000001
00000100
00001000
00000010
00000100
00000110
00000000
00000010
,
00001000
00010000
00001000
00010000
00000100
00010000
00001000
00010000
,
00100000
00000000
10000000
00000000
00010000
00000000
01000000
00100000
01000000
00000000
01100000
00000000
00000000
00000000
00100000
00000000
,
10000000
01000000
00100000
00001000
00010000
00100000
10000000
00010000
,
01000000
00000000
00100000
00000000
10000000
00000000
01000000
00100000
00001000
00000000
00011000
00000000
00000000
00000000
00010000
00000000
,
00000010
00001000
00000010
00000100
00000010
00001000
00000001
00000010
,
00000001
00000000
00000000
00000100
00000000
00000000
00000001
00000000
00000000
00000100
00000000
00000000
00000010
00000000
00000000
00001000
00000000
00000000
00000001
00000000
00000000
00000010
00000000
00000000
00000100
00000000
00000000
00001000
00000000
00000000
00000100
00000000
00000000
00010000
00000000
00000000
00001000
00000000
00010000
00000000
00001000
00000000
00010000
00000000
00001000
00000000
00010000
00000000
,
00002000
00000000
00000000
00023000
00000000
00000000
00230000
00000000
20300000
00000000
00000000
30020000
00000000
00000000
02030000
00000000
,
23000000
00000000
00000000
32000000
00000000
00000000
03020000
00000000
00000000
00032000
00000000
00000000
00003200
00000000
00000302
00000000
,
00002003
00000000
00000000
00003020
00000000
00000000
00000230
00000000
00000302
00000000
00000000
00000203
00000000
00000000
00000320
00000000
,
00002030
00000000
00000000
00003002
00000000
00000000
00000023
00000000
00000000
00002030
00000000
00000000
00023000
00000000
00032000
00000000
,
00013000
00000000
00001000
00000000
00001000
00000000
00100000
00000000
00001000
00000000
00001000
00000000
00010000
00000010
00010000
00000000
,
00001000
00000000
00100000
00000000
00010000
00000000
10000000
00010000
01000000
00000000
01100000
00000000
00000000
00000000
00100000
00000000
,
10000000
00000000
01000000
00000000
00010000
00000000
00001000
00000000
00000010
00000000
00000001
00000000
00001000
00000001
00001000
00000000
,
00002002
00000000
00000000
00003003
,
00000101
00000000
00000001
00000100
00000000
00000100
00000010
00000000
00001000
00000000
00001000
00000100
00000000
00000100
00010000
00000000
,
00010000
00000000
00010000
01000000
00000000
01000000
10000000
00000000
10000000
01000000
00000000
01000000
00010000
00000000
00010000
10000000
,
00010000
00000000
00010000
10000000
00000000
10000000
00100000
00000000
00100000
00000000
00100000
00001000
00000000
00001000
00000010
00000000
,
00000010
00000000
00000010
00001000
00000000
00001000
00000001
00000000
00000001
00000100
00000000
00000100
00000010
00000000
00000010
00001000
,
00000010
00000000
00000010
00001000
00000000
00001000
00000001
00000000
00000001
00000000
00000001
00000100
00000000
00000100
00001000
00000000
,
00001000
00000000
00001000
00010000
00000000
00010000
01000000
00000000
01000000
10000000
00000000
10000000
00010000
00000000
00010000
01000000
,
00100000
00000000
10000000
00100000
00000000
00100000
00010000
00000000
00001000
00000000
00010000
00000000
00100000
10000000
00010000
01000000
,
00100000
00000000
00000000
11000000
00000000
00000000
01010000
00000000
00000000
00011000
00000000
00000000
00001010
00000000
00000000
00000001
,
00001000
00000000
00000001
00000100
00000000
00000100
00001000
00000000
00000100
00000000
00000010
00000001
00000000
00001000
00000010
00000000
,
00000100
00000000
00000001
00000010
00000000
00000100
00010000
00000000
00001000
00100000
00010000
01000000
00010000
00000000
10000000
01000000
,
00010000
00000000
01000000
10000000
00000000
10000000
00100000
00000000
01000000
00000000
00010000
10000000
00000000
10000000
01000000
00000000
,
00100000
00000000
00001000
00010000
00000000
00010000
00001000
00000000
00100000
00001000
00010000
00001000
00010000
00000000
00001000
00000100
,
00000010
00000000
00000001
00000100
00000000
00000100
00001000
00000000
00000100
00000000
00000010
00000001
00000000
00000001
00001000
00000000
,
00000001
00000000
00000100
00001000
00000000
00001000
00010000
00000000
00001000
00010000
00001000
00100000
00001000
00000000
00100000
00010000
,
00100000
00000000
00001000
00000000
00010000
00000000
00001000
00000000
00100000
00001000
00010000
00001000
00100000
00010000
01000000
00100000
,
10000000
00000000
00000000
00000000
,
00010000
00000000
00000100
00000000
00001000
00000100
00000010
00000000
00000001
00000000
00000100
00000000
00000001
00000100
00000001
00000000
,
00000010
00000000
00000001
00000000
00000100
00000010
00000100
00000000
00001000
00000000
00010000
00000000
00001000
00010000
00001000
00000000
,
00100000
00000000
00010000
00000000
00100000
01000000
00100000
00000000
01000000
00000000
10000000
00000000
01000000
00100000
00010000
00000000
,
01000000
00000000
00100000
00000000
10000000
00010000
01000000
00000000
00010000
00000000
00100000
00000000
00001000
00010000
00000100
00000000
,
00001000
00000000
00000100
00000000
00000001
00000100
00000010
00000000
00001000
00000000
00000001
00000000
00000010
00001000
00000010
00000000
,
00000100
00000000
00001000
00000000
00000001
00000100
00001000
00000000
00010000
00000000
00001000
00000000
00010000
00000010
00001000
00000000
,
00000100
00000000
00010000
00000000
00001000
01000000
00010000
00000000
00100000
00000000
00001000
00000000
00010000
00000100
00010000
00000000
,
00000100
00000000
00010000
00000000
00001000
00100000
00010000
00000000
01000000
00000000
01000000
00100000
01000000
00000000
00100000
00000000
,
10000000
01000000
00100000
00000000
00010000
10000000
00100000
00000000
01000000
00010000
10000000
00000000
01000000
00100000
00010000
00000000
,
00001000
00100000
00001000
00000000
00010000
00000100
00010000
00000000
00000100
00001000
00000100
00000000
00000010
00000001
00001000
00000000
,
00000001
00000100
00001000
00000000
00001000
00000100
00000001
00000000
00001000
00000100
00000010
00000000
00000001
00000010
00000100
00000000
,
00000001
00000100
00001000
00000000
00001000
00010000
00001000
00000000
00010000
00100000
10000000
00000000
10000000
00010000
10000000
00000000
,
00100000
01000000
00100000
00000000
10000000
01000000
00100000
00000000
00001000
00010000
00001000
00000000
00100000
00001000
00010000
00000000
,
00000100
00001000
00000010
00000000
00000100
00000001
00001000
00000000
00000100
00000010
00000001
00000000
00000010
00000100
00001000
00000000
,
00000001
00000100
00000010
00000000
00001000
00000010
00010000
00000000
00001000
00100000
00010000
00000000
01000000
00100000
10000000
00000000
,
00010000
01000000
00010000
01000000
00100000
10000000
01000000
00100000
00010000
00100000
00001000
00010000
00001000
00100000
00001000
00010000
,
00000100
00000000
00001000
00000100
00000000
00000010
00000100
00000000
00001000
00000100
00000000
00000010
00000100
00000000
00000001
00000000
,
00001000
00000000
00000001
00000100
00000000
00000010
00001000
00000000
00000100
00010000
00000000
00010000
00001000
00000000
00100000
00000000
,
00110000
00000000
00010000
01000000
00000000
00100000
10000000
00000000
11000000
00000000
01000000
00100000
00000000
00010000
01000000
00000000
,
01100000
00000000
00100000
10000000
00000000
00100000
01000000
00000000
00100000
10000000
00000000
00100000
01000000
00000000
00010000
00000000
,
00100000
00000000
00001000
00010000
00001000
00100000
00001000
00000000
00010000
00000100
00001000
00000100
00000010
00000000
00000001
00000000
,
00001000
00000000
00000001
00000100
00000001
00000100
00000010
00000000
00001000
00000100
00001000
00000100
00000010
00000000
00000001
00000000
,
00000100
00000000
00000001
00001000
00000010
00000000
00010000
00001000
00100000
00000000
00010000
10000000
01000000
00000000
00100000
00001000
,
00010000
00000000
00000000
00000100
00000000
00000000
00001000
00000000
00000000
00000100
00000000
00000000
00000010
00000000
00000000
00000001
00000000
00000000
00001000
00000000
00000000
00000001
00000000
00000000
00000100
00000000
00000000
00000010
00000000
00000000
00001000
00000000
00000000
00000100
00000000
00000000
00000010
00000000
00000001
00000000
00000010
00000000
00000001
00000000
00000010
00000000
00000001
00000000
,
00000010
00000000
00000000
00000000
,
00000000
00000000
00000000
00000000
,
00000000
00000000
00000000
00000000
,
00000000
00000000
00000000
00000000
,
00000000
00000000
00000000
00000000
,
00000000
00000000
00000000
00000000
,
00000000
00000000
00000000
00000000
,
00000000
00000000
00000000
00000000
,
20010000
00000000
00000000
32000000
00000000
00000000
03020000
00000000
00000000
00032000
00000000
00000000
00023000
00000000
00031000
00000000
,
00021000
00000000
00000000
00032000
00000000
00000000
00003200
00000000
00000302
00000000
00000000
00002003
00000000
00000000
00003100
00000000
,
00000120
00000000
00000000
00000032
00000000
00000000
00002003
00000000
00000000
00003200
00000000
00000000
00000320
00000000
00001030
00000000
,
00021000
00000000
00000000
00032000
00000000
00000000
00203000
00000000
00320000
00000000
00000000
02030000
00000000
00000000
13000000
00000000
,
10010000
00000000
10000000
01000000
00000000
00010000
01000000
00000000
10000000
00000000
00000000
01000000
00100000
00000000
00001000
00000000
,
00011000
00000000
00010000
00000100
00000000
00001000
00000100
00000000
00000010
00000000
00000000
00000010
00000001
00000000
00001000
00000000
,
00001001
00000001
00000101
00000100
00000110
00000010
00001010
00001000
,
00000100
00000000
00000000
00010000
00000000
00000000
00001000
00000000
00000000
00100000
00000000
00000000
00010000
00000000
00000000
01000000
00100000
10000000
00100000
00000000
00000000
10000000
00010000
10000000
,
00020000
00000000
00000000
00000000
,
00000000
00000000
00000000
00000000
00000000
00000000
00000000
00000000
00031000
00000000
00001000
00000000
00010000
00001000
00010000
00002000
,
00013000
00000000
00001000
00000100
00000000
00000100
00000010
00000000
00000001
00000100
00000000
00000100
00000010
00000000
00001000
00000000
,
00000001
00000000
00000100
00000010
00000000
00001000
00000001
00000000
00000010
00000000
00000100
00001000
00000000
00000100
00010000
00000000
,
00001000
00000000
00010000
00100000
00000000
01000000
00100000
00000000
10000000
00100000
00000000
01000000
00100000
00000000
10000000
00000000
,
00100000
00000000
00010000
10000000
00000000
01000000
00100000
00000000
00001000
00000000
00010000
00000100
00000000
00000010
00000100
00000000
,
00001000
00000000
00000010
00000100
00000000
00000010
00001000
00000000
00000100
00010000
00000000
00000100
00001000
00000000
00000010
00000000
,
00000100
00000000
00000001
00000100
00000000
00001000
00000100
00000000
00000010
00000000
00001000
00000001
00000000
00000010
00000100
00000000
,
00001000
00000000
00000100
00000010
00000000
00000010
00000001
00000000
00001000
00000000
00000001
00000100
00000000
00000100
00000010
00000000
,
00001000
00000000
00000000
00000000
00000000
00000000
00000010
00000000
00000000
00001000
00000000
00000000
00000000
00000000
00000000
00001000
00000000
00000000
00000100
00000000
00000000
00000000
00000000
00000000
00010000
00000000
00000000
00001000
00000000
00000000
00000000
00000000
00000000
00001000
00000000
00000000
00100000
00000000
00000000
00000000
00000000
00000000
00010000
00000000
10000000
00000000
00010000
00000000
,
10000000
00000000
01000000
00100000
00010000
10000000
00100000
00000000
01000000
00010000
10000000
01000000
00100000
00000000
01000000
00000000
,
00200000
00000000
00010000
01000000
00300000
00000000
00001000
00010000
00002000
00000000
00010000
00000100
00003000
00000000
00000010
00000100
,
00000001
00000000
00001000
00000100
00000010
00000001
00001000
00000000
00000001
00000100
00000010
00001000
00000001
00000000
00000010
00000000
,
00000200
00000000
00001000
00000001
00000300
00000000
00000010
00010000
00002000
00000000
00010000
00000100
00003000
00000000
00010000
00001000
,
00100000
00000000
00010000
00100000
01000000
10000000
00010000
00000000
10000000
01000000
00010000
01000000
00100000
00000000
00010000
00000000
,
10010000
00000000
10000000
01000000
00000000
01000000
00100000
00000000
00001000
00000000
00010000
00001000
00000000
00010000
00001000
00000000
,
00011000
00010000
00001000
00000100
00000110
00000010
00000001
00001000
,
00000001
00000000
00000000
00000000
00000000
00000000
00000100
00000000
00000001
00000000
00000100
00000000
00000001
00000000
00000000
00000000
00000000
00000000
00001000
00000000
00000100
00000000
00001000
00000000
00000100
00000000
00000000
00000010
00000000
00000000
00000001
00000000
00000000
00001000
00000000
00000000
00000100
00000000
00010000
00000000
00001000
00000000
00010000
00000000
00001000
00000000
00010000
00000000
,
00002000
00000000
00000000
00000000
,
00000000
00000000
00000000
00000000
,
00003000
00000000
00000000
00000000
;
