#TITLE:Xicholauncher;
#ARTIST:隣の庭は青い(庭師+Aoi);
#ARTISTTRANSLIT:Tonari no niwa wa aoi(Niwashi+Aoi);
#BANNER:Xicholauncher.png;
#BACKGROUND:Xicholauncher-bg.png;
#CDTITLE:./CDTitles/SDVX VIVID WAVE.png;
#MUSIC:Xicholauncher.ogg;
#SAMPLESTART:82.909;
#SAMPLELENGTH:15;
#BPMS:0=220,292=110,294=440,302=220;
#TIMESIGNATURES:0=4=4,292=2=4,294=8=4,302=4=4;
#BGSTAGE:28;

//--------------- dance-single - Fred-104 ----------------
#NOTES:
     dance-single:
     Fred-104:
     Beginner:
     7:
     :
0000
0000
0000
0000
,
0000
0000
0000
0000
,
0000
0000
0000
0000
,
0000
0000
0000
0000
,
0000
0000
0000
0000
,
0000
0000
0000
0000
,
1000
0000
0001
0000
,
1000
0000
0001
0000
,
1000
0001
1000
0001
,
2002
0000
0000
3003
,
1000
0000
0000
0000
0001
0000
0000
0010
,
0000
0010
0110
0000
,
1000
0000
0000
0000
0001
0000
0000
0100
,
0000
0100
0110
0000
,
0001
0000
0000
0010
0000
0000
1000
0000
,
0000
0100
0000
0000
0001
0000
1000
0000
,
0001
0000
0001
0000
,
2002
0000
3003
0000
,
1001
0000
0001
0000
,
0010
0000
0100
0100
,
1000
0000
0001
0000
,
0100
0000
0010
0010
,
0100
0000
0001
0000
,
1000
0100
0010
0001
,
1000
0000
0001
0000
,
0100
0010
1000
0001
,
0010
0000
0100
0000
,
0010
0001
1000
0001
,
0100
0000
0001
0000
,
1000
0010
1000
0001
,
1000
1000
0200
0300
,
0001
0001
0200
0300
,
1000
0000
0001
0000
,
2002
0000
3003
0000
,
0001
0000
0010
0000
,
0100
0100
0010
0000
,
0001
0000
1000
0000
,
0001
0001
0100
0000
,
0010
0000
0100
0000
,
0001
0001
1000
0000
,
0100
0000
0010
0000
,
0000
0001
0000
0001
0000
0002
0003
0000
,
1000
0000
0001
0000
,
0100
0010
0100
0000
,
0001
0000
0001
0000
,
1000
0100
1000
0000
,
0001
0000
0100
0000
,
0010
0100
0001
0000
,
1000
0000
0001
0000
,
2000
0000
0000
3000
,
0002
0000
0000
0003
,
2000
0000
0000
3000
,
0002
0000
0000
0003
,
0200
0000
0300
0000
,
0020
0000
0000
0030
,
2000
0000
0000
3000
,
0002
0000
0000
0003
,
2000
0000
3000
0000
,
0001
0000
0010
0000
,
0020
0000
0030
0000
,
1000
0000
0100
0000
,
0200
0000
0300
0000
,
0001
0000
0001
0000
,
1000
0000
1000
0000
,
0001
0001
1000
1000
,
2002
0000
3003
0000
,
1001
0000
0000
0000
,
0000
0000
0000
0000
,
0001
0000
0000
0001
0000
0000
0001
0000
,
0000
0000
0000
0000
,
1000
0000
0000
1000
0000
0000
0001
0000
,
0000
0001
0000
0000
1000
0000
0000
0000
,
2002
0000
0000
0000
,
3003
0000
2000
0000
,
0000
0000
0000
0000
,
3000
0000
0000
0000
0000
0000
0000
0000
0000
0000
0000
0000
0000
0000
0000
0000
0000
0000
0000
0000
0000
0000
0000
0000
0000
0000
0000
0000
0000
0000
0000
0000
2002
3003
0000
0000
0000
0000
0000
0000
0000
0000
0000
0000
0000
0000
0000
0000
0000
0000
0000
0000
0000
0000
0000
0000
0000
0000
0000
0000
0000
0000
0000
0000
,
0000
0000
1000
0000
,
0100
0000
0100
0001
,
0001
0000
0100
0000
,
0010
0000
0100
0000
,
1000
1000
0001
0000
,
0100
0000
1000
0000
,
1000
0000
0100
0000
,
0010
0000
0000
0000
0100
0000
0000
0100
,
0000
0001
1000
0000
,
1000
0000
0000
0000
0100
0000
0000
0100
,
0000
0100
0010
0000
,
0001
0000
1000
0000
,
0001
0000
0100
0100
,
0100
0000
0010
0010
,
0010
0000
1000
1000
,
0001
0001
2002
0000
,
3003
0000
1001
0000
,
1000
0000
0010
0000
,
0100
0100
0001
0000
,
1000
0000
0100
0000
,
0010
0010
0100
0000
,
1000
0000
0001
0100
,
0010
1000
0001
0000
,
1000
0000
0100
0010
,
0001
1000
0010
0000
,
0110
0000
0000
0100
0000
0000
0001
0000
,
0001
0000
1000
0000
,
0110
0000
0000
0010
0000
0000
0001
0000
,
0001
0000
0000
0000
1000
0000
0000
0100
,
0000
0000
0010
0000
0000
0001
0000
0000
,
1000
0000
0001
0000
,
1000
0000
2002
0000
,
3003
0000
0000
0000
2002
3003
0000
0000
;

//--------------- dance-single - Fred-104 ----------------
#NOTES:
     dance-single:
     Fred-104:
     Easy:
     10:
     :
0000
0000
0000
0000
,
0000
0000
0000
0000
,
0000
0000
0000
0000
,
0000
0000
0000
0000
,
0000
0000
0000
0000
,
0000
0000
0000
0000
,
0001
0000
1000
0000
,
0001
1000
0001
1000
,
0001
1000
0001
0000
1000
0001
1000
0000
,
2002
0000
0000
3003
,
1001
0000
0000
0000
0001
0000
0000
0100
,
0000
0010
0100
0100
,
1001
0000
0000
0000
1000
0000
0000
0100
,
0000
0010
0100
0100
,
1000
0001
0000
1000
0010
0000
1000
0001
,
0000
1000
0100
0000
0010
0001
0000
0010
,
0002
0003
2002
3003
,
0100
0010
2002
3003
,
1001
0001
0010
0100
,
1000
0001
0100
0010
,
0110
0100
0001
1000
,
0100
0001
0100
1000
,
1001
0001
0100
0010
,
0100
0001
0010
0100
,
0110
0010
0001
0100
,
0010
1000
0010
0000
0100
0001
0100
0000
,
0010
0010
1000
1000
,
0001
0010
0100
1000
,
1000
0001
0100
0010
,
0100
0100
0001
0001
,
1000
0100
0110
0000
,
0001
0100
0110
0000
,
1000
0000
0001
0000
,
2002
0000
3003
0000
,
1000
0000
0100
0000
0000
0010
0000
0010
,
0000
0001
0000
1000
0000
0000
0001
0000
,
0100
0000
0010
0000
0100
0000
0000
0001
,
0000
1000
0000
0001
0010
0000
0001
0000
,
1000
0000
0000
0001
0000
0100
0000
0001
,
0000
1000
0000
0001
0000
0010
0100
0000
,
1000
0000
0001
0000
1000
0000
0000
1001
,
0000
1001
0000
1001
0000
2002
3003
0000
,
0001
0010
0100
0100
,
1000
0001
0110
0000
,
1000
1000
0001
0100
,
0010
0100
1001
0000
,
0001
0010
0100
1000
,
0001
0100
0110
0000
,
1000
0000
0001
0000
,
2002
0000
0000
3003
,
2000
0000
0100
0000
,
0100
0000
3001
0000
,
0002
0000
0100
0000
,
0100
0000
1003
0000
,
2000
0000
0010
3000
,
0002
0000
0010
0003
,
1000
0000
0000
0000
0001
0000
0000
2002
,
0000
0000
3003
0000
,
1000
0000
0100
0000
,
0100
0010
0001
0000
,
1000
0000
0000
0000
0001
0000
0000
0100
,
0000
0010
0000
0220
0000
0000
0330
0000
,
0001
0000
0010
0000
,
1000
0000
0100
0000
,
0001
0001
1000
1000
,
2002
0000
3003
0000
,
0110
0000
0000
0000
,
0000
0000
0000
0000
,
1001
0000
0000
0001
0000
0000
0010
0010
,
0000
0000
0000
0000
,
0001
0010
0000
0001
0010
0000
0100
1000
,
0000
0100
1000
0000
0001
0000
1000
0000
,
0001
0100
0010
1000
,
0002
0000
0000
0003
2002
0000
0000
0000
,
0000
0000
0000
0000
,
3003
0000
0000
0000
0000
0000
0000
0000
0000
0000
0000
0000
0000
0000
0000
0000
0000
0000
0000
0000
0000
0000
0000
0000
0000
0000
0000
0000
0000
0000
0000
0000
2002
3003
0000
0000
0000
0000
0000
0000
0000
0000
0000
0000
0000
0000
0000
0000
0000
0000
0000
0000
0000
0000
0000
0000
0000
0000
0000
0000
0000
0000
0000
0000
,
0000
0000
1000
0100
,
0010
0010
0001
1000
,
0001
0100
0010
0100
,
0100
0001
1000
0100
,
0002
0003
0100
0100
,
0010
0100
1000
1000
,
0001
0100
0010
0010
,
1000
0000
0100
0000
0010
0000
0000
2002
,
0000
3003
0001
0001
,
0010
0000
0010
0000
1000
0000
0000
0010
,
0000
0001
1000
1000
,
0001
0001
0100
0010
,
0110
0000
0001
0001
,
1000
1000
0010
0010
,
0100
0000
0100
0000
0001
1000
0001
0000
,
0010
0100
0010
0000
0002
0000
0000
0000
,
2000
3003
1001
1000
,
0010
0100
0001
1000
,
0100
0010
0110
0100
,
1000
0001
0100
1000
,
0100
0001
1001
1000
,
0100
0010
0100
1000
,
0010
0100
0110
0010
,
1000
0000
0100
0000
0010
0001
0010
0000
,
0100
1000
0100
0000
0110
0000
0000
0000
,
1001
0000
0000
0001
0000
0000
0100
0000
,
0110
0000
1001
0000
,
1000
0000
0000
0100
0000
0000
0010
0000
,
0011
0000
0000
0000
0001
1000
0000
0010
,
1000
0000
0001
1000
0000
0100
1000
0000
,
0001
0100
0010
0000
,
0100
0000
0220
0000
,
0330
0000
0000
0000
2002
3003
0000
0000
;

//--------------- dance-single - Fred-104 ----------------
#NOTES:
     dance-single:
     Fred-104:
     Medium:
     13:
     :
0000
0000
0000
0000
,
0000
0000
0000
0000
,
0000
0000
0000
0000
,
0000
0000
0000
0000
,
0000
0000
0000
0000
,
0000
0000
0000
0000
,
1000
1000
0001
0001
,
1000
1000
0001
0001
,
1000
0100
1000
0000
0001
0010
0001
0000
,
2000
0002
0000
3003
,
1000
1000
0000
0000
0100
0100
0000
0010
,
0000
0001
0001
0000
1000
0000
0001
0000
,
0100
0100
0000
0000
0010
0010
0000
0100
,
0000
0001
0001
0000
1001
0000
1000
0000
,
1000
0100
0000
1000
0100
0000
0010
0001
,
0000
0010
0001
0000
1000
0001
0000
1000
,
0002
0000
2003
0000
0002
3000
0000
0003
,
1001
0110
2002
3003
,
0100
0000
1001
0000
0001
0010
0001
0000
,
1000
0010
0100
0000
0010
1000
0001
0000
,
0010
0000
1001
0000
1000
0001
0100
0000
,
0010
1000
0001
0000
0010
0100
1000
0000
,
0001
0000
0110
0000
1000
0001
0100
0000
,
0010
1000
0100
0000
0010
0001
0100
0000
,
0010
0000
1001
0000
1000
0100
0010
0001
,
0000
0001
1000
0001
0100
0010
0100
0000
,
0110
0000
1010
0000
1000
0001
0010
0000
,
0100
0010
0001
0000
0100
0001
0010
0000
,
0110
0000
1100
0000
1000
0001
0100
0000
,
0010
1000
0001
0000
0010
0100
0010
0000
,
0001
1000
0001
0100
0020
0000
1030
0000
,
0001
1000
0001
0010
0200
0000
1300
0000
,
0001
0000
0000
0100
0000
0000
0100
0000
0010
0000
0000
1000
0000
0000
1000
0000
,
0002
0000
0000
0003
,
1000
0100
1000
0001
0000
1000
0001
0100
,
0000
0010
0000
0100
0000
0001
1000
0000
,
0100
0010
0100
0010
0000
0001
1000
0010
,
0000
1000
0001
0100
0010
1000
0001
0000
,
1000
0100
0010
0100
0000
0010
0000
0001
,
0000
1000
0010
0100
0010
1000
0001
0000
,
0010
0100
1000
0000
0001
0100
0010
0100
,
0000
0110
0000
0110
0000
0010
2000
0000
,
3001
0010
0100
1000
0100
1000
0001
1000
,
0000
0000
0010
0000
0000
0000
0100
0000
0001
0000
0000
1000
0000
0000
0001
0000
,
0010
0100
0010
0001
1000
0100
1000
0001
,
0000
0100
0000
0010
1000
0001
1000
0000
,
0100
0010
0001
0010
0100
1000
0001
0100
,
0000
0000
0010
0000
0000
0000
1000
0000
0001
0000
0000
1000
0000
0000
0001
0000
,
0010
0000
0000
0010
0000
0000
0010
0000
0100
0000
0000
0100
0000
0000
0100
0000
,
2000
0000
0000
3000
,
1000
0100
1000
0100
0000
0000
0010
0001
,
0000
0001
1000
0001
0100
0001
0100
0000
,
0010
1000
0010
0000
1000
0001
1000
0100
,
0000
0110
0000
0022
0000
0000
0033
0000
,
0001
1000
0001
1000
0001
0000
0000
0100
,
0010
0100
0001
0100
0010
1000
0000
1000
,
0001
0000
0000
0001
0000
0000
0001
0000
0100
0000
0010
0000
1000
0000
2000
0000
,
0000
0000
3000
0000
,
0001
0010
0001
0010
0100
0010
0100
0010
,
0000
0010
0001
1000
0001
1000
0010
0000
,
0010
0100
0010
0100
0010
1000
0001
1000
,
0000
1100
0000
0022
0000
0000
0033
0000
,
0001
1000
0001
1000
0100
0000
0000
0100
,
0010
0100
1000
0100
1000
0001
0000
0001
,
0200
0320
2030
3002
,
0023
0000
0030
0000
,
1001
0000
0000
0000
,
0000
0000
0000
0000
,
1100
0000
0000
1001
0000
0000
0001
0100
,
0000
0000
0000
0000
,
0001
0010
0000
0100
1000
0000
0001
0100
,
0000
0010
1000
0000
0001
1000
0001
0000
,
1000
0100
1000
0100
0010
0001
0010
0000
,
0220
0000
0000
0330
2000
0000
0000
0000
,
0000
0000
0000
0000
,
3000
0000
0000
0000
2002
3003
0000
0000
,
0000
0000
0001
0010
,
0100
0000
0000
0100
0000
0000
0100
0000
0010
0000
0001
0000
1000
0000
0001
0000
,
0000
0100
0000
0000
0010
0000
1000
0000
0001
0000
0000
0010
0000
0000
0100
0000
,
1000
0010
1000
0001
0100
0010
0100
0000
,
0001
1000
0001
0000
1000
0000
0100
0000
,
0010
0000
0000
0010
0000
0000
0010
0000
0100
0000
1000
0000
0010
0000
0100
0000
,
0001
0000
1000
0000
0100
0000
0000
0000
0010
0000
0000
0010
0000
0000
0010
0000
,
0001
1000
0001
0100
0010
0100
0010
0200
,
0000
0300
1001
0000
0110
0000
1001
0000
,
0001
0000
0000
0001
0000
0000
0001
0000
0010
0000
0000
0100
0000
0000
1000
0000
,
0000
0001
0000
0000
0100
0000
0001
0000
1000
0000
0000
0100
0000
0000
0001
0000
,
0100
0000
0000
1000
0000
0000
0001
0000
0100
0000
0010
0000
0100
0000
0000
0000
,
0001
1000
0001
0000
1000
0000
1000
0000
,
0100
0000
0000
0100
0000
0000
0010
0000
0001
0000
0000
0000
0001
0000
0000
0000
,
1000
0001
0100
0000
0010
0100
0010
0100
,
0001
1000
0100
0010
0002
0000
0000
0000
,
2000
3003
0100
1001
,
1000
0010
1000
0000
0001
0010
0100
0000
,
0010
0001
1000
0000
0010
0000
1001
0000
,
0001
1000
0100
0000
0010
0001
1000
0000
,
0010
0100
0001
0000
1000
0000
0110
0000
,
0001
1000
0100
0000
0010
0001
0100
0000
,
0010
1000
0100
0000
0010
0000
1001
0000
,
0001
0100
0010
1000
0001
1000
0001
1000
,
0100
0010
0100
0000
0220
0000
0330
0000
,
1001
0000
0000
1100
0000
0000
0010
0000
,
0011
0000
0000
0000
0001
1000
0001
1000
,
0001
0000
0100
0010
0000
0000
0110
0000
,
2002
0000
3003
0000
1000
0100
0000
0001
,
0100
0000
1000
0010
0000
0001
0010
0000
,
1000
0000
0100
0000
0010
0000
0000
0000
0001
0000
0000
0001
0000
0000
0001
0000
,
1000
0000
0000
1000
0000
0000
1000
0000
0002
0000
0000
0000
0000
0000
0000
0000
,
2000
0000
3003
0000
2002
3003
0000
0000
;

//--------------- dance-single - Fred-104 ----------------
#NOTES:
     dance-single:
     Fred-104:
     Hard:
     16:
     :
0000
0000
0000
0000
,
0000
0000
0000
0000
,
0000
0000
0000
0000
,
0000
0000
0000
0000
,
0000
0000
0000
0000
,
0000
0000
0000
0000
,
0001
0001
1000
1000
,
0001
0001
1000
1000
,
0001
0010
0100
1000
0001
0010
0100
1000
,
0001
0100
0020
0000
0000
0000
0000
0000
,
1030
1000
0000
0000
0001
0001
0000
0110
,
0000
1000
1000
0000
0101
0000
1100
0000
,
0001
0001
0000
0000
0100
0100
0000
1001
,
0000
0000
0010
0000
0010
0000
0000
0000
1001
0000
1000
0000
0001
1000
0001
1000
,
0001
0010
0000
0010
1000
0000
0001
0100
,
0000
0100
1000
0000
0001
0100
0000
0010
,
2000
0000
3002
0000
0020
0003
0000
0030
,
0110
0100
2002
3003
,
0010
0000
1001
0000
1000
0100
0010
0001
,
1000
0001
0100
0010
1000
0001
0010
0100
,
0010
0000
0011
0000
0001
1000
0010
0100
,
0010
1000
0100
0010
0001
0100
0010
1000
,
0001
0000
0110
0000
1000
0001
0010
0100
,
1000
0010
0100
0010
1000
0100
0010
0001
,
0100
0000
0010
0010
1000
0001
0001
0010
,
0100
0000
0010
0100
0010
0000
0100
0000
1000
0000
0100
0000
0110
0000
0000
0000
,
1001
0000
0000
0000
0001
1000
0001
0000
0010
0000
0100
0000
1000
0000
0001
0000
,
0100
0010
0100
0000
0001
0000
1000
0000
0100
0000
0001
0000
0100
0000
1000
0000
,
0001
0000
0000
0000
0010
0100
0010
0000
0100
0000
1000
0000
0010
0000
1000
0000
,
0001
0100
0001
0000
1000
0000
0100
0000
0001
0000
0100
0000
0010
0000
0001
0000
,
1000
0000
1000
0000
0010
0000
0010
0000
0100
0001
0000
0100
0001
0000
0000
0000
,
1000
0100
1000
0000
0100
0000
0100
0000
0010
0001
0000
0010
0001
0000
1000
0001
,
1000
0000
0000
0100
0000
0000
0100
0000
0001
0000
0000
0100
0000
0000
0100
0000
,
2000
0000
0000
3000
,
0001
0100
0010
0100
1000
0100
0001
1000
,
0100
0010
0100
0001
0100
0010
0100
1000
,
0001
0100
0010
0001
0010
0100
0010
1000
,
0001
0010
0100
0010
0110
0000
1001
0000
,
1000
0100
0010
0100
0001
0100
0010
0001
,
1000
0010
0100
1000
0001
0010
0100
0010
,
1000
0001
0010
0100
1000
0001
0100
0110
,
0000
0000
0110
0000
0000
0000
0110
0000
0000
0000
1001
0000
1000
0001
1000
0001
,
1000
0100
0100
0010
0001
1000
1000
1010
,
0000
0000
0101
0000
0000
0000
1100
0000
0100
0000
0000
0100
0000
0000
0100
0000
,
0010
0001
0001
1000
0001
0100
0100
0010
,
1000
0000
0100
0000
0010
0000
0001
0000
1000
0010
1000
0000
0001
0100
0001
0000
,
1000
1000
0001
0100
0010
0010
0100
0101
,
0000
0000
1010
0000
0000
0000
0011
0000
0010
0000
0000
0010
0000
0000
0010
0000
,
0100
0000
0000
1100
0000
0000
1000
0000
0010
0000
0000
0101
0000
0000
0100
0000
,
0020
0000
0000
0030
,
0100
0001
1000
0001
0010
0000
0100
0010
,
0000
0010
0001
1000
0010
0100
0001
1000
,
0001
0010
0100
1000
0001
0100
0010
0100
,
0000
0000
0000
0100
0000
0000
0000
0000
0000
0100
0002
0000
0000
0000
0000
0000
0000
0000
0003
0000
0000
0000
0000
0000
,
1000
0100
0010
0001
1000
0000
0000
1000
,
0001
0000
1000
0000
0010
0000
0100
0000
0010
0000
1000
0000
0000
0000
1000
0001
,
1000
0000
0000
0100
0000
0000
0100
0000
0001
0000
0100
0000
1000
0000
0002
0000
,
0000
0000
0003
0000
,
1000
0001
0010
0100
0010
0100
0010
0001
,
0000
0001
0100
0010
1000
0010
0100
0001
,
1000
0001
0010
0100
0010
0100
1000
0001
,
0000
0000
0110
0000
0000
0000
2002
0000
0000
0000
3003
0000
1000
0001
1000
0001
,
1000
0100
0010
0100
1000
0000
1000
0001
,
0100
0010
0100
0001
1000
0100
0010
0001
,
1000
0010
0100
0010
0100
0001
1000
0100
0010
0100
0010
0001
,
2000
0000
3000
0000
,
1001
0000
0000
0000
,
0000
0000
0000
0000
,
1010
0000
0000
0101
0000
0000
1100
1100
,
0000
0000
0000
0000
,
0001
0001
0010
0100
1000
1000
0001
0100
,
0010
0010
1000
0001
0100
0100
0001
1000
,
0001
0010
0001
0000
1000
0100
1000
0000
0001
0100
0001
0000
1000
0010
1000
0000
,
2002
0000
0000
3003
2000
0000
0000
0000
,
0000
0000
0000
0000
,
3000
0000
0000
0000
0000
0000
0000
0000
0000
0000
0000
0000
0000
0000
0000
0000
0000
0000
0000
0000
0000
0000
0000
0000
0000
0000
0000
0000
0000
0000
0000
0000
0002
0003
0000
0000
0000
0000
0000
0000
1001
0000
0000
0000
0000
0000
0000
0000
0000
0000
0000
0000
0000
0000
0000
0000
0000
0000
0000
0000
0000
0000
0000
0000
,
0000
0000
2000
0000
3001
0100
0010
1000
,
0001
0000
0010
0100
0000
0010
0100
0000
1000
0001
1000
0000
0010
0000
0100
0001
,
0000
0100
0001
0000
1000
0000
0100
0000
0010
0000
0100
1000
0000
0001
1000
0000
,
0010
1000
0001
0000
1000
0000
0010
0000
0100
0000
0001
0000
0100
0000
0001
0000
,
1000
0100
0020
0000
0031
0010
0200
0000
1300
0000
0001
0000
0100
0000
0010
0000
,
0100
0000
0001
1000
0000
0100
0010
0000
0001
0010
0100
0000
1000
0000
0001
1000
,
0010
0000
0100
0000
0001
1000
0100
0000
0010
0000
0100
1000
0000
0001
1000
0000
,
0100
0000
0100
0000
0010
0001
0010
0000
0001
0000
1000
0000
0001
0000
2002
0000
,
0000
0003
3000
0000
0110
0000
1001
0000
,
0001
0000
0010
0100
0000
1000
0001
0000
1000
0010
1000
0010
1000
0000
0001
0100
,
0001
0100
0001
0000
1000
0000
0100
0000
0010
0000
0001
1000
0000
0001
0100
0000
,
0010
1000
0001
0000
1000
0001
0010
0000
0100
0000
1000
0001
1000
0000
0001
0100
,
0010
0100
0110
0000
1000
0000
1000
0000
,
0001
0000
0010
0001
0000
0010
0001
0000
1000
0000
0001
0000
0010
0000
0100
0010
,
0100
0000
1000
0000
0100
1000
0100
0000
1000
0000
0001
0000
0100
0000
0010
0000
,
1000
0001
0010
0000
0100
0010
0001
0000
2000
0000
0000
0000
0000
0000
0000
0000
,
0002
0000
3003
0000
1001
0000
1000
0100
,
0010
0001
0100
0010
1000
0001
0010
1000
,
0010
0001
0100
0010
0100
0000
0001
0001
,
1000
0100
0010
0001
1000
0010
1000
0010
,
0001
0000
0010
0000
0100
0000
0010
0000
0100
0000
0000
0000
0001
0100
0001
0000
,
1000
0100
0010
0001
1000
0010
0100
0010
,
0001
0000
1000
0000
0100
0000
0010
0000
1000
0000
0000
0000
0001
0010
0001
0000
,
1000
0000
0010
0000
0100
0000
0001
0000
1000
0100
1000
0000
0001
0010
0001
0000
,
1000
0010
0100
0001
2002
0000
3003
0000
,
0110
0000
0000
0000
1000
0000
0001
1000
0001
0000
0000
0000
0010
0000
0000
0000
,
0110
0000
0000
0000
0100
1000
0100
1000
0100
0000
1000
0000
0001
0000
1000
0000
,
1010
0000
0001
0101
0000
0000
1001
0000
,
0001
0000
0010
0100
1000
0000
0100
0010
0001
0000
1000
0010
1000
0000
0001
0000
,
1000
0100
1000
0000
0001
1000
0001
0000
0100
0000
0010
0000
0100
0001
0100
0000
,
0001
0000
0000
0001
0000
0000
0001
0000
1000
0000
0000
0100
0000
0000
0100
0000
,
0001
0000
0000
0010
0000
0000
0010
0000
2000
0000
0000
0000
0000
0000
0000
0000
,
0002
0000
3003
0000
2002
3003
0000
0000
;

//--------------- dance-single - Fred-104† ----------------
#NOTES:
     dance-single:
     Fred-104†:
     Challenge:
     18:
     :
0000
0000
0000
0000
,
0000
0000
0000
0000
,
0000
0000
0000
0000
,
0000
0000
0000
0000
,
0000
0000
0000
0000
,
0000
0000
0000
0000
,
1000
0000
0000
0001
0000
0000
1000
0000
0000
0001
0000
0000
1000
0000
0001
0000
,
1000
0000
0000
0001
0000
0000
1000
0000
0000
0001
0000
0000
1000
0000
0001
0000
1000
0000
0001
0000
1000
0000
0001
0000
,
1000
0001
1000
0001
1000
0001
1000
0001
1000
0001
1000
0001
1000
0001
1000
0001
,
1000
0001
1000
0001
2000
0000
0000
0000
0000
0000
0000
0000
3000
0000
0000
0000
,
1001
1001
0000
0000
1100
1100
0000
0101
,
0000
1010
1010
0000
0011
0000
1001
0000
,
0101
0101
0000
0000
1010
1010
0000
0011
,
0000
0000
1100
0000
1100
0000
0000
0000
1001
0000
0001
0000
1000
0001
1000
0001
,
1000
1100
0100
0010
0011
0001
0100
0110
,
0010
0000
1000
0000
1010
0000
1000
0001
0100
0000
0101
0000
0001
1000
0001
0000
,
2002
0000
0000
3003
,
0001
0100
0010
1000
2002
0000
3003
0000
,
0110
0000
0000
0000
1001
0000
0000
0000
1000
0100
1000
0000
0100
0010
0100
0000
,
0010
0001
0010
0000
0001
1000
0001
0000
0100
0001
0100
0000
0010
1000
0010
0000
,
0110
0000
0000
0000
0100
0001
0100
0000
0010
1000
0010
0000
1000
0001
1000
0000
,
0001
0010
0001
0000
0010
0100
0010
0000
0001
1000
0001
1000
0010
0100
0010
0100
,
0002
0000
0000
0000
1003
0000
0100
0010
0100
0000
0010
0001
0010
0000
1000
0001
,
1000
0000
0001
0100
0001
0000
1000
0010
1000
0000
0001
1000
0001
0000
0010
0000
,
0011
0000
0000
0000
0010
0000
0100
1000
0100
0000
1000
0001
1000
0000
0001
0100
,
0001
0000
0100
0010
1000
0000
1000
0000
0001
0000
1000
0000
1001
0000
0000
0000
,
1000
0000
0100
0000
0010
0001
1000
0000
0001
1000
0010
0000
0100
0001
1000
0000
,
0100
0010
0001
0000
1000
0001
0100
0000
0010
1000
0001
0010
0100
1000
0100
0000
,
0010
0000
0001
0000
1000
0010
0100
0000
0010
1000
0001
0000
0010
0100
1000
0000
,
0001
0100
0010
0000
1000
0001
0010
0000
0100
0010
0001
1000
0010
0100
0010
1000
,
0001
0000
0001
0000
0100
0000
0100
0000
1000
0001
0000
0010
2000
0000
0000
0000
,
3001
1000
0001
0000
0010
0000
0010
0000
1000
0001
0000
0100
1000
0000
0001
1000
,
0001
0000
0000
0101
0000
0000
0110
0000
1010
0000
0000
1001
0000
0000
1000
0002
,
2000
0000
0003
3000
,
0001
0010
0100
0000
1000
0000
0001
0000
1000
0010
0100
0000
0001
0000
1000
0000
,
0100
0000
0010
0100
1000
0000
0001
1000
0010
0000
0100
0001
1000
0001
0010
0000
,
0100
1000
0001
0000
1000
0000
0010
0000
0100
0001
1000
0000
0001
0000
0010
0000
,
0100
0000
1000
0001
0100
0000
0010
1000
0001
0000
0010
0100
0010
0000
0001
0000
,
1000
0001
0100
0000
0001
0000
0010
0000
0100
1000
0001
0000
0100
0000
0010
0000
,
0100
0001
0010
0000
0100
1000
0001
0000
1000
0000
0010
0000
0100
0000
0001
0000
,
1000
0100
0010
0000
0001
0000
1000
0000
0001
0100
0010
0000
1000
0000
1100
0000
,
0000
0000
0101
0000
0000
0000
0011
0000
0000
0000
1010
0000
1000
0001
0010
0100
,
1000
0001
1001
1000
0010
0100
0010
0001
,
0011
0000
0010
0000
1000
0000
1001
0000
0001
0000
0000
1000
0000
0000
0001
0000
,
0101
0100
0010
1000
1001
0001
1000
0100
,
0110
0000
0010
0000
0001
0000
1001
0000
1000
0001
0010
0100
1000
0001
1000
0010
,
0100
0001
1001
1000
0100
0010
0011
0001
,
1001
0000
1000
0001
0100
0000
0110
0000
0010
0000
0000
1000
0000
0000
0001
0000
,
1000
0000
0000
1100
0000
0000
0010
0001
1000
0000
0000
1010
0000
0000
0100
0001
,
2000
0000
0000
3000
,
0001
0010
0001
0010
0000
0000
1000
0010
,
0000
0010
0001
1000
0001
0100
0010
1000
,
0001
0010
0100
1000
0100
0010
0001
1000
,
0000
0000
0000
1000
0000
0000
0000
0000
0000
1000
0002
0000
0000
0000
0000
0000
0000
0000
0003
0000
0000
0000
0000
0000
,
1000
0100
0001
0100
1000
0000
0000
1000
,
0001
0000
0100
0000
0010
0000
1000
0000
0001
0000
0010
0000
0000
0000
0010
0100
,
0010
0000
0000
1000
0000
0000
1000
0000
0010
0000
0100
0000
0010
0000
0002
0000
,
0000
0000
0000
0003
2002
0003
0000
3000
,
0001
0000
0100
0000
0010
0000
1000
0000
0001
1000
0001
0000
1000
0000
0100
0000
,
0000
0100
0001
0100
0010
1000
0010
0001
,
0100
0010
0001
1000
0100
0001
0010
0100
,
0000
0000
0110
0000
0000
0000
2002
0000
0000
0000
3003
0000
0001
1000
0001
1000
,
0001
0100
0010
1000
2000
0000
3000
0001
,
1000
0000
0100
0010
0001
0000
1000
0000
0010
0000
0100
0000
0001
0000
1000
0000
,
0001
0010
0100
1000
0100
0010
0001
0100
0010
1000
0010
0100
,
0002
0000
0003
0000
,
1001
0000
0000
0000
,
0000
0000
0000
0000
,
0011
0000
0000
1100
0000
0000
0101
0101
,
0000
0000
0000
0000
,
1000
0100
1000
0000
0001
0000
0010
0100
0010
0000
0001
0000
1000
0010
1000
0000
,
0001
0000
0100
0010
0100
0000
0001
0000
1000
0100
0010
0000
0001
0000
1000
0000
,
0001
0100
0001
0100
0010
1000
0010
1000
0001
0010
0001
0010
0100
1000
0100
1000
,
0002
0000
0000
0000
0000
0000
0000
0000
0000
0000
0000
0000
0000
0000
0000
0000
0000
0000
0000
0000
0000
0000
0000
0000
0000
0000
0000
0000
0000
0000
0000
0000
0000
0000
0000
0000
0000
0000
0000
0000
0000
0000
0000
0000
0000
0000
0000
0000
0000
0000
0000
0000
0000
0000
0000
0000
0000
0000
0000
0000
0000
0000
0000
0000
0000
0000
0000
0000
0000
0000
0000
0000
0003
0000
0000
0000
0000
0000
0000
0000
0000
0000
0000
0000
0000
0000
0000
0000
0000
0000
0000
0000
0000
0000
0000
0000
2000
0000
0000
3000
0000
0000
0000
0000
0000
0000
0000
0000
0000
0000
0000
0000
0000
0000
0000
0000
0000
0000
0000
0000
0000
0000
0000
0000
0000
0000
0000
0000
0100
0000
0000
0000
0000
0000
0000
0000
0000
0000
0000
0000
0000
0000
0000
0000
0000
0000
0000
0000
0000
0000
0000
0000
0000
0000
0000
0000
0000
0000
0000
0000
0010
0000
0000
0000
0000
0000
0000
0000
0000
0000
0000
0000
0000
0000
0000
0000
0000
0000
0000
0000
0000
0000
0000
0000
0000
0000
0000
0000
0000
0000
0000
0000
,
0001
0000
0010
0000
0100
0000
1000
0000
0010
0000
0100
0000
,
0001
0000
0000
0000
0000
0000
0000
0000
0000
0000
0000
0000
0000
0000
0000
0000
0000
0000
0000
0000
0000
0000
0000
0000
0000
0000
0000
0000
0000
0000
0000
0000
0100
0000
0000
0000
0000
0000
0000
0000
0000
0000
0000
0000
0000
0000
0000
0000
0000
0000
0000
0000
0000
0000
0000
0000
0000
0000
0000
0000
0000
0000
0000
0000
0010
0000
0000
0000
0000
0000
0000
0000
0000
0000
0000
0000
0000
0000
0000
0000
0000
0000
0000
0000
0000
0000
0000
0000
0000
0000
0000
0000
0000
0000
0000
0000
2000
0000
0000
3000
0000
0000
0000
0000
0000
0000
0000
0000
0000
0000
0000
0000
0000
0000
0000
0000
0000
0000
0000
0000
1001
0000
0000
0000
0000
0000
0000
0000
0000
0000
0000
0000
0000
0000
0000
0000
0000
0000
0000
0000
0000
0000
0000
0000
0000
0000
0000
0000
0000
0000
0000
0000
0000
0000
0000
0000
0000
0000
0000
0000
0000
0000
0000
0000
0000
0000
0000
0000
0000
0000
0000
0000
0000
0000
0000
0000
0000
0000
0000
0000
0000
0000
0000
0000
0000
0000
0000
0000
0000
0000
0000
0000
,
0000
0000
0000
0000
0000
0000
0000
0000
1000
0000
0001
1000
0010
0000
1000
0001
,
0010
0000
0100
1000
0000
0001
1000
0000
0001
0100
0001
0100
0010
0000
1000
0001
,
0000
0010
0100
0000
0010
0001
1000
0000
0001
0000
0100
0001
0000
1000
0001
0000
,
0010
0100
1000
0000
0001
0000
0100
0000
0010
0000
1000
0001
1000
0000
0100
0000
,
0010
0001
1000
0010
0100
0010
1000
0001
1000
0000
0001
0010
0100
0000
1000
0100
,
0010
0000
0000
0000
0000
0000
0001
0000
0000
1000
0000
0000
0000
0000
0000
0010
0000
0000
1000
0000
0000
0000
0000
0000
0001
0000
0000
0000
0010
0000
0000
0000
0100
0000
0000
0000
1000
0000
0000
0000
0010
0000
0000
0000
0100
0000
0000
0000
,
0001
0000
0000
0000
0100
0000
0000
0000
0010
0000
0000
0000
1000
0000
0000
0000
0100
0000
0000
0000
0010
0000
0000
0000
0001
0000
0000
0000
0000
0000
1000
0000
0000
0010
0000
0000
0000
0000
0000
1000
0000
0000
0001
0000
0000
0000
0000
0000
,
0010
0000
0010
0000
0100
1000
0100
1000
0100
0000
0100
0000
0010
0001
2000
0000
,
0000
0000
3001
0100
0001
1000
0100
0010
0001
0000
0000
0000
0110
0000
0000
0000
,
1001
0000
0001
0100
0000
0010
1000
0000
0001
0010
0100
0010
0001
0000
1000
0010
,
0100
0010
1000
0000
0001
1000
0001
1000
0001
0000
0100
0010
0000
1000
0001
1000
,
0100
0000
0010
0100
0000
1000
0001
1000
0010
0000
0100
0010
0100
0000
0001
1000
,
0100
1000
0001
0010
0001
1000
0010
0100
0010
0000
0000
0000
0110
0000
0000
0000
,
0100
0000
0000
0100
0000
0000
0001
0000
1000
0100
0010
0001
1000
0000
0001
0100
,
0000
0010
1000
0000
0001
0010
0100
1000
0001
0010
0001
0010
0100
1000
0100
1000
,
0001
0100
0001
0100
0010
1000
0010
0100
0002
0000
0000
0000
0000
0000
0000
0000
,
2000
0000
0000
0000
3003
0000
0000
0000
0110
0000
0000
0000
0001
1000
0100
0000
,
1000
0001
0010
0000
0100
1000
0001
0000
0100
0010
1000
0000
0001
0100
0010
0000
,
1000
0001
0010
0000
0100
0010
0001
0000
1001
0000
0000
0000
0001
0100
0010
0000
,
1000
0001
0100
0000
0010
1000
0001
0000
0010
0100
1000
0000
0100
0010
0001
0000
,
1000
0010
0100
0000
0010
1000
0001
0000
1001
0000
0000
0000
1000
0000
0001
0100
,
0010
0000
1000
0100
0010
0000
0001
1000
0001
0000
1000
0010
0100
0000
0001
0010
,
0100
0000
1000
0001
0100
0000
0010
0000
0110
0000
0000
0000
1001
0000
0001
0010
,
0100
0000
1000
0010
0100
0000
0001
1000
0100
0000
0010
0001
1000
0000
0001
1000
,
0010
0000
0010
0000
0100
0000
0100
0000
0010
0000
1000
0000
0001
0000
1000
0001
,
1000
0000
0001
0000
0010
0100
0010
0000
0000
0000
0100
0000
0110
0000
0000
0000
,
0001
0000
1000
0001
1000
0000
0010
0000
0100
0000
0001
1000
0001
0000
0010
0001
,
0010
0000
0100
0000
1000
0001
1000
0000
0000
0000
0001
0000
1000
0000
0000
0000
,
2002
0000
0000
0000
3003
0000
0000
0000
1000
0100
0010
0100
1000
0000
0001
0100
,
0010
0100
0001
0000
1000
0100
0010
0001
1000
0000
0001
0100
0010
1000
0001
0000
,
0010
0000
0000
0010
0000
0000
0010
0000
0001
0000
0000
0100
0000
0000
1100
0000
,
1000
0000
0000
0010
0000
0000
0011
0000
0001
1000
0010
0100
0001
1000
0010
0100
,
0002
0000
0003
0000
1001
0100
0000
0000
;

//--------------- dance-double - Fred-104 ----------------
#NOTES:
     dance-double:
     Fred-104:
     Easy:
     10:
     :
00000000
00000000
00000000
00000000
,
00000000
00000000
00000000
00000000
,
00000000
00000000
00000000
00000000
,
00000000
00000000
00000000
00000000
,
00000000
00000000
00000000
00000000
,
00000000
00000000
00000000
00000000
,
10000000
00000000
00010000
00000000
,
10000000
00010000
10000000
00010000
,
10000000
00010000
10000000
00000000
00010000
10000000
00010000
00000000
,
20020000
00000000
00000000
30030000
,
01100000
00000000
00000000
00000000
10000000
00000000
00000000
01000000
,
00000000
00100000
00001000
00001000
,
00011000
00000000
00000000
00000000
00010000
00000000
00000000
00000100
,
00000000
00000010
00000100
00000000
,
00001000
00000001
00000000
00001000
00000010
00000000
00010000
00000010
,
00000000
00010000
00001000
00000000
01000000
00001000
00000000
00010000
,
00002000
00003000
00022000
00033000
,
00001000
00010000
00022000
00033000
,
00011000
00010000
00001000
00000100
,
00000010
00001000
00000001
00000010
,
00000100
00000100
00010000
00001000
,
00100000
00010000
01000000
00100000
,
01000000
01000000
00010000
10000000
,
01000000
00010000
00001000
00010000
,
00000100
00000010
00000100
00001000
,
00000001
00000100
00000001
00000000
00000100
00000010
00000100
00000000
,
00000001
00000010
00000100
00001000
,
00010000
00100000
01000000
10000000
,
00010000
01000000
00100000
00010000
,
00001000
00000100
00000010
00001000
,
00000001
00000100
00002000
00003000
,
00010000
00100000
20000000
30000000
,
01000000
00000000
00010000
00000000
,
00022000
00000000
00033000
00000000
,
00010000
00000000
00001000
00000000
00000100
00000000
00000000
00000010
,
00000000
00001000
00000000
00000010
00000000
00000100
00000001
00000000
,
00001000
00000000
00000100
00000000
00000010
00000000
00000000
00001000
,
00000000
00010000
00000000
00001000
00100000
00000000
00001000
00000000
,
00010000
00000000
00000000
00001000
00000000
01000000
00000000
00100000
,
00000000
01000000
00000000
00010000
00000000
01000000
00001000
00000000
,
00010000
00000000
00000100
00000000
00000010
00000000
00000000
00001001
,
00000000
00001001
00000000
00001001
00000000
00002002
00003003
00000000
,
00000001
00000100
00001000
00010000
,
00001000
01000000
01100000
00000000
,
00100000
10000000
01000000
00010000
,
00001000
00010000
00011000
00000000
,
00010000
00001000
00000010
00000001
,
00000100
00001000
00010000
00000000
,
00001000
00000000
00010000
00000000
,
00022000
00000000
00000000
00033000
,
00020000
00000000
00032000
00000000
,
00003020
00000000
00000031
00001000
,
00000002
00000000
00000203
00000000
,
00001300
00010000
00002000
00003000
,
00020000
00000000
00032000
00000000
,
02003000
00000000
03010000
10000000
,
01000000
00000000
00100000
00000000
00001000
00000000
00000000
00022000
,
00000000
00000000
00033000
00000000
,
00010000
00000000
00001000
00000000
,
00000100
00000001
00001000
00000000
,
00000010
00000000
00010000
00000000
00001000
00000000
00000000
00100000
,
00000000
00010000
00000000
20020000
00000000
00000000
30030000
00000000
,
10000000
01000000
00010000
00000000
,
00001000
00000010
00000001
00000000
,
00000100
00000100
00001000
00001000
,
00022000
00000000
00033000
00000000
,
00011000
00000000
00000000
00000000
,
00000000
00000000
00000000
00000000
,
01001000
00000000
00000000
01000000
00000000
00000000
00100000
00100000
,
00000000
00000000
00000000
00000000
,
10000000
00000000
00000000
01000000
00000000
00000000
00010000
00000000
,
00000000
00001000
00000000
00000000
00000100
00000000
00000001
00000000
,
00001000
00000100
00000010
00000000
00000001
00000100
00000010
00000000
,
00002000
00000000
00000000
00003000
00000002
00000000
00000000
00000000
,
00000000
00000000
00000000
00000000
,
00000003
00000000
00000000
00000000
00000000
00000000
00000000
00000000
00000000
00000000
00000000
00000000
00000000
00000000
00000000
00000000
00000000
00000000
00000000
00000000
00000000
00000000
00000000
00000000
00000000
00000000
00000000
00000000
00000000
00000000
00000000
00000000
00002002
00003003
00000000
00000000
00000000
00000000
00000000
00000000
00000000
00000000
00000000
00000000
00000000
00000000
00000000
00000000
00000000
00000000
00000000
00000000
00000000
00000000
00000000
00000000
00000000
00000000
00000000
00000000
00000000
00000000
00000000
00000000
,
00000000
00000000
00000001
00000100
,
00000010
00010000
00001000
00100000
,
00001000
00001000
00010000
00000100
,
00000010
00000001
00000100
00001000
,
00011000
00000000
00001000
00010000
,
00100000
10000000
01000000
01000000
,
00100000
00010000
00100000
00001000
,
00010000
00000000
00001000
00000000
01000000
00000000
00000000
20020000
,
00000000
30030000
01100000
10010000
,
10000000
00000000
01000000
00000000
00010000
00000000
00000000
00001000
,
00000000
00010000
00000100
00000010
,
00000100
00001000
00000001
00000100
,
00000110
00000000
00001000
00001000
,
00000001
00000001
00000100
00000100
,
00001000
00000000
00001000
00000000
00010000
00001000
00010000
00000000
,
00001000
00100000
00001000
00000000
00020000
00000000
00000000
00000000
,
00002000
00033000
00011000
00001000
,
00010000
01000000
00100000
00010000
,
10000000
00100000
01000000
01000000
,
00001000
00010000
00000010
00001000
,
00000100
00000010
00000100
00000100
,
00001000
00000001
00000100
00001000
,
00010000
00001000
01000000
00100000
,
01000000
00000000
00010000
00000000
10000000
01000000
00100000
00000000
,
00001000
00010000
00000010
00000000
00000220
00000000
00000330
00000000
,
00001001
00000000
00000000
00000001
00000000
00000000
00000100
00000000
,
00011000
00000000
00011000
00000000
,
00001000
00000000
00000000
01000000
00000000
00000000
00100000
00000000
,
01100000
00000000
00000000
00000000
00010000
10000000
00000000
00100000
,
10000000
00000000
00010000
00100000
00000000
00001000
00010000
00000000
,
00000100
00000010
00000001
00000000
,
00000100
00000000
00002000
00000000
,
00020000
00000000
00033000
00000000
00022000
00033000
00000000
00000000
;

//--------------- dance-double - Fred-104 ----------------
#NOTES:
     dance-double:
     Fred-104:
     Medium:
     13:
     :
00000000
00000000
00000000
00000000
,
00000000
00000000
00000000
00000000
,
00000000
00000000
00000000
00000000
,
00000000
00000000
00000000
00000000
,
00000000
00000000
00000000
00000000
,
00000000
00000000
00000000
00000000
,
00010000
00010000
00001000
00001000
,
00010000
00001000
00010000
00001000
,
00100000
00010000
10000000
00000000
00100000
01000000
00100000
00000000
,
00010000
00001000
00020000
00000000
00000000
00000000
00000000
00000000
,
00031000
00001000
00000000
00000000
00010000
00010000
00000000
00001010
,
00000000
00010000
00010000
00000000
00011000
00000000
00001100
00000000
,
00000100
00000100
00000000
00000000
00000001
00000001
00000000
00001001
,
00000000
00000010
00010000
00000000
00011000
00000000
00010000
00000000
,
00010000
00001000
00000000
00100000
00001000
00000000
00010000
00001000
,
00000000
01000000
00001000
00000000
00010000
00001000
00000000
00001000
,
00010000
00000000
00001000
00000000
00022000
00003000
00000000
00030000
,
00011000
01000000
20020000
30030000
,
00100000
00000000
10010000
00000000
10000000
01000000
00100000
00000000
,
00001000
00010000
00001000
00000000
00010000
00000100
00001000
00000000
,
00000010
00000000
00001001
00000000
00000001
00000100
00000010
00000000
,
00010000
00001000
00100000
00000000
00010000
10000000
00100000
00000000
,
01000000
00000000
01001000
00000000
00001000
00010000
00000100
00000000
,
00001000
00000001
00000010
00000000
00000100
00010000
00001000
00000000
,
00010000
00000000
00011000
00000000
00001000
00000100
00000001
00001000
,
00000000
00001000
00000100
00000010
00001000
00010000
00001000
00000000
,
00011000
00000000
01001000
00000000
01000000
00100000
10000000
00000000
,
00010000
00100000
01000000
00000000
00100000
00001000
00010000
00000000
,
00011000
00000000
00001010
00000000
00000010
00000001
00001000
00000000
,
00000001
00000100
00000010
00000000
00000100
00001000
00010000
00000000
,
00001000
00010000
00100000
00000000
00100000
00010000
00001000
00000000
,
00010000
00001000
00000010
00000000
00000010
00001000
00010000
00000000
,
00001000
00000000
00000000
00010000
00000000
00000000
01000000
00000000
00010000
00000000
00000000
00001000
00000000
00000000
00000100
00000000
,
00002000
00000000
00000000
00003000
,
00010000
00001000
00010000
00001000
00000000
00100000
00010000
10000000
,
00000000
00010000
00100000
00010000
00000000
10000000
00100000
00000000
,
00010000
00001000
00010000
00001000
00000000
00010000
00000100
00001000
,
00000000
00000001
00001000
00000010
00001000
00000010
00010000
00000000
,
00001000
00010000
00001000
00010000
00000000
00100000
00000000
01000000
,
00000000
00100000
10000000
00010000
00100000
01000000
00010000
00000000
,
00001000
00010000
00000100
00000000
00001000
00000001
00000100
00001000
,
00000000
00011000
00000000
00011000
00000000
00010000
00002000
00000000
,
00013000
00001000
00010000
00001000
00010000
00000010
00001000
00000010
,
00000000
00000000
00000100
00000000
00000000
00000000
00000001
00000000
00000010
00000000
00000000
00000010
00000000
00000000
00000010
00000000
,
00000001
00001000
00000001
00000100
00000010
00001000
00000100
00010000
,
00000000
00001000
00000000
00100000
00010000
10000000
00100000
00000000
,
01000000
00010000
10000000
01000000
00100000
00010000
00100000
00001000
,
00000000
00000000
00010000
00000000
00000000
00000000
00001000
00000000
00000100
00000000
00000000
00000100
00000000
00000000
00000100
00000000
,
00000001
00000000
00000000
00000010
00000000
00000000
00001000
00000000
00010000
00000000
00000000
00001000
00000000
00000000
00000100
00000000
,
00002000
00000000
00000000
00003000
,
00010000
00001000
00010000
00001000
00000000
00000000
00001000
01000000
,
00000000
01000000
00010000
01000000
00100000
10000000
00010000
00000000
,
10000000
01000000
00100000
00000000
00001000
00010000
00000100
00001000
,
00000000
00000110
00000000
00002002
00000000
00000000
00003003
00000000
,
00001000
00000100
00001000
00000100
00000010
00000000
00000000
00000010
,
00000001
00001000
00000001
00001000
00000010
00000100
00000000
00000100
,
00001000
00000000
00000000
00001000
00000000
00000000
00001000
00000000
00010000
00000000
00001000
00000000
00100000
00000000
00002000
00000000
,
00000000
00000000
00003000
00000000
,
01000000
00010000
01000000
00000000
00100000
10000000
00100000
10000000
,
00000000
10000000
00010000
10000000
01000000
00100000
00001000
00000000
,
00010000
00000100
00001000
00000100
00000010
00000100
00001000
00000001
,
00000000
00000101
00000000
00002200
00000000
00000000
00003300
00000000
,
00001000
00010000
00001000
00100000
00010000
00000000
00000000
00010000
,
10000000
00100000
01000000
00010000
00100000
01000000
00000000
01000000
,
00200000
00302000
00023000
00030200
,
00000320
00000000
00000030
00000000
,
00001001
00000000
00000000
00000000
,
00000000
00000000
00000000
00000000
,
00011000
00000000
00000000
00001000
00000000
00000000
01000000
01000000
,
00000000
00000000
00000000
00000000
,
00100000
10000000
00000000
00010000
01000000
00000000
00001000
00010000
,
00000000
00000010
00001000
00000000
00000001
00001000
00000100
00000000
,
00000010
00000001
00001000
00000001
00000100
00000010
00000100
00001000
,
00020000
00000000
00000000
00030000
00002000
00000000
00000000
00000000
,
00000000
00000000
00000000
00000000
,
00003000
00000000
00000000
00000000
00022000
00033000
00000000
00000000
,
00000000
00000000
00010000
00001000
,
00000100
00000000
00000000
00000001
00000000
00000000
00000001
00000000
00001000
00000000
00000100
00000000
00000010
00000000
00000001
00000000
,
00000000
00001000
00000000
00000000
00000010
00000000
00000100
00000000
00001000
00000000
00000000
00010000
00000000
00000000
00001000
00000000
,
00100000
00010000
10000000
00000000
00100000
01000000
00100000
00000000
,
00010000
00001000
00010000
00000000
00001000
00000000
00010000
00000000
,
00100000
00000000
00000000
10000000
00000000
00000000
10000000
00000000
01000000
00000000
00010000
00000000
00001000
00000000
00010000
00000000
,
00100000
00000000
00010000
00000000
00001000
00000000
00000000
00000000
00010000
00000000
00000000
00010000
00000000
00000000
00000100
00000000
,
00000010
00000100
00000001
00000100
00001000
00000100
00010000
00002000
,
00000000
00003000
00011000
00101000
,
00001000
00000000
00000000
00001000
00000000
00000000
00010000
00000000
00000010
00000000
00000000
00001000
00000000
00000000
00000001
00000000
,
00000000
00001000
00000000
00000000
00000100
00000000
00000000
00000000
00010000
00000000
00000000
00001000
00000000
00000000
00100000
00000000
,
00010000
00000000
00000000
10000000
00000000
00000000
00100000
00000000
01000000
00000000
00010000
00000000
10000000
00000000
00000000
00000000
,
01000000
00100000
00001000
00000000
00010000
00000000
00010000
00000000
,
00000100
00000100
00000010
00000010
,
00000001
00001000
00000001
00000000
00001000
00000001
00001000
00000010
,
00000100
00001000
00010000
00001000
00020000
00000000
00000000
00000000
,
00002000
00033000
01000000
10010000
,
10000000
00100000
01000000
00000000
00001000
00010000
00001000
00000000
,
00010000
00000010
00001000
00000000
00000100
00000000
00001001
00000000
,
00000001
00000010
00000100
00000000
00010000
00001000
01000000
00000000
,
00010000
10000000
01000000
00000000
00100000
00000000
00101000
00000000
,
00001000
00010000
00000010
00000000
00001000
00000001
00000100
00000000
,
00000010
00010000
00001000
00000000
00010000
00000000
00011000
00000000
,
00001000
00000010
00000001
00001000
00000001
00000100
00001000
00010000
,
00001000
00100000
00010000
00000000
02200000
00000000
03300000
00000000
,
10010000
00000000
00000000
11000000
00000000
00000000
00100000
00000000
,
00011000
00000000
00000000
00000000
00010000
00001000
00010000
00001000
,
00010000
00000000
00000100
00000010
00000000
00000000
00000100
00000000
,
00002002
00000000
00003003
00000000
00000001
00000010
00000000
00000100
,
00010000
00000000
00001000
00100000
00000000
01000000
10000000
00000000
,
00010000
00000000
10000000
00000000
00010000
00000000
00000000
00000000
10000000
00000000
00000000
01000000
00000000
00000000
00010000
00000000
,
00001000
00000000
00000000
00010000
00000000
00000000
00100000
00000000
20000000
00000000
00000000
00000000
00000000
00000000
00000000
00000000
,
00020000
00000000
30030000
00000000
20020000
30030000
00000000
00000000
;

//--------------- dance-double - Fred-104 ----------------
#NOTES:
     dance-double:
     Fred-104:
     Hard:
     16:
     :
00000000
00000000
00000000
00000000
,
00000000
00000000
00000000
00000000
,
00000000
00000000
00000000
00000000
,
00000000
00000000
00000000
00000000
,
00000000
00000000
00000000
00000000
,
00000000
00000000
00000000
00000000
,
00000001
00000001
00000100
00000100
,
00001000
00001000
00010000
00010000
,
00001000
00010000
00001000
00010000
00000010
00001000
00000010
00001000
,
00000001
00000010
00000200
00000000
00000000
00000000
00000000
00000000
,
00001300
00001000
00000000
00000000
00000001
00000001
00000000
00001001
,
00000000
00000001
00000001
00000000
00000101
00000000
00001100
00000000
,
00001000
00001000
00000000
00000000
00010000
00010000
00000000
01001000
,
00000000
00000000
00100000
00000000
00100000
00000000
00000000
00000000
10010000
00000000
00010000
00000000
10000000
00010000
10000000
00000000
,
00010000
00010000
10000000
01000000
01000000
00010000
00001000
00001000
,
00010000
00100000
00100000
00010000
00001000
00001000
00000100
00000001
,
00000002
00000000
00000023
00000000
00000200
00000030
00000000
00000300
,
00000110
00000100
00002002
00003003
,
00000010
00000000
00001001
00000000
00000001
00000100
00000010
00010000
,
00001000
00100000
00010000
10000000
00100000
01000000
00010000
00000000
,
01100000
00000000
10010000
00000000
10000000
01000000
00010000
00001000
,
00010000
00000100
00000010
00000001
00001000
00000010
00010000
00000000
,
00011000
00000000
00001100
00000000
00000100
00000001
00001000
00000100
,
00000010
00000001
00001000
00000010
00000100
00001000
00010000
00000000
,
00011000
00000000
00101000
00000000
00100000
01000000
10000000
00010000
,
01000000
00000000
00100000
10000000
00100000
00000000
10000000
00000000
00010000
00000000
00100000
00000000
00001000
00000000
00000000
00000000
,
00011000
00000000
00000000
00000000
00010000
00000010
00010000
00000000
00001000
00000000
00010000
00000000
00100000
00000000
10000000
00000000
,
00010000
00100000
01000000
00010000
00001000
00010000
00000100
00000000
,
00000110
00000000
00000000
00000000
00000010
00000001
00000010
00000000
00000001
00000000
00001000
00000000
00000001
00000000
00000100
00000000
,
00000010
00001000
00000010
00000000
00010000
00000000
00001000
00000000
00100000
00000000
01000000
00000000
10000000
00000000
00010000
00000000
,
10000000
00000000
10000000
00000000
01000000
00000000
01000000
00000000
00100000
00001000
00000000
00010000
00001000
00000000
00000000
00000000
,
00010000
00000000
00010000
00000000
00000010
00000000
00000010
00000000
00000100
00000001
00000000
00001000
00000001
00000000
00000010
00000100
,
00001000
00000000
00000000
00000001
00000000
00000000
00000100
00000000
00001000
00000000
00000000
00010000
00000000
00000000
00100000
00000000
,
20000000
00000000
00000000
30000000
,
10000000
01000000
10000000
01000000
00010000
01000000
00010000
01000000
,
00010000
00001000
00010000
00001000
00000100
00000001
00001000
00000000
,
00000001
00000010
00000001
00000010
00001000
00010000
00001000
00010000
,
00100000
10000000
00100000
10000000
11000000
00000000
01010000
00000000
,
00010000
00001000
00010000
00001000
00000010
00000001
00000010
00000001
,
00001000
00000001
00001000
00000001
00000100
00001000
00000100
00001000
,
00010000
00100000
00010000
00100000
10000000
00010000
00100000
01100000
,
00000000
00000000
11000000
00000000
00000000
00000000
10010000
00000000
00000000
00000000
00110000
00000000
00100000
00010000
00100000
00010000
,
00100000
00001000
00001000
00010000
00000010
00000100
00000100
00000101
,
00000000
00000000
00001001
00000000
00000000
00000000
00000011
00000000
00000010
00000000
00000000
00000010
00000000
00000000
00000010
00000000
,
00000001
00000001
00000100
00001000
00010000
00001000
00001000
01000000
,
00010000
01000000
00100000
10000000
00010000
00100000
01000000
00010000
,
00001000
00001000
00010000
00000100
00010000
00010000
00001000
01001000
,
00000000
00000000
00010010
00000000
00000000
00000000
00101000
00000000
00001000
00000000
00000000
00001000
00000000
00000000
00001000
00000000
,
00010000
00000000
00000000
00001000
00000000
00000000
00000010
00000000
00000001
00000000
00000000
00000100
00000000
00000000
00001000
00000000
,
00022000
00000000
00000000
00033000
,
00001000
00010000
00001000
00010000
00001000
00000000
01000000
00010000
,
00000000
00010000
10000000
01000000
00010000
00001000
00010000
00000010
,
00001000
00000010
00000100
00000010
00001000
00000001
00000010
00001000
,
00000000
00000000
00000000
00001000
00000000
00000000
00000000
00000000
00000000
00001000
00020000
00000000
00000000
00000000
00000000
00000000
00000000
00000000
00030000
00000000
00000000
00000000
00000000
00000000
,
00001000
01000000
00001000
01000000
00001000
00000000
00000000
00001000
,
00010000
00000000
00001000
00000000
00100000
00000000
01000000
00000000
10000000
00000000
00010000
00000000
00000000
00000000
00010000
10000000
,
00010000
00000000
00000000
10000000
00000000
00000000
10000000
00000000
00100000
00000000
00010000
00000000
00001000
00000000
00000020
00000000
,
00000000
00000000
00000030
00000000
,
00000001
00000100
00000001
00000100
00001000
00010000
00001000
00010000
,
00000000
00010000
01000000
00010000
01000000
10000000
00010000
10000000
,
00010000
10000000
00100000
10000000
00100000
00010000
00001000
00010000
,
00000000
00000000
00011000
00000000
00000000
00000000
00002020
00000000
00000000
00000000
00003030
00000000
00000010
00000001
00000010
00000001
,
00000010
00000001
00001000
00000001
00001000
00000000
00000001
00000100
,
00001000
00010000
00001000
00010000
01000000
10000000
00010000
10000000
,
00010000
01000000
00100000
10000000
00000000
00000000
00010000
00100000
01000000
00010000
00000000
00000000
,
00022000
00000000
00033000
00000000
,
00011000
00000000
00000000
00000000
,
00000000
00000000
00000000
00000000
,
00010010
00000000
00000000
00000101
00000000
00000000
00001100
00001100
,
00000000
00000000
00000000
00000000
,
00000001
00000010
00000100
00001000
00000100
00010000
00001000
00010000
,
00001000
00100000
00010000
00100000
01000000
10000000
00010000
10000000
,
00100000
10000000
00100000
00000000
01000000
00010000
01000000
00000000
00001000
00010000
00001000
00000000
00010000
00000100
00010000
00000000
,
00022000
00000000
00000000
00033000
00020000
00000000
00000000
00000000
,
00000000
00000000
00000000
00000000
,
00030000
00000000
00000000
00000000
00000000
00000000
00000000
00000000
00000000
00000000
00000000
00000000
00000000
00000000
00000000
00000000
00000000
00000000
00000000
00000000
00000000
00000000
00000000
00000000
00000000
00000000
00000000
00000000
00000000
00000000
00000000
00000000
00002000
00003000
00000000
00000000
00000000
00000000
00000000
00000000
00011000
00000000
00000000
00000000
00000000
00000000
00000000
00000000
00000000
00000000
00000000
00000000
00000000
00000000
00000000
00000000
00000000
00000000
00000000
00000000
00000000
00000000
00000000
00000000
,
00000000
00000000
00000000
00000000
00001000
00010000
00100000
10000000
,
00010000
00000000
00100000
01000000
00000000
00100000
01000000
00000000
10000000
00010000
10000000
00000000
00100000
00000000
01000000
00010000
,
00000000
01000000
00001000
00000000
00010000
00000000
00001000
00000000
00010000
00000000
00000010
00000100
00000000
00000010
00001000
00000000
,
00000001
00000010
00000001
00000000
00001000
00000000
00000010
00000000
00010000
00000000
00001000
00000000
00100000
00000000
00010000
00000000
,
10000000
00100000
02000000
00000000
03010000
01000000
00200000
00000000
10300000
00000000
00010000
00000000
00100000
00000000
01000000
00000000
,
00010000
00000000
00001000
00010000
00000000
00001000
00010000
00000000
00000010
00001000
00000010
00000000
00001000
00000000
00000001
00000010
,
00000100
00000000
00001000
00000000
00000100
00010000
00001000
00000000
00010000
00000000
00100000
01000000
00000000
00100000
10000000
00000000
,
00010000
00000000
00010000
00000000
01000000
00010000
01000000
00000000
00001000
00000000
00010000
00000000
00001000
00000000
00022000
00000000
,
00000000
00003000
00030000
00000000
00000110
00000000
00001001
00000000
,
00001000
00000000
00000100
00000010
00000000
00000001
00001000
00000000
00000010
00010000
00000010
00010000
00000010
00000000
00010000
00001000
,
00010000
00001000
00010000
00000000
00001000
00000000
01000000
00000000
00010000
00000000
10000000
01000000
00000000
00100000
00010000
00000000
,
00100000
00001000
00010000
00000000
00000100
00001000
00000001
00000000
00001000
00000000
00000010
00010000
00000010
00000000
00010000
00001000
,
00010000
00000100
00000110
00000000
00000010
00000000
00000010
00000000
,
00000001
00000000
00001000
00000001
00000000
00001000
00000001
00000000
00000100
00000000
00000010
00000000
00000100
00000000
00001000
00010000
,
00001000
00000000
00100000
00000000
00010000
10000000
00010000
00000000
01000000
00000000
00100000
00000000
10000000
00000000
00010000
00000000
,
00100000
00001000
00010000
00000000
00000100
00001000
00000010
00000000
00020000
00000000
00000000
00000000
00000000
00000000
00000000
00000000
,
00002000
00000000
00033000
00000000
00011000
00000000
00010000
00001000
,
00000100
00000001
00001000
00000010
00000001
00001000
00000100
00000001
,
00000010
00000100
00010000
00000000
00011000
00000000
00001000
00010000
,
00100000
10000000
00010000
00100000
10000000
00010000
01000000
10000000
,
00100000
00000000
00010000
00000000
00001000
00000000
00000000
00000000
00011000
00000000
00000000
00000000
00010000
00001000
00010000
00000000
,
00001000
00000100
00000010
00000001
00001000
00000100
00000010
00001000
,
00000001
00000000
00000010
00000000
00001000
00000000
00000000
00000000
00011000
00000000
00000000
00000000
00010000
00001000
00010000
00000000
,
01000000
00100000
00010000
10000000
00100000
01000000
00100000
00010000
,
00001000
00001000
00010000
00010000
00022000
00000000
00033000
00000000
,
00010010
00000000
00000000
00000000
00001000
00000000
00000001
00000100
00000001
00000000
00000000
00000000
00001000
00000000
00000000
00000000
,
00010100
00000000
00000000
00000000
00010000
00001000
00010000
00000000
00001000
00000000
00100000
00000000
01000000
00000000
00100000
00000000
,
00110000
00000000
10000000
10100000
00000000
00000000
01001000
00000000
,
00002000
00000000
00013000
00000100
00002000
00000000
00003100
00010000
00001000
00000000
00010000
00000000
00100000
00000000
10000000
00000000
,
00010000
00100000
01000000
00000000
10000000
00010000
01000000
00000000
00100000
00000000
00010000
00000000
00001000
00010000
00001000
00000000
,
00010000
00000000
00000000
00010000
00000000
00000000
00010000
00000000
00001000
00000000
00000000
00000010
00000000
00000000
00000001
00000000
,
00000100
00000000
00000000
00001000
00000000
00000000
00010000
00000000
00002000
00000000
00000000
00000000
00000000
00000000
00000000
00000000
,
00020000
00000000
00033000
00000000
00022000
00033000
00000000
00000000
;

//--------------- dance-double - Fred-104† ----------------
#NOTES:
     dance-double:
     Fred-104†:
     Challenge:
     18:
     :
00000000
00000000
00000000
00000000
,
00000000
00000000
00000000
00000000
,
00000000
00000000
00000000
00000000
,
00000000
00000000
00000000
00000000
,
00000000
00000000
00000000
00000000
,
00000000
00000000
00000000
00000000
,
00010000
00000000
00000000
00001000
00000000
00000000
00010000
00000000
00000000
00001000
00000000
00000000
00010000
00000000
00001000
00000000
,
00010000
00000000
00000000
00001000
00000000
00000000
00010000
00000000
00000000
00001000
00000000
00000000
00010000
00000000
00001000
00000000
00010000
00000000
00001000
00000000
00010000
00000000
00001000
00000000
,
00010000
00001000
00010000
00001000
00010000
00001000
00010000
00001000
00010000
00001000
00010000
00001000
00010000
00001000
00010000
00001000
,
00010000
00001000
00010000
00001000
00020000
00000000
00000000
00000000
00000000
00000000
00000000
00000000
00030000
00000000
00000000
00000000
,
00011000
00011000
00000000
00000000
00001000
01001000
00000000
00010100
,
00000000
00000011
00000011
00000000
00001001
00000000
00000110
00000000
,
00011000
00011000
00000000
00000000
01000000
01100000
00000000
10010000
,
00000000
00000000
11000000
00000000
00110000
00000000
00000000
00000000
00101000
00000000
00001000
00000000
00010000
00001000
00010000
00001000
,
00010000
00011000
00001000
00000100
00000101
00000001
00000010
00000110
,
00000100
00000000
00010000
00000000
00011000
00000000
00001000
00100000
00010000
00000000
10010000
00000000
10000000
00100000
01000000
00000000
,
02020000
00000000
00000000
03030000
,
10000000
01000000
00010000
00001000
00022000
00000000
00033000
00000000
,
00011000
00000000
00000000
00000000
00010100
00000000
00000000
00000000
00000100
00001000
00000100
00000000
00000010
00000001
00000010
00000000
,
00000001
00001000
00000001
00000000
00001000
00000010
00001000
00000000
00000010
00010000
00000010
00000000
00010000
00001000
00010000
00000000
,
00011000
00000000
00000000
00000000
00001000
01000000
00001000
00000000
01000000
00010000
01000000
00000000
00100000
10000000
00100000
00000000
,
10000000
00010000
10000000
00000000
01000000
00100000
01000000
00000000
00100000
00001000
00100000
00001000
00010000
00001000
00010000
00000000
,
00012000
00000000
00000000
00000000
00013000
00000000
00000100
00010000
00000100
00000000
00000010
00000001
00000010
00000000
00000100
00001000
,
00000100
00000000
00010000
00001000
00010000
00000000
00001000
01000000
00001000
00000000
01000000
00100000
01000000
00000000
00010000
00000000
,
10010000
00000000
00000000
00000000
00010000
00000000
10000000
01000000
10000000
00000000
00010000
00100000
00010000
00000000
00100000
00001000
,
00100000
00000000
00001000
00010000
00000010
00000000
00000010
00000000
00000100
00000000
00000010
00000000
00001001
00000000
00000000
00000000
,
00001000
00000000
00000100
00000000
00000010
00000001
00000010
00000000
00000100
00010000
00001000
00000000
00100000
00010000
10000000
00000000
,
00100000
01000000
00010000
00000000
10000000
01000000
00100000
00000000
00001000
00010000
00001000
01000000
00010000
01000000
00100000
00000000
,
10000000
00000000
00010000
00000000
10000000
00010000
10000000
00000000
00010000
01000000
00001000
00000000
00010000
00000010
00001000
00000000
,
00000001
00000010
00000100
00000000
00001000
00000100
00010000
00000000
00001000
00100000
00010000
00100000
00001000
00010000
00001000
00010000
,
00001000
00000000
00001000
00000000
00010000
00000000
00010000
00000000
00100000
10000000
00000000
01000000
00020000
00000000
00000000
00000000
,
00031000
00010000
00001000
00000000
00010000
00000000
00010000
00000000
01000000
10000000
00000000
00100000
00010000
00000000
00001000
00010000
,
00001000
00000000
00000000
00001100
00000000
00000000
00000101
00000000
00000011
00000000
00000000
00000110
00000000
00000000
00001000
00000002
,
00002000
00000000
00000003
00003000
,
00000001
00000100
00001000
01000000
00010000
10000000
01000000
00100000
,
10000000
00000000
00010000
00000000
01000000
00000000
10000000
00000000
00010000
00000000
01000000
00100000
10000000
00000000
00010000
00000000
,
00100000
00001000
00010000
00000100
00000010
00000001
00000100
00001000
,
00010000
00000000
00001000
00000000
00000010
00000000
00000001
00000000
00000100
00000000
00000010
00001000
00000010
00000000
00001000
00000000
,
00010000
01000000
00100000
00010000
10000000
01000000
00010000
10000000
,
01000000
00000000
00100000
00010000
01000000
00000000
00100000
10000000
00010000
00000000
00100000
00000000
01000000
00000000
00010000
00000000
,
00001000
00000010
00000001
00001000
00000010
00000100
00001000
00011000
,
00000000
00000000
00110000
00000000
00000000
00000000
10100000
00000000
00000000
00000000
11000000
00000000
01000000
00100000
01000000
00100000
,
00001000
00010000
00011000
00001000
00000100
00000001
00000011
00000010
,
00000110
00000000
00000100
00000000
00010000
00000000
00011000
00000000
00001000
00000000
00000000
00010000
00000000
00000000
00100000
00000000
,
10100000
10000000
01000000
00100000
00101000
00001000
00010000
00001000
,
00001010
00000000
00000010
00000000
00000001
00000000
00001001
00000000
00001000
00000100
00001000
00000100
00010000
00001000
00010000
00000000
,
00001000
00010000
00110000
00100000
10000000
00010000
01000000
00001000
,
00010000
00000000
00001000
00010000
00001000
00000000
00011000
00000000
00001000
00000000
00000000
00010000
00000000
00000000
00001000
00000000
,
00010000
00000000
00000000
00001000
00000000
00000000
00000010
00000001
00001000
00000000
00000000
00000001
00000000
00000000
00000100
00001000
,
00020000
00000000
00000000
00030000
,
00010000
00001000
00010000
00001000
00000000
00000000
00001000
00000010
,
00000000
00000010
00000001
00001000
00000001
00000100
00001000
00010000
,
00001000
00100000
00010000
10000000
00100000
00010000
00000010
00001000
,
00000000
00000000
00000000
00000001
00000000
00000000
00000000
00000000
00000000
00001000
00000002
00000000
00000000
00000000
00000000
00000000
00000000
00000000
00000003
00000000
00000000
00000000
00000000
00000000
,
00001000
00000100
00000001
00000100
00010000
00000000
00000000
00010000
,
00001000
00000000
00100000
00000000
10000000
00000000
00100000
00000000
00010000
00000000
01000000
00000000
00000000
00000000
01000000
00100000
,
01000000
00000000
00000000
00001000
00000000
00000000
00001000
00000000
00100000
00000000
01000000
00000000
00100000
00000000
00020000
00000000
,
00000000
00000000
00000000
00030000
20020000
00030000
00000000
30000000
,
00010000
00000000
00100000
00000000
01000000
00000000
00010000
00000000
00001000
00010000
00001000
00000000
00010000
00000000
00000010
00000000
,
00000000
00000010
00001000
00000100
00010000
00000100
00001000
00000010
,
00000100
00001000
01000000
00010000
00100000
01000000
00010000
00001000
,
00000000
00000000
00011000
00000000
00000000
00000000
00022000
00000000
00000000
00000000
00033000
00000000
00010000
00001000
00010000
00001000
,
00010000
00001000
01000000
00100000
00200000
00000000
00300000
01000000
,
00010000
00000000
00100000
01000000
00100000
00000000
00001000
00000000
00010000
00000000
00000100
00000000
00000010
00000000
00000100
00000000
,
00001000
00000100
00000010
00000100
00010000
00001000
00100000
01000000
00100000
00010000
01000000
00100000
,
02000000
00000000
03000000
00000000
,
10010000
00000000
00000000
00000000
,
00000000
00000000
00000000
00000000
,
00011000
00000000
00000000
00001100
00000000
00000000
00000100
00000101
,
00000000
00000000
00000000
00000000
,
00010000
00001000
00010000
00000000
00000100
00000000
00001000
00000001
00001000
00000000
00000010
00000000
00010000
00001000
00010000
00000000
,
00001000
00000000
00100000
01000000
00100000
00000000
00010000
00000000
10000000
00100000
10000000
00000000
00010000
01000000
00010000
00000000
,
10000000
01000000
00100000
00010000
00100000
00001000
00010000
00000000
00001000
00010000
00000100
00001000
00000100
00000010
00000001
00000000
,
00002002
00000000
00000000
00000000
00000000
00000000
00000000
00000000
00000000
00000000
00000000
00000000
00000000
00000000
00000000
00000000
00000000
00000000
00000000
00000000
00000000
00000000
00000000
00000000
00000000
00000000
00000000
00000000
00000000
00000000
00000000
00000000
00000000
00000000
00000000
00000000
00000000
00000000
00000000
00000000
00000000
00000000
00000000
00000000
00000000
00000000
00000000
00000000
00000000
00000000
00000000
00000000
00000000
00000000
00000000
00000000
00000000
00000000
00000000
00000000
00000000
00000000
00000000
00000000
00000000
00000000
00000000
00000000
00000000
00000000
00000000
00000000
00003003
00000000
00000000
00000000
00000000
00000000
00000000
00000000
00000000
00000000
00000000
00000000
00000000
00000000
00000000
00000000
00000000
00000000
00000000
00000000
00000000
00000000
00000000
00000000
00000002
00000000
00000000
00000003
00000000
00000000
00000000
00000000
00000000
00000000
00000000
00000000
00000000
00000000
00000000
00000000
00000000
00000000
00000000
00000000
00000000
00000000
00000000
00000000
00000000
00000000
00000000
00000000
00000000
00000000
00000000
00000000
00000100
00000000
00000000
00000000
00000000
00000000
00000000
00000000
00000000
00000000
00000000
00000000
00000000
00000000
00000000
00000000
00000000
00000000
00000000
00000000
00000000
00000000
00000000
00000000
00000000
00000000
00000000
00000000
00000000
00000000
00000000
00000000
00000010
00000000
00000000
00000000
00000000
00000000
00000000
00000000
00000000
00000000
00000000
00000000
00000000
00000000
00000000
00000000
00000000
00000000
00000000
00000000
00000000
00000000
00000000
00000000
00000000
00000000
00000000
00000000
00000000
00000000
00000000
00000000
,
00001000
00000000
00000010
00000000
00010000
00000000
00001000
00000000
01000000
00000000
00010000
00000000
,
01000000
00000000
00000000
00000000
00000000
00000000
00000000
00000000
00000000
00000000
00000000
00000000
00000000
00000000
00000000
00000000
00000000
00000000
00000000
00000000
00000000
00000000
00000000
00000000
00000000
00000000
00000000
00000000
00000000
00000000
00000000
00000000
00100000
00000000
00000000
00000000
00000000
00000000
00000000
00000000
00000000
00000000
00000000
00000000
00000000
00000000
00000000
00000000
00000000
00000000
00000000
00000000
00000000
00000000
00000000
00000000
00000000
00000000
00000000
00000000
00000000
00000000
00000000
00000000
10000000
00000000
00000000
00000000
00000000
00000000
00000000
00000000
00000000
00000000
00000000
00000000
00000000
00000000
00000000
00000000
00000000
00000000
00000000
00000000
00000000
00000000
00000000
00000000
00000000
00000000
00000000
00000000
00000000
00000000
00000000
00000000
00020000
00000000
00000000
00030000
00000000
00000000
00000000
00000000
00000000
00000000
00000000
00000000
00000000
00000000
00000000
00000000
00000000
00000000
00000000
00000000
00000000
00000000
00000000
00000000
10010000
00000000
00000000
00000000
00000000
00000000
00000000
00000000
00000000
00000000
00000000
00000000
00000000
00000000
00000000
00000000
00000000
00000000
00000000
00000000
00000000
00000000
00000000
00000000
00000000
00000000
00000000
00000000
00000000
00000000
00000000
00000000
00000000
00000000
00000000
00000000
00000000
00000000
00000000
00000000
00000000
00000000
00000000
00000000
00000000
00000000
00000000
00000000
00000000
00000000
00000000
00000000
00000000
00000000
00000000
00000000
00000000
00000000
00000000
00000000
00000000
00000000
00000000
00000000
00000000
00000000
00000000
00000000
00000000
00000000
00000000
00000000
,
00000000
00000000
00000000
00000000
00000000
00000000
00000000
00000000
10000000
00000000
01000000
00100000
01000000
00000000
10000000
00010000
,
10000000
00000000
00010000
01000000
00000000
00001000
00010000
00000000
00001000
00010000
00000010
00001000
00000010
00000000
00000100
00000001
,
00000000
00001000
00000100
00000000
00000010
00000001
00000010
00000000
00000100
00000000
00010000
00001000
00000000
00010000
00001000
00000000
,
00010000
00000010
00010000
00000000
00001000
00000000
00010000
00000000
01000000
00000000
00100000
00010000
10000000
00000000
00010000
00000000
,
10000000
01000000
00100000
00010000
00100000
00001000
00010000
00000000
00001000
00000000
00010000
00001000
00010000
00000000
00000100
00001000
,
00000100
00000000
00000000
00000000
00000000
00000000
00001000
00000000
00000000
00000001
00000000
00000000
00000000
00000000
00000000
00000100
00000000
00000000
00000001
00000000
00000000
00000000
00000000
00000000
00001000
00000000
00000000
00000000
00000100
00000000
00000000
00000000
00000010
00000000
00000000
00000000
00000100
00000000
00000000
00000000
00010000
00000000
00000000
00000000
00001000
00000000
00000000
00000000
,
01000000
00000000
00000000
00000000
00100000
00000000
00000000
00000000
01000000
00000000
00000000
00000000
00010000
00000000
00000000
00000000
01000000
00000000
00000000
00000000
00001000
00000000
00000000
00000000
00010000
00000000
00000000
00000000
00000000
00000000
00001000
00000000
00000000
00100000
00000000
00000000
00000000
00000000
00000000
00010000
00000000
00000000
10000000
00000000
00000000
00000000
00000000
00000000
,
00010000
00000000
00010000
00000000
10000000
01000000
10000000
01000000
00100000
00000000
00100000
00000000
00001000
00010000
00002000
00000000
,
00000000
00000000
00013000
00000010
00001000
00000001
00000010
00000100
00000010
00000000
00000000
00000000
00001001
00000000
00000000
00000000
,
00001000
00000000
00000001
00000010
00000000
00000100
00010000
00000000
00001000
00010000
00000010
00010000
00001000
00000000
00010000
00001000
,
00100000
00001000
00010000
00000000
00001000
00010000
00001000
00000000
01000000
00000000
00100000
10000000
00000000
00010000
10000000
00000000
,
01000000
00000000
00100000
00001000
00000000
00010000
00001000
00000000
00000100
00000000
00000010
00001000
00000001
00000000
00001000
00000001
,
00001000
00000100
00000010
00000100
00001000
00000100
00010000
00000000
00011000
00000000
00000000
00000000
00010000
00000000
00100000
00000000
,
10000000
00000000
00000000
10000000
00000000
00000000
10000000
00000000
00100000
01000000
00010000
00000000
01000000
00000000
00001000
00010000
,
00000000
00001000
00000010
00000000
00000001
00000000
00001000
00000000
00000001
00000010
00000100
00001000
00000100
00010000
00001000
00000000
,
00010000
00001000
00100000
00010000
00100000
01000000
10000000
00000000
00020000
00000000
00000000
00000000
00000000
00000000
00000000
00000000
,
20000000
00000000
00000000
00000000
30030000
00000000
00000000
00000000
01100000
00000000
00000000
00000000
10000000
00010000
00100000
00000000
,
00001000
00010000
00000010
00000000
00001000
00000100
00000010
00000000
00000001
00001000
00000010
00000000
00000100
00000001
00000010
00000000
,
00000100
00010000
00001000
00000000
00010000
00001000
01000000
00000000
01100000
00000000
00000000
00000000
00010000
10000000
00100000
00000000
,
01000000
00001000
00010000
00000000
00001000
00100000
00010000
00000000
01000000
00100000
10000000
00000000
01000000
00100000
00001000
00000000
,
00010000
00000100
00000010
00000000
00000001
00000100
00000010
00000000
00001001
00000000
00000000
00000000
00000110
00000000
00001000
00000001
,
00000010
00000000
00000100
00010000
00001000
00000000
00010000
00100000
10000000
00000000
00010000
00100000
01000000
00000000
00100000
00010000
,
01000000
00000000
00001000
00010000
00000100
00000000
00000010
00000000
00000011
00000000
00000000
00000000
00001001
00000000
00000001
00001000
,
00000010
00000000
00010000
00001000
00100000
00000000
01000000
00100000
00010000
00000000
10000000
00100000
01000000
00000000
00100000
10000000
,
01000000
00000000
01000000
00000000
00100000
00000000
00100000
00000000
00110000
00000000
00100000
00000000
00001000
00000000
00010000
00000100
,
00001000
00000000
00000000
00000000
00000010
00001000
00000001
00000000
00000000
00000000
00001100
00000000
00001100
00000000
00000000
00000000
,
00000011
00000000
00000001
00001000
00000001
00000000
00000000
00000000
00000010
00000000
00000100
00001000
00000001
00000000
00001000
00000010
,
00010000
00000000
00000000
00000000
00010000
00001000
00010000
00000000
00000000
00000000
00101000
00000000
00110000
00000000
00000000
00000000
,
20020000
00000000
00000000
00000000
30030000
00000000
00000000
00000000
10000000
01000000
10000000
01000000
00100000
00000000
00001000
00010000
,
00001000
00010000
00000010
00000000
00001000
00000001
00001000
00000001
00000010
00000000
00000100
00001000
00000100
00010000
00001000
00000000
,
00010000
00000000
00000000
00001000
00000000
00000000
00010000
00000000
00001000
00000000
00000000
00010000
00000000
00000000
00100000
00000000
,
10000000
00000000
00000000
01000000
00000000
00000000
00010000
00000000
00001000
00010000
00000100
00001000
00000010
00000100
00000001
00000010
,
00000200
00000000
00000300
00000000
00001001
00000100
00000000
00000000
;
