#TITLE:Xepher;
#ARTIST:Tatsh;
#GENRE:MEDIEVAL CHOIR;
#BANNER:Xepher.png;
#BACKGROUND:Xepher-bg.png;
#CDTITLE:./CDTitles/bm IIDX 12 HAPPY SKY.png;
#MUSIC:Xepher.ogg;
#SAMPLESTART:55.072;
#SAMPLELENGTH:15;
#DISPLAYBPM:170;
#BPMS:0=170,156=165,160=170,199=165,200=170,308=165.5,312=170,331.5=168.5,336=170;
#STAGE:22;

//--------------- dance-single - Fred-104 ----------------
#NOTES:
     dance-single:
     Fred-104:
     Beginner:
     4:
     :
0000
0000
0000
0000
,
0000
0000
0000
0000
,
0000
0000
0000
0000
,
0000
0000
0000
0000
,
0000
0000
0000
0000
,
0000
0000
0000
0000
,
0000
0000
0000
0000
,
0000
0000
0000
0000
,
0000
0000
0000
0000
,
0000
0000
0000
0000
,
2000
0000
0000
3000
,
0002
0000
0000
0003
,
0200
0300
0020
0030
,
2000
0000
3000
0000
,
0002
0003
2000
3000
,
0002
0000
0000
0003
,
2000
0000
0000
3000
,
2002
0000
0000
0000
,
0000
0000
0000
0000
,
3003
0000
0000
0000
,
0000
0000
0000
0000
,
1000
0000
0000
1000
,
0001
0000
0000
0001
,
0100
0000
0000
0100
,
0010
0000
0010
0000
,
1000
0000
0000
1000
,
0100
0000
0000
0100
,
0010
0000
0000
0010
,
0001
0000
1000
0000
,
0001
0000
0001
0000
,
1000
0000
0010
0000
,
0100
0000
0100
0000
,
0001
0000
1000
1000
,
1000
0000
0001
0000
,
0100
0000
0010
0000
,
0100
0000
0001
0000
,
1000
0000
0001
0000
,
1000
0000
0001
0000
,
1000
1000
1000
1000
,
1001
0000
0000
0000
,
0001
0000
0100
0000
,
0001
0000
0100
0000
,
0010
0000
1000
0000
,
0001
0000
1000
0000
,
0100
0000
0010
0000
,
0001
0000
1000
0000
,
0001
0000
1000
0000
,
0001
0000
0000
0000
,
1000
0000
0010
0000
,
0100
0000
0100
0000
,
0001
0000
0000
0001
,
1000
0000
0000
1000
,
0100
0000
0000
0100
,
0010
0000
0010
0000
,
0001
0000
0000
0001
,
0100
0000
0000
0100
,
0010
0000
0000
0010
,
1000
0000
0001
0000
,
2000
0000
0000
3000
,
0000
0000
0000
0000
,
0002
0000
0000
0003
,
0000
0000
0000
0000
,
1000
0000
0010
0000
,
0100
0100
0100
0000
,
0001
0000
1000
0000
,
0001
0001
0001
0000
,
1000
1000
1000
1000
,
1000
0000
0010
0000
,
0100
0000
0010
0000
,
1000
0000
0001
0000
,
1000
0000
0001
0000
,
0100
0000
0010
0000
,
0100
0000
0001
0000
,
1000
0000
0001
0000
,
1000
0000
0010
0000
,
0100
0000
0000
0000
,
0001
0000
0000
0000
,
2002
0000
3003
0000
,
1000
0000
0000
1000
,
0010
0000
0000
0010
,
0100
0000
0000
0100
,
0001
0000
0000
0001
,
1000
0000
0000
2002
,
0000
0000
0000
3003
,
0001
0001
1000
1000
,
1001
0000
0000
0000
;

//--------------- dance-single - Fred-104 ----------------
#NOTES:
     dance-single:
     Fred-104:
     Easy:
     9:
     :
0000
0000
0000
0000
,
0000
0000
0000
0000
,
0000
0000
0000
0000
,
0000
0000
0000
0000
,
0000
0000
0000
0000
,
0000
0000
0000
0000
,
0000
0000
0000
0000
,
0000
0000
0000
0000
,
0000
0000
0000
0000
,
0000
0000
0000
0000
,
0200
0000
0000
0300
,
0020
0000
0000
1030
,
0002
0000
2003
0000
,
3020
0000
0030
0000
,
0200
0000
0302
0000
,
2003
0000
0000
3000
,
0002
0000
0000
0003
,
2002
0000
0000
0000
,
0000
0000
0000
0000
,
3003
0000
0000
0000
,
0000
0000
0000
0000
,
1000
1000
0010
0110
,
0001
0001
0010
0110
,
1000
0010
0100
0110
,
0001
0010
0100
1000
,
0010
0010
1000
1100
,
0010
0010
0001
0101
,
0100
0100
0010
1001
,
1000
0000
0010
0010
,
0100
0000
0100
0000
0001
1000
0001
0000
,
0100
0000
0100
0000
0010
1000
0010
0000
,
1000
0000
0100
0000
0010
0001
0010
0000
,
0001
0000
0100
0000
0010
0100
0010
0000
,
1000
0000
0001
0000
1000
0010
0100
0000
,
0001
0000
1000
0000
0001
0100
0001
0000
,
1000
0100
0100
0010
,
0001
0100
0010
1000
,
0001
0010
0001
0000
1000
0010
1000
0000
,
0002
0000
2000
3003
,
2002
0000
0000
3003
,
1000
0010
0100
0100
,
0010
1000
0001
0100
,
0001
0010
0001
0000
1000
0010
1000
0000
,
0001
0001
0100
0010
,
1000
1000
0010
0001
,
0100
0100
1000
0010
,
0100
0001
1000
0010
,
0200
0000
0302
0000
,
1003
0010
0100
0001
,
1000
0100
1000
0000
0100
0010
0100
0000
,
0001
0001
0010
0110
,
1000
1000
0010
0110
,
0001
0010
0100
0110
,
1000
0010
0100
0001
,
0010
0010
0001
0101
,
0010
0010
1000
1100
,
0100
0100
0010
1001
,
0001
0000
0010
0010
,
0200
2300
3002
0023
,
0030
0000
0000
0000
,
0200
0302
2003
3020
,
0030
0000
0000
0000
,
1000
0000
0010
0000
1000
0010
1000
0000
,
0010
0000
0100
0000
0001
0010
0001
0000
,
1000
0010
1000
0000
0001
0100
0001
0000
,
0100
0010
0100
0000
0001
1000
0001
0000
,
2000
3200
0320
0032
,
1003
0000
0010
0000
0100
0000
0001
0100
,
0010
0000
0100
0000
0010
0000
1000
0001
,
0100
0010
1000
0100
,
1000
0100
1000
0000
0001
0100
0001
0000
,
1000
0000
0100
0000
0010
0000
0001
1000
,
0010
0000
0100
0000
0010
0000
1000
0100
,
0010
0000
0001
0000
1000
0000
0010
0100
,
0010
1000
0001
0100
,
0001
0100
0001
0000
1000
0100
1000
0000
,
0010
0100
0010
0000
0100
0001
0100
0000
,
0002
0000
2000
3003
,
1000
0000
0000
0010
0000
0000
1000
0000
0000
0010
0000
0000
0100
0000
0000
0000
,
0010
0000
0000
0100
0000
0000
0001
0000
0000
0010
0000
0000
0001
0000
0000
0000
,
0010
0000
0000
0001
0000
0000
1000
0000
0000
0001
0000
0000
0100
0000
0000
0000
,
0001
0000
0000
0100
0000
0000
0010
0000
0000
0100
0000
0000
0010
0000
0000
0000
,
0100
0000
0000
0001
0000
0000
1000
0000
0000
0001
0000
0000
0001
0000
2000
0000
,
0000
0000
0000
3000
,
0001
0100
0001
0100
0001
1000
0001
0000
,
1001
0000
0000
0000
;

//--------------- dance-single - Fred-104 ----------------
#NOTES:
     dance-single:
     Fred-104:
     Medium:
     12:
     :
0000
0000
0000
0000
,
0000
0000
0000
0000
,
0000
0000
0000
0000
,
0000
0000
0000
0000
,
0000
0000
0000
0000
,
0000
0000
0000
0000
,
0000
0000
0000
0000
,
0000
0000
0000
0000
,
0000
0000
0000
0000
,
0000
0000
0000
0000
,
2000
0000
0000
3000
,
0020
0000
0000
0130
,
0002
0000
2003
0000
,
3020
0000
0200
0330
,
1002
0000
0203
0000
,
0320
0000
0000
0030
,
2000
0000
0000
3000
,
2002
0000
0000
0000
,
0000
0000
0000
0000
,
3003
0000
0000
0000
,
0000
0000
0000
0000
,
1000
0000
0000
0010
0000
0000
0100
0000
0000
0010
0000
0000
1010
0000
0000
0000
,
0001
0000
0000
0010
0000
0000
0100
0000
0000
0010
0000
0000
0001
0000
0001
0000
,
0100
0000
0000
0010
0000
0000
1000
0000
0000
0010
0000
0000
0100
0010
0100
0000
,
0001
0100
0001
0100
0010
1000
0001
0000
,
1000
0000
0000
0100
0000
0000
0010
0000
0000
0001
0000
0000
0101
0000
0000
0000
,
0001
0000
0000
0100
0000
0000
0010
0000
0000
1000
0000
0000
0010
0000
0010
0000
,
0100
0000
0000
0010
0000
0000
0100
0000
0000
0001
0000
0000
1000
0000
0000
0000
,
0001
0000
0100
0000
0010
1000
0010
0010
,
0110
0000
0000
0000
1100
0000
0000
0000
0010
0000
0000
0100
0000
0000
0010
0000
,
1010
0000
0101
0000
0100
0010
1000
0100
,
0110
0000
0000
0000
0011
0000
0000
0000
0001
0000
0000
1000
0000
0000
0001
0000
,
0100
0010
1000
0000
0010
0010
0100
0000
,
0101
0000
0000
0000
1100
0000
0000
0000
0001
0000
0000
0100
0000
0000
0010
0000
,
1010
0000
0000
0000
0101
0000
0000
0000
1000
0000
0000
0010
0000
0000
0100
0000
,
0010
1000
0100
0000
0010
0001
1000
0000
,
0001
0100
0010
1000
0001
0000
1000
0000
,
0001
0100
0001
0100
0010
1000
0010
1000
,
0001
0100
0001
0100
0010
1000
0010
1000
,
2002
0000
0000
3003
,
1000
0100
1000
0000
0010
0100
0001
0000
,
1000
0001
0100
0000
0001
1000
0100
0000
,
1000
1000
1100
0000
0001
0001
0101
0000
,
1000
0010
0100
0000
0010
0100
0001
0000
,
1000
0100
0010
0000
0001
1000
0010
0000
,
1000
0100
0010
0000
1000
0010
0001
0000
,
0100
0010
0001
0000
0100
0010
1000
0000
,
0001
0100
0010
1000
,
0001
0010
0100
1000
,
0012
0103
2010
3100
,
0001
0000
0000
0010
0000
0000
0100
0000
0000
0010
0000
0000
0011
0000
0000
0000
,
1000
0000
0000
0010
0000
0000
0100
0000
0000
0010
0000
0000
1000
0000
1000
0000
,
0100
0000
0000
0010
0000
0000
0001
0000
0000
0010
0000
0000
0100
0010
0100
0000
,
1000
0100
1000
0100
0010
0001
1000
0000
,
0001
0000
0000
0100
0000
0000
0010
0000
0000
1000
0000
0000
1100
0000
0000
0000
,
1000
0000
0000
0100
0000
0000
0010
0000
0000
0001
0000
0000
0010
0000
0010
0000
,
0100
0000
0000
0010
0000
0000
0100
0000
0000
1000
0000
0000
0001
0000
0000
0000
,
1000
0000
0100
0000
0010
0001
0010
0010
,
0210
2300
3002
0023
,
0030
0000
0000
0000
,
0200
0302
2003
3020
,
0030
0000
0000
0000
,
1000
0100
1000
0100
1000
0010
0100
0010
,
1000
0010
0100
0010
1000
0001
0010
0001
,
0010
0100
1000
0001
0100
0010
1000
0001
,
0010
0000
0100
0000
1000
0000
0010
0000
0100
0000
0010
0000
0010
0000
1000
0001
,
2000
3020
0230
0302
,
1003
0100
0010
0001
1000
0010
0100
0000
,
0001
0100
0010
0100
0001
1000
0010
0000
,
1000
0100
0010
0001
1000
0010
0100
0000
,
0001
0001
0011
0000
1000
1000
1010
0000
,
0001
0010
0100
1000
0010
1000
0100
0000
,
1000
0100
1000
0010
0100
0001
1000
0000
,
0001
0010
0100
1000
0010
1000
0100
1000
,
0010
0100
0010
0001
1000
0010
0100
0001
,
1000
0010
0100
0010
1000
0010
0001
0010
,
1000
1000
1100
0000
0001
0001
0101
0000
,
0220
0330
2002
3003
,
1000
0000
0000
0010
0000
0000
0100
0000
0000
0001
0100
0000
0010
0000
0010
0000
,
1000
0000
0000
0001
0000
0000
0010
0000
0000
0001
0100
0000
0010
0000
0010
0000
,
0100
0000
0000
0001
0000
0000
1000
0000
0000
0010
0100
0000
0010
0000
0010
0000
,
1000
0000
0000
0100
0000
0000
0010
0000
0000
0001
0100
0000
0010
0000
1000
0000
,
0001
0000
0000
1000
0000
0000
0001
0000
0000
0100
0010
0000
1000
0000
2002
0000
,
0000
0000
0000
3003
,
1000
0100
0010
0001
0100
0010
1000
0001
,
1001
0000
0000
0000
;

//--------------- dance-single - Fred-104 ----------------
#NOTES:
     dance-single:
     Fred-104:
     Hard:
     15:
     :
0000
0000
0000
0000
,
0000
0000
0000
0000
,
0000
0000
0000
0000
,
0000
0000
0000
0000
,
0000
0000
0000
0000
,
0000
0000
0000
0000
,
0000
0000
0000
0000
,
0000
0000
0000
0000
,
0000
0000
0000
0000
,
0000
0000
0000
0000
,
2000
0000
0000
0000
0000
0000
3000
0000
0000
0000
0100
0010
,
0200
0000
0000
0301
,
2000
0000
3020
0000
,
0230
0000
0002
0303
,
1200
0000
0320
0000
,
0032
0000
0000
0003
,
2000
0000
0000
3000
,
2002
0000
0000
0000
,
0000
0000
0000
0000
,
3003
0000
0000
0000
,
0000
0000
0000
0000
,
1000
0010
0000
0010
0100
0000
0100
0001
0000
0001
0010
0000
1100
0000
0000
0000
,
0001
0010
0000
0010
0100
0000
0100
1000
0000
1000
0010
0000
0101
0000
1000
0000
,
0100
1000
0000
1000
0100
0000
0010
0001
0000
0001
0100
0000
0001
1000
0001
0000
,
0010
0100
0001
0100
1000
0001
0100
0010
,
1000
0001
0000
0010
0100
0000
1000
0010
0000
1000
0100
0000
0011
0000
0000
0000
,
0100
0001
0000
0010
0001
0000
1000
0100
0000
1000
0010
0000
0110
0000
1001
0000
,
0100
1000
0000
0001
0100
0000
0010
0100
0000
0001
0010
0000
1100
0000
0000
0000
,
1000
0000
0000
0000
0010
0000
0000
0000
0100
0000
0000
0000
0001
0000
0000
0000
0100
0000
0000
0000
0010
0000
0000
0000
1000
0000
0000
0100
0000
0000
0010
0000
0000
0000
0000
0000
0001
0000
0000
0100
0000
0000
0010
0000
0000
0000
0000
0000
,
1010
0000
0000
0000
0101
0000
0000
0000
0010
0000
0100
1000
0000
1000
0010
0000
,
0100
0010
1000
0100
0010
0100
1000
0010
,
0101
0000
0000
0000
0110
0000
0000
0000
0010
0000
0100
0001
0000
0001
1000
0000
,
0100
0000
0010
0000
0001
0000
0100
0000
1000
0100
0000
0001
0000
0010
0100
0000
,
1100
0000
0000
0000
0101
0000
0000
0000
0010
0000
0100
0001
0000
0010
0001
0000
,
1100
0000
0000
0000
0101
0000
0000
0000
1000
0000
0001
0100
0000
0100
0001
0000
,
0010
0000
0100
0000
1000
0000
0001
1000
0000
1000
0001
0000
0100
0000
0010
0000
,
0100
0001
0010
0100
0001
0100
1000
0010
,
0001
1000
0100
0001
1000
0100
0010
0001
,
0100
0010
1000
0000
0100
0010
0001
0000
1000
0100
1000
0100
0010
0001
0010
0002
,
2000
0000
0000
3003
,
0010
0100
1000
0001
0100
0001
0010
0100
,
1000
0010
0100
0001
1000
0100
0001
0100
,
1100
0100
0110
0000
0101
0100
0110
0000
,
1000
0100
1000
0000
0001
0000
0100
0000
0010
0000
0100
0000
0001
0000
0010
0000
,
0100
0010
0100
0000
0001
0000
0100
0000
1000
0000
0010
0000
1000
0000
0100
0000
,
0010
0100
0010
0000
0001
0000
1000
0000
0010
0000
0100
0000
0001
0000
0010
0000
,
0200
1000
0010
0301
,
0100
0100
1000
0010
0010
0100
0001
1000
,
0010
0000
1000
0100
0010
0000
0001
1000
0001
0000
0100
0000
0010
0000
1000
0000
,
1100
1000
1010
0000
0101
0001
0011
0000
,
0010
1000
0000
1000
0010
0000
0100
0010
0000
0010
0100
0000
1001
0000
0000
0000
,
0001
0010
0000
0010
0001
0000
1000
0010
0000
0010
1000
0000
0101
0000
1000
0000
,
0001
1000
0000
1000
0001
0000
0010
0001
0000
0001
0010
0000
0100
1000
0100
0000
,
0010
0001
0100
0001
1000
0100
0010
0100
,
1000
0010
0000
0100
0001
0000
1000
0100
0000
1000
0010
0000
0101
0000
0000
0000
,
0001
0010
0000
0100
1000
0000
0001
0100
0000
0010
1000
0000
0110
0000
1001
0000
,
0100
0010
0000
1000
0100
0000
0010
0100
0000
1000
0001
0000
0110
0000
0000
0000
,
0001
0000
0010
0000
0100
0000
1000
0000
0001
1000
0001
1000
0010
0100
0010
0100
,
0002
0203
0320
2030
,
3000
0000
0000
0000
,
2000
3200
0320
0032
,
0003
0000
0000
0000
,
1000
0100
1000
0100
0001
0100
0001
0100
,
0010
0100
0001
0100
1000
0100
0010
0001
,
1000
0010
1000
0010
0001
0010
0001
0010
,
0100
0010
0001
0010
1000
0010
0100
0001
,
0100
0000
0100
0000
0010
0000
0010
0000
1000
0001
1000
0001
1000
0000
0000
0000
,
0001
0000
0010
0000
0100
0000
1000
0000
0010
0000
0100
0000
0001
0000
1000
0001
,
0100
0000
0001
0000
0010
0000
0100
0000
1000
0000
0010
0000
0100
0000
0010
1000
,
0100
1000
0010
0100
0001
1000
0100
0010
,
0011
0001
0101
0000
1010
1000
1100
0000
,
0010
0000
0100
0000
0001
0000
1000
0000
0100
0000
0010
0000
0100
0000
1000
0001
,
0100
0000
0010
0000
1000
0000
0001
0000
0010
0000
0100
0000
1000
0000
0010
1000
,
0001
0000
0100
0000
0010
0000
0010
0000
0100
0000
0001
0000
0010
0000
0100
1000
,
0001
0010
0001
0100
0001
1000
0100
0010
,
1100
0100
0110
0000
0101
0100
0110
0000
,
1010
0010
0110
0000
0011
0010
0110
0000
,
0220
0330
2002
3003
,
0001
1000
0001
1000
0001
0000
0010
0001
0000
1000
0010
0000
0100
0000
0001
0000
,
0010
0001
0010
0001
0010
0000
0100
1000
0000
0001
0100
0000
0001
0000
0010
0000
,
0100
1000
0100
1000
0100
0000
0010
0001
0000
0100
0010
0000
0100
0000
0001
0000
,
1000
0001
1000
0001
1000
0000
0010
1000
0000
0001
0010
0000
0100
0000
1000
0000
,
0001
0100
0010
1000
0010
0000
0100
0001
0000
1000
0100
0000
1100
0000
0220
0000
,
0000
0000
0000
0330
,
0001
0100
0001
0100
0010
1000
0010
1000
0001
0010
0001
0010
0100
1000
0100
1000
,
0001
0000
0000
0000
;

//--------------- dance-single - Fred-104 ----------------
#NOTES:
     dance-single:
     Fred-104:
     Challenge:
     17:
     :
0000
0000
0000
0000
,
0000
0000
0000
0000
,
0000
0000
0000
0000
,
0000
0000
0000
0000
,
0000
0000
0000
0000
,
0000
0000
0000
0000
,
0000
0000
0000
0000
,
0000
0000
0000
0000
,
0000
0000
0000
0000
,
0000
0000
0000
0000
,
2010
0000
0000
0000
0000
0000
0000
0000
0000
3000
0001
0100
,
0020
0000
0000
2030
,
3002
0000
0203
0000
,
0302
0000
2000
3003
,
0120
0000
0032
0000
,
2003
0000
0000
3000
,
0020
0000
0000
0030
,
2002
0000
0000
0000
,
0000
0000
0000
0000
,
3003
0000
0000
0000
,
0000
0000
0000
0000
,
1000
0100
0010
0001
0100
0010
1000
0100
0010
0001
0100
0010
1000
0000
0000
0000
,
0001
0010
0100
1000
0010
0100
0001
0010
0100
1000
0010
0100
0001
0000
0001
0000
,
1000
0100
0010
0001
0100
0010
1000
0100
0010
0001
0100
0010
1000
0001
1000
0000
,
0001
0100
0001
0000
0100
0000
0010
1000
0010
1000
0010
0000
1000
0100
1000
0000
,
0001
0100
0010
1000
0100
0010
0001
0100
0010
1000
0100
0010
0001
0000
0000
0000
,
1000
0010
0100
0001
0010
0100
1000
0010
0100
0001
0010
0100
1000
0000
1000
0000
,
0001
0100
0010
1000
0100
0010
0001
0100
0010
1000
0100
0010
0001
0000
0000
0000
,
1000
0000
0000
0000
0100
0000
0000
0000
1000
0000
0000
0000
0001
0000
0000
0000
0100
0000
0000
0000
0010
0000
0000
0000
1000
0000
0000
0100
0000
0000
1000
0000
0000
0010
0000
0000
0100
0000
0000
0001
0000
0000
1000
0000
0000
0001
0000
0000
,
0100
0000
0000
0000
0110
0000
0000
0000
0010
0000
1000
0010
0000
0100
0001
0000
,
1000
0000
1010
0000
0001
0100
0010
1000
,
1100
0000
0000
0000
0101
0000
0000
0000
0100
0000
0010
0100
0000
0100
1000
0000
,
0001
0000
0001
0000
1000
0010
0100
0000
0001
0100
0000
0010
0000
0100
1000
0000
,
1010
0000
0000
0000
0101
0000
0000
0000
0100
0000
1000
0010
0000
0100
0001
0000
,
0011
0000
0000
0000
1100
0000
0000
0000
0010
0000
0100
0010
0000
1000
0010
0000
,
0100
0000
0001
0000
1000
0000
0100
0010
0000
0010
0001
0000
1000
0000
0010
0000
,
0100
0001
1000
0100
0010
0001
1000
0010
,
0100
0000
0001
0100
0010
0000
1000
0100
0010
0000
0001
0100
0010
0000
1000
0100
,
0010
0001
0010
0100
1000
0010
0100
0001
0100
0001
1000
0100
1000
0010
0100
0001
,
2000
0000
0000
3000
,
0001
0010
0100
1000
0010
0100
0001
1000
,
0001
0010
0100
0000
1000
0000
0010
0000
0100
0001
1000
0000
0010
0000
0100
0000
,
0001
0100
0001
0100
0010
0000
0000
0000
1000
0100
1000
0100
0010
0000
0000
0000
,
0001
0000
0010
0000
0100
0000
1000
0000
0010
1000
0010
0100
0001
0000
1000
0000
,
0010
0000
1000
0000
0010
0000
0100
0000
0001
0010
0100
1000
0010
0000
0100
0000
,
0001
0000
1000
0000
0100
0000
1000
0000
0010
1000
0001
0100
0010
0000
0010
0000
,
1000
0100
1000
0000
0001
0100
0001
0000
1000
0010
1000
0000
0001
0010
0001
0000
,
1000
0010
1000
0000
0001
0100
0010
0000
1000
0100
0010
0000
0001
1000
0001
0000
,
0100
0000
0001
0010
0100
0000
0010
0100
1000
0000
0001
0000
1000
0000
0001
0000
,
1000
0100
0010
0001
0010
0000
0000
0000
0001
0100
0010
1000
0001
0000
0000
0000
,
1000
0100
0010
0001
0100
0010
1000
0100
0010
0001
0100
0010
1000
0000
0000
0000
,
0001
0010
0100
1000
0010
0100
0001
0010
0100
1000
0010
0100
0001
0000
0001
0000
,
1000
0100
0010
0001
0100
0010
1000
0100
0010
0001
0100
0010
1000
0001
1000
0000
,
0010
0100
0010
0000
1000
0000
0100
0010
0001
0010
0100
1000
0001
0100
0001
0000
,
1000
0010
0100
0001
0010
0100
1000
0010
0100
0001
0010
0100
1000
0000
0000
0000
,
0001
0100
0010
1000
0100
0010
0001
0100
0010
1000
0100
0010
0001
0000
0001
0000
,
1000
0010
0100
0001
0010
0100
1000
0010
0100
0001
0010
0100
1000
0000
0000
0000
,
0001
0000
0100
0000
0010
0000
1000
0000
0001
0100
0001
0010
0001
1000
0010
0100
,
0002
0203
0320
2030
,
3200
0320
0032
2003
,
3020
0032
0203
2300
,
3002
0203
0320
1030
,
1001
0000
0100
0010
1000
0000
0010
0100
0001
0000
1000
0100
0010
0000
0001
0000
,
1000
0010
0100
0000
0010
0001
1000
0000
0001
0100
0001
0100
0010
1000
0010
1000
,
0001
0010
0001
0010
0001
0000
1000
0010
0100
0000
0001
0010
0100
0000
1000
0000
,
0001
0010
0001
1000
0001
0100
0001
0000
1000
0100
0010
0001
1000
0010
0100
0000
,
0001
0010
0001
0100
0010
1000
0100
0010
0001
0100
0010
1000
0010
0100
0001
1000
,
0010
0000
0100
0000
0010
0000
1000
0000
0100
0000
1000
0000
0001
0000
0010
0100
,
1000
0000
0010
0000
0100
0000
0001
0000
1000
0000
0100
0000
1000
0000
0001
0100
,
0010
1000
0100
0010
0001
1000
0010
0100
,
0001
0010
0100
1000
0010
0000
0000
0000
1000
0100
0010
0001
0100
0000
0000
0000
,
0001
0000
0100
0010
1000
0010
0100
0001
1000
0000
0001
1000
0100
0000
1000
0000
,
0010
0000
1000
0100
0010
0001
0010
0001
0100
0000
0010
1000
0001
0000
0010
0000
,
0001
0100
0001
0000
0100
0010
0100
0000
0010
1000
0010
0000
1000
0100
1000
0000
,
0001
0100
0001
0100
0010
1000
0010
1000
0001
0010
0100
1000
0010
0100
0001
1000
,
0001
0100
0010
1000
0010
0000
0000
0000
1000
0100
0010
0001
0100
0000
0000
0000
,
0001
1000
0100
1000
0010
0000
0000
0000
1000
0001
0010
0001
0100
0000
0000
0000
,
2020
3030
0202
0303
,
1000
0010
0100
0010
1000
0000
0001
0100
0000
1000
0100
0000
0001
0000
0100
0000
,
0010
1000
0010
0100
0001
0000
1000
0010
0000
0001
0010
0000
1000
0000
0010
0000
,
0100
0001
1000
0001
0100
0000
0010
0100
0000
1000
0010
0000
0100
0000
0001
0000
,
1000
0100
0010
0001
0100
0000
0010
1000
0000
0010
0100
0000
0010
0000
1000
0000
,
0001
0100
1000
0100
0001
0000
1000
0100
0000
0010
0001
0000
1001
0000
2002
0000
,
0000
0000
0000
3003
,
1000
0100
0010
0001
0100
0010
1000
0100
0010
0001
0010
0100
1000
0010
0100
0001
,
1000
0000
0000
0000
;

//--------------- dance-double - Fred-104 ----------------
#NOTES:
     dance-double:
     Fred-104:
     Easy:
     9:
     :
00000000
00000000
00000000
00000000
,
00000000
00000000
00000000
00000000
,
00000000
00000000
00000000
00000000
,
00000000
00000000
00000000
00000000
,
00000000
00000000
00000000
00000000
,
00000000
00000000
00000000
00000000
,
00000000
00000000
00000000
00000000
,
00000000
00000000
00000000
00000000
,
00000000
00000000
00000000
00000000
,
00000000
00000000
00000000
00000000
,
02000000
00000000
00000000
03000000
,
00200000
00000000
00000000
10300000
,
02000000
00000000
03200000
00000000
,
00302000
00000000
00023000
00000000
,
00030200
00000000
00000320
00000000
,
00000032
00000000
00002003
00000000
,
00003020
00000000
00000000
00000030
,
00002002
00000000
00000000
00000000
,
00000000
00000000
00000000
00000000
,
00003003
00000000
00000000
00000000
,
00000000
00000000
00000000
00000000
,
00001000
00001000
00100000
00110000
,
01000000
01000000
10000000
10010000
,
00010000
01000000
01000000
01100000
,
00100000
10000000
01000000
00100000
,
00001000
00001000
00010000
00011000
,
00000100
00000100
00000010
00000011
,
00000001
00001000
00000001
00001001
,
00000100
00000000
00000100
00000000
00000001
00001000
00000001
00000000
,
00001000
00000000
00001000
00000000
00000010
00010000
00001000
00000000
,
00100000
00000000
00100000
00000000
00010000
10000000
01000000
00000000
,
00100000
00000000
00100000
00000000
00001000
00010000
00001000
00000000
,
00010000
00000000
00000100
00000000
00001000
00000010
00001000
00000000
,
00000001
00000000
00000100
00000000
00000010
00001000
00000010
00000000
,
00001000
00000000
00000100
00000000
00010000
00001000
00010000
00000000
,
00000010
00001000
00000010
00000010
,
00000100
00000001
00001000
00000100
,
00010000
00010000
00001000
00100000
,
00010000
10000000
00010000
00000000
01000000
00100000
01000000
00000000
,
20020000
00000000
00000000
30030000
,
10000000
01000000
01000000
00100000
,
00001000
00010000
00001000
00000010
,
00000001
00000100
00000001
00000000
00001000
00000100
00001000
00000000
,
00000001
00000001
00000100
00000010
,
00000100
00001000
00010000
01000000
,
10000000
00100000
01000000
00100000
,
10000000
01000000
00100000
00100000
,
00002000
00000000
00023000
00000000
,
00030010
00010000
00001000
00010000
,
00100000
00011000
00000010
00011000
,
00010000
00010000
00000010
00001010
,
00000100
00000100
00000001
00001001
,
00001000
00000100
00000100
00000110
,
00000010
00000001
00000100
00000010
,
00010000
00010000
00001000
00011000
,
01000000
01000000
00100000
10100000
,
10000000
00010000
10000000
10010000
,
01000000
00000000
01000000
00000000
10000000
00010000
10000000
00000000
,
20000000
30200000
02300000
03020000
,
00030000
00000000
00000000
00000000
,
00002000
00003020
00000230
00000302
,
00000003
00000000
00000000
00000000
,
00000100
00000100
00000010
00001000
,
00000001
00000010
00000100
00010000
,
00001000
00100000
01000000
10000000
,
00010000
01000000
00100000
10000000
,
00010000
01000000
00010000
00000000
10000000
01000000
10000000
00000000
,
00100000
00000000
10000000
00000000
01000000
00000000
00100000
00010000
,
00100000
00000000
00001000
00000000
00010000
00000000
00000100
00001000
,
00000100
00000010
00000001
00001000
,
00000010
00001000
00000010
00000000
00010000
00001000
00010000
00000000
,
00000010
00000000
00010000
00000000
00001000
00000000
00100000
00010000
,
00100000
00000000
01000000
00000000
10000000
00000000
00010000
01000000
,
00010000
00100000
01000000
00010000
,
00001000
00000100
00000001
00001000
,
00000010
00000110
00001000
00001001
,
00000010
00010000
00001000
00000000
00100000
00010000
10000000
00000000
,
00020000
00000000
20000000
30030000
,
10000000
00000000
00000000
10000000
00000000
00000000
00100000
00000000
00000000
00100000
00000000
00000000
01000000
00000000
00000000
00000000
,
00010000
00000000
00000000
00010000
00000000
00000000
00001000
00000000
00000000
00001000
00000000
00000000
00000100
00000000
00000000
00000000
,
00000001
00000000
00000000
00000001
00000000
00000000
00001000
00000000
00000000
00001000
00000000
00000000
00000010
00000000
00000000
00000000
,
00000100
00000000
00000000
00000100
00000000
00000000
00000001
00000000
00000000
00000001
00000000
00000000
00001000
00000000
00000000
00000000
,
00000010
00000000
00000000
00000010
00000000
00000000
00010000
00000000
00000000
00010000
00000000
00000000
00001000
00000000
00020000
00000000
,
00000000
00000000
00000000
00030000
,
00001000
00010000
00001000
00000000
00100000
00010000
00100000
00000000
,
10010000
00000000
00000000
00000000
;

//--------------- dance-double - Fred-104 ----------------
#NOTES:
     dance-double:
     Fred-104:
     Medium:
     13:
     :
00000000
00000000
00000000
00000000
,
00000000
00000000
00000000
00000000
,
00000000
00000000
00000000
00000000
,
00000000
00000000
00000000
00000000
,
00000000
00000000
00000000
00000000
,
00000000
00000000
00000000
00000000
,
00000000
00000000
00000000
00000000
,
00000000
00000000
00000000
00000000
,
00000000
00000000
00000000
00000000
,
00000000
00000000
00000000
00000000
,
00020000
00000000
00000000
00030000
,
00002000
00000000
00000000
00003100
,
00000002
00000000
00000023
00000000
,
00002030
00000000
00020000
00033000
,
01200000
00000000
20300000
00000000
,
30020000
00000000
02030000
00000000
,
03200000
00000000
20300000
30000000
,
20020000
00000000
00000000
00000000
,
00000000
00000000
00000000
00000000
,
30030000
00000000
00000000
00000000
,
00000000
00000000
00000000
00000000
,
00100000
00000000
00000000
00010000
00000000
00000000
00001000
00000000
00000000
00000010
00000000
00000000
00000110
00000000
00000000
00000000
,
00000001
00000000
00000000
00000100
00000000
00000000
00001000
00000000
00000000
00010000
00000000
00000000
00001000
00000000
00001000
00000000
,
00010000
00000000
00000000
01000000
00000000
00000000
10000000
00000000
00000000
00010000
00000000
00000000
01000000
00100000
01000000
00000000
,
00010000
10000000
01000000
00010000
00001000
00000100
00000001
00000000
,
00001000
00000000
00000000
00000100
00000000
00000000
00000010
00000000
00000000
00000001
00000000
00000000
00000011
00000000
00000000
00000000
,
00000001
00000000
00000000
00000100
00000000
00000000
00001000
00000000
00000000
00010000
00000000
00000000
00001000
00000000
00001000
00000000
,
00010000
00000000
00000000
00000010
00000000
00000000
00001000
00000000
00000000
00000010
00000000
00000000
00010000
00000000
00000000
00000000
,
00001000
00000000
00100000
00000000
00010000
00010000
10000000
10000000
,
10100000
00000000
01010000
00000000
00100000
00010000
00001000
00000010
,
00000001
00000000
00001001
00000000
00000100
00000010
00001000
00000001
,
00000010
00000000
00000110
00000000
00000100
00001000
00010000
01000000
,
10000000
00000000
00010000
00000000
01000000
00000000
00100000
00000000
10000000
00000000
00000000
00100000
00000000
00000000
01000000
00000000
,
01100000
00000000
10100000
00000000
00100000
00010000
00001000
00000010
,
00010000
00000000
00011000
00000000
00001000
00000010
00000100
00000010
,
00001000
00000001
00000010
00000100
00001000
00000001
00000100
00000000
,
00000001
00000010
00001000
00010000
00100000
00000000
10000000
00000000
,
00010000
01000000
00010000
01000000
00100000
10000000
01000000
00100000
,
00001000
00001000
00010000
00010000
00001000
00010000
00001000
00000000
,
00022000
00000000
00000000
00033000
,
00001000
00000100
00000001
00001000
00000100
00000010
00000001
00000000
,
00000100
00000010
00001000
00000001
00000010
00000100
00010000
00001000
,
00010000
00010000
00011000
00000000
00001000
00001000
00011000
00000000
,
00100000
00010000
10000000
00100000
01000000
00100000
10000000
01000000
,
00100000
00010000
10000000
00010000
01000000
00010000
00100000
00000000
,
00001000
00010000
00100000
00001000
00010000
00000010
00001000
00000010
,
00010000
00001000
00000100
00000001
00001000
00000100
00000010
00000001
,
00001000
00001000
00001100
00000000
00000001
00000001
00000101
00000000
,
00002000
00023000
02030000
23000000
,
30200000
00320000
00032000
00003200
,
00000310
00000000
00000000
00001000
00000000
00000000
00010000
00000000
00000000
00100000
00000000
00000000
01100000
00000000
00000000
00000000
,
10000000
00000000
00000000
01000000
00000000
00000000
00010000
00000000
00000000
00001000
00000000
00000000
00010000
00000000
00010000
00000000
,
00001000
00000000
00000000
00000100
00000000
00000000
00000001
00000000
00000000
00001000
00000000
00000000
00000100
00000010
00000100
00000000
,
00001000
00000001
00000100
00001000
00010000
01000000
10000000
00000000
,
00010000
00000000
00000000
01000000
00000000
00000000
00100000
00000000
00000000
10000000
00000000
00000000
10100000
00000000
00000000
00000000
,
10000000
00000000
00000000
01000000
00000000
00000000
00010000
00000000
00000000
00001000
00000000
00000000
00010000
00000000
00010000
00000000
,
00001000
00000000
00000000
00100000
00000000
00000000
00010000
00000000
00000000
00100000
00000000
00000000
00001000
00000000
00000000
00000000
,
00010000
00000000
00000010
00000000
00001000
00001000
00000001
00000001
,
00002000
00003002
00000203
00002300
,
00003000
00000000
00000000
00000000
,
00020000
02030000
23000000
30200000
,
00300000
00000000
00000000
00000000
,
01000000
00100000
10000000
00100000
01000000
00100000
01000000
00100000
,
10000000
00100000
00010000
00100000
00010000
00001000
00000010
00000001
,
00000010
00000001
00001000
00000001
00000100
00000010
00001000
00000001
,
00000100
00000000
00000001
00000000
00000100
00000000
00001000
00000000
00010000
00000000
00001000
00000000
00010000
00000000
01000000
00100000
,
02000000
03200000
20300000
30020000
,
10030000
00000000
01000000
00100000
00010000
10000000
00100000
01000000
,
00100000
00000000
00001000
00010000
00001000
00100000
00001000
00010000
,
00000010
00000000
00001000
00000100
00000010
00000001
00001000
00000010
,
00000100
00000100
00000110
00000000
00000010
00000010
00000110
00000000
,
00000001
00000100
00001000
00010000
00001000
00000100
00000010
00000000
,
00001000
00000001
00000010
00000100
00000010
00000001
00001000
00000000
,
00000010
00010000
00001000
00100000
00010000
01000000
00100000
10000000
,
02000000
23000000
30020000
02030000
,
03100000
00100000
01000000
10000000
01000000
00100000
00001000
00010000
,
00000100
00001000
00000010
00000100
00000001
00000100
00001000
00010000
,
00002000
00000000
00020000
00033000
,
00001000
00000000
00000000
00100000
00000000
00000000
00010000
00000000
00000000
10000000
00100000
00000000
01000000
00000000
01000000
00000000
,
00100000
00000000
00000000
10000000
00000000
00000000
01000000
00000000
00000000
10000000
00100000
00000000
01000000
00000000
01000000
00000000
,
00100000
00000000
00000000
00010000
00000000
00000000
00001000
00000000
00000000
00000010
00000001
00000000
00001000
00000000
00001000
00000000
,
00000001
00000000
00000000
00000100
00000000
00000000
00000010
00000000
00000000
00001000
00000010
00000000
00000100
00000000
00000100
00000000
,
00000001
00000000
00000000
00000010
00000000
00000000
00000100
00000000
00000000
00010000
00001000
00000000
00010000
00000000
00022000
00000000
,
00000000
00000000
00000000
00033000
,
00001000
00010000
01000000
10000000
00010000
00100000
01000000
00001000
,
00011000
00000000
00000000
00000000
;

//--------------- dance-double - Fred-104 ----------------
#NOTES:
     dance-double:
     Fred-104:
     Hard:
     16:
     :
00000000
00000000
00000000
00000000
,
00000000
00000000
00000000
00000000
,
00000000
00000000
00000000
00000000
,
00000000
00000000
00000000
00000000
,
00000000
00000000
00000000
00000000
,
00000000
00000000
00000000
00000000
,
00000000
00000000
00000000
00000000
,
00000000
00000000
00000000
00000000
,
00000000
00000000
00000000
00000000
,
00000000
00000000
00000000
00000000
,
00021000
00000000
00000000
00000000
00000000
00000000
00000000
00000000
00000000
00030000
00001000
00010000
,
00200000
00000000
00000000
20300000
,
30020000
00000000
02030000
00000000
,
03002000
00000000
00020000
00033000
,
00001020
00000000
00000230
00000000
,
00000302
00000000
00000000
00000003
,
00002000
00000000
00000000
00003000
,
00022000
00000000
00000000
00000000
,
00000000
00000000
00000000
00000000
,
00033000
00000000
00000000
00000000
,
00000000
00000000
00000000
00000000
,
10000000
00100000
00000000
00100000
01000000
00000000
01000000
00010000
00000000
00010000
10000000
00000000
01100000
00000000
00000000
00000000
,
00010000
10000000
00000000
10000000
01000000
00000000
01000000
00100000
00000000
00100000
00010000
00000000
11000000
00000000
01000000
00000000
,
00100000
00010000
00000000
00010000
01000000
00000000
01000000
00100000
00000000
00100000
10000000
00000000
00010000
10000000
00010000
00000000
,
10000000
00100000
00010000
00001000
00000010
00000001
00001000
00000100
,
00000010
00000001
00000000
00000010
00000001
00000000
00001000
00000010
00000000
00001000
00000010
00000000
00000101
00000000
00000000
00000000
,
00001000
00000001
00000000
00001000
00000001
00000000
00000100
00000010
00000000
00000100
00000010
00000000
00000101
00000000
00000100
00000000
,
00000010
00001000
00000000
00000010
00001000
00000000
00000001
00000010
00000000
00000001
00000010
00000000
00001100
00000000
00000000
00000000
,
00000001
00000000
00000000
00000000
00000100
00000000
00000000
00000000
00001000
00000000
00000000
00000000
00010000
00000000
00000000
00000000
01000000
00000000
00000000
00000000
10000000
00000000
00000000
00000000
00010000
00000000
00000000
01000000
00000000
00000000
00010000
00000000
00000000
00000000
00000000
00000000
10000000
00000000
00000000
00010000
00000000
00000000
10000000
00000000
00000000
00000000
00000000
00000000
,
00110000
00000000
00000000
00000000
10100000
00000000
00000000
00000000
01000000
00000000
00010000
00100000
00000000
00010000
00100000
00000000
,
01000000
00100000
01000000
00100000
10000000
00100000
00010000
00001000
,
00001100
00000000
00000000
00000000
00000101
00000000
00000000
00000000
00000010
00000000
00000001
00001000
00000000
00000001
00001000
00000000
,
00000001
00000000
00000100
00000000
00000001
00000000
00000100
00000000
00000010
00001000
00000000
00000100
00000000
00000001
00000100
00000000
,
00000110
00000000
00000000
00000000
00001001
00000000
00000000
00000000
00000001
00000000
00001000
00000010
00000000
00001000
00000100
00000000
,
00011000
00000000
00000000
00000000
01010000
00000000
00000000
00000000
00100000
00000000
10000000
01000000
00000000
10000000
01000000
00000000
,
00100000
00000000
01000000
00000000
10000000
00000000
00010000
00100000
00000000
00100000
01000000
00000000
00100000
00000000
00010000
00000000
,
10000000
01000000
00100000
00010000
00001000
00000010
00000001
00000100
,
00001000
00010000
00100000
10000000
01000000
00010000
00001000
00010000
,
00001000
00010000
00001000
00000000
00010000
00000010
00010000
00000000
00001000
00010000
00001000
00010000
00001000
00100000
00001000
00100000
,
00020000
00000000
00000000
00030000
,
01000000
00100000
10000000
01000000
00010000
01000000
10000000
00010000
,
00100000
10000000
00100000
01000000
10000000
00100000
01000000
00010000
,
00110000
00010000
00011000
00000000
00001010
00001000
00011000
00000000
,
00010000
00001000
00000100
00001000
00000010
00001000
00010000
00001000
,
00000100
00000001
00000010
00000100
00000001
00000100
00001000
00000001
,
00000100
00000010
00000100
00000001
00000010
00001000
00010000
00100000
,
10000000
00010000
01000000
10000000
01000000
00100000
10000000
01000000
,
00100000
00010000
01000000
00010000
10000000
00100000
01000000
00010000
,
11000000
01000000
00100000
00000000
00101000
00001000
00010000
00000000
,
00010000
00101000
00010000
00010010
,
00001000
00010000
00000000
00100000
01000000
00000000
10000000
00100000
00000000
01000000
00010000
00000000
01100000
00000000
00000000
00000000
,
01000000
00001000
00000000
00010000
00001000
00000000
00000010
00000100
00000000
00000010
00000100
00000000
00001001
00000000
00000001
00000000
,
00000100
00000010
00000000
00001000
00000010
00000000
00000100
00000001
00000000
00000100
00000001
00000000
00001000
00000100
00001000
00000000
,
00000001
00000010
00001000
00010000
01000000
00010000
00001000
00000100
,
00000001
00000010
00000000
00000010
00000001
00000000
00001000
00000001
00000000
00000001
00001000
00000000
00000110
00000000
00000000
00000000
,
00000100
00010000
00000000
00010000
00001000
00000000
00010000
01000000
00000000
01000000
00010000
00000000
01100000
00000000
00100000
00000000
,
10000000
00100000
00000000
00100000
01000000
00000000
00010000
00100000
00000000
00100000
01000000
00000000
10010000
00000000
00000000
00000000
,
10000000
00000000
00100000
00000000
01000000
00000000
00010000
00000000
00100000
00010000
01000000
00010000
01000000
00100000
01000000
00100000
,
20000000
30200000
00320000
00032000
,
00003000
00000000
00000000
00000000
,
00000002
00000203
00002300
00023000
,
00030000
00000000
00000000
00000000
,
00010000
00000010
00010000
00000100
00010000
00001000
00010000
00000100
,
00010000
00000000
00001000
00000000
00010000
00000000
00000010
00000000
00010000
00000000
00000100
00000000
00010000
00000000
00001000
00010000
,
00001000
00010000
00001000
00100000
00001000
01000000
00001000
00010000
,
00001000
01000000
00001000
00100000
00001000
00010000
00001000
01000000
,
00010000
00000000
01000000
00000000
10000000
00000000
01000000
00000000
00010000
01000000
00010000
01000000
00100000
10000000
00100000
10000000
,
00100000
00000000
10000000
00000000
00010000
00000000
10000000
00000000
01000000
00000000
00100000
00000000
00010000
00000000
10000000
00100000
,
01000000
00000000
00010000
00000000
00001000
00000000
00000100
00000000
00000001
00000000
00001000
00000000
00000100
00000000
00000010
00000100
,
00000001
00000100
00001000
00010000
00001000
00000100
00000001
00000010
,
00000110
00000010
00001010
00000000
00000110
00000010
00000011
00000000
,
00001000
00000000
00000001
00000000
00000010
00000000
00000100
00000000
00001000
00000010
00000100
00000000
00000010
00000000
00000001
00000000
,
00001000
00000000
00000010
00000000
00000100
00000000
00001000
00000000
00010000
00001000
00100000
00000000
01000000
00000000
00100000
00000000
,
00001000
00010000
01000000
00010000
00001000
00010000
00100000
10000000
,
00010000
00100000
00100000
01000000
10000000
00100000
00100000
01000000
,
10010000
00010000
01010000
00000000
00110000
00010000
00011000
00000000
,
00010010
00010000
00011000
00000000
00001100
00000100
00000110
00000000
,
00002000
00000000
00000002
00003003
,
00001000
00000010
00001000
00000010
00001000
00000000
00000001
00000010
00000000
00000001
00000100
00000000
00001000
00000000
00010000
00000000
,
01000000
10000000
01000000
10000000
01000000
00000000
00010000
01000000
00000000
10000000
00100000
00000000
00010000
00000000
00001000
00000000
,
00000100
00000001
00000100
00000001
00000100
00000000
00000010
00001000
00000000
00000001
00000010
00000000
00001000
00000000
00010000
00000000
,
00100000
10000000
00100000
10000000
00100000
00000000
01000000
00010000
00000000
01000000
00100000
00000000
10000000
00000000
01000000
00000000
,
00010000
00001000
00010000
00001000
00010000
00000000
00001000
00000010
00000000
00001000
00010000
00000000
01000000
00000000
20020000
00000000
,
00000000
00000000
00000000
30030000
,
10000000
00100000
01000000
00010000
00100000
00001000
00010000
00000100
00001000
00000010
00000100
00000001
00000010
00000100
00001000
00000001
,
00000100
00000000
00000000
00000000
;

//--------------- dance-double - Fred-104 ----------------
#NOTES:
     dance-double:
     Fred-104:
     Challenge:
     17:
     :
00000000
00000000
00000000
00000000
,
00000000
00000000
00000000
00000000
,
00000000
00000000
00000000
00000000
,
00000000
00000000
00000000
00000000
,
00000000
00000000
00000000
00000000
,
00000000
00000000
00000000
00000000
,
00000000
00000000
00000000
00000000
,
00000000
00000000
00000000
00000000
,
00000000
00000000
00000000
00000000
,
00000000
00000000
00000000
00000000
,
00020010
00000000
00000000
00000000
00000000
00000000
00000000
00000000
00000000
00030000
00001000
00010000
,
00200000
00000000
00000000
20300000
,
32000000
00000000
03020000
00000000
,
00032000
00000000
00000002
00003003
,
00000201
00000000
00000320
00000000
,
00002030
00000000
00000000
00003000
,
00020000
00000000
00000000
00030000
,
00022000
00000000
00000000
00000000
,
00000000
00000000
00000000
00000000
,
00033000
00000000
00000000
00000000
,
00000000
00000000
00000000
00000000
,
00010000
00001000
00010000
00000100
00001000
00000100
00010000
00001000
00010000
00000100
00001000
00000100
00010000
00000000
00000000
00000000
,
00001000
00010000
00001000
01000000
00010000
01000000
00001000
00010000
00001000
01000000
00010000
01000000
00001000
00000000
00001000
00000000
,
00010000
00000100
00001000
00000100
00010000
00001000
00010000
00000100
00001000
00000100
00010000
00001000
00010000
00000100
00010000
00000000
,
00001000
00100000
00001000
00000000
00010000
00000000
00100000
01000000
00000000
01000000
00100000
00000000
00010000
00100000
00010000
00000000
,
00001000
00010000
00001000
00100000
00010000
00100000
00001000
00010000
00001000
00100000
00010000
00100000
00001000
00000000
00000000
00000000
,
00010000
00001000
00010000
00000010
00001000
00000010
00010000
00001000
00010000
00000010
00001000
00000010
00010000
00000000
00010000
00000000
,
00001000
00010000
00001000
00100000
00010000
00100000
00001000
00010000
00001000
00100000
00010000
00100000
00001000
00000000
00000000
00000000
,
00010000
00000000
00000000
00000000
00001000
00000000
00000000
00000000
00010000
00000000
00000000
00000000
00000010
00000000
00000000
00000000
00010000
00000000
00000000
00000000
00001000
00000000
00000000
00000000
00010000
00000000
00000000
00001000
00000000
00000000
00010000
00000000
00000000
00001000
00000000
00000000
00100000
00000000
00000000
00010000
00000000
00000000
00100000
00000000
00000000
00010000
00000000
00000000
,
00100000
00000000
00000000
00000000
10100000
00000000
00000000
00000000
00010000
00000000
10000000
01000000
00000000
00100000
01000000
00000000
,
00100000
00000000
00011000
00000000
00010000
00001000
00000010
00000001
,
00001001
00000000
00000000
00000000
00000110
00000000
00000000
00000000
00000001
00000000
00000100
00000010
00000000
00001000
00000010
00000000
,
00000100
00000000
00000001
00000000
00000010
00000100
00001000
00000000
00010000
00000100
00000000
00001000
00000000
00000100
00010000
00000000
,
00011000
00000000
00000000
00000000
00101000
00000000
00000000
00000000
00001000
00000000
00010000
00100000
00000000
00100000
01000000
00000000
,
01100000
00000000
00000000
00000000
11000000
00000000
00000000
00000000
00100000
00000000
01000000
00100000
00000000
10000000
00100000
00000000
,
01000000
00000000
00100000
00000000
10000000
00000000
01000000
00100000
00000000
00100000
00001000
00000000
00010000
00000000
00000100
00000000
,
00001000
00000010
00000100
00000001
00000010
00000100
00001000
00000010
,
00000100
00000000
00000001
00000100
00000010
00000000
00001000
00000100
00010000
00000000
00001000
00100000
00010000
00000000
01000000
00100000
,
10000000
01000000
10000000
01000000
00100000
01000000
00100000
01000000
00100000
00010000
00100000
00010000
00100000
00001000
00010000
00001000
,
00020000
00000000
00000000
00030000
,
00001000
00000100
00000001
00001000
00000100
00000010
00000001
00000100
,
00000010
00001000
00010000
00100000
10000000
00010000
00100000
01000000
,
10000000
00100000
01000000
00010000
00100000
00000000
00000000
00000000
00001000
00010000
00000010
00001000
00000100
00000000
00000000
00000000
,
00010000
00000000
00000100
00000000
00001000
00000000
00000100
00000000
00000010
00000001
00000010
00000001
00000010
00000000
00000001
00000000
,
00001000
00000000
00000010
00000000
00000100
00000000
00000010
00000000
00001000
00000100
00001000
00000100
00001000
00000000
00000010
00000000
,
00010000
00000000
00001000
00000000
00100000
00000000
00001000
00000000
00010000
00001000
00010000
00001000
00010000
00000000
00001000
00000000
,
00100000
00010000
10000000
00100000
01000000
00100000
10000000
01000000
,
00100000
00010000
00100000
00000000
00001000
00010000
00001000
00000000
00100000
00001000
00100000
00000000
00001000
00010000
00001000
00000000
,
00010000
00000100
00010000
00000000
00000010
00001000
00000010
00000000
00000100
00000001
00000100
00000000
00000001
00001000
00000001
00000000
,
00001000
00000100
00000010
00000001
00000100
00000000
00000000
00000000
00000010
00010000
00001000
00100000
00010000
00000000
00000000
00000000
,
00001000
00010000
00001000
01000000
00010000
01000000
00001000
00010000
00001000
01000000
00010000
01000000
00001000
00000000
00000000
00000000
,
00010000
00001000
00010000
00000100
00001000
00000100
00010000
00001000
00010000
00000100
00001000
00000100
00010000
00000000
00010000
00000000
,
00001000
01000000
00010000
01000000
00001000
00010000
00001000
01000000
00010000
01000000
00001000
00010000
00001000
01000000
00001000
00000000
,
00010000
00000010
00010000
00000000
00001000
00000000
00000010
00000100
00000010
00000100
00000010
00000000
00001000
00000010
00001000
00000000
,
00010000
00001000
00010000
00000010
00001000
00000010
00010000
00001000
00010000
00000010
00001000
00000010
00010000
00000000
00000000
00000000
,
00001000
00010000
00001000
00100000
00010000
00100000
00001000
00010000
00001000
00100000
00010000
00100000
00001000
00000000
00001000
00000000
,
00010000
00001000
00010000
00000010
00001000
00000010
00010000
00001000
00010000
00000010
00001000
00000010
00010000
00000000
00000000
00000000
,
00001000
00000000
00010000
00000000
01000000
00000000
00100000
00000000
00001000
00010000
00001000
00010000
00000010
00001000
00000010
00001000
,
00000020
00000230
00002300
00023000
,
00230000
20300000
32000000
03020000
,
00032000
00003020
00000032
00000203
,
00002300
00023000
02030000
13000000
,
10010000
00000000
00010000
10000000
00010000
00000000
01000000
00100000
10000000
00000000
00100000
01000000
00010000
00000000
00100000
00000000
,
01000000
10000000
00100000
00000000
01000000
00010000
00100000
00000000
00001000
00010000
00001000
00010000
00000010
00001000
00000010
00001000
,
00000001
00000100
00000001
00000100
00000001
00000000
00001000
00000100
00000010
00000000
00000001
00000100
00000010
00000000
00001000
00000000
,
00000001
00000100
00000001
00000000
00000100
00000010
00000100
00000000
00000010
00001000
00000010
00000000
00010000
00001000
00010000
00000000
,
00001000
00010000
00001000
00100000
00010000
00100000
01000000
10000000
00100000
01000000
00010000
10000000
00010000
01000000
00100000
10000000
,
00100000
00000000
01000000
00000000
00100000
00000000
10000000
00000000
01000000
00000000
00100000
00000000
00010000
00000000
01000000
00100000
,
01000000
00000000
00100000
00000000
00010000
00000000
00001000
00000000
00000100
00000000
00000010
00000000
00001000
00000000
00010000
00001000
,
00010000
00100000
01000000
00001000
00010000
00001000
00000100
00000010
,
00001000
00000010
00010000
00001000
00100000
00000000
00000000
00000000
00010000
01000000
00001000
00010000
00000100
00000000
00000000
00000000
,
00001000
00000000
00000100
00000000
00000010
00000000
00000001
00000000
00001000
00000010
00000100
00000001
00001000
00000000
00000010
00000000
,
00000100
00000000
00001000
00000000
00010000
00000000
00100000
00000000
01000000
00010000
00100000
00001000
00010000
00000000
00001000
00000000
,
00000100
00000010
00000001
00000000
00000100
00000010
00001000
00000000
00000100
00010000
00001000
00000000
00100000
00010000
10000000
00000000
,
00010000
01000000
00100000
10000000
00010000
00100000
01000000
10000000
00100000
01000000
00010000
00100000
00001000
00010000
00001000
00100000
,
00001000
00010000
00000010
00001000
00000100
00000000
00000000
00000000
00010000
00001000
01000000
00010000
00100000
00000000
00000000
00000000
,
00001000
00000010
00010000
00001000
00100000
00000000
00000000
00000000
01000000
00001000
00010000
00000100
00001000
00000000
00000000
00000000
,
00000002
00000000
00002000
00003003
,
00000001
00000010
00000100
00001000
00000010
00000000
00000100
00000001
00000000
00001000
00000100
00000000
00000010
00000000
00000100
00000000
,
00000001
00001000
00000100
00001000
00000010
00000000
00010000
00001000
00000000
00010000
00000100
00000000
00010000
00000000
00001000
00000000
,
00100000
00010000
00100000
01000000
10000000
00000000
00010000
01000000
00000000
00100000
01000000
00000000
00010000
00000000
10000000
00000000
,
00100000
01000000
00010000
00100000
00001000
00000000
00010000
00001000
00000000
00010000
00000010
00000000
00001000
00000000
00000100
00000000
,
00000001
00000100
00001000
00000100
00000001
00000000
00000100
00000010
00000000
00001000
00000100
00000000
00010000
00000000
00022000
00000000
,
00000000
00000000
00000000
00033000
,
00010000
01000000
00100000
10000000
01000000
00100000
00001000
00010000
00000100
00001000
00000100
00000010
00000001
00001000
00000010
00000100
,
00000001
00000000
00000000
00000000
;
