#TITLE:XENOViA;
#ARTIST:BlackY;
#BANNER:XENOViA.png;
#BACKGROUND:XENOViA-bg.png;
#CDTITLE:./CDTitles/jb festo.png;
#MUSIC:XENOViA.ogg;
#SAMPLESTART:92.273;
#SAMPLELENGTH:15;
#DISPLAYBPM:104:208;
#BPMS:0=208,67=416,68=208,98=416,100=208,116=104,117=208,131=104,133=208,177=104,178=208,192=104,193=208,207=104,208=208,222=104,223=208,238=104,246=208,246.5=104,254=208,286=312,292=416,296=832,304=208,308.5=416,309=208,320=416,321=208;
#STOPS:67=0.144,98=0.037,98.25=0.036,98.5=0.036,98.75=0.036,99=0.036,99.25=0.036,99.5=0.036,99.75=0.036,237=0.865,246=0.144,308.5=0.037,308.75=0.036,320=0.143;
#TIMESIGNATURES:0=4=4,116=3=4,119=4=4,131=2=4,133=4=4,177=3=4,180=4=4,192=3=4,195=4=4,207=3=4,210=4=4,222=3=4,225=4=4,237=1=4,238=4=4,286=6=4,292=4=4;
#BGSTAGE:30;

//--------------- dance-single - Fred-104 ----------------
#NOTES:
     dance-single:
     Fred-104:
     Beginner:
     9:
     :
0000
0000
0000
0000
,
0000
0000
0000
0000
,
0000
0000
0000
0000
,
0000
0000
0000
0000
,
0000
0000
0000
0000
,
1000
0000
0100
0000
0000
0010
0000
0000
,
0100
0000
0000
0001
0000
0010
0100
0200
,
0000
0000
0000
0000
,
0000
0000
0000
0300
,
1001
0000
0002
0000
0000
0203
0000
0000
,
0320
0000
0000
2030
0000
0000
3001
0000
,
1000
0010
1000
0000
0001
0100
0001
0000
,
1000
0001
1000
0000
0001
1000
0001
0000
,
0010
0001
1000
0010
,
1000
0100
0100
0010
,
0001
0100
0001
0000
1000
0100
1000
0000
,
0001
2000
0000
0000
0000
0000
3000
0000
,
0001
0001
0010
0100
,
0010
0000
0010
0000
0001
1000
0010
0000
,
0100
0100
0010
1000
,
0001
0000
0000
1000
0000
0010
0000
0100
,
0000
1001
0100
0010
,
0001
0100
0001
0000
1000
0100
1000
0000
,
0001
0000
0000
1000
0000
0000
0001
0000
,
0100
0100
0100
0000
,
0010
0010
0001
1000
,
0100
0000
1000
0000
0001
0010
0100
0000
,
0010
0010
0001
1000
,
0010
1000
0001
1000
,
0001
1000
0001
0000
0010
0000
0001
0000
,
0100
0000
0100
0010
0100
0000
0001
0000
,
1000
0010
1000
0000
0001
0100
0010
0000
,
1000
2002
3003
0002
,
1003
0001
1000
0000
0001
0000
0010
0100
,
0010
0000
0001
0000
1000
0000
0010
0100
,
0010
1000
0010
1000
,
0001
1000
0010
0100
,
0100
0001
0000
1000
,
0000
0000
0001
0000
0000
1000
0000
0000
,
0000
1000
0000
0000
0000
0001
0000
0000
,
1000
1001
0000
0000
,
0000
0100
0000
0000
,
0000
0010
0000
0001
,
0000
1000
0001
2002
,
3003
0000
0100
0010
0200
0000
0320
0000
,
0032
2003
3001
0001
,
2000
3200
0320
0032
,
2003
3020
0130
0100
,
0010
0100
0020
0000
0230
0000
2300
0000
,
3002
1003
1000
1001
,
0000
0100
0000
0000
0000
0100
0000
0010
,
0000
0000
0100
0001
,
0001
0000
0000
1000
0000
0000
0001
0000
,
0100
0100
0010
0000
,
1000
0000
0000
0001
0000
0000
0000
0000
,
1000
0000
0001
0000
1000
0001
1000
0000
,
0000
0010
0000
0000
1000
0000
0001
0000
,
0010
0002
0003
2000
,
3000
0001
1000
0001
,
0001
0000
0000
0000
0000
0000
0000
0000
0000
0000
0000
0000
0000
0000
0000
0000
2002
3003
0000
0000
0000
0000
0000
0000
0000
0000
0000
0000
0000
0000
0000
0000
2000
0000
0000
0000
0000
0000
0000
0000
0000
0000
0000
0000
0000
0000
0000
0000
0000
0000
0000
0000
0000
0000
0000
0000
0000
0000
0000
0000
0000
0000
0000
0000
,
3020
0000
0230
0000
,
0302
0000
2003
3020
,
0230
0000
0302
0000
1003
0100
1000
0010
,
0100
0001
0001
0100
1001
0000
0000
0000
,
0000
0000
0110
0000
,
0000
0000
0000
0000
1100
0000
0000
0010
,
0000
0000
0000
0001
0000
0000
0000
0000
,
0100
0010
0220
0000
,
0000
0330
2002
0000
,
0000
3003
0002
0003
,
2000
3000
0001
1000
,
0001
0200
0000
0000
,
0000
0000
0000
0000
,
0000
0000
0000
0000
,
0000
0000
0000
0000
,
0300
0000
0000
0000
,
0001
0000
0000
0100
0000
0000
0100
0000
,
0000
0000
0100
0010
,
0010
1000
0010
1000
,
1000
0000
0001
0000
1000
0001
1000
0000
,
0000
0000
0001
0010
,
0010
0000
0001
0000
1000
0100
1000
0000
,
0002
0000
0000
0003
2000
0000
0000
3000
,
0001
0000
1000
0000
0010
0000
0100
0100
,
0000
0000
0001
1000
,
0100
0010
0100
0000
0001
0000
0100
0000
,
0001
0010
0001
0000
1000
0010
1000
0000
,
0002
0003
2000
3000
,
0001
0100
0101
0000
,
1000
0100
1100
0000
,
0001
0000
0000
1000
0000
0000
0001
0000
,
0100
0000
0100
0000
0010
0100
0010
0000
,
0200
0000
0000
0300
,
0020
0000
0000
0030
,
0002
0000
0000
0003
,
2000
0000
0000
3000
,
0020
0000
0000
0030
,
0200
0000
0000
0300
,
0002
0003
2000
3000
,
0001
0000
0000
0000
0000
0000
0000
0000
0000
0000
0000
0000
0000
0000
0000
0000
0000
0000
0000
0000
0000
0000
0000
0000
0000
0000
0000
0000
0000
0000
0000
0000
0000
0000
0000
0000
0000
0000
0000
0000
0000
0000
0000
0000
0000
0000
0000
0000
1000
0000
0000
0000
0000
0000
0000
0000
0000
0000
0000
0000
0000
0000
0000
0000
0000
0000
0000
0000
0000
0000
0000
0000
0000
0000
0000
0000
0000
0000
0000
0000
0000
0000
0000
0000
0000
0000
0000
0000
0000
0000
0000
0000
0000
0000
0000
0000
0001
0000
0000
0000
0000
0000
0000
0000
0000
0000
0000
0000
0000
0000
0000
0000
0000
0000
0000
0000
0000
0000
0000
0000
1000
0000
0000
0000
0000
0000
0000
0000
0000
0000
0000
0000
0000
0000
0000
0000
0000
0000
0000
0000
0000
0000
0000
0000
0001
0000
0000
0000
0000
0000
0000
0000
0000
0000
0000
0000
0000
0000
0000
0000
0000
0000
0000
0000
0000
0000
0000
0000
2000
3000
0000
0000
0000
0000
0000
0000
0000
0000
0000
0000
0000
0000
0000
0000
0000
0000
0000
0000
0000
0000
0000
0000
;

//--------------- dance-single - Fred-104 ----------------
#NOTES:
     dance-single:
     Fred-104:
     Easy:
     13:
     :
0000
0000
0000
0000
,
0000
0000
0000
0000
,
0000
0000
0000
0000
,
0000
0000
0000
0000
,
0000
0000
0000
0000
,
0010
0100
0010
0000
0000
1010
0000
1000
,
0001
0000
0000
0100
0000
0010
2000
0002
,
0000
0000
0000
0000
,
0000
0000
0000
3003
,
1020
0000
0230
0000
0000
0302
0000
0000
,
0103
0200
0000
0301
0002
0000
2003
0000
,
3001
0010
0001
0010
0001
0100
0001
0000
,
1000
0100
1000
0100
1000
0020
1030
0002
,
0103
0000
0010
0010
0000
1000
0000
0001
,
1000
0001
0000
0100
0010
0000
0010
0000
,
1000
0100
1000
0010
0100
0001
1000
0001
,
0100
0200
0000
0000
0000
0000
0300
0000
,
0001
0000
0011
0000
0001
0100
0010
0000
,
1000
0010
1000
0000
0001
0100
0001
0000
,
1000
0010
1000
0001
1000
0100
1000
0000
,
0001
0000
0100
0100
0000
0010
0000
1001
,
0000
0000
1001
0000
0100
0010
0001
0000
,
1000
0010
0100
0010
1000
0001
1000
0001
,
1001
0000
0000
0110
0000
0000
1001
0000
,
0100
0010
0100
0010
0002
0023
0032
2003
,
3001
0000
0001
0100
0000
0120
0000
2030
,
0000
3200
0000
0320
0000
0031
0100
0010
,
0100
0000
0001
0100
0000
0102
0000
0023
,
0000
2030
0000
3020
0000
0031
1000
0010
,
0100
0000
0010
0100
0010
0000
0002
0000
0000
0000
1003
0000
0000
0000
0120
0000
,
0000
2030
0000
3001
0100
0010
1000
0100
,
1000
0100
1000
0100
0010
0001
0100
0001
,
0100
0001
0100
0010
1000
0000
1001
0001
,
0100
0000
0000
0010
0000
0000
0010
0000
1000
0000
0000
0000
0100
0000
0000
0000
1000
0000
0000
0000
0000
0000
0000
0000
0001
0000
0000
0000
0100
0000
0000
0000
,
0010
0000
1000
0000
0100
0200
0000
0320
,
0000
0000
0031
0000
0101
0000
0000
0000
0010
0000
0000
0000
0100
0000
0000
0100
,
0000
0100
0001
0000
1000
0010
0000
1010
,
0000
1010
0000
0011
0000
1001
0000
0100
,
0010
0100
0001
0000
0100
0100
0000
0010
,
0000
1010
0000
0002
0000
0203
0000
0310
,
1000
1001
0000
0000
,
0000
0110
0000
0000
,
0000
1010
0000
0101
,
0000
0000
0000
0000
1000
0000
0000
0001
0000
0000
1000
0000
0010
0000
0100
0000
,
0100
0000
0000
0000
0002
0000
1003
0001
0100
0000
0000
0000
0101
0000
0000
0000
,
0001
1100
1000
1010
,
0010
0110
0100
0101
,
0001
0011
1000
1001
,
0100
0000
0010
0100
0010
0000
0000
0000
0011
0000
0000
0000
0001
0000
0000
0000
,
0101
0010
1010
1001
,
0001
0100
0000
0010
0000
0110
0000
1000
,
0010
0200
0000
0302
0000
1003
0002
0003
,
1000
0000
0000
1000
0000
0000
1000
0000
0000
0000
0001
0000
0001
0000
0000
0000
,
0100
0000
0010
0100
0010
0000
1000
0001
,
1000
0000
0000
1000
0000
0000
0100
0000
0000
0000
0010
0000
0000
0000
0001
0000
,
0100
0000
0010
0000
0100
0000
0010
0000
0200
0000
0310
0000
1000
0000
0000
0100
,
0000
0000
0010
0000
0000
0001
0000
0000
0100
0000
0001
0000
1000
0000
0000
0001
,
0000
0000
0000
1000
0000
0000
0001
0000
0000
0000
0010
0000
0000
0000
0100
0000
0000
0000
1000
0000
0000
0000
0010
0000
,
0000
0000
0100
0000
0000
0000
0001
0000
0000
0000
0010
0000
0000
0000
0100
0000
0000
0000
1000
0000
0000
0010
0000
0000
,
0100
0000
0000
0000
0000
0000
0000
0000
0001
0000
0000
0000
0000
0000
0000
0000
2000
3000
0000
0000
0000
0000
0000
0000
0000
0000
0000
0000
0000
0000
0000
0000
1002
0000
0000
0000
0000
0000
0000
0000
0000
0000
0000
0000
0203
0000
0000
0000
0000
0000
0000
0000
0000
0000
0000
0000
0320
0000
0000
0000
0000
0000
0000
0000
,
2030
0000
0000
3100
0000
0100
0000
0020
0000
0000
0000
0032
0000
0000
0203
0000
,
0310
0000
0000
0000
0000
0000
0000
0000
1000
0000
0000
0000
0000
0000
0000
0000
0001
0000
0000
0000
0000
0000
0100
0000
0000
0000
0000
0000
1000
0000
0000
0000
0200
0300
0000
0000
0000
0000
0000
0000
0000
0000
0000
0000
0002
0000
0000
0000
0000
0000
0000
0000
0000
0000
0000
0000
2003
0000
0000
0000
0000
0000
0000
0000
,
3002
0000
0000
0203
0000
0000
0320
0000
1030
0010
1000
0000
0001
0100
0001
0000
,
1000
0001
1000
0001
1000
0001
1000
0001
1000
0000
0000
0000
0000
0000
1001
0000
,
0000
0000
0001
0000
0100
0000
0000
1010
,
0000
0010
0000
0110
0000
0000
0000
0101
,
0000
0100
0000
0010
0000
0010
0000
1000
,
0002
0000
0000
0000
2003
0000
0000
0000
3001
0000
0000
0001
0000
0000
1000
0000
,
0000
1000
0000
0000
0001
0000
0000
0000
1000
0000
0000
0100
0000
0000
0100
0000
,
0000
1000
0000
0000
0001
0000
0000
0000
1000
0000
0000
0100
0000
0000
0010
0000
,
0000
0001
0000
0000
1000
0000
0001
0000
0100
0000
0000
0000
0010
0000
0000
0000
,
0100
0220
0000
0000
,
0000
0000
0000
0000
,
0000
0000
0000
0000
,
0000
0000
0000
0000
,
0330
0000
0000
0000
,
0100
0000
0000
0000
0010
0000
0010
0000
0000
0100
0000
0000
0010
0000
0100
0000
,
0000
0000
0001
0000
0100
0010
1000
0000
,
0001
0000
0010
0000
0100
0000
0000
0000
0010
0000
0000
0001
0000
0000
1000
0000
,
0010
0000
0000
0100
0000
0000
0010
0000
0100
0000
0000
0000
0100
0000
0000
0000
,
0002
0003
0000
0000
0000
0000
0000
0000
0000
0000
0000
0000
0000
0000
0000
0000
1000
0000
0000
0000
0000
0000
0000
0000
0000
0000
0000
0000
0000
0000
0000
0000
0010
0000
0000
0000
0000
0000
0000
0000
1000
0000
0000
0000
0000
0000
0000
0000
0001
0000
0000
0000
0000
0000
0000
0000
0100
0000
0000
0000
0000
0000
0000
0000
,
0001
0000
1000
0000
0100
0010
0100
0000
,
1000
0000
0000
0100
0000
0000
0000
0000
0001
0000
0000
0100
0000
0000
0000
0000
,
1000
0000
1010
0000
0001
1000
0010
0200
,
0000
0000
0301
0010
0001
0000
1000
0000
,
0010
1000
0100
0000
0010
0002
1003
0000
,
0001
0000
0000
0000
1000
0000
0100
0000
0010
0000
0000
0100
0000
0000
0010
0000
,
0001
0000
0000
0100
0000
0000
0001
0000
1000
0000
0000
0010
0000
0000
1000
0000
,
0001
0000
0001
0000
0010
0100
1000
0000
,
0010
0000
0010
0000
1000
0001
0100
0000
,
0001
0000
0000
0010
0000
0000
0100
0000
0000
0010
0000
0000
0001
0000
1000
0000
,
0010
1000
0100
1000
0010
0100
0001
1000
,
0002
0000
0000
0003
,
0020
0000
0000
0030
,
0200
0000
0000
0300
,
2000
0000
0000
3000
,
0002
0003
0200
0300
,
2000
3000
0200
0300
,
0001
0010
0100
1000
,
0001
0000
0000
0000
0000
0000
0000
0000
0000
0000
0000
0000
0000
0000
0000
0000
0000
0000
0000
0000
0000
0000
0000
0000
0100
0000
0000
0000
0000
0000
0000
0000
0000
0000
0000
0000
0000
0000
0000
0000
0000
0000
0000
0000
0000
0000
0000
0000
0010
0000
0000
0000
0000
0000
0000
0000
0000
0000
0000
0000
0000
0000
0000
0000
0000
0000
0000
0000
0000
0000
0000
0000
1000
0000
0000
0000
0000
0000
0000
0000
0000
0000
0000
0000
0000
0000
0000
0000
0000
0000
0000
0000
0000
0000
0000
0000
0100
0000
0000
0000
0000
0000
0000
0000
0000
0000
0000
0000
0000
0000
0000
0000
0000
0000
0000
0000
0000
0000
0000
0000
0010
0000
0000
0000
0000
0000
0000
0000
0000
0000
0000
0000
0000
0000
0000
0000
0000
0000
0000
0000
0000
0000
0000
0000
0001
0000
0000
0000
0000
0000
0000
0000
0000
0000
0000
0000
0000
0000
0000
0000
0000
0000
0000
0000
0000
0000
0000
0000
2000
3000
0000
0000
0000
0000
0000
0000
0000
0000
0000
0000
0000
0000
0000
0000
0000
0000
0000
0000
0000
0000
0000
0000
;

//--------------- dance-single - Fred-104 ----------------
#NOTES:
     dance-single:
     Fred-104:
     Medium:
     16:
     :
0000
0000
0000
0000
,
0000
0000
0000
0000
,
0000
0000
0000
0000
,
0000
0000
0000
0000
,
0000
0000
0000
0000
,
1000
1000
0001
0000
0000
0101
0000
0100
,
0010
0000
1000
1010
0000
0001
0100
0220
,
0000
0000
0000
0000
,
0000
0000
0000
0330
,
1000
0100
0020
0000
1030
0002
0000
0103
,
0020
0000
0130
2000
0000
3100
0010
0000
,
0001
0000
0100
0001
0100
0001
0100
0001
0100
0010
1000
0010
1000
0010
1000
0001
,
1000
0000
0010
0000
1000
0000
0001
0000
0100
0000
0010
0100
0010
0000
1000
0001
,
1000
0000
0001
0011
0000
0100
1000
0010
,
0100
0100
0001
0000
0100
0100
1000
0001
,
1000
0010
1000
0000
0001
0010
0001
0000
1000
0100
1000
0000
0001
0100
0001
0000
,
1000
2002
0000
0000
0000
0000
3003
0000
,
1010
0000
0101
0100
0010
1000
0010
1000
,
0100
0010
0001
1000
0001
0100
0010
1000
,
0100
0010
0100
0000
0010
0000
0001
0000
1000
0001
1000
0000
0010
0000
0100
0000
,
0001
0000
0100
0101
0000
1100
0000
0110
,
0000
0000
1001
0000
0100
0010
0001
1000
,
1000
0010
1000
0000
0001
0100
0001
0000
1000
0000
0100
0000
0010
0000
0001
0000
,
0101
0000
0000
1010
0000
0000
0110
0000
,
0001
0000
0000
0000
1000
0000
0000
0000
0001
0000
0000
0000
0000
0000
0000
0000
0100
0000
0000
0000
0010
0000
0000
0000
0100
0000
0000
0000
0000
0000
0000
0000
0002
0003
0000
0000
2000
3000
0000
0000
0002
0003
0000
0000
0000
0000
0000
0000
0200
0300
0000
0000
0020
0030
0000
0000
0200
0300
0000
0000
0020
0030
0000
0000
,
1000
0100
0001
0100
0000
1200
0000
0310
,
0000
0201
0000
0310
0000
1000
0100
0010
,
0001
0100
0010
0100
0000
0021
0000
0130
,
0000
0000
1020
0000
0000
0000
0130
0000
0001
0000
0000
1000
0000
0000
0010
0000
,
0100
0000
0002
2003
3001
0000
0100
0000
0010
0000
1000
0000
0100
0000
1000
0000
,
0100
0000
0010
0000
0001
0000
1000
0000
0010
0000
0100
0000
0001
0000
1000
0100
,
1000
0100
1000
0100
1000
0000
0100
0000
0010
0000
0001
0000
1000
0001
1000
0000
,
0010
0100
0010
0000
1000
0001
0000
1000
0001
0000
0100
0000
0010
0100
0010
1000
,
0001
0000
0000
0001
0000
0000
0001
0000
0100
0000
0000
0000
0010
0000
0000
0000
1000
0000
0000
0000
0100
0000
0000
0000
1000
0000
0000
0000
0100
0000
0000
0000
,
0010
0001
1000
0010
0100
0010
0000
1010
,
0000
0000
0100
0000
0101
0000
0000
0000
0001
0000
1000
0000
0010
0000
0000
0010
,
0000
0000
0100
0000
0001
0000
1000
0000
0100
0000
1000
0000
0100
0000
0000
0010
,
0000
0000
0001
0000
1000
0000
0000
1010
0000
0000
0001
0000
0000
0011
0000
0000
,
1000
0001
0100
0010
0100
0001
0000
0021
,
0030
1010
0000
0001
0010
0200
0000
1300
,
0001
0100
0110
0000
0000
0000
0000
0000
,
0000
1001
0000
0000
,
0000
1010
0000
0101
,
0000
0000
0000
0000
0100
0000
0000
0100
0000
0000
0010
0000
0100
0010
0100
0010
,
0200
0000
0000
0000
0302
2003
3200
0320
0032
0000
0013
0000
0200
0000
0310
0000
,
0002
1003
0200
1300
0002
0103
0020
0130
,
0002
0000
2003
3100
0020
0130
0002
0103
,
0020
0000
0130
0000
2000
0000
3001
0000
0200
0000
0310
0000
1000
0001
1000
0000
,
0002
0000
0103
0010
0100
0000
0001
0000
0010
0000
0001
0000
1000
0000
0010
0000
,
0100
0010
1000
0100
0010
0001
1001
0000
,
0100
1100
0000
1010
0000
0101
0000
0001
,
0100
0020
0000
2030
0000
3001
2002
3003
,
1000
0000
0000
1100
0000
0000
1100
0000
0000
0000
0000
0000
1001
0000
0000
0000
,
0010
0100
0010
0001
1000
0000
0001
0100
,
0001
0000
0000
0011
0000
0000
0011
0000
0000
0000
0110
0000
0000
0000
0100
0000
,
1000
0000
0001
0000
0001
0000
1000
0000
0100
0100
0010
0000
0001
0000
0000
0101
,
0000
0000
1000
0000
0000
1100
0000
0000
0001
0000
1000
0000
0010
0000
0000
0010
,
0000
0000
0000
0100
0000
0000
0001
0000
0000
0000
0010
0000
0000
0000
1000
0000
0000
0000
0001
0000
0000
0000
0100
0000
,
0000
0000
1000
0000
0000
0000
0001
0000
0010
0000
0001
0000
1000
0000
0010
0000
1000
0000
0001
0000
0000
0100
0000
0000
,
0001
0000
0000
0000
1000
0000
0000
0000
0001
0000
0000
0000
0000
0000
0000
0000
2000
3000
0000
0000
0000
0000
0000
0000
0000
0000
0000
0000
0000
0000
0000
0000
0001
0000
0000
0000
0000
0000
0000
0000
0100
0000
0000
0000
0010
0000
0000
0000
0000
0000
0000
0000
1000
0000
0000
0000
0100
0000
0000
0000
0000
0000
0000
0000
,
1000
0000
0001
0010
0000
0100
0000
0010
0000
0000
0001
0100
0000
1000
0100
0000
,
0001
0000
0000
0000
0000
0000
0000
0000
1000
0000
0000
0000
0000
0000
0000
0000
0100
0000
0000
0000
0000
0000
0010
0000
0000
0000
0000
0000
0100
0000
0000
0000
2002
3003
0000
0000
0000
0000
0000
0000
0001
0000
0000
0000
0100
0000
0000
0000
0000
0000
0000
0000
0010
0000
0000
0000
1000
0000
0000
0000
0000
0000
0000
0000
,
0100
0000
0010
0001
0000
1000
0100
0002
0000
0103
1000
1000
0010
0100
0010
1000
,
0001
1000
0001
1000
0001
1000
0001
1000
0001
1000
0001
1000
0001
1000
0001
1000
0001
0000
0000
0000
0000
0000
0000
0000
0000
0000
0000
0000
1100
0000
0000
0000
,
0000
0000
0101
0000
1010
0000
0000
1010
,
0000
0101
0000
1001
0000
0010
0000
0110
,
0000
0100
0000
1100
0000
0011
0000
1000
,
0001
1000
0001
0000
1000
0000
0000
0000
0001
0000
0000
0010
0000
0000
0110
0000
,
0000
0100
0000
0000
1000
0000
0000
0000
1000
0000
0000
0010
0000
0000
0110
0000
,
0000
0100
0000
0000
0001
0000
0000
0000
1000
0000
0000
0100
0000
0000
0001
0000
,
0000
0100
0000
0000
1000
0000
0010
0000
0100
0000
0000
0000
0001
0000
0000
0000
,
0010
0100
2000
0000
0000
0000
0000
0000
,
0000
0000
0000
0000
,
0000
0000
0000
0000
,
0000
0000
0000
0000
,
3000
0000
0000
0000
,
1001
0000
0000
0000
0100
0000
0010
0000
0000
1000
0000
0000
0010
0000
0100
0000
,
0000
0000
0000
0000
0000
0000
0000
0000
0002
0003
0000
0000
2000
3000
0000
0000
0001
0000
0000
0000
0000
0000
0000
0000
0100
0000
0000
0000
0000
0000
0000
0000
0010
0000
0000
0000
0000
0000
0000
0000
0100
0000
0000
0000
0000
0000
0000
0000
0001
0000
0000
0000
0000
0000
0000
0000
1000
0000
0000
0000
0000
0000
0000
0000
,
0100
0000
1000
0000
0100
0000
0010
0000
0100
0000
0000
0001
0000
0000
0100
0000
,
0001
0000
0000
0010
0000
0000
0100
0000
1000
0000
0000
0010
0000
0000
0100
0000
,
0002
0003
0000
0000
0000
0000
0000
0000
0000
0000
0000
0000
0000
0000
0000
0000
1001
0000
0000
0000
0000
0000
0000
0000
0100
0000
0000
0000
0000
0000
0000
0000
0010
0000
0000
0000
0000
0000
0000
0000
0000
0000
0000
0000
0010
0000
0000
0000
0000
0000
0000
0000
0000
0000
0000
0000
0001
0000
0000
0000
0000
0000
0000
0000
,
1000
0000
0010
0000
1000
0000
0100
0000
0010
0000
0001
0000
0100
0001
0100
0001
,
0100
0000
0000
0010
0000
0100
0000
0000
1000
0000
0000
0001
0000
1000
0000
0000
,
1010
0000
0000
0000
0101
0000
0000
0000
1000
0000
0001
0100
0001
0000
2000
0000
,
0000
0000
0000
0000
3001
0000
0100
0000
0010
0100
0000
0010
0100
0000
0001
0000
,
1000
0000
0100
0000
1000
0000
0100
0000
1000
0010
1000
0010
1000
0010
1000
0010
,
0100
0000
0000
0000
0001
0000
0010
0000
0001
0000
0000
0100
0000
0000
0010
0000
,
1000
0000
0000
1010
0000
0000
0100
0000
0001
0000
0000
0011
0000
0000
0100
0000
,
1000
0000
0001
0000
0100
0000
0001
0000
1000
0001
1000
0001
1000
0000
0010
0000
,
1000
0100
1000
0000
0001
0100
0001
0000
1000
0010
1000
0000
0001
0010
0001
0000
,
1000
0000
0000
1100
0000
0000
0001
0000
0000
0011
0000
0000
0100
0000
0010
0000
,
1000
0100
1000
0100
1000
0100
1000
0100
1000
0100
1000
0100
1000
0100
1000
0100
,
2000
0000
0000
0000
,
3020
0000
0000
0000
,
0230
0000
0000
0000
,
0302
0000
2003
0000
,
3001
0010
1000
0010
,
0001
0100
0010
0000
1000
0100
0010
0000
,
0001
0010
0001
1000
0001
0100
0010
1000
,
0001
0000
0000
0000
0000
0000
0000
0000
0000
0000
0000
0000
0010
0000
0000
0000
0000
0000
0000
0000
0000
0000
0000
0000
0001
0000
0000
0000
0000
0000
0000
0000
0000
0000
0000
0000
0000
0000
0000
0000
0000
0000
0000
0000
0000
0000
0000
0000
1000
0000
0000
0000
0000
0000
0000
0000
0000
0000
0000
0000
0010
0000
0000
0000
0000
0000
0000
0000
0000
0000
0000
0000
1000
0000
0000
0000
0000
0000
0000
0000
0000
0000
0000
0000
0000
0000
0000
0000
0000
0000
0000
0000
0000
0000
0000
0000
0001
0000
0000
0000
0000
0000
0000
0000
0000
0000
0000
0000
0100
0000
0000
0000
0000
0000
0000
0000
0000
0000
0000
0000
0001
0000
0000
0000
0000
0000
0000
0000
0000
0000
0000
0000
0000
0000
0000
0000
0000
0000
0000
0000
0000
0000
0000
0000
1000
0000
0000
0000
0000
0000
0000
0000
0000
0000
0000
0000
0001
0000
0000
0000
0000
0000
0000
0000
0000
0000
0000
0000
0200
0300
0000
0000
0000
0000
0000
0000
0000
0000
0000
0000
0000
0000
0000
0000
0000
0000
0000
0000
0000
0000
0000
0000
;

//--------------- dance-single - Fred-104 ----------------
#NOTES:
     dance-single:
     Fred-104:
     Hard:
     18:
     :
0000
0000
0000
0000
,
0000
0000
0000
0000
,
0000
0000
0000
0000
,
0000
0000
0000
0000
,
0000
0000
0000
0000
,
0001
1000
0010
0000
0000
0100
0000
0100
,
1100
0000
0000
0110
0000
0010
0100
2002
,
0000
0000
0000
0000
,
0000
0000
0000
3003
,
1020
0000
0001
0000
0000
1030
0000
0000
,
0001
0101
0000
1000
1010
0000
0001
1000
,
0100
0000
1000
0010
1000
0100
1000
0100
0010
0001
1000
0010
0100
0001
1000
0001
,
0100
0000
0010
0000
1000
0000
0001
0000
1000
0000
0200
0010
0301
0000
0200
0010
,
1300
0000
1010
1001
0000
0001
0100
0010
,
1000
1010
0000
0001
0100
0000
0010
0100
,
0001
0100
0010
1000
0001
0010
0100
1000
0100
0010
0001
1000
0010
0100
0001
1000
,
0001
2002
0000
0000
0000
0000
3003
0000
,
1100
0000
0101
0100
0010
0001
1000
0010
,
1000
0100
1000
0000
0100
0000
0010
0000
0001
0100
0001
0000
0100
0010
0100
0000
,
0001
0010
0001
0000
1000
0010
1000
0000
0001
0100
0010
0000
1000
0100
0010
0000
,
0001
0000
0010
0011
0000
1100
0000
0101
,
0000
0000
1001
0100
0010
0001
1000
0100
,
1000
0100
0010
0000
0001
0100
0010
0000
1000
0000
1000
0000
0001
0000
0001
0000
,
0011
0000
0000
1100
0000
0000
1001
0000
,
1000
0000
0000
0000
0010
0000
0000
0000
1000
0000
0000
0000
0010
0000
0000
0000
0100
0000
0000
0000
0001
0000
0000
0000
0100
0000
0000
0000
0001
0000
0000
0000
2000
3000
0000
0000
0200
0300
0000
0000
2000
3000
0000
0000
0200
0300
0000
0000
0020
0030
0000
0000
0002
0003
0000
0000
0020
0030
0000
0000
0200
0300
0000
0000
,
1000
0000
0010
1000
0010
0000
1000
0000
0100
0000
0010
0000
0001
0100
0001
0000
,
1000
0100
1000
0000
0001
0010
0001
0000
1000
0000
0010
0000
0010
0000
0100
0000
,
0001
0000
0010
0000
0001
0000
1000
0000
0100
0000
0010
0000
0100
0010
0100
0000
,
0001
0010
0001
0000
1000
0010
1000
0000
0001
0000
0000
0001
0000
0000
1000
0000
,
0100
0000
0020
0230
0301
0010
0001
0000
1000
0000
1000
0000
0100
0010
0100
0000
,
0001
0100
0001
0000
1000
0000
0100
0000
0010
0000
0001
0000
1000
0000
0100
1000
,
0001
0010
0001
0010
0001
0100
0001
0100
0010
1000
0100
0010
0001
1000
0010
0100
,
0001
0000
1000
0000
0100
0000
1000
0000
0001
0000
0100
0000
0000
0000
0100
0000
0010
0000
0000
0000
1000
0000
0000
0000
0001
0000
1000
0100
1000
0000
0010
0000
,
0100
0000
0000
0100
0000
0000
0100
0000
0001
0000
0000
0000
0010
0000
0000
0000
0001
0000
1000
0000
0100
0000
0000
0000
0010
0000
0000
0000
0100
0000
0000
0000
,
0100
0000
0010
0000
1000
0000
0100
0000
0010
0100
0010
0000
0001
1000
0010
0000
,
0100
0001
0100
0000
0001
0000
0000
0000
1000
0000
0000
0000
0100
0000
0000
0100
,
0000
0000
1000
0000
0001
0000
0100
0010
0100
0000
0001
0000
0010
0000
0000
0010
,
0000
0000
0001
0000
1100
0000
0000
0101
0000
0000
1010
0000
0000
0011
0000
0000
,
1001
0000
0100
0000
0010
0000
0100
0010
0100
0000
0101
0000
0000
0000
1200
0000
,
0300
0110
0000
0001
0010
2000
0000
3010
,
0001
0100
0110
0000
0000
0000
0000
0000
,
0000
1010
0000
0000
,
0000
0011
0000
1100
,
0000
0000
0000
0000
0101
0000
0000
1001
0000
0000
0100
0000
0010
0100
0010
0200
,
0020
0000
0000
0000
0330
0000
0000
0000
1001
0000
0000
0000
0001
1000
0001
1000
0002
0000
0000
0000
0013
0000
0000
0000
2000
0000
0000
0000
3010
0000
0000
0000
,
0002
0000
0013
0000
0200
0000
1300
0000
0200
0000
0301
0000
0100
0010
0100
0010
,
2000
0000
0000
0000
3001
0100
0001
0000
1000
0010
1000
0000
0001
0010
0001
0000
,
1000
0100
1000
0000
0001
0010
0001
0000
1000
0001
1000
0000
0010
0100
0001
1000
,
0100
0100
0020
0000
1030
0000
0001
0000
1000
0100
1000
0001
0100
0001
0100
0000
,
0010
1000
0010
0000
0100
0010
0100
0000
0001
1000
0001
0000
1001
0000
0000
0000
,
0100
1000
0000
0101
0000
0110
0000
1001
,
0010
0200
0000
0302
0000
1003
2200
3300
,
1010
0000
0000
0011
0000
0000
1010
0000
0000
0000
0001
1000
0001
0000
0000
0000
,
0100
0000
0000
0000
0010
1000
0100
1000
0001
0000
0000
0000
1000
0000
0100
0000
,
0010
0000
0000
0011
0000
0000
1010
0000
0000
0000
0101
0000
0000
0000
0100
0000
,
0001
1000
0100
0000
0100
0000
0100
1000
0001
0001
1000
0000
1100
0000
0000
0110
,
0000
0000
0011
0000
0000
0101
0000
0000
1001
0000
0100
0000
0010
0000
0000
0001
,
0000
0000
0000
0000
0000
0000
1000
0000
0000
0010
0000
0000
0100
0000
0000
0000
0000
0000
0000
0000
0011
0000
0000
0000
0000
0000
0000
0000
1010
0000
0000
0000
0000
0000
0000
0000
0100
0000
0000
0000
0000
0000
0000
0000
1010
0000
0000
0000
,
0000
0000
0000
0000
0001
0000
0000
0000
0010
0000
0000
0000
0100
0000
0000
0000
1000
0000
0000
0000
0010
0000
0000
0000
0100
0000
0000
0000
0001
0000
0000
0000
1000
0000
0000
0000
0001
0000
0000
0010
0000
0000
0001
0000
0000
1000
0000
0000
,
0001
0000
0000
0000
0100
0000
0000
0000
0001
0000
0000
0000
1000
0000
0000
0000
0200
0300
0000
0000
0000
0000
0000
0000
0000
0000
0000
0000
0000
0000
0000
0000
1001
0000
0000
0000
0000
0000
0000
0000
0010
0000
0000
0000
1000
0000
0000
0000
0000
0000
0000
0000
0001
0000
0000
0000
1000
0000
0000
0000
0000
0000
0000
0000
,
0100
0000
0010
0001
0000
0020
0000
1000
0000
0000
0031
0100
0000
1000
0100
0000
,
0001
0000
0000
0000
0000
0000
0000
0000
1000
0000
0000
0000
0100
0000
0000
0000
0010
0000
0000
0000
0000
0000
0010
0000
0000
0000
0000
0000
0010
0000
0000
0000
2002
3003
0000
0000
0000
0000
0000
0000
0001
0000
0000
0000
1000
0000
0000
0000
0000
0000
0000
0000
0001
0000
0000
0000
0100
0000
0000
0000
0000
0000
0000
0000
,
0010
0000
0100
0000
0100
0000
1000
0000
0010
0000
0100
0000
0001
0000
2000
0000
0000
0000
3001
0010
0001
0010
0100
0010
0001
0000
1000
0000
0100
0000
0010
0000
,
0001
0100
0001
0100
0010
1000
0010
1000
0001
1000
0001
1000
0100
0010
0001
1000
0001
0000
0000
0000
0000
0000
0000
0000
0000
0000
0000
0000
1010
0000
0000
0000
,
0000
0000
0101
0000
1100
0000
0000
0021
,
0000
0000
0000
0030
0210
0000
0000
0000
0000
0000
0000
0300
2100
0000
0000
0000
0000
0000
0000
0000
3001
0000
0000
0000
0100
0000
0000
0000
0110
0000
0000
0000
,
0000
1010
0000
0011
0000
1100
0000
0001
,
0100
0010
0100
0010
0100
0000
0000
0000
1000
0000
0000
0100
0000
0000
0010
0000
,
0000
0001
0000
0000
0101
0000
0000
0000
0001
0000
0000
0100
0000
0000
0010
0000
,
0000
1000
0000
0000
0001
1000
0001
1000
0001
0000
0000
0100
0000
0000
0100
0000
,
0000
1000
0000
0000
0010
0000
0010
0000
0001
0000
0100
0000
1000
0000
0001
0000
,
0010
1000
0002
0000
0000
0000
0000
0000
,
0000
0000
0000
0000
,
0000
0000
0000
0000
,
0000
0000
0000
0000
,
0003
0000
0000
0000
,
1001
0000
0000
0000
0001
0000
0001
0000
0000
0100
0000
0000
1000
0000
0100
0000
,
0000
0000
0000
0000
0000
0000
0000
0000
0002
0003
0000
0000
2000
3000
0000
0000
0001
0000
0000
0000
0000
0000
0000
0000
0100
0000
0000
0000
0000
0000
0000
0000
0001
0000
0000
0000
1000
0000
0000
0000
0100
0000
0000
0000
1000
0000
0000
0000
0001
0000
0000
0000
0100
0000
0000
0000
0001
0000
0000
0000
1000
0000
0000
0000
,
0100
0000
0010
0100
0010
0000
0001
0000
1000
0000
0010
1000
0000
1000
0001
1000
,
0100
0000
0000
0110
0000
0000
0010
0000
0001
0000
1000
0000
0001
0010
0100
1000
,
0002
0003
0000
0000
0000
0000
0000
0000
0000
0000
0000
0000
0000
0000
0000
0000
1010
0000
0000
0000
0000
0000
0000
0000
0010
0000
0000
0000
0000
0000
0000
0000
0100
0000
0000
0000
0001
0000
0000
0000
0000
0000
0000
0000
0100
0000
0000
0000
0001
0000
0000
0000
0000
0000
0000
0000
1000
0000
0000
0000
0000
0000
0000
0000
,
0001
0000
0010
0001
0010
0000
0001
0000
0100
0010
1000
0010
0100
0001
0100
0010
,
1000
0000
0000
0100
0000
1000
0000
0000
0001
0000
0000
0100
0000
0010
0000
0000
,
1100
0000
0000
0000
0101
0000
0000
0000
0010
0000
0100
0010
0100
0000
0002
0000
,
0000
0000
0000
0003
0001
0000
1000
0000
0010
0100
0000
0010
0100
0000
0001
0000
,
1000
0000
0100
1000
0001
0000
0100
0000
0001
0010
0200
1300
0001
0100
0010
0100
,
0001
0000
0000
0000
0100
0000
0010
1000
0001
0000
0000
0101
0000
0000
0100
0010
,
1000
0000
0000
1100
0000
0000
0010
0000
0001
0000
0000
0101
0000
0000
0010
0000
,
1000
0000
0001
1000
0001
0000
0100
0000
0001
0010
0001
0010
0100
1000
0001
0000
,
1000
0100
1000
0010
0100
0001
0010
0100
1000
0100
0010
0001
0100
0010
1000
0001
,
1000
0000
1000
0100
0000
0100
0010
0000
0010
0001
0000
0001
0100
0000
0010
0000
,
1000
0010
0100
0001
0010
0100
1000
0100
0010
0001
0100
0010
1000
0010
0100
0001
,
2000
3100
0002
0103
,
2000
3010
0002
0013
,
1000
0100
0010
0000
1000
0010
0100
0000
,
1000
0100
0010
0001
0100
0010
1000
1000
,
0001
0010
0001
0010
0100
1000
0100
1000
0001
0100
0001
0100
0010
1000
0010
1000
,
0001
0010
0100
1000
0100
0010
0001
0100
0010
1000
0010
0100
0001
1000
0001
0100
,
0001
0010
0001
1000
0010
1000
0001
0100
0001
1000
0100
1000
0100
0010
0001
1000
,
0010
0000
0000
0000
0000
0000
0000
0000
0000
0000
0000
0000
0100
0000
0000
0000
0000
0000
0000
0000
0000
0000
0000
0000
0001
0000
0000
0000
0000
0000
0000
0000
0000
0000
0000
0000
1000
0000
0000
0000
0000
0000
0000
0000
0000
0000
0000
0000
0100
0000
0000
0000
0000
0000
0000
0000
0000
0000
0000
0000
0010
0000
0000
0000
0000
0000
0000
0000
0000
0000
0000
0000
0100
0000
0000
0000
0000
0000
0000
0000
0000
0000
0000
0000
0001
0000
0000
0000
0000
0000
0000
0000
0000
0000
0000
0000
0100
0000
0000
0000
0000
0000
0000
0000
0000
0000
0000
0000
0010
0000
0000
0000
0000
0000
0000
0000
0000
0000
0000
0000
0100
0000
0000
0000
0000
0000
0000
0000
0000
0000
0000
0000
1000
0000
0000
0000
0000
0000
0000
0000
0000
0000
0000
0000
0001
0000
0000
0000
0000
0000
0000
0000
0000
0000
0000
0000
0100
0000
0000
0000
0000
0000
0000
0000
0000
0000
0000
0000
0020
0030
0000
0000
0000
0000
0000
0000
0000
0000
0000
0000
0000
0000
0000
0000
0000
0000
0000
0000
0000
0000
0000
0000
;

//--------------- dance-single - Fred-104 ----------------
#NOTES:
     dance-single:
     Fred-104:
     Challenge:
     19:
     :
0000
0000
0000
0000
,
0000
0000
0000
0000
,
0000
0000
0000
0000
,
0000
0000
0000
0000
,
0000
0000
0000
0000
,
1000
0100
0001
0000
0000
0101
0000
0100
,
1001
0000
0000
1010
0000
0001
1000
2002
,
0000
0000
0000
0000
,
0000
0000
0000
3003
,
0200
0000
0010
0000
0000
1000
0300
0000
,
0001
1001
0000
0100
0100
0000
0010
1000
,
0001
0000
0100
0010
1000
0001
0100
0001
0100
0010
1000
0010
0100
0010
1000
0001
,
1000
0000
0000
0010
0000
0000
0100
0000
0000
0001
0000
0000
1000
0000
0000
0001
0010
0100
1000
0000
0000
0001
0100
0010
,
1000
0000
1100
1100
0000
0010
0000
0100
,
0001
0011
0000
0100
0110
0000
1000
0001
,
1000
0010
1000
0100
0010
0001
1000
0010
0100
0001
0100
0001
0010
0100
0010
0100
,
1000
2002
0000
0000
0000
0000
3003
0000
,
1010
0000
0000
0000
0011
0000
0010
0000
0100
1000
0001
0000
0100
0010
1000
0000
,
0001
0010
0100
0000
1000
0100
0010
0000
0001
1000
0010
0000
0100
0001
1000
0100
,
0010
0000
0001
1000
0010
0000
1000
0100
0010
0000
0001
1000
0001
0000
0100
0000
,
0110
0000
0010
1010
0000
0101
0000
0110
,
0000
0000
0000
0000
1001
0000
0000
0000
0100
0000
0010
0000
0001
1000
0001
0000
,
0100
0010
1000
0000
0001
1000
0100
0000
0010
0000
0010
0000
0100
0000
0100
0000
,
1100
0000
0000
0011
0000
0000
1001
0000
,
0001
0000
0000
0000
0000
0000
0000
0000
0000
0000
0000
0000
0010
0000
0000
0000
0000
0000
0000
0000
0000
0000
0000
0000
0100
0000
0000
0000
0000
0000
0000
0000
0000
0000
0000
0000
1000
0000
0000
0000
0000
0000
0000
0000
0000
0000
0000
0000
0010
0000
0000
0000
0000
0000
0000
0000
0000
0000
0000
0000
0100
0000
0000
0000
0000
0000
0000
0000
0000
0000
0000
0000
0001
0000
0000
0000
0000
0000
0000
0000
0000
0000
0000
0000
1000
0000
0000
0000
0000
0000
0000
0000
0000
0000
0000
0000
0200
0300
0000
0000
0000
0000
0000
0000
0000
0000
0000
0000
0020
0030
0000
0000
0000
0000
0000
0000
0000
0000
0000
0000
0002
0003
0000
0000
0000
0000
0000
0000
0000
0000
0000
0000
0200
0300
0000
0000
0000
0000
0000
0000
0000
0000
0000
0000
0020
0030
0000
0000
0000
0000
0000
0000
0000
0000
0000
0000
2000
3000
0000
0000
0000
0000
0000
0000
0000
0000
0000
0000
0200
0300
0000
0000
0000
0000
0000
0000
0000
0000
0000
0000
0020
0030
0000
0000
0000
0000
0000
0000
0000
0000
0000
0000
,
0001
0000
1000
0010
0100
0000
0001
0000
1000
0100
0010
0000
0001
1000
0001
0000
,
0010
0100
0010
0000
0001
0100
0010
0000
1000
0001
0010
0000
0100
1000
0100
1000
,
0001
0000
0100
0010
0100
0000
0001
0000
1000
0001
0010
0000
0001
1000
0100
0000
,
1000
0100
0010
0000
0001
0010
0100
0000
1000
0000
0000
1000
0000
0000
0001
0000
,
1001
0000
0100
0100
0010
1000
0001
0000
0100
0010
1000
0000
0001
0100
0010
0000
,
0010
1000
0100
0000
0100
0010
0001
0000
0001
1000
0001
0000
1000
0100
0010
0001
,
0010
0001
1000
0010
0100
0001
0010
0100
1000
0001
0100
0010
1000
0001
0010
0100
,
1000
0000
0100
0000
0010
0000
0001
0000
1000
0000
0100
0000
0000
0000
0001
0000
0100
0000
0000
0000
1000
0000
0000
0000
0001
0000
0100
0010
0100
0000
0001
0000
,
1000
0000
0000
1010
0000
0000
0010
0000
0100
0000
0001
0000
1000
0000
0000
0000
0010
0000
1000
0000
0100
0000
0000
0000
0010
0000
0001
0000
1000
0000
0000
0000
,
0001
0100
0001
0100
0010
0000
1000
0010
0100
0000
0010
0000
0001
1000
0001
0000
,
0100
0010
1000
0000
0100
0010
0001
0000
1000
0001
0100
0000
0110
0000
0000
1010
,
0000
0000
0101
0000
0001
0000
1000
0001
0010
0000
0100
0000
0010
0000
0000
0110
,
0000
0000
0100
0000
1100
0000
0000
0101
0000
0000
1010
0000
0000
0011
0000
0000
,
0100
0000
0010
0000
1000
0000
0001
0010
0100
0000
1100
0000
0000
0000
0110
0000
,
0001
0100
0010
0200
0000
0000
0000
0000
0000
1300
0000
0000
0010
0000
0000
0002
0000
0000
0000
0000
0000
0013
0000
0000
,
1000
0100
0110
0000
0000
0000
0010
0000
,
0000
1001
0000
0010
,
0000
1100
0000
0011
,
0000
0000
0000
0000
0000
0000
0000
0000
0000
0000
0000
0000
1010
0000
0000
0000
0000
0000
0000
0000
0000
0101
0000
0000
0000
0000
0000
0000
0000
0000
0110
0000
0000
0000
0000
0000
0100
0000
0010
0000
0100
0000
0010
0000
0100
0000
0010
0000
,
0200
0000
0000
0000
0300
0000
0000
0000
1001
0000
0000
0000
0001
0100
0001
0100
0010
0000
1000
0000
0002
0000
0000
0000
0013
0000
0100
0000
2000
0000
0000
0000
,
3010
0100
0002
0000
1003
0100
0002
0000
0103
1000
0020
0000
1030
0100
0010
0001
,
2000
0000
0000
0000
3001
0010
2000
0000
3010
0100
0002
0000
0103
0010
0002
0000
,
0013
0100
2000
0000
3010
1000
0200
0000
0310
0100
2000
0000
3001
0010
0100
1000
,
0001
0100
2000
0000
3100
0001
1000
0000
0010
0100
0001
1000
0100
0010
0001
0000
,
1000
0001
0100
0000
0001
1000
0100
0000
0010
0001
1000
0000
1001
0000
0000
0000
,
0010
0011
0000
1010
0000
0101
0000
0001
,
0100
0000
0020
0000
0000
0000
1030
0000
0100
0000
0010
0000
2002
0000
0000
3003
,
1100
0000
0000
0110
0000
0000
0011
0000
0000
0000
0001
0100
0010
0000
0000
0000
,
1001
0000
0000
0000
0001
0100
1000
0100
0001
0000
0000
0000
1000
0000
0010
0000
,
0110
0000
0000
1100
0000
0000
0101
0000
0000
0000
1001
0000
0000
0000
0100
0000
,
1000
0100
0001
0000
0100
0000
1000
0010
0100
0100
0010
0000
1010
0000
0000
0011
,
0000
0000
1100
0000
0000
0101
0000
0000
0100
0000
0100
0000
0010
0000
0000
1001
,
0000
0000
0000
0000
0000
0000
1000
0000
0000
0100
0000
0000
0010
0000
0000
0000
0000
0000
0000
0000
0101
0000
0000
0000
0000
0000
0000
0000
1100
0000
0000
0000
0000
0000
0000
0000
0010
0000
0000
0000
0000
0000
0000
0000
1100
0000
0000
0000
,
0000
0000
0000
0000
0000
0000
0000
0000
0000
0000
0000
0000
0000
0000
0000
0000
0101
0000
0000
0000
0000
0000
0000
0000
0000
0000
0000
0000
0000
0000
0000
0000
0200
0300
0000
0000
0000
0000
0000
0000
0000
0000
0000
0000
0000
0000
0000
0000
0010
0000
0000
0000
0000
0000
0000
0000
0000
0000
0000
0000
0000
0000
0000
0000
1000
0000
0000
0000
0000
0000
0000
0000
0000
0000
0000
0000
0000
0000
0000
0000
0100
0000
0000
0000
0000
0000
0000
0000
0000
0000
0000
0000
0000
0000
0000
0000
0010
0000
0000
0000
0000
0000
0000
0000
0000
0000
0000
0000
0000
0000
0000
0000
0001
0000
0000
0000
0000
0000
0000
0000
0000
0000
0000
0000
0000
0000
0000
0000
1000
0000
0000
0000
0000
0000
0000
0000
0000
0000
0000
0000
0000
0000
0000
0000
0001
0000
0000
0000
0000
0000
0000
0000
0000
0000
0000
0000
0100
0000
0000
0000
0000
0000
0000
0000
0000
0000
0000
0000
0001
0000
0000
0000
0000
0000
0000
0000
0000
0000
0000
0000
1000
0000
0000
0000
0000
0000
0000
0000
0000
0000
0000
0000
,
0010
0000
0000
0000
0000
0000
0000
0000
0000
0000
0000
0000
0100
0000
0000
0000
0000
0000
0000
0000
0000
0000
0000
0000
0001
0000
0000
0000
0000
0000
0000
0000
0000
0000
0000
0000
0010
0000
0000
0000
0000
0000
0000
0000
0000
0000
0000
0000
0200
0300
0000
0000
0000
0000
0000
0000
0000
0000
0000
0000
0000
0000
0000
0000
0000
0000
0000
0000
0000
0000
0000
0000
0000
0000
0000
0000
0000
0000
0000
0000
0000
0000
0000
0000
0000
0000
0000
0000
0000
0000
0000
0000
0000
0000
0000
0000
2100
0000
0000
0000
0000
0000
0000
0000
0000
0000
0000
0000
0000
0000
0000
0000
0000
0000
0000
0000
0000
0000
0000
0000
0000
0000
0000
0000
0000
0000
0000
0000
0000
0000
0000
0000
3020
0000
0000
0000
0000
0000
0000
0000
0000
0000
0000
0000
0000
0000
0000
0000
0000
0000
0000
0000
0000
0000
0000
0000
0000
0000
0000
0000
0000
0000
0000
0000
0000
0000
0000
0000
0032
0000
0000
0000
0000
0000
0000
0000
0000
0000
0000
0000
0000
0000
0000
0000
0000
0000
0000
0000
0000
0000
0000
0000
,
2003
0000
0000
3200
0000
0320
0000
2030
0000
0000
0000
3002
0000
0000
0203
0000
,
0301
0000
0000
0000
0000
0000
0000
0000
0000
0000
0000
0000
0000
0000
0000
0000
0000
0000
0000
0000
0000
0000
0000
0000
0100
0000
0000
0000
0000
0000
0000
0000
0000
0000
0000
0000
0010
0000
0000
0000
0000
0000
0000
0000
0000
0000
0000
0000
0100
0000
0000
0000
0000
0000
0000
0000
0000
0000
0000
0000
0000
0000
0000
0000
0000
0000
0100
0000
0000
0000
0000
0000
0000
0000
0000
0000
0000
0000
0000
0000
0000
0000
0000
0000
0100
0000
0000
0000
0000
0000
0000
0000
0000
0000
0000
0000
2002
3003
0000
0000
0000
0000
0000
0000
0000
0000
0000
0000
0000
0000
0000
0000
0000
0000
0000
0000
0000
0000
0000
0000
0001
0000
0000
0000
0000
0000
0000
0000
0000
0000
0000
0000
0001
0000
0000
0000
0000
0000
0000
0000
0000
0000
0000
0000
0000
0000
0000
0000
0000
0000
0000
0000
0000
0000
0000
0000
0100
0000
0000
0000
0000
0000
0000
0000
0000
0000
0000
0000
0010
0000
0000
0000
0000
0000
0000
0000
0000
0000
0000
0000
1000
0000
0000
0000
0000
0000
0000
0000
0000
0000
0000
0000
,
0100
0000
0000
0000
0001
0000
0100
0000
1000
0000
0100
0000
0001
0000
0010
0000
0000
0100
1000
0001
0100
0001
0100
0010
1000
0010
1000
0100
0010
0100
0010
0001
,
1000
0010
1000
0010
0100
0001
0100
0001
0010
0100
1000
0010
0100
0001
0010
0100
1000
0000
0000
0000
0000
0000
0000
0000
0000
0000
0000
0000
1100
0000
0000
0000
,
0000
0000
0101
0000
1010
0000
0000
1200
,
0000
0000
0000
0000
0000
0000
0000
0000
0000
0000
0000
0000
0000
0000
0000
0000
0000
0000
0000
0000
0000
0000
0000
0300
0120
0000
0000
0000
0000
0000
0000
0000
0000
0000
0000
0000
0000
0000
0000
0000
0000
0000
0000
0000
0000
0000
0000
0000
0000
0000
0000
0000
0000
0000
0000
0000
0000
0000
0000
0000
0000
0000
0000
0000
0000
0000
0000
0000
0000
0000
0000
0030
0012
0000
0000
0000
0000
0000
0000
0000
0000
0000
0000
0000
0000
0000
0000
0000
0000
0000
0000
0000
0000
0000
0000
0000
0000
0000
0000
0000
0000
0000
0000
0000
0000
0000
0000
0000
0000
0000
0000
0000
0000
0000
0000
0000
0000
0000
0000
0000
1003
0000
0000
0000
0000
0000
0000
0000
0000
0000
0000
0000
0000
0000
0000
0000
0000
0000
0000
0000
0000
0000
0000
0000
0100
0000
0000
0000
0000
0000
0000
0000
0000
0000
0000
0000
0000
0000
0000
0000
0000
0000
0000
0000
0000
0000
0000
0000
0110
0000
0000
0000
0000
0000
0000
0000
0000
0000
0000
0000
0000
0000
0000
0000
0000
0000
0000
0000
0000
0000
0000
0000
,
0000
0011
0000
1010
0000
0101
0000
1100
,
0001
0000
0010
0000
0100
0000
1000
0000
0100
0000
0010
0000
0001
0000
0000
0000
0000
0000
0000
0000
0000
0000
0000
0000
1000
0000
0000
0000
0000
0000
0000
0000
0000
0100
0000
0000
0000
0000
0000
0000
0000
0000
0001
0000
0000
0000
0000
0000
,
0000
0010
0000
0000
1000
0000
0000
0000
0001
0000
0000
0100
0000
0000
1000
0000
,
0000
0010
0000
0000
0001
0010
0100
1000
0001
0000
0000
0100
0000
0000
1000
0000
,
0000
0010
0000
0000
0001
0000
0001
0000
1000
0000
0010
0000
0001
0000
1000
0000
,
0100
0001
2002
0000
0000
0000
0000
0000
,
0000
0000
0000
0000
,
0000
0000
0000
0000
,
3003
0000
0000
0000
,
0000
MMMM
0000
0000
0000
0000
0000
0000
0000
0000
0000
0000
0000
0000
0000
0000
0000
0000
0000
0000
0000
0000
0000
0000
0000
0000
0000
0000
0000
0000
0000
0000
0000
0000
0000
0000
0000
0000
0000
0000
0000
0000
0000
0000
0000
0000
0000
0000
0000
0000
0000
0000
0000
0000
0000
0000
0000
0000
0000
0000
0000
0000
0000
0000
0000
0000
0000
0000
0000
0000
0000
0000
0000
0000
0000
0000
0000
0000
0000
0000
0000
0000
0000
0000
0000
0000
0000
0000
0000
0000
0000
0000
0000
0000
0000
0000
0000
0000
0000
0000
0000
0000
0000
0000
0000
0000
0000
0000
0000
0000
0000
0000
0000
0000
0000
0000
0000
0000
0000
0000
0000
0000
0000
0000
0000
0000
0000
0000
0000
0000
0000
0000
0000
0000
0000
0000
0000
0000
0000
0000
0000
0000
0000
0000
0000
0000
0000
0000
0000
0000
0000
0000
0000
0000
0000
0000
0000
0000
0000
0000
0000
0000
0000
0000
0000
0000
0000
0000
0000
0000
0000
0000
0000
0000
0000
0000
0000
0000
0000
0000
0000
0000
0000
0000
0000
0000
0000
0000
0000
0000
0000
0000
,
1001
0000
0000
0000
1000
0000
1100
0000
0000
0010
0000
0000
0001
0000
0101
0000
,
0000
0000
0000
0000
0000
0000
0000
0000
0000
0000
0000
0000
0000
0000
0000
0000
0000
0000
0000
0000
0000
0000
0000
0000
2000
3000
0000
0000
0000
0000
0000
0000
0000
0000
0000
0000
0002
0003
0000
0000
0000
0000
0000
0000
0000
0000
0000
0000
0100
0000
0000
0000
0000
0000
0000
0000
0000
0000
0000
0000
0000
0000
0000
0000
0000
0000
0000
0000
0000
0000
0000
0000
0010
0000
0000
0000
0000
0000
0000
0000
0000
0000
0000
0000
0000
0000
0000
0000
0000
0000
0000
0000
0000
0000
0000
0000
1000
0000
0000
0000
0000
0000
0000
0000
0000
0000
0000
0000
0001
0000
0000
0000
0000
0000
0000
0000
0000
0000
0000
0000
0010
0000
0000
0000
0000
0000
0000
0000
0000
0000
0000
0000
0100
0000
0000
0000
0000
0000
0000
0000
0000
0000
0000
0000
1000
0000
0000
0000
0000
0000
0000
0000
0000
0000
0000
0000
0010
0000
0000
0000
0000
0000
0000
0000
0000
0000
0000
0000
0100
0000
0000
0000
0000
0000
0000
0000
0000
0000
0000
0000
0001
0000
0000
0000
0000
0000
0000
0000
0000
0000
0000
0000
,
0100
0000
0001
1000
0100
0000
1000
0000
0001
0000
0100
1000
0000
0100
1000
0100
,
0001
0000
0100
0010
0000
1000
0010
0100
0001
0000
1000
0000
0001
0010
0100
1000
,
0002
0003
0000
0000
0000
0000
0000
0000
0000
0000
0000
0000
0000
0000
0000
0000
0000
0000
0000
0000
0000
0000
0000
0000
0000
0000
0000
0000
0000
0000
0000
0000
0000
0000
0000
0000
0000
0000
0000
0000
0000
0000
0000
0000
0000
0000
0000
0000
1001
0000
0000
0000
0000
0000
0000
0000
0000
0000
0000
0000
0000
0000
0000
0000
0000
0000
0000
0000
0000
0000
0000
0000
0001
0000
0000
0000
0000
0000
0000
0000
0000
0000
0000
0000
0000
0000
0000
0000
0000
0000
0000
0000
0000
0000
0000
0000
0100
0000
0000
0000
0000
0000
0000
0000
0000
0000
0000
0000
1000
0000
0000
0000
0000
0000
0000
0000
0000
0000
0000
0000
0000
0000
0000
0000
0000
0000
0000
0000
0000
0000
0000
0000
0100
0000
0000
0000
0000
0000
0000
0000
0000
0000
0000
0000
0010
0000
0000
0000
0000
0000
0000
0000
0000
0000
0000
0000
0000
0000
0000
0000
0000
0000
0000
0000
0000
0000
0000
0000
1000
0000
0000
0000
0000
0000
0000
0000
0000
0000
0000
0000
0000
0000
0000
0000
0000
0000
0000
0000
0000
0000
0000
0000
,
0001
0000
0100
0010
0100
0000
0001
0000
1000
0100
0010
0001
0100
0100
1000
0001
,
1000
0000
0000
0100
0000
0001
0000
0000
0100
0000
0000
1000
0000
0001
0000
0000
,
1001
0000
0000
0000
0110
0000
0000
0000
1000
0001
0000
0100
0001
0000
0200
0000
,
0000
0000
0000
0000
0310
0000
0100
0000
0001
1000
0000
0001
1000
0000
0010
0000
,
0001
0000
0000
0000
0000
0000
0010
0000
0000
0100
0000
0000
0001
0000
0000
0000
0000
0000
1000
0000
0000
0000
0000
0000
0100
0000
0000
0010
0000
0000
0001
0000
0100
0000
0010
0000
1000
0000
0000
0010
0000
0000
0100
0000
0000
0001
0000
0000
,
1000
0000
0000
0000
0100
0000
1000
0001
0010
0000
0000
0110
0000
0000
0100
1000
,
0001
0000
0000
0011
0000
0000
0100
0000
1000
0000
0000
1010
0000
0000
0100
0000
,
0001
0000
0010
0100
0010
0000
0001
0000
1000
0100
0010
0001
1000
0100
0010
0100
,
1000
0001
0010
0100
0001
0100
1000
0001
0010
1000
0010
0001
1000
0001
0100
0010
,
1000
0000
0001
0100
1000
0100
0010
0000
1000
0100
0001
0100
0010
0000
0001
0000
,
1000
0001
0100
0010
1000
0100
0010
1000
0010
0001
1000
0010
0001
0010
0100
0001
,
2000
0000
0000
0000
,
0000
0000
0000
3000
,
1000
0000
0000
0010
0000
0000
0001
0000
,
0000
0100
0000
0000
1000
0000
0001
0000
,
1000
0001
0100
1000
0100
0010
1000
0001
0100
0001
0100
0010
0001
0010
1000
0001
,
1000
0010
0100
0010
0001
0010
1000
0001
0100
1000
0100
0010
1000
0100
0010
0001
,
0100
0010
0001
0010
1000
0001
0010
0100
1000
0010
0100
1000
0100
0010
1000
0001
,
1000
0000
0000
0000
0000
0000
0000
0000
0000
0000
0000
0000
0010
0000
0000
0000
0000
0000
0000
0000
0000
0000
0000
0000
0100
0000
0000
0000
0000
0000
0000
0000
0000
0000
0000
0000
1000
0000
0000
0000
0000
0000
0000
0000
0000
0000
0000
0000
0001
0000
0000
0000
0000
0000
0000
0000
0000
0000
0000
0000
0010
0000
0000
0000
0000
0000
0000
0000
0000
0000
0000
0000
0100
0000
0000
0000
0000
0000
0000
0000
0000
0000
0000
0000
0001
0000
0000
0000
0000
0000
0000
0000
0000
0000
0000
0000
1000
0000
0000
0000
0000
0000
0000
0000
0000
0000
0000
0000
0001
0000
0000
0000
0000
0000
0000
0000
0000
0000
0000
0000
0010
0000
0000
0000
0000
0000
0000
0000
0000
0000
0000
0000
0100
0000
0000
0000
0000
0000
0000
0000
0000
0000
0000
0000
1000
0000
0000
0000
0000
0000
0000
0000
0000
0000
0000
0000
0001
0000
0000
0000
0000
0000
0000
0000
0000
0000
0000
0000
0200
0300
0000
0000
0000
0000
0000
0000
0000
0000
0000
0000
0000
0000
0000
0000
0000
0000
0000
0000
0000
0000
0000
0000
;

//--------------- dance-double - Fred-104 ----------------
#NOTES:
     dance-double:
     Fred-104:
     Easy:
     13:
     :
00000000
00000000
00000000
00000000
,
00000000
00000000
00000000
00000000
,
00000000
00000000
00000000
00000000
,
00000000
00000000
00000000
00000000
,
00000000
00000000
00000000
00000000
,
10000000
00100000
01000000
00000000
00000000
01010000
00000000
00010000
,
00001000
00000000
00000000
00000010
00000000
00000001
00002000
00000002
,
00000000
00000000
00000000
00000000
,
00000000
00000000
00000000
00003003
,
00000210
00000000
00000302
00000000
00000000
00000203
00000000
00000000
,
00001300
00020000
00000000
00031000
00200000
00000000
00310000
00000000
,
10000000
00100000
10000000
00000000
00010000
00100000
00001000
00000000
,
00010000
00000100
00010000
00000100
00001000
00000020
00000130
00000002
,
00001003
00000000
00000010
00000010
00000000
00000001
00000000
00000010
,
00001000
00010000
00000000
00100000
00010000
00000000
00001000
00000000
,
00100000
00010000
01000000
00100000
10000000
01000000
00100000
00001000
,
00010000
00002000
00000000
00000000
00000000
00000000
00003000
00000000
,
00010000
00000000
00011000
00000000
00000100
00000010
00000100
00000000
,
00000001
00000100
00000001
00000000
00001000
00000100
00001000
00000000
,
00000001
00000010
00000100
00000000
00010000
00001000
00100000
00000000
,
00010000
00000000
01000000
01000000
00000000
00100000
00000000
10010000
,
00000000
00000000
00011000
00000000
00001000
00010000
00001000
00000000
,
00010000
00000100
00001000
00000100
00010000
00000010
00001000
00000000
,
00001001
00000000
00000000
00000110
00000000
00000000
00001001
00000000
,
00000001
00000100
00000001
00000100
00002000
00023000
00032000
00023000
,
01030000
00000000
00100000
02000000
00000000
03200000
00000000
20300000
,
00000000
30200000
00000000
00320000
00000000
00031000
00010000
00001000
,
00000010
00000000
00000100
00000020
00000000
00000032
00000000
00000203
,
00000000
00002300
00000000
00023000
00000000
00031000
00100000
00010000
,
10000000
00000000
00010000
00010000
10000000
00000000
02000000
00000000
00000000
00000000
03200000
00000000
00000000
00000000
00302000
00000000
,
00000000
00023000
00000000
00130000
01000000
00100000
10000000
01000000
,
10000000
00100000
01000000
00010000
00100000
00001000
00010000
00000010
,
00010000
00001000
00100000
00001000
00010000
00000000
00011000
00001000
,
00000010
00000000
00000000
00000100
00000000
00000000
00000001
00000000
00000001
00000000
00000000
00000000
00000100
00000000
00000000
00000000
00001000
00000000
00000000
00000000
00000000
00000000
00000000
00000000
00000001
00000000
00000000
00000000
00000010
00000000
00000000
00000000
,
00001000
00000000
00010000
00000000
00001000
00002000
00000000
00023000
,
00000000
00000000
00031000
00000000
00011000
00000000
00000000
00000000
01000000
00000000
00000000
00000000
00100000
00000000
00000000
00100000
,
00000000
01000000
00010000
00000000
10000000
01000000
00000000
11000000
,
00000000
01010000
00000000
00011000
00000000
00001100
00000000
00000100
,
00000001
00001000
00000001
00000000
00000100
00000100
00000000
00000011
,
00000000
00001010
00000000
00002000
00000000
00023000
00000000
01030000
,
00100000
10010000
00000000
00000000
,
00000000
00011000
00000000
00000000
,
00000000
00001001
00000000
00000110
,
00000000
00000000
00000000
00000000
00000001
00000000
00000000
00000100
00000000
00000000
00000001
00000000
00001000
00000000
00000100
00000000
,
00000010
00000000
00000000
00000000
00002000
00000000
00013000
00001000
00010000
00000000
00000000
00000000
00011000
00000000
00000000
00000000
,
00100000
01100000
10000000
11000000
,
01000000
01010000
00010000
00011000
,
00001000
00001100
00000010
00001001
,
00000001
00000000
00000100
00000010
00000100
00000000
00000000
00000000
00000101
00000000
00000000
00000000
00000001
00000000
00000000
00000000
,
00001001
00001000
00011000
00101000
,
00100000
00010000
00000000
10000000
00000000
11000000
00000000
01000000
,
00100000
00020000
00000000
00032000
00000000
00013000
00000020
00000030
,
00010000
00000000
00000000
00001000
00000000
00000000
00010000
00000000
00000000
00000000
00000010
00000000
00001000
00000000
00000000
00000000
,
00000001
00000000
00000010
00000100
00000010
00000000
00000001
00000100
,
00001000
00000000
00000000
00010000
00000000
00000000
00001000
00000000
00000000
00000000
00100000
00000000
00000000
00000000
00001000
00000000
,
00010000
00000000
00100000
00000000
01000000
00000000
10000000
00000000
00200000
00000000
01300000
00000000
00010000
00000000
00000000
10000000
,
00000000
00000000
01000000
00000000
00000000
00100000
00000000
00000000
01000000
00000000
10000000
00000000
00100000
00000000
00000000
00010000
,
00000000
00000000
00000000
00001000
00000000
00000000
00010000
00000000
00000000
00000000
00001000
00000000
00000000
00000000
00000100
00000000
00000000
00000000
00000001
00000000
00000000
00000000
00001000
00000000
,
00000000
00000000
00000100
00000000
00000000
00000000
00000001
00000000
00000000
00000000
00001000
00000000
00000000
00000000
00000010
00000000
00000000
00000000
00000100
00000000
00000000
00000010
00000000
00000000
,
00001000
00000000
00000000
00000000
00000000
00000000
00000000
00000000
00000100
00000000
00000000
00000000
00000000
00000000
00000000
00000000
00020000
00030000
00000000
00000000
00000000
00000000
00000000
00000000
00000000
00000000
00000000
00000000
00000000
00000000
00000000
00000000
00021000
00000000
00000000
00000000
00000000
00000000
00000000
00000000
00000000
00000000
00000000
00000000
02030000
00000000
00000000
00000000
00000000
00000000
00000000
00000000
00000000
00000000
00000000
00000000
23000000
00000000
00000000
00000000
00000000
00000000
00000000
00000000
,
32000000
00000000
00000000
03001000
00000000
00010000
00000000
00002000
00000000
00000000
00000000
00003200
00000000
00000000
00002300
00000000
,
00013000
00000000
00000000
00000000
00000000
00000000
00000000
00000000
00100000
00000000
00000000
00000000
00000000
00000000
00000000
00000000
00001000
00000000
00000000
00000000
00000000
00000000
00010000
00000000
00000000
00000000
00000000
00000000
00001000
00000000
00000000
00000000
00020000
00030000
00000000
00000000
00000000
00000000
00000000
00000000
00000000
00000000
00000000
00000000
00000020
00000000
00000000
00000000
00000000
00000000
00000000
00000000
00000000
00000000
00000000
00000000
00002030
00000000
00000000
00000000
00000000
00000000
00000000
00000000
,
00003200
00000000
00000000
00000302
00000000
00000000
00000203
00000000
00001300
00010000
00100000
00000000
01000000
10000000
00100000
00000000
,
01000000
00100000
01000000
00100000
01000000
00100000
01000000
00100000
01000000
00000000
00000000
00000000
00000000
00000000
10010000
00000000
,
00000000
00000000
00010000
00000000
00001000
00000000
00000000
00001001
,
00000000
00000010
00000000
00000110
00000000
00000000
00000000
00000101
,
00000000
00000010
00000000
00001000
00000000
00000100
00000000
00010000
,
00002000
00000000
00000000
00000000
00023000
00000000
00000000
00000000
00031000
00000000
00000000
00010000
00000000
00000000
00100000
00000000
,
00000000
00010000
00000000
00000000
00001000
00000000
00000000
00000000
00010000
00000000
00000000
00001000
00000000
00000000
00000010
00000000
,
00000000
00001000
00000000
00000000
00010000
00000000
00000000
00000000
00100000
00000000
00000000
10000000
00000000
00000000
01000000
00000000
,
00000000
00010000
00000000
00000000
00001000
00000000
00000100
00000000
00000001
00000000
00000000
00000000
00000010
00000000
00000000
00000000
,
00001000
00022000
00000000
00000000
,
00000000
00000000
00000000
00000000
,
00000000
00000000
00000000
00000000
,
00000000
00000000
00000000
00000000
,
00033000
00000000
00000000
00000000
,
00001000
00000000
00000000
00000000
00100000
00000000
00100000
00000000
00000000
00010000
00000000
00000000
10000000
00000000
01000000
00000000
,
00000000
00000000
01000000
00000000
00100000
01000000
10000000
00000000
,
00100000
00000000
01000000
00000000
00010000
00000000
00000000
00000000
00100000
00000000
00000000
00100000
00000000
00000000
00001000
00000000
,
00010000
00000000
00000000
00010000
00000000
00000000
00000100
00000000
00000010
00000000
00000000
00000000
00000100
00000000
00000000
00000000
,
00002002
00003003
00000000
00000000
00000000
00000000
00000000
00000000
00000000
00000000
00000000
00000000
00000000
00000000
00000000
00000000
00000001
00000000
00000000
00000000
00000000
00000000
00000000
00000000
00000000
00000000
00000000
00000000
00000000
00000000
00000000
00000000
00000100
00000000
00000000
00000000
00000000
00000000
00000000
00000000
00000010
00000000
00000000
00000000
00000000
00000000
00000000
00000000
00001000
00000000
00000000
00000000
00000000
00000000
00000000
00000000
00000100
00000000
00000000
00000000
00000000
00000000
00000000
00000000
,
00010000
00000000
00001000
00000000
00100000
01000000
00100000
00000000
,
00001000
00000000
00000000
00010000
00000000
00000000
00000000
00000000
01000000
00000000
00000000
00010000
00000000
00000000
00000000
00000000
,
00100000
00000000
01100000
00000000
01000000
10000000
00010000
02000000
,
00000000
00000000
03010000
00001000
00010000
00000000
00001000
00000000
,
00000100
00000010
00000001
00000000
00000100
00000020
00001030
00000000
,
00000001
00000000
00000000
00000000
00000100
00000000
00000010
00000000
00001000
00000000
00000000
00000010
00000000
00000000
00001000
00000000
,
00010000
00000000
00000000
00001000
00000000
00000000
00100000
00000000
00001000
00000000
00000000
00010000
00000000
00000000
00001000
00000000
,
00010000
00000000
00100000
00000000
01000000
00100000
10000000
00000000
,
01000000
00000000
00100000
00000000
00001000
00010000
00001000
00000000
,
00000100
00000000
00000000
00000010
00000000
00000000
00000001
00000000
00000000
00000100
00000000
00000000
00000010
00000000
00001000
00000000
,
00000100
00010000
00001000
00100000
00010000
00100000
01000000
10000000
,
00020000
00000000
00000000
00030000
,
20000000
00000000
00000000
30000000
,
02000000
00000000
00000000
03000000
,
00020000
00000000
00000000
00030000
,
00002000
00003000
00000200
00000300
,
00000002
00000003
00000020
00000030
,
00001000
00010000
01000000
10000000
,
00010000
00000000
00000000
00000000
00000000
00000000
00000000
00000000
00000000
00000000
00000000
00000000
00000000
00000000
00000000
00000000
00000000
00000000
00000000
00000000
00000000
00000000
00000000
00000000
01000000
00000000
00000000
00000000
00000000
00000000
00000000
00000000
00000000
00000000
00000000
00000000
00000000
00000000
00000000
00000000
00000000
00000000
00000000
00000000
00000000
00000000
00000000
00000000
00100000
00000000
00000000
00000000
00000000
00000000
00000000
00000000
00000000
00000000
00000000
00000000
00000000
00000000
00000000
00000000
00000000
00000000
00000000
00000000
00000000
00000000
00000000
00000000
10000000
00000000
00000000
00000000
00000000
00000000
00000000
00000000
00000000
00000000
00000000
00000000
00000000
00000000
00000000
00000000
00000000
00000000
00000000
00000000
00000000
00000000
00000000
00000000
01000000
00000000
00000000
00000000
00000000
00000000
00000000
00000000
00000000
00000000
00000000
00000000
00000000
00000000
00000000
00000000
00000000
00000000
00000000
00000000
00000000
00000000
00000000
00000000
00100000
00000000
00000000
00000000
00000000
00000000
00000000
00000000
00000000
00000000
00000000
00000000
00000000
00000000
00000000
00000000
00000000
00000000
00000000
00000000
00000000
00000000
00000000
00000000
00001000
00000000
00000000
00000000
00000000
00000000
00000000
00000000
00000000
00000000
00000000
00000000
00000000
00000000
00000000
00000000
00000000
00000000
00000000
00000000
00000000
00000000
00000000
00000000
00002000
00003000
00000000
00000000
00000000
00000000
00000000
00000000
00000000
00000000
00000000
00000000
00000000
00000000
00000000
00000000
00000000
00000000
00000000
00000000
00000000
00000000
00000000
00000000
;

//--------------- dance-double - Fred-104 ----------------
#NOTES:
     dance-double:
     Fred-104:
     Medium:
     16:
     :
00000000
00000000
00000000
00000000
,
00000000
00000000
00000000
00000000
,
00000000
00000000
00000000
00000000
,
00000000
00000000
00000000
00000000
,
00000000
00000000
00000000
00000000
,
00001000
00010000
00001000
00000000
00000000
00011000
00000000
00100000
,
01000000
00000000
00000000
00110000
00000000
01000000
00100000
20020000
,
00000000
00000000
00000000
00000000
,
00000000
00000000
00000000
30030000
,
00100000
10000000
02000000
00000000
03100000
00020000
00030000
00010000
,
00002000
00003010
00000000
00000010
00000100
00000001
00001000
00000000
,
00000001
00000000
00000100
00000001
00000100
00000000
00000010
00001000
00000010
00000000
00010000
00001000
00010000
00000000
00000100
00001000
,
00000100
00000000
00010000
00000000
00001000
00000000
01000000
00000000
00010000
00000000
00100000
00001000
00100000
00000000
00001000
00010000
,
00001000
00000000
00010000
00011000
00000000
00001000
00010000
00100000
,
01000000
10000000
01000000
00000000
00010000
01000000
10000000
00100000
,
01000000
00100000
01000000
00000000
00010000
00100000
00010000
00000000
00001000
00010000
00001000
00000000
00010000
00000010
00010000
00000000
,
00001000
00022000
00000000
00000000
00000000
00000000
00033000
00000000
,
00001001
00000000
00000100
00000010
00000001
00000100
00000001
00000100
,
00001000
00010000
01000000
10000000
00010000
01000000
00001000
00010000
,
00001000
00010000
00001000
00000000
00010000
00000000
00001000
00000000
00000100
00000010
00000100
00000000
00000001
00000000
00000100
00000000
,
00000001
00000010
00001000
00010000
00000000
00011000
00000000
00110000
,
00000000
00000000
10010000
00000000
00100000
10000000
01000000
00100000
,
00001000
00000010
00001000
00100000
00001000
00010000
00000100
00001000
,
00001001
00000000
00000000
00001010
00000000
00000000
00011000
00000000
,
00001000
00000000
00000000
00000000
00010000
00000000
00000000
00000000
00001000
00000000
00000000
00000000
00000000
00000000
00000000
00000000
00100000
00000000
00000000
00000000
00010000
00000000
00000000
00000000
00100000
00000000
00000000
00000000
00000000
00000000
00000000
00000000
00002000
00003000
00000000
00000000
00020000
00030000
00000000
00000000
00002000
00003000
00000000
00000000
00000000
00000000
00000000
00000000
00200000
00300000
00000000
00000000
00020000
00030000
00000000
00000000
00200000
00300000
00000000
00000000
00020000
00030000
00000000
00000000
,
10000000
01000000
00100000
01000000
00000000
02010000
00000000
03010000
,
00000000
00002100
00000000
00013000
00000000
00001000
00000100
00000001
,
00000100
00001000
00000010
00000100
00000000
00000201
00000000
00001300
,
00000000
00000000
00021000
00000000
00000000
00000000
01030000
00000000
00100000
00000000
00000000
10000000
00000000
00000000
00100000
00000000
,
01000000
00000000
00020000
00032000
00013000
00000000
00000010
00000000
00001000
00000000
00000010
00000000
00010000
00000000
00000010
00000000
,
00001000
00000000
00000010
00000000
00000100
00000000
00000010
00000000
00001000
00000000
00000010
00000000
00000100
00000000
00000001
00000100
,
00000001
00000000
00001000
00000100
00001000
00000000
00000010
00000000
00010000
00000000
00001000
00000000
00010000
00001000
00010000
00000000
,
00001000
00100000
00001000
00000000
00010000
00001000
00000000
00001000
00010000
00000000
01000000
00000000
00010000
01000000
10000000
00100000
,
00010000
00000000
00000000
00010000
00000000
00000000
00010000
00000000
00001000
00000000
00000000
00000000
00010000
00000000
00000000
00000000
00001000
00000000
00000000
00000000
00000010
00000000
00000000
00000000
00001000
00000000
00000000
00000000
00010000
00000000
00000000
00000000
,
00001000
00000100
00001000
00010000
01000000
00010000
00001000
00011000
,
00000000
00000000
00001000
00000000
00001010
00000000
00000000
00000000
00000001
00000000
00000100
00000000
00000010
00000000
00000000
00000010
,
00000000
00000000
00000100
00000000
00000001
00000000
00000010
00000000
00000001
00000000
00000100
00000000
00000010
00000000
00000000
00001000
,
00000000
00000000
00010000
00000000
00100000
00000000
00000000
00011000
00000000
00000000
00000010
00000000
00000000
00011000
00000000
00000000
,
01000000
00010000
00010000
00001000
00010000
00100000
00000000
20100000
,
30000000
00110000
00000000
00010000
00001000
00000200
00000000
00000301
,
00000100
00000010
00000110
00000000
00000000
00000000
00000000
00000000
,
00000000
00011000
00000000
00000000
,
00000000
01100000
00000000
10010000
,
00000000
00000000
00000000
00000000
10000000
00000000
00000000
01000000
00000000
00000000
00010000
00000000
00001000
00010000
00001000
00000000
,
00020000
00000000
00000000
00000000
00032000
00003020
00000230
00000302
00002003
00000000
00003100
00000000
00000020
00000000
00000130
00000000
,
00000002
00000103
00002000
00013000
00002000
00003100
00002000
00013000
,
00200000
00000000
20300000
30100000
00020000
00130000
02000000
03100000
,
00020000
00000000
00031000
00000000
00000020
00000000
00001030
00000000
00020000
00000000
00031000
00000000
00010000
00001000
00010000
00000000
,
00002000
00000000
00013000
00000010
00010000
00000000
00001000
00000000
00000100
00000000
00001000
00000000
00000100
00000000
00000010
00000000
,
00000100
00000001
00000100
00000001
00000100
00001000
00011000
00000000
,
00010000
00110000
00000000
10100000
00000000
01010000
00000000
10000000
,
01000000
00200000
00000000
00302000
00000000
00013000
00022000
00033000
,
00001000
00000000
00000000
00001010
00000000
00000000
00001010
00000000
00000000
00000000
00000000
00000000
00001001
00000000
00000000
00000000
,
00000001
00000100
00000010
00000100
00000001
00000000
00000010
00001000
,
00010000
00000000
00000000
00011000
00000000
00000000
00011000
00000000
00000000
00000000
00100000
00000000
00000000
00000000
10000000
00000000
,
01000000
00000000
01000000
00000000
01000000
00000000
00100000
00000000
00010000
00001000
00020000
00000000
00030100
00000000
00000000
00001100
,
00000000
00000000
00000010
00000000
00000000
00000101
00000000
00000000
00000010
00000000
00010000
00000000
00001000
00000000
00000000
00100000
,
00000000
00000000
00000000
01000000
00000000
00000000
00100000
00000000
00000000
00000000
00010000
00000000
00000000
00000000
00001000
00000000
00000000
00000000
00000100
00000000
00000000
00000000
00010000
00000000
,
00000000
00000000
00001000
00000000
00000000
00000000
00100000
00000000
00001000
00000000
00010000
00000000
00000100
00000000
00001000
00000000
00000100
00000000
00000010
00000000
00000000
00000001
00000000
00000000
,
00000100
00000000
00000000
00000000
00000000
00000000
00000000
00000000
00000100
00000000
00000000
00000000
00000000
00000000
00000000
00000000
00002002
00003003
00000000
00000000
00000000
00000000
00000000
00000000
00000000
00000000
00000000
00000000
00000000
00000000
00000000
00000000
00011000
00000000
00000000
00000000
00000000
00000000
00000000
00000000
01000000
00000000
00000000
00000000
00100000
00000000
00000000
00000000
00000000
00000000
00000000
00000000
10000000
00000000
00000000
00000000
01000000
00000000
00000000
00000000
00000000
00000000
00000000
00000000
,
10000000
00000000
00100000
00010000
00000000
00001000
00000000
00100000
00000000
00000000
00001000
00010000
00000000
00000010
00010000
00000000
,
00001000
00000000
00000000
00000000
00000000
00000000
00000000
00000000
00000100
00000000
00000000
00000000
00000000
00000000
00000000
00000000
00000010
00000000
00000000
00000000
00000000
00000000
00000010
00000000
00000000
00000000
00000000
00000000
00000100
00000000
00000000
00000000
00002002
00003003
00000000
00000000
00000000
00000000
00000000
00000000
00000001
00000000
00000000
00000000
00000010
00000000
00000000
00000000
00000000
00000000
00000000
00000000
00001000
00000000
00000000
00000000
00010000
00000000
00000000
00000000
00000000
00000000
00000000
00000000
,
00001000
00000000
00000010
00001000
00000000
00010000
00100000
00020000
00000000
00032000
00003100
00001000
00010000
01000000
00010000
00001000
,
00010000
00001000
00010000
00001000
00010000
00001000
00010000
00001000
00010000
00001000
00010000
00001000
00010000
00001000
00010000
00001000
00010000
00000000
00000000
00000000
00000000
00000000
00000000
00000000
00000000
00000000
00000000
00000000
00010010
00000000
00000000
00000000
,
00000000
00000000
00101000
00000000
00011000
00000000
00000000
00010100
,
00000000
00011000
00000000
01001000
00000000
01000000
00000000
01100000
,
00000000
00100000
00000000
00101000
00000000
00001000
00000000
00010000
,
00001000
00010000
00001000
00000000
00010000
00000000
00000000
00000000
00001000
00000000
00000000
00000100
00000000
00000000
00000010
00000000
,
00000000
00000001
00000000
00000000
00000100
00000000
00000000
00000000
00010000
00000000
00000000
00001000
00000000
00000000
00100000
00000000
,
00000000
00010000
00000000
00000000
10000000
00000000
00000000
00000000
01000000
00000000
00000000
00010000
00000000
00000000
00001000
00000000
,
00000000
00000100
00000000
00000000
00000001
00000000
00001000
00000000
00000001
00000000
00000000
00000000
00000010
00000000
00000000
00000000
,
00001000
00010000
00022000
00000000
00000000
00000000
00000000
00000000
,
00000000
00000000
00000000
00000000
,
00000000
00000000
00000000
00000000
,
00000000
00000000
00000000
00000000
,
00033000
00000000
00000000
00000000
,
00011000
00000000
00000000
00000000
00001000
00000000
00100000
00000000
00000000
00010000
00000000
00000000
01000000
00000000
00100000
00000000
,
00000000
00000000
00000000
00000000
00000000
00000000
00000000
00000000
02000000
03000000
00000000
00000000
00200000
00300000
00000000
00000000
01000000
00000000
00000000
00000000
00000000
00000000
00000000
00000000
00010000
00000000
00000000
00000000
00000000
00000000
00000000
00000000
01000000
00000000
00000000
00000000
00000000
00000000
00000000
00000000
00100000
00000000
00000000
00000000
00000000
00000000
00000000
00000000
10000000
00000000
00000000
00000000
00000000
00000000
00000000
00000000
00100000
00000000
00000000
00000000
00000000
00000000
00000000
00000000
,
10000000
00000000
01000000
00000000
00010000
00000000
01000000
00000000
10000000
00000000
00000000
00100000
00000000
00000000
00010000
00000000
,
00100000
00000000
00000000
10000000
00000000
00000000
01000000
00000000
00010000
00000000
00000000
00001000
00000000
00000000
00010000
00000000
,
00022000
00033000
00000000
00000000
00000000
00000000
00000000
00000000
00000000
00000000
00000000
00000000
00000000
00000000
00000000
00000000
00010000
00000000
00000000
00000000
00000000
00000000
00000000
00000000
00001000
00000000
00000000
00000000
00000000
00000000
00000000
00000000
00000100
00000000
00000000
00000000
00000000
00000000
00000000
00000000
00000000
00000000
00000000
00000000
00000001
00000000
00000000
00000000
00000000
00000000
00000000
00000000
00000000
00000000
00000000
00000000
00000100
00000000
00000000
00000000
00000000
00000000
00000000
00000000
,
00000010
00000000
00000001
00000000
00001000
00000000
00000010
00000000
00000100
00000000
00000001
00000000
00001000
00000100
00001000
00000000
,
00000001
00000000
00000000
00000100
00000000
00000010
00000000
00000000
00000100
00000000
00000000
00001000
00000000
00010000
00000000
00000000
,
00011000
00000000
00000000
00000000
00101000
00000000
00000000
00000000
00001000
00000000
00010000
00001000
00010000
00000000
02000000
00000000
,
00000000
00000000
00000000
00000000
03100000
00000000
01000000
00000000
00100000
01000000
00000000
01000000
00100000
00000000
01000000
00000000
,
00100000
00000000
00010000
00000000
00001000
00000000
00000100
00000000
00000010
00000100
00000010
00000100
00000010
00000100
00000010
00000000
,
00001000
00000000
00010000
00000000
00001000
00000000
00010000
00000000
00100000
00000000
00000000
01000000
00000000
00000000
00100000
00000000
,
00001000
00000000
00000000
00101000
00000000
00000000
00100000
00000000
00001000
00000000
00000000
00011000
00000000
00000000
00000010
00000000
,
00001000
00000000
00000100
00000000
00000010
00000000
00000001
00000000
00001000
00000001
00001000
00000001
00001000
00000000
00000100
00000000
,
00010000
00001000
00010000
00000000
00001000
01000000
00001000
00000000
00100000
00010000
00100000
00000000
00010000
10000000
00010000
00000000
,
10000000
00000000
00000000
10100000
00000000
00000000
01000000
00000000
00000000
00110000
00000000
00000000
00001000
00000000
00010000
00000000
,
00001000
00010000
00001000
00000000
00010000
00000010
00010000
00000000
00000010
00001000
00000010
00001000
00000010
00001000
00000010
00001000
,
00000002
00000000
00000000
00000000
,
00000023
00000000
00000000
00000000
,
00002030
00000000
00000000
00000000
,
00023000
00000000
00230000
00000000
,
10300000
00100000
00010000
00100000
,
10000000
01000000
00010000
00000000
00001000
00000100
00000010
00000000
,
00000001
00000100
00000010
00001000
00000100
00010000
00001000
01000000
,
00010000
00000000
00000000
00000000
00000000
00000000
00000000
00000000
00000000
00000000
00000000
00000000
01000000
00000000
00000000
00000000
00000000
00000000
00000000
00000000
00000000
00000000
00000000
00000000
00100000
00000000
00000000
00000000
00000000
00000000
00000000
00000000
00000000
00000000
00000000
00000000
00000000
00000000
00000000
00000000
00000000
00000000
00000000
00000000
00000000
00000000
00000000
00000000
10000000
00000000
00000000
00000000
00000000
00000000
00000000
00000000
00000000
00000000
00000000
00000000
00100000
00000000
00000000
00000000
00000000
00000000
00000000
00000000
00000000
00000000
00000000
00000000
01000000
00000000
00000000
00000000
00000000
00000000
00000000
00000000
00000000
00000000
00000000
00000000
00000000
00000000
00000000
00000000
00000000
00000000
00000000
00000000
00000000
00000000
00000000
00000000
00010000
00000000
00000000
00000000
00000000
00000000
00000000
00000000
00000000
00000000
00000000
00000000
00100000
00000000
00000000
00000000
00000000
00000000
00000000
00000000
00000000
00000000
00000000
00000000
00001000
00000000
00000000
00000000
00000000
00000000
00000000
00000000
00000000
00000000
00000000
00000000
00000000
00000000
00000000
00000000
00000000
00000000
00000000
00000000
00000000
00000000
00000000
00000000
00010000
00000000
00000000
00000000
00000000
00000000
00000000
00000000
00000000
00000000
00000000
00000000
00000010
00000000
00000000
00000000
00000000
00000000
00000000
00000000
00000000
00000000
00000000
00000000
00020000
00030000
00000000
00000000
00000000
00000000
00000000
00000000
00000000
00000000
00000000
00000000
00000000
00000000
00000000
00000000
00000000
00000000
00000000
00000000
00000000
00000000
00000000
00000000
;

//--------------- dance-double - Fred-104 ----------------
#NOTES:
     dance-double:
     Fred-104:
     Hard:
     18:
     :
00000000
00000000
00000000
00000000
,
00000000
00000000
00000000
00000000
,
00000000
00000000
00000000
00000000
,
00000000
00000000
00000000
00000000
,
00000000
00000000
00000000
00000000
,
00001000
00000010
00001000
00000000
00000000
00000011
00000000
00000001
,
00000100
00000000
00000100
00010100
00000000
00010000
00001000
00022000
,
00000000
00000000
00000000
00000000
,
00000000
00000000
00000000
00033000
,
00011000
00000000
00100000
00000000
10000000
00100000
00000000
00100000
,
00001000
00010000
00000000
00000010
00001000
00000000
00000001
00000100
,
00000001
00000000
00000010
00000001
00001000
00000010
00001000
00000010
00010000
00001000
00010000
00001000
00010000
00001000
00100000
00000000
,
00010000
00000000
01000000
00000000
10000000
00000000
01000000
00000000
00010000
00000000
20000000
01000000
30100000
00000000
00020000
01000000
,
00130000
00000000
01100000
01000000
00010000
00001000
00000100
00000001
,
00000000
00000101
00000000
00000100
00000010
00000000
00001000
00000001
,
00000100
00000001
00000100
00000001
00001000
00000100
00001000
00000100
00010000
00001000
00010000
00001000
00100000
00010000
00100000
01000000
,
00100000
00200000
00000000
00000000
00000000
00000000
00300000
00000000
,
10100000
00000000
00110000
00100000
10000000
00100000
00010000
00001000
,
00010000
00001000
00010000
00000000
00001000
00000000
00000100
00000000
00000010
00000100
00000010
00000000
00000001
00000000
00000100
00000000
,
00000001
00000100
00000001
00000000
00000100
00001000
00000100
00000000
00001000
00010000
00001000
00000000
00010000
01000000
00010000
00000000
,
01000000
00000000
10000000
10100000
00000000
00110000
00000000
00011000
,
00000000
00000000
00010010
00000000
00001000
00000100
00000010
00000001
,
00001000
00000001
00000100
00000000
00000001
00001000
00000100
00000000
00000010
00000000
00000001
00000000
00001000
00000000
00000100
00000000
,
00000110
00000000
00000000
00011000
00000000
00000000
01100000
00000000
,
00010000
00000000
00000000
00000000
01000000
00000000
00000000
00000000
00010000
00000000
00000000
00000000
01000000
00000000
00000000
00000000
00100000
00000000
00000000
00000000
10000000
00000000
00000000
00000000
00100000
00000000
00000000
00000000
10000000
00000000
00000000
00000000
00020000
00030000
00000000
00000000
20000000
30000000
00000000
00000000
00020000
00030000
00000000
00000000
20000000
30000000
00000000
00000000
02000000
03000000
00000000
00000000
00200000
00300000
00000000
00000000
00002000
00003000
00000000
00000000
00020000
00030000
00000000
00000000
,
00001000
00010000
00001000
00000010
00000001
00001000
00000001
00001000
,
00000001
00000010
00000100
00001000
00000010
00010000
00000100
00001000
,
00000010
00010000
00001000
00000100
00000010
00010000
00001000
00100000
,
01000000
00000000
00100000
00000000
00001000
00000000
00010000
00000000
00001000
00000000
00000000
00010000
00000000
00000000
00000010
00000000
,
00000100
00000000
00000200
00000320
00000031
00000000
00000010
00000000
00000100
00000000
00001000
00000000
00000100
00000000
00010000
00000000
,
00001000
00100000
01000000
00100000
00010000
00001000
00000100
00000010
,
00001000
00000000
00010000
00000000
00100000
00000000
00001000
00000000
00010000
00000000
00000010
00000000
00010000
00001000
00010000
00001000
,
00100000
00000000
00001000
00000000
00100000
00000000
00001000
00000000
00010000
00000000
00001000
00000000
00000000
00000000
00100000
00000000
00001000
00000000
00000000
00000000
00010000
00000000
00000000
00000000
00000010
00000000
00001000
00000100
00001000
00000000
00010000
00000000
,
00001000
00000000
00000000
00010000
00000000
00000000
00001000
00000000
00010000
00000000
00000000
00000000
00100000
00000000
00000000
00000000
10000000
00000000
00000000
00000000
01000000
00000000
00000000
00000000
00100000
00000000
00000000
00000000
00010000
00000000
00000000
00000000
,
00001000
01000000
00100000
00010000
00001000
00100000
00010000
00001000
,
00000100
00000000
00000010
00000000
00001000
00000000
00000000
00000000
00000001
00000000
00000100
00000000
00001000
00000000
00000000
00011000
,
00000000
00000000
00010000
00000000
01000000
00000000
00100000
00000000
00010000
00000000
10000000
00000000
00010000
00000000
00000000
00001000
,
00000000
00000000
00010000
00000000
00011000
00000000
00000000
00001000
00000000
00000000
00000010
00000000
00000000
00000001
00000000
00000000
,
00001000
00000000
00010000
00000000
00001000
00000000
00100000
00010000
00100000
00000000
00101000
00000000
00000000
00000000
00020010
00000000
,
00030000
01001000
00000000
00010000
00001000
00000020
00000000
00001030
,
00010000
01000000
01100000
00000000
00000000
00000000
00000000
00000000
,
00000000
00011000
00000000
00000000
,
00000000
00000110
00000000
00001001
,
00000000
00000000
00000000
00000000
00000101
00000000
00000000
00000110
00000000
00000000
00001000
00000000
00000100
00010000
00001000
00010000
,
00001000
00000000
00000000
00000000
00000000
00000000
00000000
00000000
00011000
00000000
00000000
00000000
00001000
00010000
00001000
00010000
00002000
00000000
00000000
00000000
00103000
00000000
00000000
00000000
00002000
00000000
00000000
00000000
00003010
00000000
00000000
00000000
,
00020000
01030000
00020000
00030010
00002000
00013000
00002000
00003010
,
00020000
00000000
00032000
00103000
02000000
03100000
00002000
00013000
,
00000200
00000000
00000310
00000000
00000200
00000000
00010300
00000000
00002000
00000000
00103000
00000000
00010000
01000000
00010000
01000000
,
00010000
00010000
00020000
00000000
10030000
00000000
01000000
00000000
00010000
00000000
00001000
00000000
00000100
00000000
00000001
00000000
,
00001000
00000001
00000010
00001000
00010000
00100000
10000000
00000000
,
11000000
01010000
00000000
00011000
00000000
00001010
00000000
00000011
,
00000001
00002000
00000000
00003010
00000100
00000010
00002002
00003003
,
00000101
00000000
00000000
00001100
00000000
00000000
00011000
00000000
00000000
00000000
00010000
00001000
00010000
00000000
00000000
00000000
,
00001000
00000000
00000000
00000000
00100000
00010000
10000000
00100000
01000000
00000000
00000000
00000000
00010000
00000000
00100000
00000000
,
00101000
00000000
00000000
00011000
00000000
00000000
00010010
00000000
00000000
00000000
00001010
00000000
00000000
00000000
00000001
00000000
,
00001000
00000010
00000100
00000000
00000001
00000000
00001000
00000100
00000010
00000010
00000100
00000000
00000101
00000000
00000000
00001010
,
00000000
00000000
00011000
00000000
00000000
00110000
00000000
00000000
01100000
00000000
01000000
00000000
00100000
00000000
00000000
00010000
,
00000000
00000000
00000000
00000000
00000000
00000000
10000000
00000000
00000000
00100000
00000000
00000000
01000000
00000000
00000000
00000000
00000000
00000000
00000000
00000000
11000000
00000000
00000000
00000000
00000000
00000000
00000000
00000000
01010000
00000000
00000000
00000000
00000000
00000000
00000000
00000000
00001000
00000000
00000000
00000000
00000000
00000000
00000000
00000000
00011000
00000000
00000000
00000000
,
00000000
00000000
00000000
00000000
00000010
00000000
00000000
00000000
00000100
00000000
00000000
00000000
00000001
00000000
00000000
00000000
00000010
00000000
00000000
00000000
00000001
00000000
00000000
00000000
00001000
00000000
00000000
00000000
00000010
00000000
00000000
00000000
00010000
00000000
00000000
00000000
00001000
00000000
00000000
00100000
00000000
00000000
00001000
00000000
00000000
00100000
00000000
00000000
,
00010000
00000000
00000000
00000000
01000000
00000000
00000000
00000000
00100000
00000000
00000000
00000000
10000000
00000000
00000000
00000000
00020000
00030000
00000000
00000000
00000000
00000000
00000000
00000000
00000000
00000000
00000000
00000000
00000000
00000000
00000000
00000000
01100000
00000000
00000000
00000000
00000000
00000000
00000000
00000000
10000000
00000000
00000000
00000000
01000000
00000000
00000000
00000000
00000000
00000000
00000000
00000000
00010000
00000000
00000000
00000000
00001000
00000000
00000000
00000000
00000100
00000000
00000000
00000000
,
00000010
00000000
00000001
00000001
00000000
00000020
00000000
00001000
00000000
00000000
00000031
00000010
00000000
00001000
00000010
00000000
,
00000001
00000000
00000000
00000000
00000000
00000000
00000000
00000000
00000100
00000000
00000000
00000000
00000000
00000000
00000000
00000000
00001000
00000000
00000000
00000000
00000000
00000000
00010000
00000000
00000000
00000000
00000000
00000000
00001000
00000000
00000000
00000000
00022000
00033000
00000000
00000000
00000000
00000000
00000000
00000000
00001000
00000000
00000000
00000000
00010000
00000000
00000000
00000000
00000000
00000000
00000000
00000000
00010000
00000000
00000000
00000000
00100000
00000000
00000000
00000000
10000000
00000000
00000000
00000000
,
00100000
00000000
00000000
00000000
00010000
00000000
00001000
00000000
00010000
00000000
00000010
00000000
00001000
00000000
00000200
00000000
00000000
00000000
00001300
00000100
00001000
00000100
00001000
00000100
00001000
00000000
00000010
00000000
00010000
00000000
00001000
00000000
,
00010000
00001000
00010000
00001000
00010000
00001000
00010000
00001000
00010000
00000010
00001000
00000010
00001000
00000010
00001000
00000010
00001000
00000000
00000000
00000000
00000000
00000000
00000000
00000000
00000000
00000000
00000000
00000000
00000101
00000000
00000000
00000000
,
00000000
00000000
00010100
00000000
00011000
00000000
00000000
00020100
,
00000000
00000000
00000000
00030000
00012000
00000000
00000000
00000000
00000000
00000000
00000000
00003000
02001000
00000000
00000000
00000000
00000000
00000000
00000000
00000000
03010000
00000000
00000000
00000000
10000000
00000000
00000000
00000000
10010000
00000000
00000000
00000000
,
00000000
00011000
00000000
00001001
00000000
00011000
00000000
00010000
,
10000000
00010000
10000000
00010000
10000000
00000000
00000000
00000000
10000000
00000000
00000000
01000000
00000000
00000000
00010000
00000000
,
00000000
00001000
00000000
00000000
00011000
00000000
00000000
00000000
00000001
00000000
00000000
00000100
00000000
00000000
00001000
00000000
,
00000000
00010000
00000000
00000000
00001000
00010000
00001000
00010000
00001000
00000000
00000000
00010000
00000000
00000000
00100000
00000000
,
00000000
10000000
00000000
00000000
01000000
00000000
00010000
00000000
00001000
00000000
00000100
00000000
00000001
00000000
00000010
00000000
,
00001000
00010000
00002000
00000000
00000000
00000000
00000000
00000000
,
00000000
00000000
00000000
00000000
,
00000000
00000000
00000000
00000000
,
00000000
00000000
00000000
00000000
,
00003000
00000000
00000000
00000000
,
00001001
00000000
00000000
00000000
00000100
00000000
00000100
00000000
00000000
00000010
00000000
00000000
00010000
00000000
00001000
00000000
,
00000000
00000000
00000000
00000000
00000000
00000000
00000000
00000000
00020000
00030000
00000000
00000000
00002000
00003000
00000000
00000000
00010000
00000000
00000000
00000000
00000000
00000000
00000000
00000000
00001000
00000000
00000000
00000000
00000000
00000000
00000000
00000000
00100000
00000000
00000000
00000000
00010000
00000000
00000000
00000000
00100000
00000000
00000000
00000000
00010000
00000000
00000000
00000000
10000000
00000000
00000000
00000000
01000000
00000000
00000000
00000000
10000000
00000000
00000000
00000000
01000000
00000000
00000000
00000000
,
10000000
00000000
00100000
01000000
00100000
00000000
10000000
00000000
01000000
00000000
00000000
00100000
00000000
00000000
00001000
00000000
,
00010000
00000000
00000000
00011000
00000000
00000000
00000010
00000000
00000100
00000000
00000001
00000000
00001000
00000100
00001000
00000100
,
00000020
00000030
00000000
00000000
00000000
00000000
00000000
00000000
00000000
00000000
00000000
00000000
00000000
00000000
00000000
00000000
00001001
00000000
00000000
00000000
00000000
00000000
00000000
00000000
00000001
00000000
00000000
00000000
00000000
00000000
00000000
00000000
00000100
00000000
00000000
00000000
00000010
00000000
00000000
00000000
00000000
00000000
00000000
00000000
00000010
00000000
00000000
00000000
00000100
00000000
00000000
00000000
00000000
00000000
00000000
00000000
00000001
00000000
00000000
00000000
00000000
00000000
00000000
00000000
,
00001000
00000000
00000100
00001000
00000100
00000000
00000010
00000000
00010000
00001000
00100000
00001000
00010000
00001000
00100000
00001000
,
00010000
00000000
00000000
00001000
00000000
00100000
00000000
00000000
01000000
00000000
00000000
00010000
00000000
00001000
00000000
00000000
,
00000110
00000000
00000000
00000000
00001001
00000000
00000000
00000000
00000100
00000000
00000001
00001000
00000001
00000000
00000200
00000000
,
00000000
00000000
00000000
00000000
00010300
00000000
01000000
00000000
00010000
00001000
00000000
00010000
00001000
00000000
00001000
00000000
,
00100000
00000000
00010000
00100000
00010000
00000000
01000000
00000000
00100000
01000000
00200000
01300000
10000000
00010000
10000000
00010000
,
01000000
00000000
00000000
00000000
00100000
00000000
00010000
00001000
00010000
00000000
00000000
00000010
00000000
00000000
00001000
00010000
,
00001000
00000000
00000000
00011000
00000000
00000000
00100000
00000000
00010000
00000000
00000000
00011000
00000000
00000000
00000010
00000000
,
00000100
00000000
00000001
00001000
00000001
00000000
00000100
00000000
00000001
00000100
00000001
00000000
00001000
00000010
00000100
00000000
,
00000001
00000010
00000001
00000010
00000001
00000100
00000001
00000100
00000010
00001000
00000100
00000010
00000001
00000010
00000100
00001000
,
00000001
00000000
00000000
00000101
00000000
00000000
00001100
00000000
00000000
00011000
00000000
00000000
00010000
00000000
01000000
00000000
,
10000000
00010000
10000000
00010000
10000000
01000000
00100000
00010000
00100000
00001000
00010000
00000010
00001000
00000010
00000100
00000001
,
00002000
00003010
00000002
00000103
,
00002000
00013000
00200000
10300000
,
00100000
00010000
00001000
00000000
00000010
00001000
00010000
00000000
,
00001000
00000010
00000001
00000010
00001000
00010000
01000000
00000000
,
00010000
01000000
00010000
00000000
10000000
01000000
10000000
00000000
01000000
00100000
01000000
00000000
00100000
00010000
00100000
00000000
,
00001000
00010000
00001000
00010000
00000010
00001000
00000010
00001000
00000001
00000100
00000001
00000100
00000001
00000010
00000100
00001000
,
00000100
00010000
00001000
00100000
00010000
00100000
01000000
10000000
00010000
01000000
00100000
10000000
01000000
00100000
00001000
00010000
,
00001000
00000000
00000000
00000000
00000000
00000000
00000000
00000000
00000000
00000000
00000000
00000000
00100000
00000000
00000000
00000000
00000000
00000000
00000000
00000000
00000000
00000000
00000000
00000000
00001000
00000000
00000000
00000000
00000000
00000000
00000000
00000000
00000000
00000000
00000000
00000000
00010000
00000000
00000000
00000000
00000000
00000000
00000000
00000000
00000000
00000000
00000000
00000000
00000010
00000000
00000000
00000000
00000000
00000000
00000000
00000000
00000000
00000000
00000000
00000000
00001000
00000000
00000000
00000000
00000000
00000000
00000000
00000000
00000000
00000000
00000000
00000000
00000100
00000000
00000000
00000000
00000000
00000000
00000000
00000000
00000000
00000000
00000000
00000000
00000010
00000000
00000000
00000000
00000000
00000000
00000000
00000000
00000000
00000000
00000000
00000000
00000100
00000000
00000000
00000000
00000000
00000000
00000000
00000000
00000000
00000000
00000000
00000000
00001000
00000000
00000000
00000000
00000000
00000000
00000000
00000000
00000000
00000000
00000000
00000000
00000001
00000000
00000000
00000000
00000000
00000000
00000000
00000000
00000000
00000000
00000000
00000000
00000100
00000000
00000000
00000000
00000000
00000000
00000000
00000000
00000000
00000000
00000000
00000000
00000010
00000000
00000000
00000000
00000000
00000000
00000000
00000000
00000000
00000000
00000000
00000000
00001000
00000000
00000000
00000000
00000000
00000000
00000000
00000000
00000000
00000000
00000000
00000000
00000002
00000003
00000000
00000000
00000000
00000000
00000000
00000000
00000000
00000000
00000000
00000000
00000000
00000000
00000000
00000000
00000000
00000000
00000000
00000000
00000000
00000000
00000000
00000000
;

//--------------- dance-double - Fred-104 ----------------
#NOTES:
     dance-double:
     Fred-104:
     Challenge:
     19:
     :
00000000
00000000
00000000
00000000
,
00000000
00000000
00000000
00000000
,
00000000
00000000
00000000
00000000
,
00000000
00000000
00000000
00000000
,
00000000
00000000
00000000
00000000
,
00100000
00100000
01000000
00000000
00000000
10100000
00000000
01000000
,
00100000
00000000
00000000
11000000
00000000
01000000
00010000
00022000
,
00000000
00000000
00000000
00000000
,
00000000
00000000
00000000
00033000
,
00001020
00000000
00000230
00000000
00000000
00000302
00000000
00000000
,
00000013
00000011
00000000
00000100
00000010
00000000
00001000
00000100
,
00001000
00000000
00000100
00010000
00001000
00010000
00100000
00010000
00100000
01000000
10000000
00010000
01000000
00100000
10000000
00010000
,
00100000
00000000
00000000
01000000
00000000
00000000
10000000
00000000
00000000
00010000
00000000
00000000
01000000
00000000
00000000
00010000
01000000
00010000
01000000
00000000
00000000
00100000
10000000
00100000
,
10000000
00000000
00010000
10010000
00000000
01000000
00000000
00100000
,
10000000
11000000
00000000
00100000
00001000
00000000
00010000
00001000
,
00010000
00000010
00001000
00000010
00000100
00000001
00000100
00000001
00000010
00000100
00000010
00000100
00001000
00000001
00000100
00000010
,
00001000
00002002
00000000
00000000
00000000
00000000
00003003
00000000
,
00001001
00000000
00000000
00000000
00000101
00000000
00000100
00000000
00000010
00001000
00000010
00000000
00001000
00000100
00001000
00000000
,
00000100
00010000
00000100
00000000
00010000
00001000
00010000
00000000
00001000
00100000
00001000
00000000
00100000
01000000
10000000
00010000
,
01000000
00000000
00100000
10000000
01000000
00000000
00100000
00000000
00001000
00010000
00001000
00000000
00100000
00001000
00010000
00000000
,
00011000
00000000
00001000
00001010
00000000
00000011
00000000
00001001
,
00000000
00000000
00000000
00000000
00000110
00000000
00000000
00000000
00001000
00000001
00000100
00000000
00000010
00001000
00000001
00000000
,
00000010
00000100
00001000
00000000
00010000
00001000
00010000
00000000
00000100
00000000
00000100
00000000
00000010
00000000
00000010
00000000
,
00001010
00000000
00000000
00011000
00000000
00000000
01010000
00000000
,
00010000
00000000
00000000
00000000
00000000
00000000
00000000
00000000
00000000
00000000
00000000
00000000
00100000
00000000
00000000
00000000
00000000
00000000
00000000
00000000
00000000
00000000
00000000
00000000
01000000
00000000
00000000
00000000
00000000
00000000
00000000
00000000
00000000
00000000
00000000
00000000
10000000
00000000
00000000
00000000
00000000
00000000
00000000
00000000
00000000
00000000
00000000
00000000
00100000
00000000
00000000
00000000
00000000
00000000
00000000
00000000
00000000
00000000
00000000
00000000
01000000
00000000
00000000
00000000
00000000
00000000
00000000
00000000
00000000
00000000
00000000
00000000
00010000
00000000
00000000
00000000
00000000
00000000
00000000
00000000
00000000
00000000
00000000
00000000
10000000
00000000
00000000
00000000
00000000
00000000
00000000
00000000
00000000
00000000
00000000
00000000
02000000
03000000
00000000
00000000
00000000
00000000
00000000
00000000
00000000
00000000
00000000
00000000
00200000
00300000
00000000
00000000
00000000
00000000
00000000
00000000
00000000
00000000
00000000
00000000
00002000
00003000
00000000
00000000
00000000
00000000
00000000
00000000
00000000
00000000
00000000
00000000
00020000
00030000
00000000
00000000
00000000
00000000
00000000
00000000
00000000
00000000
00000000
00000000
00000020
00000030
00000000
00000000
00000000
00000000
00000000
00000000
00000000
00000000
00000000
00000000
00002000
00003000
00000000
00000000
00000000
00000000
00000000
00000000
00000000
00000000
00000000
00000000
00000200
00000300
00000000
00000000
00000000
00000000
00000000
00000000
00000000
00000000
00000000
00000000
00002000
00003000
00000000
00000000
00000000
00000000
00000000
00000000
00000000
00000000
00000000
00000000
,
00000001
00000000
00000100
00000010
00000100
00000000
00000001
00000000
00000010
00000100
00001000
00000000
00000001
00000100
00000001
00000000
,
00001000
00000010
00000100
00000000
00000010
00001000
00000100
00000000
00001000
00000000
00010000
00000000
01000000
00000000
00010000
00000000
,
10000000
00000000
01000000
00100000
00010000
00000000
10000000
00000000
00100000
01000000
00100000
00000000
10000000
00100000
01000000
00000000
,
00010000
00000000
00100000
00001000
00010000
00000000
00000010
00000000
00001010
00000000
00000000
00000101
00000000
00000000
00001100
00000000
,
00011000
00000000
00010000
00010000
00001000
00010000
00000010
00000000
00001000
00000001
00000100
00000000
00000100
00000010
00001000
00000000
,
00001000
00000100
00010000
00000000
00001000
00000000
00100000
00000000
01000000
00000000
00100000
00000000
00010000
00000000
01000000
00100000
,
10000000
00010000
00100000
01000000
00100000
00010000
10000000
01000000
00100000
00001000
00010000
00000010
00001000
00000100
00001000
00000001
,
00000010
00000000
00000100
00000000
00001000
00000000
00000001
00000000
00000100
00000000
00001000
00000000
00000000
00000000
00000100
00000000
00000001
00000000
00000000
00000000
00000010
00000000
00000000
00000000
00000100
00000000
00000010
00000001
00000010
00000000
00001000
00000000
,
00000100
00000000
00000000
00010000
00000000
00000000
00001000
00000000
00010000
00000000
00001000
00000000
00100000
00000000
00000000
00000000
00010000
00000000
10000000
00000000
00010000
00000000
00000000
00000000
01000000
00000000
00100000
00000000
01000000
00000000
00000000
00000000
,
10000000
01000000
00100000
00010000
00100000
00001000
00010000
00000000
00000100
00001000
00000100
00000000
00001000
00000001
00000100
00000000
,
00000010
00001000
00000001
00001000
00000100
00000000
00000010
00000001
00000100
00000000
00000010
00000000
00000110
00000000
00000000
00001100
,
00000000
00000000
00000101
00000000
00000100
00000000
00000010
00001000
00000001
00000000
00000010
00000000
00001000
00000000
00000000
00010000
,
00000000
00000000
00001000
00000000
00011000
00000000
00000000
00100000
00000000
00000000
00011000
00000000
00000000
00000010
00000000
00000000
,
00010000
00000000
00001000
00000000
00100000
00000000
00010000
01000000
10000000
00000000
12000000
00000000
03000000
00000000
10010000
00000000
,
01000000
00100000
02000000
00000000
00000000
00000000
13000000
00000000
01000000
00000000
00020000
00000000
00000000
00000000
00031000
00000000
,
00000100
00000001
00001001
00000000
00000000
00000000
00000000
00000000
,
00000000
00011000
00000000
00000000
,
00000000
10010000
00000000
01100000
,
00000000
00000000
00000000
00000000
00000000
00000000
00000000
00000000
00000000
00000000
00000000
00000000
11000000
00000000
00000000
00000000
00000000
00000000
00000000
00000000
00000000
01010000
00000000
00000000
00000000
00000000
00000000
00000000
00000000
00000000
00011000
00000000
00000000
00000000
00000000
00000000
00010000
00000000
00001000
00000000
00010000
00000000
00001000
00000000
00010000
00000000
00001000
00000000
,
00020000
00000000
00000000
00000000
00000000
00000000
00000000
00000000
00030010
00000000
00000000
00000000
00000100
00000010
00000100
00000010
00000100
00000000
00000001
00000000
00000200
00000000
00000000
00000000
00000310
00000000
00001000
00000000
00000020
00000000
00000000
00000000
,
00001030
00000100
00002000
00000000
00003001
00000100
00000002
00000000
00000103
00001000
00000200
00000000
00001300
00010000
00001000
00010000
,
00002000
00000000
00000000
00000000
00103000
00010000
00200000
00000000
00310000
10000000
00020000
00000000
10030000
01000000
20000000
00000000
,
30010000
01000000
00020000
00000000
10030000
00100000
20000000
00000000
30010000
10000000
00020000
00000000
01030000
00100000
10000000
01000000
,
00100000
00100000
00001000
00000000
00010000
00000100
00001000
00000000
00000001
00000100
00000001
00000100
00000010
00000100
00000001
00000000
,
00001000
00000100
00000010
00000000
00000001
00000010
00000100
00000000
00001000
00000001
00001000
00000000
00001100
00000000
00000000
00000000
,
00000010
00001010
00000000
00011000
00000000
00110000
00000000
00010000
,
00100000
00000000
20000000
00000000
00000000
00000000
30100000
00000000
00001000
00000000
00010000
00000000
00022000
00000000
00000000
00033000
,
00101000
00000000
00000000
00011000
00000000
00000000
00010010
00000000
00000000
00000000
00001000
00000100
00000010
00000000
00000000
00000000
,
00001001
00000000
00000000
00000000
00000100
00000010
00001000
00000001
00000010
00000000
00000000
00000000
00000100
00000000
00010000
00000000
,
00001000
00000000
00000000
00011000
00000000
00000000
00011000
00000000
00000000
00000000
01100000
00000000
00000000
00000000
01000000
00000000
,
00010000
01000000
10000000
00000000
01000000
00000000
10000000
01000000
00100000
00100000
00001000
00000000
00011000
00000000
00000000
00110000
,
00000000
00000000
00011000
00000000
00000000
00001010
00000000
00000000
00000100
00000000
00000010
00000000
00001000
00000000
00000000
00001010
,
00000000
00000000
00000000
00000000
00000000
00000000
00000010
00000000
00000000
00000100
00000000
00000000
00000001
00000000
00000000
00000000
00000000
00000000
00000000
00000000
00000011
00000000
00000000
00000000
00000000
00000000
00000000
00000000
00001010
00000000
00000000
00000000
00000000
00000000
00000000
00000000
00011000
00000000
00000000
00000000
00000000
00000000
00000000
00000000
01010000
00000000
00000000
00000000
,
00000000
00000000
00000000
00000000
00000000
00000000
00000000
00000000
00000000
00000000
00000000
00000000
00000000
00000000
00000000
00000000
11000000
00000000
00000000
00000000
00000000
00000000
00000000
00000000
00000000
00000000
00000000
00000000
00000000
00000000
00000000
00000000
02000000
03000000
00000000
00000000
00000000
00000000
00000000
00000000
00000000
00000000
00000000
00000000
00000000
00000000
00000000
00000000
10000000
00000000
00000000
00000000
00000000
00000000
00000000
00000000
00000000
00000000
00000000
00000000
00000000
00000000
00000000
00000000
00100000
00000000
00000000
00000000
00000000
00000000
00000000
00000000
00000000
00000000
00000000
00000000
00000000
00000000
00000000
00000000
00010000
00000000
00000000
00000000
00000000
00000000
00000000
00000000
00000000
00000000
00000000
00000000
00000000
00000000
00000000
00000000
00001000
00000000
00000000
00000000
00000000
00000000
00000000
00000000
00000000
00000000
00000000
00000000
00000000
00000000
00000000
00000000
00000100
00000000
00000000
00000000
00000000
00000000
00000000
00000000
00000000
00000000
00000000
00000000
00000000
00000000
00000000
00000000
00000001
00000000
00000000
00000000
00000000
00000000
00000000
00000000
00000000
00000000
00000000
00000000
00000000
00000000
00000000
00000000
00000100
00000000
00000000
00000000
00000000
00000000
00000000
00000000
00000000
00000000
00000000
00000000
00000010
00000000
00000000
00000000
00000000
00000000
00000000
00000000
00000000
00000000
00000000
00000000
00001000
00000000
00000000
00000000
00000000
00000000
00000000
00000000
00000000
00000000
00000000
00000000
00000001
00000000
00000000
00000000
00000000
00000000
00000000
00000000
00000000
00000000
00000000
00000000
,
00000010
00000000
00000000
00000000
00000000
00000000
00000000
00000000
00000000
00000000
00000000
00000000
00000100
00000000
00000000
00000000
00000000
00000000
00000000
00000000
00000000
00000000
00000000
00000000
00010000
00000000
00000000
00000000
00000000
00000000
00000000
00000000
00000000
00000000
00000000
00000000
00001000
00000000
00000000
00000000
00000000
00000000
00000000
00000000
00000000
00000000
00000000
00000000
00020000
00030000
00000000
00000000
00000000
00000000
00000000
00000000
00000000
00000000
00000000
00000000
00000000
00000000
00000000
00000000
00000000
00000000
00000000
00000000
00000000
00000000
00000000
00000000
00000000
00000000
00000000
00000000
00000000
00000000
00000000
00000000
00000000
00000000
00000000
00000000
00000000
00000000
00000000
00000000
00000000
00000000
00000000
00000000
00000000
00000000
00000000
00000000
00012000
00000000
00000000
00000000
00000000
00000000
00000000
00000000
00000000
00000000
00000000
00000000
00000000
00000000
00000000
00000000
00000000
00000000
00000000
00000000
00000000
00000000
00000000
00000000
00000000
00000000
00000000
00000000
00000000
00000000
00000000
00000000
00000000
00000000
00000000
00000000
00203000
00000000
00000000
00000000
00000000
00000000
00000000
00000000
00000000
00000000
00000000
00000000
00000000
00000000
00000000
00000000
00000000
00000000
00000000
00000000
00000000
00000000
00000000
00000000
00000000
00000000
00000000
00000000
00000000
00000000
00000000
00000000
00000000
00000000
00000000
00000000
02300000
00000000
00000000
00000000
00000000
00000000
00000000
00000000
00000000
00000000
00000000
00000000
00000000
00000000
00000000
00000000
00000000
00000000
00000000
00000000
00000000
00000000
00000000
00000000
,
23000000
00000000
00000000
32000000
00000000
03020000
00000000
00032000
00000000
00000000
00000000
00003020
00000000
00000000
00000032
00000000
,
00000103
00000000
00000000
00000000
00000000
00000000
00000000
00000000
00000000
00000000
00000000
00000000
00000000
00000000
00000000
00000000
00000000
00000000
00000000
00000000
00000000
00000000
00000000
00000000
00000010
00000000
00000000
00000000
00000000
00000000
00000000
00000000
00000000
00000000
00000000
00000000
00001000
00000000
00000000
00000000
00000000
00000000
00000000
00000000
00000000
00000000
00000000
00000000
00000100
00000000
00000000
00000000
00000000
00000000
00000000
00000000
00000000
00000000
00000000
00000000
00000000
00000000
00000000
00000000
00000000
00000000
00000100
00000000
00000000
00000000
00000000
00000000
00000000
00000000
00000000
00000000
00000000
00000000
00000000
00000000
00000000
00000000
00000000
00000000
00000100
00000000
00000000
00000000
00000000
00000000
00000000
00000000
00000000
00000000
00000000
00000000
00002002
00003003
00000000
00000000
00000000
00000000
00000000
00000000
00000000
00000000
00000000
00000000
00000000
00000000
00000000
00000000
00000000
00000000
00000000
00000000
00000000
00000000
00000000
00000000
00000101
00000000
00000000
00000000
00000000
00000000
00000000
00000000
00000000
00000000
00000000
00000000
00000100
00000000
00000000
00000000
00000000
00000000
00000000
00000000
00000000
00000000
00000000
00000000
00000000
00000000
00000000
00000000
00000000
00000000
00000000
00000000
00000000
00000000
00000000
00000000
00000100
00000000
00000000
00000000
00000000
00000000
00000000
00000000
00000000
00000000
00000000
00000000
00000010
00000000
00000000
00000000
00000000
00000000
00000000
00000000
00000000
00000000
00000000
00000000
00001000
00000000
00000000
00000000
00000000
00000000
00000000
00000000
00000000
00000000
00000000
00000000
,
00000001
00000000
00000000
00000000
00000010
00000000
00000100
00000000
00000000
00000000
00010000
00000000
00001000
00000000
00010000
00000000
00000000
00001000
00100000
00001000
00100000
00010000
00100000
00010000
00100000
01000000
00100000
01000000
10000000
01000000
10000000
01000000
,
10000000
00100000
01000000
00010000
00100000
00001000
00010000
00000100
00001000
00000100
00000010
00000001
00001000
00000010
00000100
00000001
00001000
00000000
00000000
00000000
00000000
00000000
00000000
00000000
00000000
00000000
00000000
00000000
00001010
00000000
00000000
00000000
,
00000000
00000000
00011000
00000000
00110000
00000000
00000000
20100000
,
00000000
00000000
00000000
00000000
00000000
00000000
00000000
00000000
00000000
00000000
00000000
00000000
00000000
00000000
00000000
00000000
00000000
00000000
00000000
00000000
00000000
00000000
00000000
30000000
12000000
00000000
00000000
00000000
00000000
00000000
00000000
00000000
00000000
00000000
00000000
00000000
00000000
00000000
00000000
00000000
00000000
00000000
00000000
00000000
00000000
00000000
00000000
00000000
00000000
00000000
00000000
00000000
00000000
00000000
00000000
00000000
00000000
00000000
00000000
00000000
00000000
00000000
00000000
00000000
00000000
00000000
00000000
00000000
00000000
00000000
00000000
03000000
01020000
00000000
00000000
00000000
00000000
00000000
00000000
00000000
00000000
00000000
00000000
00000000
00000000
00000000
00000000
00000000
00000000
00000000
00000000
00000000
00000000
00000000
00000000
00000000
00000000
00000000
00000000
00000000
00000000
00000000
00000000
00000000
00000000
00000000
00000000
00000000
00000000
00000000
00000000
00000000
00000000
00000000
00000000
00000000
00000000
00000000
00000000
00000000
00031000
00000000
00000000
00000000
00000000
00000000
00000000
00000000
00000000
00000000
00000000
00000000
00000000
00000000
00000000
00000000
00000000
00000000
00000000
00000000
00000000
00000000
00000000
00000000
00010000
00000000
00000000
00000000
00000000
00000000
00000000
00000000
00000000
00000000
00000000
00000000
00000000
00000000
00000000
00000000
00000000
00000000
00000000
00000000
00000000
00000000
00000000
00000000
00011000
00000000
00000000
00000000
00000000
00000000
00000000
00000000
00000000
00000000
00000000
00000000
00000000
00000000
00000000
00000000
00000000
00000000
00000000
00000000
00000000
00000000
00000000
00000000
,
00000000
00001100
00000000
00000101
00000000
00001100
00000000
00011000
,
00010000
00001000
00100000
00010000
10000000
00000000
00000000
00000000
10000000
00000000
00000000
01000000
00000000
00000000
00010000
00000000
,
00000000
00001000
00000000
00000000
00000011
00000000
00000000
00000000
00000001
00000000
00000000
00000100
00000000
00000000
00001000
00000000
,
00000000
00010000
00000000
00000000
00100000
10000000
00100000
10000000
00010000
00000000
00000000
10000000
00000000
00000000
01000000
00000000
,
00000000
00010000
00000000
00000000
01000000
00000000
00100000
00000000
10000000
00000000
01000000
00000000
00010000
00000000
00001000
00000000
,
00000010
00000001
00002002
00000000
00000000
00000000
00000000
00000000
,
00000000
00000000
00000000
00000000
,
00000000
00000000
00000000
00000000
,
00003003
00000000
00000000
00000000
,
00000000
MMMMMMMM
00000000
00000000
00000000
00000000
00000000
00000000
00000000
00000000
00000000
00000000
00000000
00000000
00000000
00000000
00000000
00000000
00000000
00000000
00000000
00000000
00000000
00000000
00000000
00000000
00000000
00000000
00000000
00000000
00000000
00000000
00000000
00000000
00000000
00000000
00000000
00000000
00000000
00000000
00000000
00000000
00000000
00000000
00000000
00000000
00000000
00000000
00000000
00000000
00000000
00000000
00000000
00000000
00000000
00000000
00000000
00000000
00000000
00000000
00000000
00000000
00000000
00000000
00000000
00000000
00000000
00000000
00000000
00000000
00000000
00000000
00000000
00000000
00000000
00000000
00000000
00000000
00000000
00000000
00000000
00000000
00000000
00000000
00000000
00000000
00000000
00000000
00000000
00000000
00000000
00000000
00000000
00000000
00000000
00000000
00000000
00000000
00000000
00000000
00000000
00000000
00000000
00000000
00000000
00000000
00000000
00000000
00000000
00000000
00000000
00000000
00000000
00000000
00000000
00000000
00000000
00000000
00000000
00000000
00000000
00000000
00000000
00000000
00000000
00000000
00000000
00000000
00000000
00000000
00000000
00000000
00000000
00000000
00000000
00000000
00000000
00000000
00000000
00000000
00000000
00000000
00000000
00000000
00000000
00000000
00000000
00000000
00000000
00000000
00000000
00000000
00000000
00000000
00000000
00000000
00000000
00000000
00000000
00000000
00000000
00000000
00000000
00000000
00000000
00000000
00000000
00000000
00000000
00000000
00000000
00000000
00000000
00000000
00000000
00000000
00000000
00000000
00000000
00000000
00000000
00000000
00000000
00000000
00000000
00000000
00000000
00000000
00000000
00000000
00000000
00000000
,
00011000
00000000
00000000
00000000
00001000
00000000
00001000
00000000
00000000
00010000
00000000
00000000
01000000
00000000
10000000
00000000
,
00000000
00000000
00000000
00000000
00000000
00000000
00000000
00000000
00000000
00000000
00000000
00000000
00000000
00000000
00000000
00000000
00000000
00000000
00000000
00000000
00000000
00000000
00000000
00000000
00020000
00030000
00000000
00000000
00000000
00000000
00000000
00000000
00000000
00000000
00000000
00000000
20000000
30000000
00000000
00000000
00000000
00000000
00000000
00000000
00000000
00000000
00000000
00000000
00100000
00000000
00000000
00000000
00000000
00000000
00000000
00000000
00000000
00000000
00000000
00000000
00000000
00000000
00000000
00000000
00000000
00000000
00000000
00000000
00000000
00000000
00000000
00000000
01000000
00000000
00000000
00000000
00000000
00000000
00000000
00000000
00000000
00000000
00000000
00000000
00000000
00000000
00000000
00000000
00000000
00000000
00000000
00000000
00000000
00000000
00000000
00000000
00100000
00000000
00000000
00000000
00000000
00000000
00000000
00000000
00000000
00000000
00000000
00000000
10000000
00000000
00000000
00000000
00000000
00000000
00000000
00000000
00000000
00000000
00000000
00000000
01000000
00000000
00000000
00000000
00000000
00000000
00000000
00000000
00000000
00000000
00000000
00000000
00100000
00000000
00000000
00000000
00000000
00000000
00000000
00000000
00000000
00000000
00000000
00000000
00010000
00000000
00000000
00000000
00000000
00000000
00000000
00000000
00000000
00000000
00000000
00000000
00100000
00000000
00000000
00000000
00000000
00000000
00000000
00000000
00000000
00000000
00000000
00000000
00001000
00000000
00000000
00000000
00000000
00000000
00000000
00000000
00000000
00000000
00000000
00000000
00010000
00000000
00000000
00000000
00000000
00000000
00000000
00000000
00000000
00000000
00000000
00000000
,
00001000
00000000
00010000
00000100
00001000
00000000
00000010
00000000
00001000
00000000
00000100
00000001
00000000
00000100
00000001
00000100
,
00001000
00000000
00000010
00000001
00000000
00000010
00000001
00000010
00001000
00000000
00000100
00000000
00010000
00001000
00010000
00001000
,
00020000
00030000
00000000
00000000
00000000
00000000
00000000
00000000
00000000
00000000
00000000
00000000
00000000
00000000
00000000
00000000
00000000
00000000
00000000
00000000
00000000
00000000
00000000
00000000
00000000
00000000
00000000
00000000
00000000
00000000
00000000
00000000
00000000
00000000
00000000
00000000
00000000
00000000
00000000
00000000
00000000
00000000
00000000
00000000
00000000
00000000
00000000
00000000
00011000
00000000
00000000
00000000
00000000
00000000
00000000
00000000
00000000
00000000
00000000
00000000
00000000
00000000
00000000
00000000
00000000
00000000
00000000
00000000
00000000
00000000
00000000
00000000
00001000
00000000
00000000
00000000
00000000
00000000
00000000
00000000
00000000
00000000
00000000
00000000
00000000
00000000
00000000
00000000
00000000
00000000
00000000
00000000
00000000
00000000
00000000
00000000
00100000
00000000
00000000
00000000
00000000
00000000
00000000
00000000
00000000
00000000
00000000
00000000
00010000
00000000
00000000
00000000
00000000
00000000
00000000
00000000
00000000
00000000
00000000
00000000
00000000
00000000
00000000
00000000
00000000
00000000
00000000
00000000
00000000
00000000
00000000
00000000
00100000
00000000
00000000
00000000
00000000
00000000
00000000
00000000
00000000
00000000
00000000
00000000
01000000
00000000
00000000
00000000
00000000
00000000
00000000
00000000
00000000
00000000
00000000
00000000
00000000
00000000
00000000
00000000
00000000
00000000
00000000
00000000
00000000
00000000
00000000
00000000
10000000
00000000
00000000
00000000
00000000
00000000
00000000
00000000
00000000
00000000
00000000
00000000
00000000
00000000
00000000
00000000
00000000
00000000
00000000
00000000
00000000
00000000
00000000
00000000
,
00010000
00000000
01000000
10000000
01000000
00000000
00010000
00000000
00100000
01000000
10000000
00100000
01000000
00010000
00100000
00001000
,
00010000
00000000
00000000
00001000
00000000
00000010
00000000
00000000
00000001
00000000
00000000
00000100
00000000
00001000
00000000
00000000
,
00001100
00000000
00000000
00000000
00000101
00000000
00000000
00000000
00000100
00000010
00000000
00000100
00000010
00000000
00002000
00000000
,
00000000
00000000
00000000
00000000
00003001
00000000
00000001
00000000
00000100
00001000
00000000
00001000
00010000
00000000
00001000
00000000
,
00010000
00000000
00001000
00100000
00001000
00000000
00010000
00000000
00000010
00001000
00000200
00000310
00000001
00000100
00000010
00001000
,
00000100
00000000
00000000
00000000
00000110
00000000
00000010
00000001
00001000
00000000
00000000
00001010
00000000
00000000
00000001
00000100
,
00000010
00000000
00000000
00001010
00000000
00000000
00000100
00000000
00010000
00000000
00000000
01001000
00000000
00000000
00100000
00000000
,
00010000
00000000
10000000
00100000
01000000
00000000
00010000
00000000
10000000
01000000
00100000
00010000
10000000
01000000
00100000
00010000
,
01000000
00010000
00100000
00001000
00010000
00000100
00001000
00000100
00000010
00000001
00001000
00000001
00000100
00000001
00000100
00000010
,
00001000
00000000
00000001
00000100
00000000
00000100
00001000
00000000
00000100
00000001
00000000
00000001
00000010
00000000
00000100
00000000
,
00001000
00000010
00000100
00000001
00000010
00000100
00001000
00000100
00010000
00001000
01000000
00010000
00100000
10000000
00100000
00010000
,
02000000
00000000
00000000
00000000
,
00000000
00000000
00000000
00000000
,
13000000
00000000
00000000
00001000
00000000
00000000
00010000
00000000
,
00000000
00000001
00000000
00000000
00000100
00000000
00000010
00000000
,
00001000
00000100
00001000
00000100
00000010
00000001
00000010
00000001
00000100
00000010
00001000
00000010
00000100
00000001
00000100
00000001
,
00000010
00000100
00001000
00000100
00010000
00001000
00010000
00001000
01000000
00010000
01000000
00100000
10000000
00100000
01000000
00010000
,
10000000
01000000
10000000
00100000
01000000
00010000
00100000
00001000
00010000
00000100
00001000
00000100
00000010
00000001
00000100
00000010
,
00001000
00000000
00000000
00000000
00000000
00000000
00000000
00000000
00000000
00000000
00000000
00000000
00000010
00000000
00000000
00000000
00000000
00000000
00000000
00000000
00000000
00000000
00000000
00000000
00001000
00000000
00000000
00000000
00000000
00000000
00000000
00000000
00000000
00000000
00000000
00000000
00000001
00000000
00000000
00000000
00000000
00000000
00000000
00000000
00000000
00000000
00000000
00000000
00000100
00000000
00000000
00000000
00000000
00000000
00000000
00000000
00000000
00000000
00000000
00000000
00000010
00000000
00000000
00000000
00000000
00000000
00000000
00000000
00000000
00000000
00000000
00000000
00001000
00000000
00000000
00000000
00000000
00000000
00000000
00000000
00000000
00000000
00000000
00000000
00000100
00000000
00000000
00000000
00000000
00000000
00000000
00000000
00000000
00000000
00000000
00000000
00000001
00000000
00000000
00000000
00000000
00000000
00000000
00000000
00000000
00000000
00000000
00000000
00000100
00000000
00000000
00000000
00000000
00000000
00000000
00000000
00000000
00000000
00000000
00000000
00001000
00000000
00000000
00000000
00000000
00000000
00000000
00000000
00000000
00000000
00000000
00000000
00010000
00000000
00000000
00000000
00000000
00000000
00000000
00000000
00000000
00000000
00000000
00000000
01000000
00000000
00000000
00000000
00000000
00000000
00000000
00000000
00000000
00000000
00000000
00000000
10000000
00000000
00000000
00000000
00000000
00000000
00000000
00000000
00000000
00000000
00000000
00000000
00020000
00030000
00000000
00000000
00000000
00000000
00000000
00000000
00000000
00000000
00000000
00000000
00000000
00000000
00000000
00000000
00000000
00000000
00000000
00000000
00000000
00000000
00000000
00000000
;
