#VERSION:0.83;
#TITLE:Wings of Glory;
#ARTIST:Crawk × Capchii;
#BANNER:Wings of Glory.png;
#BACKGROUND:Wings of Glory-bg.png;
#CDTITLE:./CDTitles/SDVX IV HEAVENLY HAVEN.png;
#MUSIC:Wings of Glory.ogg;
#SAMPLESTART:69.334;
#SAMPLELENGTH:15;
#DISPLAYBPM:112.5:225;
#BPMS:0=225,196=112.5,212=225,280=450,283.333333=225,372=112.5;
#STOPS:280=0.178,281.333333=0.177,282.666667=0.089;
#BGSTAGE:31;

//--------------- dance-single - Fred-104 ----------------
#NOTEDATA:;
#STEPSTYPE:dance-single;
#DESCRIPTION:Fred-104;
#DIFFICULTY:Beginner;
#METER:5;
#CREDIT:Fred-104;
#NOTES:
0000
0000
0000
0000
,
0000
0000
0000
0000
,
0000
0000
0000
0000
,
0000
0000
0000
0000
,
0000
0000
0000
0000
,
1000
0000
0000
0000
,
0000
0001
0000
0000
,
1000
0000
0000
0000
,
0000
1001
0000
0000
,
0001
0000
0100
0000
,
0001
0000
0010
0000
,
0010
0000
0001
0000
,
1000
0000
0100
0000
,
0100
0000
1000
0000
,
0001
0000
1000
0000
,
0000
2002
0000
0000
,
3003
0000
0000
0000
,
0001
0000
0100
0000
,
0001
0000
0010
0000
,
0001
0000
1000
0000
,
0001
0000
1000
0000
,
1000
0000
0001
0000
,
1000
0000
0010
0000
,
1000
0000
0001
0000
,
0100
0000
0001
0000
,
0001
0000
1000
0000
,
0100
0000
1000
0000
,
0001
0000
1000
0000
,
0001
0000
1000
0000
,
0100
0000
1000
0000
,
0001
0000
1000
0000
,
0001
0000
1000
0000
,
0001
0000
1000
0000
,
1001
0000
0000
0000
,
0001
0000
0000
0000
,
1000
0000
0010
0000
,
0100
0000
0000
0000
,
0001
0000
0000
0000
,
1000
0000
0001
0000
,
1000
0000
0000
0000
,
0001
0000
1000
1000
,
1000
0000
0002
0003
,
1000
0000
0010
0000
,
2000
0000
3002
0000
,
1003
0000
0001
0000
,
2000
3000
0002
0003
,
0100
0000
0010
0000
,
1000
0000
0100
0000
,
1001
0000
0000
0000
,
0001
0000
0100
0000
,
0001
0000
1000
0000
,
0001
0000
0100
0000
,
0010
0000
0100
0000
,
0001
0000
1000
0000
,
0100
0000
1000
0000
,
0001
0000
1000
0000
,
2002
0000
3003
0000
,
0001
0000
0100
0000
,
0010
0000
1000
0000
,
2002
0000
0000
0000
,
3003
0000
0000
0000
,
2000
0000
0000
3000
,
0002
0003
2000
3000
,
0001
0000
0100
0000
,
0001
0000
1000
1000
,
1000
0000
0002
0003
,
1000
0000
0200
0300
,
1000
0000
0020
0030
,
1000
0000
0200
0300
,
0010
0000
0001
0000
,
2002
0000
0000
0000
,
3003
0000
0000
0000
,
0002
0003
2000
3000
,
0200
0000
0000
0300
,
0020
0000
0000
0030
,
0100
0000
1000
0000
,
0001
0000
1000
0000
,
1001
0000
0000
0000
,
0000
0001
0000
0000
,
0100
0000
0000
0000
,
0000
0010
0000
0000
,
1000
0000
0000
0000
,
0000
0001
0000
0000
,
1000
0000
0000
0000
,
0000
0100
0000
0000
,
1000
0000
0001
0000
,
1000
0000
0000
0000
,
0001
0000
1000
0000
,
0100
0000
0000
0000
,
1000
0000
0010
0000
,
0100
0000
0000
0000
,
0001
0000
1000
0000
,
0001
0000
0000
0000
,
2000
0000
3000
0000
,
0002
0000
0003
0000
,
0200
0000
0300
0000
,
0020
0000
0030
0000
,
2002
0000
0000
0000
,
3003
0000
0000
0000
;

//--------------- dance-single - Fred-104 ----------------
#NOTEDATA:;
#STEPSTYPE:dance-single;
#DESCRIPTION:Fred-104;
#DIFFICULTY:Easy;
#METER:8;
#CREDIT:Fred-104;
#NOTES:
0000
0000
0000
0000
,
0000
0000
0000
0000
,
0000
0000
0000
0000
,
0000
0000
0000
0000
,
0000
0000
0000
0000
,
1000
0000
0000
0000
,
0000
0001
0000
0000
,
0100
0000
0000
0000
,
1000
1000
0001
0001
,
1001
0000
0001
0000
,
1000
0000
0001
0000
,
0100
0000
0010
0000
,
0100
0100
0100
0000
,
0001
0000
1000
0000
,
0001
0000
0000
0000
0010
0000
0000
0100
,
0000
2002
0000
0000
,
3003
0000
0000
0000
,
1000
1000
0001
0000
,
0100
0010
0100
0001
,
1000
0000
0000
0100
0000
0000
0010
0000
,
0001
1000
1001
0000
,
0001
0000
0000
0100
0000
0100
0000
0100
,
0000
0010
0100
0001
,
1000
0000
0000
0100
0000
0000
0010
0000
,
0001
1000
0001
0100
,
0010
0000
0110
0000
0100
0000
0000
0001
,
0000
1000
0000
0001
,
0010
0000
0000
0100
0000
0000
1000
0000
,
0001
0000
0000
0100
0000
0000
0010
0000
,
0100
0000
0000
0001
0000
1000
0000
0001
,
0000
0100
0010
0100
,
0001
0000
1000
0000
0100
0000
0000
1001
,
0000
0100
0220
0330
,
1000
0000
0001
0000
,
0100
0000
0100
0000
0010
0000
0000
0110
,
0000
0001
1000
0000
,
0001
0010
0100
1000
,
0001
0000
0000
0100
0000
0000
0010
0000
,
0100
0000
0100
0000
0001
0000
0000
1001
,
0000
1000
0001
0100
,
0010
0010
0100
0100
,
1001
0000
0001
0000
,
1000
0100
0010
0001
,
1000
0000
0001
0000
,
0100
0000
0010
0100
,
0001
0001
1000
1000
,
0100
0010
0100
1000
,
0001
0100
0010
0100
,
0000
0001
0000
0000
0000
2002
0000
3003
,
2000
0000
3200
0320
,
0032
0000
2003
3020
,
0230
0302
2003
3200
,
0320
0000
0032
0000
2003
3000
2002
3003
,
1000
0000
0001
0000
,
0100
0000
0010
0000
,
0100
0001
1000
0100
,
2000
0000
0002
3003
,
0001
0000
1000
0000
,
0001
0001
1000
1000
,
0001
0010
0100
1000
,
2002
0000
0000
3003
,
0001
0000
1000
0100
,
0020
0030
0200
0300
,
1000
0000
0000
0001
0000
0000
0100
0000
,
0020
0030
0200
0300
,
0001
0001
0010
0010
,
0100
0100
1000
1000
,
0001
0001
0100
0100
,
0010
0010
1000
1000
,
0001
0100
0010
1000
,
2002
0000
0000
0000
0000
0000
0000
0000
3003
0000
0000
0000
,
2000
0000
0000
3002
,
0203
0000
0320
0000
,
1030
1000
0001
0001
,
0010
0010
0100
0100
,
1000
0001
0100
0010
,
0100
0001
1000
0001
,
1001
0000
0000
0000
0000
0001
0000
0000
,
0000
0000
0001
0000
0000
0100
0000
0000
,
0100
0000
0000
0000
0000
0010
0000
0000
,
0000
0000
0010
0000
0000
1000
0000
0000
,
1000
0000
0000
0000
0000
1000
0000
0000
,
0000
0000
0001
0000
0000
0001
0000
0000
,
1000
0000
0000
0000
0000
1000
0000
0000
,
0000
0100
0000
1000
,
0002
0000
0000
2003
0000
0000
3200
0000
,
0000
0000
0320
0230
,
2300
0000
0000
0000
0000
0000
0000
3002
,
0000
0000
0000
0003
,
0200
0000
0000
0320
0000
0000
0230
0000
,
0000
0302
0000
1003
,
0200
0320
0032
2003
,
0000
0002
0000
3003
,
2000
0000
3020
2030
,
3020
0000
0032
0203
,
0302
0000
0203
2300
,
3002
0000
2003
3002
,
0103
0100
0010
0010
,
1001
0000
0000
0000
;

//--------------- dance-single - Fred-104 ----------------
#NOTEDATA:;
#STEPSTYPE:dance-single;
#DESCRIPTION:Fred-104;
#DIFFICULTY:Medium;
#METER:11;
#CREDIT:Fred-104;
#NOTES:
0000
0000
0000
0000
,
0000
0000
0000
0000
,
0000
0000
0000
0000
,
0000
0000
0000
0000
,
0000
0000
0000
0000
,
1000
0000
0000
0000
0000
0010
0000
0000
,
0000
0000
1000
0000
0000
0001
0000
0000
,
0100
0000
0000
0000
0000
0001
0000
0000
,
1000
0100
0010
0001
,
1001
0000
0000
0001
0000
0000
0100
0000
,
0000
0010
0000
0000
0100
0000
0000
0001
,
0000
1000
0001
0010
,
0100
0000
1000
0001
,
1000
0000
0001
1000
,
0001
0000
0100
0000
0010
0000
0000
0110
,
0000
1001
0000
0000
,
1000
0100
1000
0000
0001
0100
0001
0000
,
1001
1000
0010
0000
,
0100
0001
1000
0001
,
0010
0000
0000
0100
0000
0000
1000
0000
,
0001
0000
0100
0000
0001
0001
0000
1000
,
1000
0000
0010
0100
0000
0100
0000
0001
,
0000
1000
0100
0010
,
0001
0000
1000
0001
0000
0100
0001
0000
,
1000
0001
0100
0010
,
1000
0000
1100
0000
1000
1000
0000
0001
,
0000
0100
0100
0000
0010
0000
1000
0000
,
0001
0000
0010
0100
0000
0100
0000
1000
,
0001
0000
0100
0010
0000
0010
0000
1000
,
0001
0000
1000
0001
0000
0010
0000
0001
,
0000
1000
0001
0000
0100
0010
1000
0000
,
0001
0000
0100
0000
0010
0010
0000
1001
,
0000
1000
0100
0000
0010
0001
1000
0000
,
1001
0000
0001
1000
0000
0001
0000
0100
,
0010
1000
0000
0001
1000
0000
0100
0100
,
0000
0010
0001
0010
0000
0001
1000
0000
,
0001
0100
0000
0010
1000
0000
1001
0000
,
0001
0000
0010
0100
0000
1000
0000
0001
,
1000
0001
0000
0100
0010
0000
1000
1000
,
0000
0100
0010
0001
0000
1000
0001
0000
,
0100
0010
1000
1001
,
0001
0100
0001
0000
1000
0010
0000
0100
,
0001
1000
0100
0010
,
0001
0000
1000
0001
1000
0000
0010
0100
,
0001
0000
0000
1000
0001
0010
0001
0000
,
1000
0100
1000
0100
,
0001
0100
0001
0100
,
1000
0001
0010
0000
0001
1000
0000
0001
,
1000
0200
0000
0300
0000
2002
0000
3003
,
2000
0000
0010
0000
0001
0001
3001
0000
,
0002
0000
0000
0000
0000
0000
0000
0000
0010
0000
0000
0000
0000
0000
0000
0000
1000
0000
0000
0000
1000
0000
0000
0000
1003
0000
0000
0001
0000
0000
1000
0000
,
0200
0000
0310
0010
0001
1000
0002
0000
,
0103
0100
0010
1000
0001
1000
2002
3003
,
1000
0100
1000
0001
,
0100
0100
0010
1000
,
0100
0001
0100
0010
,
0002
0000
2000
3003
,
0001
0010
0100
1000
,
0001
0100
0001
0000
1000
0010
1000
0000
,
0001
1000
0001
1000
0001
1000
0001
1000
,
0001
0010
0000
0010
0100
0000
1100
0000
,
1001
0000
0001
0100
0010
1000
0001
0000
,
2000
3100
0002
0103
,
2000
0000
0000
3002
0000
0000
0203
0000
,
0320
0100
0230
0001
,
0301
0100
0110
0000
,
1000
0100
0110
0000
,
0001
0010
0110
0000
,
1000
0010
0110
0000
,
0001
0000
0100
0001
1000
0001
0010
0000
,
2002
0000
0000
0000
0000
0000
0000
0000
3003
0000
0000
0000
,
2001
0000
0000
3020
,
0230
0000
0302
0000
,
1003
0100
0001
0100
,
1000
0010
0001
0010
,
1000
0100
0010
0001
,
0100
0010
1000
0000
0010
0100
0001
0000
,
1001
0000
0000
0000
0000
1000
0000
0000
,
0000
0000
0100
0000
0000
0010
0000
0000
,
0011
0000
0000
0000
0000
0001
0000
0000
,
0000
0000
0100
0000
0000
0010
0000
0000
,
1010
0000
0000
0000
0000
1000
0000
0000
,
0000
0000
0001
0000
0000
0100
0000
0000
,
0110
0000
0000
0000
0000
0010
0000
0000
,
0000
0000
1000
0000
0000
0001
1000
0000
,
1001
0000
0000
0000
0001
0100
0001
0100
,
0000
0001
1000
0000
0100
0000
0010
0000
,
0002
0000
0000
0000
1003
0010
1000
0010
,
0000
0100
0010
0000
1000
0000
0000
0000
,
0110
0000
0000
0000
0001
0010
0001
0010
,
0000
0100
0010
0000
0001
0000
1000
0001
,
0100
0000
0010
0000
1000
0010
1000
0010
,
0000
0100
0001
0000
2002
0000
3003
0000
,
1000
0000
0001
0000
0010
0010
0100
0000
,
1000
0000
0001
0000
0100
0100
0010
0000
,
0100
0000
0001
0000
0010
0010
0100
0000
,
1000
0000
0001
1000
0001
0100
0010
1000
,
0001
0010
1000
0010
0001
0100
1000
0100
,
0001
0000
0000
0000
;

//--------------- dance-single - Fred-104 ----------------
#NOTEDATA:;
#STEPSTYPE:dance-single;
#DESCRIPTION:Fred-104;
#DIFFICULTY:Hard;
#METER:14;
#CREDIT:Fred-104;
#NOTES:
0000
0000
0000
0000
,
0000
0000
0000
0000
,
0000
0000
0000
0000
,
0000
0000
0000
0000
,
0000
0000
0000
0000
,
1001
0000
0000
0000
0000
0001
0000
0000
,
0000
0000
1000
0000
0000
0001
0000
0000
,
1000
0000
0000
0000
0000
0001
0000
0000
,
0100
0010
0100
0010
0100
0010
0100
0000
,
1001
0000
0110
0000
0001
1000
0001
0000
,
0100
0010
0100
0000
0001
1000
0100
0010
,
0000
0010
0001
0000
1000
0010
0100
0000
,
0001
0000
1000
0001
0010
0100
1000
0000
,
0001
0100
0001
0000
1000
0100
1000
0000
,
0001
0010
0001
0000
1000
0010
1000
0001
,
0000
1001
0000
0000
,
0001
1000
0001
1000
0001
0100
0010
0000
,
1000
0001
0010
0000
0001
1000
0001
0100
,
0000
0010
1000
0000
0001
0010
0100
1000
,
0001
0000
1000
0001
0000
0010
0000
0100
,
1000
0001
0100
0010
1000
1000
0000
0001
,
0001
0000
0010
0100
0010
0001
1000
0010
,
0000
0100
0001
1000
0001
0010
0100
1000
,
0001
1000
0100
1000
0000
0001
0100
0010
,
0100
0010
0100
0010
0100
0001
1000
0100
,
1100
0000
0101
0000
1000
0100
0000
0110
,
0000
0100
1000
0000
1001
0000
0001
1000
,
0010
0000
0100
0001
0000
1001
0000
1000
,
0100
0000
0010
1000
0010
0100
1000
0001
,
0100
0000
0010
1000
0010
0100
0010
1000
,
0001
0000
1000
0100
0010
0001
1000
0000
,
0001
0010
0100
0010
0001
0001
0000
0110
,
0000
1000
1000
0000
0001
0100
0010
1000
,
1001
0000
1000
0100
0000
1000
0001
0100
,
0010
0100
0000
0001
0010
0100
0010
0001
,
0000
1000
0001
0100
0001
1000
0001
0010
,
0100
1000
0010
0100
0001
1000
0001
0000
,
1000
0001
0010
0001
1000
0010
1000
0001
,
0100
0010
0000
0010
1000
0001
0010
0100
,
0000
0100
1000
0001
0100
0010
1000
0010
,
0100
0001
1000
0100
0010
0001
1001
0000
,
0001
0010
2000
0000
3010
0200
0000
1300
,
0001
0100
0010
1000
0010
0100
0001
1000
,
0002
0000
0013
0100
0010
0100
0010
0001
,
2000
0000
0000
0000
0000
0000
3010
1000
0010
0000
0100
0000
0001
0000
0000
0000
,
1000
0100
1000
0100
0001
0100
1000
0000
,
0001
0100
0001
0100
1000
0100
0001
0000
,
1000
0001
1000
0000
0001
0100
0000
0010
,
1000
2002
0000
0000
3003
0220
0000
0330
,
1000
0000
0100
0000
1000
0001
1000
0000
0001
0000
0100
0010
0200
0000
0000
0000
,
0301
0000
0000
0000
1000
0000
0000
0000
0100
0000
0010
0000
0100
0000
0000
0000
1000
0000
0000
0000
0001
0000
0000
0000
1000
0000
0000
1000
0000
0000
1000
0000
,
0001
0000
0100
0010
1000
0001
0010
0100
1000
0000
1000
0001
2000
0000
0000
3001
,
1000
0000
0001
0000
0100
0010
0100
0000
0001
0000
1000
0000
2002
0000
0000
3003
,
0001
1000
0001
0000
0100
0010
1000
0001
,
0000
0010
0100
0000
1000
0010
0100
0001
,
1000
0100
0010
0001
0010
0001
0010
0100
,
2000
0000
0002
3003
,
0001
0100
0010
1000
,
0001
0010
0100
1000
0001
0100
0010
1000
,
0001
0100
0001
0100
1000
0100
1000
0100
,
0001
0000
0001
0000
0000
0000
1000
0100
1000
0000
0001
0000
1001
0000
0000
0000
,
0120
0000
1030
0100
0010
0100
1000
0000
,
2010
3100
0012
0103
,
2001
0000
3001
0100
0000
0010
1000
0000
,
0210
0301
0120
1030
,
0002
0000
0000
2003
0000
0000
3001
0100
0010
1000
0001
1000
,
0002
0000
0000
2003
0000
0000
3010
1000
0001
0100
0010
0100
,
0020
0000
0000
2030
0000
0000
3100
0010
0001
1000
0001
1000
,
0002
0000
0000
0203
0000
0000
0301
1000
0100
0010
0001
1000
,
0001
0000
0001
0100
0010
1000
0001
1000
,
0002
0003
0000
0000
0000
0000
0000
0000
2000
3000
0000
0000
0000
0000
0000
0000
0002
0003
0000
0000
0000
0000
0000
0000
,
0210
0001
1000
0302
,
2003
3100
0002
0103
,
1100
0000
0000
1001
0000
0000
1000
0001
1000
0001
0000
0000
,
0101
0000
0000
1001
0000
0000
0001
1000
0001
1000
0000
0000
,
0010
0100
0010
1000
0001
0010
0100
0010
,
0001
1000
0010
0100
0001
0100
0110
0000
,
1001
0000
0000
0000
0000
0110
0000
0000
,
0000
0000
0101
0000
0000
1010
0000
0000
,
0011
0000
0000
0000
0000
1100
0000
0000
,
0000
0000
0101
0000
0000
1010
0000
0000
,
1001
0000
0000
0000
0000
0011
0000
0000
,
0000
0000
1010
0000
0000
1100
0000
0000
,
0101
0000
0000
0000
0000
1001
0000
0000
,
0000
0000
0110
0000
0000
0001
1000
0000
,
1001
0000
0000
0000
1000
0100
0010
0001
,
0000
1000
0001
0000
0100
0000
0010
0000
,
0100
0000
0001
0000
1000
0100
0010
0100
,
0000
1000
0010
0000
0100
0001
1000
0000
,
1001
0000
0000
0000
0001
0010
0100
1000
,
0000
0001
0100
0000
0010
0000
0100
0000
,
0002
0000
2003
0000
3100
0010
0001
1000
,
0010
0100
2002
3003
,
1001
0000
1000
0000
0100
0010
0100
0000
1000
0000
0001
0000
0100
0010
0100
0010
,
0100
0000
0001
0000
0010
0010
0010
0000
0001
0000
1000
0100
0001
0000
1000
0010
,
0001
0000
1000
0001
1000
0001
1000
0000
0010
0000
0100
0001
1000
0000
0000
1000
,
0100
0000
0010
0000
0001
1000
0010
0000
0100
0000
0001
0010
0100
0000
1000
0000
,
0001
0000
0010
0100
0010
0000
0001
1000
0001
0000
1000
0010
0100
0001
0010
0100
,
1000
0000
0000
0000
;

//--------------- dance-single - Fred-104 ----------------
#NOTEDATA:;
#STEPSTYPE:dance-single;
#DESCRIPTION:Fred-104;
#DIFFICULTY:Challenge;
#METER:17;
#CREDIT:Fred-104;
#NOTES:
0000
0000
0000
0000
,
0000
0000
0000
0000
,
0000
0000
0000
0000
,
0000
0000
0000
0000
,
0000
0000
0000
0000
,
1001
0000
0000
0000
0000
0001
0000
0000
,
0000
0000
0100
0000
0000
0010
0000
0000
,
1000
0000
0000
0000
0000
0100
0000
0000
,
1000
0000
0100
0000
0010
0000
0001
0000
0100
0000
0010
0100
0010
0000
1000
0000
,
1001
0000
0000
0000
1100
0000
0000
0000
1000
0000
0010
1000
0010
0000
0100
0000
,
0001
0000
0010
0000
0001
0000
1000
0001
1000
0000
0100
0000
0010
0000
0001
0000
,
0101
0000
0000
0000
0100
0000
0010
0000
0100
0000
0001
0010
0001
0000
1000
0000
,
0001
0000
0010
0000
0100
0000
1000
0000
0001
0000
0100
0010
1000
0000
0100
0000
,
1000
0100
0010
0100
1000
0100
0010
0000
,
0001
0100
0010
0100
0001
0100
0010
1000
,
0000
1001
0000
0000
,
1000
0001
1000
0001
1000
0001
1000
0001
1000
0000
0001
0100
0001
0000
0020
0000
,
0032
0013
0200
0320
0032
1003
0020
2030
,
3100
0020
0230
1300
0020
0230
0320
2030
,
3002
0013
0200
2300
3001
0200
0310
2000
,
3100
0010
0002
0103
2000
3200
0301
2000
,
3002
0103
0010
0002
0000
0023
0000
2030
,
3001
0000
0100
0000
0010
0000
1000
0000
0010
0000
0100
0000
0001
1000
0001
1000
,
0001
0100
0010
0200
0000
0310
1000
0001
,
0010
0000
0100
0000
1000
0000
0100
0000
0010
0100
0010
0100
1000
0000
0001
0000
,
1000
0100
1000
0010
1010
1010
0000
0101
,
0000
0000
1001
0000
1001
0000
0000
0000
1000
0000
0100
0000
1000
0001
1000
0001
,
1000
0100
0010
2000
0000
3020
0000
0032
,
1003
0000
0001
0000
0010
0000
0100
0000
1000
0000
0001
0100
0001
0000
1000
0000
,
0100
0010
0100
0002
0000
0203
0000
2300
,
3001
0000
1000
0000
0001
0000
0100
0000
0010
1000
0010
1000
0010
0000
1000
0000
,
0100
0010
0001
0010
0011
0011
0000
1100
,
0000
0000
1001
0000
1001
0000
0000
0000
0001
0000
1000
0000
0010
1000
0010
1000
,
0010
0000
1000
0100
0000
0010
0001
1000
,
0001
0000
1001
0000
0000
0000
0001
0010
0001
0000
1000
0000
0001
0000
0101
0000
,
0000
0100
0010
1000
0010
0100
0001
1000
,
0001
0000
1000
0000
0100
0000
0001
0000
0100
1000
0010
0000
0100
0000
0001
0000
,
1000
0100
1000
0001
0100
0010
1000
0001
,
1000
0000
1100
0000
0000
0000
1000
0010
1000
0000
0100
0000
0010
0000
0011
0000
,
0000
0000
0100
0000
0010
0000
0100
0000
0001
0000
1000
0000
0001
0000
1000
0001
,
1000
0000
0100
0000
0010
0000
0001
0100
0001
0000
0010
0001
1000
0010
1000
0000
,
0001
0000
0010
0000
0001
0000
0000
0000
1000
0000
0020
0000
0000
0000
0130
0001
,
0100
0000
0001
0000
0010
0000
0100
1000
0100
0000
0010
0000
0001
0100
0001
0000
,
2000
0000
3001
0100
1000
0100
0001
1000
,
0002
0000
0000
0103
0010
1000
0001
0000
,
1000
0000
0100
0000
0010
0000
0001
0000
1000
0000
0010
0000
0100
0000
0001
1000
,
0001
0100
0001
0100
1000
0100
1000
0100
,
0001
0010
0001
0000
1000
1010
0000
0001
,
0100
0220
0000
0000
0330
2002
0000
3003
,
1000
0000
0100
0000
1000
1000
1000
0000
0001
0000
0010
0100
0020
0000
0000
0000
,
0031
0000
0000
0000
0100
0000
0000
0000
0010
0000
0010
0100
0010
0000
0000
0000
1000
0000
0000
0000
0001
0000
0001
0100
0001
0000
0000
0001
0000
0000
0001
0000
,
1000
0000
0000
0000
0001
0010
0001
0010
0001
0000
0010
0000
0100
0000
1000
0000
0001
0000
0000
0000
0100
0000
0100
0000
0200
0000
0000
0000
0000
0000
0301
1000
,
0001
0000
0000
0000
0010
0000
0000
0000
0001
0000
0001
0100
0001
0000
0000
0000
1000
0000
0000
0000
0100
0000
0000
0000
2002
0000
0000
0000
0000
0000
3003
0000
,
1000
0000
0001
1000
0010
0001
0010
0100
,
0001
2000
0000
3001
0100
0010
1000
0001
,
0010
0001
0010
0000
0100
0000
1000
0000
0001
0100
0001
0000
1000
0001
1000
0001
,
2000
0000
0000
0000
0000
0000
3010
2000
0002
0000
0000
0000
0000
0000
3003
0000
,
1000
0100
1000
0100
0010
0001
0010
0001
,
1000
0100
0010
0001
1000
0100
0010
0001
,
1000
0010
1000
0000
0001
0010
0001
0000
1000
0001
1000
0001
1000
0001
1000
0001
,
1000
0000
0001
0000
0000
0000
1000
0000
0010
1000
0001
0100
0002
0000
0000
0003
,
1001
0000
0001
0100
0010
1000
0001
0000
,
2100
3010
0102
0013
,
2000
0000
3001
0200
0310
0001
0020
0000
,
1030
0001
2001
3100
,
1000
0000
0000
1100
0000
0000
1000
0001
0100
0001
0010
0100
,
0010
0000
0000
0011
0000
0000
0001
0100
0001
0010
0100
1000
,
0100
0000
0000
1001
0000
0000
1000
0100
0010
0001
0010
0100
,
1000
0000
0000
1010
0000
0000
1000
0010
0100
0001
0100
0010
,
0100
0000
0001
1000
0100
1000
0010
1000
,
2002
3003
0000
0000
0000
0000
0000
0000
0220
0330
0000
0000
0000
0000
0000
0000
2002
3003
0000
0000
0000
0000
0000
0000
,
2000
0100
0001
3020
,
0230
0010
0302
1000
,
0103
0010
0100
0010
1000
0010
0100
0001
1000
0001
0000
0000
,
0010
0100
1000
0100
0010
0100
0010
0001
1000
0001
0000
0000
,
1000
0100
0010
0001
0100
0010
1000
0001
,
0010
0000
0100
1000
0100
0000
1000
0010
1000
0000
0001
1000
0002
0000
0000
0003
,
1001
0000
0000
0000
0000
0110
0000
0000
,
0000
0000
1010
0000
0000
0101
0000
0000
,
1100
0000
0000
0000
0000
0011
0000
0000
,
0000
0000
1010
0000
0000
0101
0000
0000
,
1001
0000
0000
0000
0000
1100
0000
0000
,
0000
0000
0101
0000
0000
0011
0000
0000
,
1010
0000
0000
0000
0000
1001
0000
0000
,
0000
0000
0000
0000
0110
0000
0000
0000
0000
0000
0001
1000
0002
0000
0000
0000
,
1003
0010
1000
0100
1000
0001
0100
0010
,
0000
1000
0100
0000
0010
0001
1000
0001
,
0010
0100
1000
0010
0200
2300
3200
0301
,
0000
0000
1000
0000
0001
0000
0000
0000
0100
0010
0100
0010
0100
0010
0100
0000
,
0001
1000
0001
1000
0010
0001
0010
0100
,
0000
0001
1000
0000
0001
1000
0100
1000
,
0020
0000
0230
0000
0302
2003
3002
1003
,
0100
0000
0010
0000
0001
0000
1000
0000
0001
1000
0001
1000
0001
1000
0001
1000
,
0001
0000
0000
0000
1001
0000
0000
0000
1000
0000
1000
0100
1000
0000
0000
0000
0010
0000
0000
0000
0100
0000
0000
0000
0001
0100
0001
0100
0001
0100
0001
0100
,
0001
0000
0000
0000
0010
0000
0000
0000
0100
0000
0100
1000
0100
0000
0000
0000
1000
0000
0000
0000
0010
0000
0100
0000
0001
0000
0000
0000
1000
0000
0100
0010
,
0100
0000
0000
0000
1000
0001
1000
0001
1000
0001
1000
0001
1000
0000
0100
0000
0010
0000
0000
0000
0001
0000
0100
0000
0001
0000
0000
0000
0000
0000
0010
0100
,
0010
0000
0000
0000
0001
0000
0000
0000
1000
0000
1000
0001
1000
0000
0000
0000
0001
0000
0000
0000
0010
0000
0100
0000
0010
0000
0000
0000
0001
0000
1000
0000
,
0010
0000
0000
0000
1000
0100
1000
0100
1000
0000
0000
0000
0001
0010
0001
0010
0001
0000
0000
0000
1000
0001
1000
0001
1000
0001
1000
0001
1000
0001
1000
0001
,
1000
0000
0000
0000
;

//--------------- dance-double - Fred-104 ----------------
#NOTEDATA:;
#STEPSTYPE:dance-double;
#DESCRIPTION:Fred-104;
#DIFFICULTY:Easy;
#METER:8;
#CREDIT:Fred-104;
#NOTES:
00000000
00000000
00000000
00000000
,
00000000
00000000
00000000
00000000
,
00000000
00000000
00000000
00000000
,
00000000
00000000
00000000
00000000
,
00000000
00000000
00000000
00000000
,
00001000
00000000
00000000
00000000
,
00000000
00010000
00000000
00000000
,
00000010
00000000
00000000
00000000
,
00010000
00010000
00001000
00001000
,
00011000
00000000
00001000
00000000
,
00010000
00000000
00100000
00000000
,
10000000
00000000
00010000
00000000
,
10000000
00010000
10000000
00000000
,
01000000
00000000
00100000
00000000
,
00010000
00000000
00000000
00000000
00100000
00000000
00000000
00001000
,
00000000
00022000
00000000
00000000
,
00033000
00000000
00000000
00000000
,
00001000
00100000
00001000
00000000
,
00100000
00001000
00100000
00010000
,
10000000
00000000
00000000
01000000
00000000
00000000
00010000
00000000
,
00001000
00010000
00011000
00000000
,
00010000
00000000
00000000
00000100
00000000
00000100
00000000
00000100
,
00000000
00010000
00000010
00001000
,
00000010
00000000
00000000
00001000
00000000
00000000
00000001
00000000
,
00000010
00000001
00000010
00000100
,
00010000
00000000
00011000
00000000
00001000
00000000
00000000
00010000
,
00000000
00001000
00000000
01000000
,
00001000
00000000
00000000
00010000
00000000
00000000
00001000
00000000
,
01000000
00000000
00000000
00010000
00000000
00000000
10000000
00000000
,
01000000
00000000
00000000
00100000
00000000
00001000
00000000
00010000
,
00000000
00001000
00000010
00000001
,
00000010
00000000
00000100
00000000
00010000
00000000
00000000
00011000
,
00000000
00001000
00022000
00033000
,
00001000
00000000
00010000
00000000
,
00100000
00000000
10000000
00000000
00010000
00000000
00000000
10010000
,
00000000
10000000
01000000
00000000
,
00100000
00001000
00010000
00001000
,
00000100
00000000
00000000
00000010
00000000
00000000
00001000
00000000
,
00000001
00000000
00000010
00000000
00000100
00000000
00000000
00001100
,
00000000
00010000
00001000
00010000
,
00001000
00001000
00010000
00010000
,
00011000
00000000
00001000
00000000
,
00010000
00001000
00010000
00100000
,
01000000
00000000
00100000
00000000
,
10000000
00000000
01000000
00100000
,
00001000
00001000
00010000
00010000
,
00001000
00010000
00000010
00010000
,
00001000
00100000
00001000
00010000
,
00000000
00000100
00000000
00000000
00000000
00022000
00000000
00033000
,
00002000
00000000
00023000
00230000
,
20300000
00000000
32000000
03020000
,
00032000
00003020
00000032
00000203
,
00002300
00000000
00023000
00000000
00032000
00003000
00022000
00033000
,
00001000
00000000
00010000
00000000
,
01000000
00000000
00010000
00000000
,
01000000
10000000
01000000
10000000
,
00020000
00000000
20000000
30030000
,
10000000
00000000
01000000
00000000
,
00100000
00100000
00001000
00001000
,
00010000
00010000
00001000
00001000
,
00022000
00000000
00000000
00033000
,
00001000
00000000
00010000
00001000
,
00020000
00030000
00000020
00000030
,
00010000
00000000
00000000
00000100
00000000
00000000
00001000
00000000
,
00000200
00000300
00000020
00000030
,
00000001
00000001
00000100
00000100
,
00001000
00001000
00010000
00010000
,
01000000
01000000
10000000
10000000
,
00010000
00010000
10000000
10000000
,
01000000
00100000
00001000
00010000
,
00022000
00000000
00000000
00000000
00000000
00000000
00000000
00000000
00033000
00000000
00000000
00000000
,
00020000
00000000
00000000
00032000
,
00023000
00000000
00230000
00000000
,
01300000
00010000
10000000
01000000
,
00100000
00010000
00100000
00001000
,
00010000
00000010
00010000
00000010
,
00001000
00000001
00000010
00000100
,
00001001
00000000
00000000
00000000
00000000
00000001
00000000
00000000
,
00000000
00000000
00001000
00000000
00000000
00000010
00000000
00000000
,
00010000
00000000
00000000
00000000
00000000
00001000
00000000
00000000
,
00000000
00000000
01000000
00000000
00000000
00001000
00000000
00000000
,
00010000
00000000
00000000
00000000
00000000
00000100
00000000
00000000
,
00000000
00000000
00010000
00000000
00000000
00001000
00000000
00000000
,
00100000
00000000
00000000
00000000
00000000
00010000
00000000
00000000
,
00000000
10000000
00000000
01000000
,
00200000
00000000
00000000
00302000
00000000
00000000
00023000
00000000
,
00000000
00000000
00030020
00002030
,
00003002
00000000
00000000
00000000
00000000
00000000
00000000
00000203
,
00000000
00000000
00000000
00000300
,
00000002
00000000
00000000
00002003
00000000
00000000
00003200
00000000
,
00000000
00020300
00000000
00031000
,
00200000
02300000
23000000
30020000
,
00000000
20000000
00000000
30030000
,
20000000
00000000
32000000
03020000
,
00032000
00000000
00003020
00000032
,
00002003
00000000
00003002
00000203
,
00002300
00000000
00023000
00230000
,
10300000
01000000
00100000
00010000
,
10010000
00000000
00000000
00000000
;

//--------------- dance-double - Fred-104 ----------------
#NOTEDATA:;
#STEPSTYPE:dance-double;
#DESCRIPTION:Fred-104;
#DIFFICULTY:Medium;
#METER:11;
#CREDIT:Fred-104;
#NOTES:
00000000
00000000
00000000
00000000
,
00000000
00000000
00000000
00000000
,
00000000
00000000
00000000
00000000
,
00000000
00000000
00000000
00000000
,
00000000
00000000
00000000
00000000
,
00010000
00000000
00000000
00000000
00000000
00001000
00000000
00000000
,
00000000
00000000
00000010
00000000
00000000
00000001
00000000
00000000
,
00001000
00000000
00000000
00000000
00000000
00000001
00000000
00000000
,
00000100
00001000
00010000
00001000
,
00011000
00000000
00000000
00001000
00000000
00000000
00100000
00000000
,
00000000
00001000
00000000
00000000
00010000
00000000
00000000
00001000
,
00000000
01000000
00001000
00010000
,
00100000
00000000
01000000
00010000
,
10000000
00000000
01000000
00100000
,
00001000
00000000
00010000
00000000
00001000
00000000
00000000
00011000
,
00000000
00010010
00000000
00000000
,
00010000
00001000
00000100
00000001
,
00001001
00001000
00000010
00000000
,
00010000
00001000
00000010
00001000
,
00010000
00000000
00000000
00001000
00000000
00000000
00100000
00000000
,
00001000
00000000
00010000
00000000
01000000
01000000
00000000
10000000
,
10000000
00000000
00010000
10000000
00000000
01000000
00000000
00100000
,
00000000
00001000
00010000
00001000
,
00100000
00000000
00001000
00010000
00000000
00001000
00010000
00000000
,
00000010
00001000
00000001
00000010
,
00000100
00000000
00000110
00000000
00001000
00001000
00000000
00000001
,
00000000
00000100
00000100
00000000
00000010
00000000
00010000
00000000
,
00001000
00000000
00010000
00000100
00000000
00001000
00000000
00000100
,
00010000
00000000
00001000
01000000
00000000
00010000
00000000
10000000
,
01000000
00000000
00100000
00010000
00000000
00100000
00000000
00001000
,
00000000
00010000
00001000
00000000
00000100
00000001
00001000
00000000
,
00000100
00000000
00000010
00000000
00000001
00000001
00000000
00001001
,
00000000
00000001
00000100
00000000
00001000
00010000
00001000
00000000
,
00011000
00000000
00001000
00010000
00000000
00100000
00000000
01000000
,
00010000
10000000
00000000
01000000
00100000
00000000
00001000
00001000
,
00000000
00010000
00000010
00010000
00000000
00001000
00010000
00000000
,
00001000
00000010
00000000
00000100
00001000
00000000
00001001
00000000
,
00000001
00000000
00000010
00000100
00000000
00000010
00000000
00001000
,
00010000
01000000
00000000
00100000
01000000
00000000
10000000
10000000
,
00000000
00100000
10000000
00010000
00000000
01000000
00001000
00000000
,
00010000
00001000
00010000
00011000
,
00010000
00000100
00010000
00000000
00000100
00001000
00000000
00000001
,
00001000
00000100
00000010
00000001
,
00000100
00000000
00001000
00010000
00001000
00000000
00010000
00100000
,
01000000
00000000
00000000
00010000
10000000
01000000
00100000
00000000
,
00001000
00010000
00100000
10000000
,
00010000
00100000
01000000
10000000
,
00010000
01000000
00001000
00000000
00010000
00000100
00000000
00001000
,
00000001
00002000
00000000
00003000
00000000
00002002
00000000
00003003
,
00000002
00000000
00000100
00000000
00001000
00001000
00001003
00000000
,
00000200
00000000
00000000
00000000
00000000
00000000
00000000
00000000
00010000
00000000
00000000
00000000
00000000
00000000
00000000
00000000
00001000
00000000
00000000
00000000
00001000
00000000
00000000
00000000
00001300
00000000
00000000
00000100
00000000
00000000
00010000
00000000
,
00001000
00000000
00010000
01000000
10000000
01000000
00200000
00000000
,
00301000
00001000
00010000
00100000
10000000
00010000
20020000
30030000
,
10000000
01000000
10000000
01000000
,
00010000
00001000
00010000
00001000
,
00000100
00000001
00001000
00000100
,
00020000
00000000
00002000
00033000
,
00001000
00010000
00100000
10000000
,
00010000
00100000
00010000
00000000
10000000
01000000
10000000
00000000
,
00100000
10000000
00100000
10000000
00100000
10000000
00100000
10000000
,
00010000
00100000
00000000
00100000
00001000
00000000
00101000
00000000
,
00011000
00000000
00001000
00010000
00100000
10000000
00010000
00000000
,
20000000
31000000
00200000
01300000
,
20000000
00000000
00000000
30020000
00000000
00000000
00230000
00000000
,
00302000
00010000
00023000
00000010
,
00030010
00001000
00001001
00000000
,
00000001
00000100
00000110
00000000
,
00010000
00001000
00011000
00000000
,
01000000
00100000
01100000
00000000
,
00010000
00000000
10000000
01000000
00100000
00010000
00100000
00000000
,
00002000
00000000
00000000
00000000
00000000
00000000
00000000
00000000
00003000
00000000
00000000
00000000
,
00021000
00000000
00000000
00032000
,
00023000
00000000
00030020
00000000
,
00001030
00000100
00000010
00000001
,
00000100
00001000
00010000
00100000
,
10000000
00010000
00100000
01000000
,
10000000
00100000
00010000
00000000
00001000
00010000
00001000
00000000
,
00011000
00000000
00000000
00000000
00000000
01000000
00000000
00000000
,
00000000
00000000
00001000
00000000
00000000
00010000
00000000
00000000
,
00011000
00000000
00000000
00000000
00000000
00000010
00000000
00000000
,
00000000
00000000
00001000
00000000
00000000
00000001
00000000
00000000
,
00000110
00000000
00000000
00000000
00000000
00010000
00000000
00000000
,
00000000
00000000
00001000
00000000
00000000
01000000
00000000
00000000
,
10010000
00000000
00000000
00000000
00000000
00010000
00000000
00000000
,
00000000
00000000
10000000
00000000
00000000
01000000
00100000
00000000
,
00110000
00000000
00000000
00000000
00001000
00010000
00001000
00010000
,
00000000
00000010
00001000
00000000
00000010
00000000
00010000
00000000
,
00002000
00000000
00000000
00000000
00103000
00001000
00010000
00001000
,
00000000
01000000
00001000
00000000
00010000
00000000
00000000
00000000
,
00011000
00000000
00000000
00000000
00001000
00010000
00000100
00010000
,
00000000
00000100
00001000
00000000
00000100
00000000
00010000
00001000
,
01000000
00000000
00001000
00000000
00010000
00001000
00010000
00000010
,
00000000
00010000
00001000
00000000
00022000
00000000
00033000
00000000
,
00010000
00000000
00001000
00000000
00000100
00000100
00000001
00000000
,
00001000
00000000
00000100
00000000
00000010
00000010
00000001
00000000
,
00000100
00000000
00001000
00000000
00010000
00010000
00001000
00000000
,
00010000
00000000
01000000
10000000
01000000
00100000
00001000
00010000
,
00100000
01000000
00010000
00001000
00000010
00000100
00000001
00001000
,
00001001
00000000
00000000
00000000
;

//--------------- dance-double - Fred-104 ----------------
#NOTEDATA:;
#STEPSTYPE:dance-double;
#DESCRIPTION:Fred-104;
#DIFFICULTY:Hard;
#METER:14;
#CREDIT:Fred-104;
#NOTES:
00000000
00000000
00000000
00000000
,
00000000
00000000
00000000
00000000
,
00000000
00000000
00000000
00000000
,
00000000
00000000
00000000
00000000
,
00000000
00000000
00000000
00000000
,
00011000
00000000
00000000
00000000
00000000
00000010
00000000
00000000
,
00000000
00000000
00010000
00000000
00000000
00001000
00000000
00000000
,
00100000
00000000
00000000
00000000
00000000
00001000
00000000
00000000
,
00010000
00001000
00010000
00000000
00000010
00001000
00000010
00000000
,
00001001
00000000
00000110
00000000
00000001
00001000
00000001
00000000
,
00000100
00000010
00000100
00000000
00000001
00000010
00000100
00010000
,
00000000
00010000
00001000
00000000
00010000
00001000
01000000
00000000
,
00010000
00000000
10000000
00100000
01000000
00010000
10000000
00000000
,
00010000
10000000
01000000
00000000
00100000
00001000
00010000
00000000
,
00001000
00010000
00000010
00000000
00001000
00000100
00000010
00000001
,
00000000
00001001
00000000
00000000
,
00000001
00000010
00001000
00000000
00010000
01000000
10000000
00000000
,
00010000
10000000
00010000
00000000
10000000
01000000
00100000
01000000
,
00000000
10000000
00010000
00000000
01000000
00100000
01000000
10000000
,
01000000
00000000
00100000
10000000
00000000
01000000
00000000
00100000
,
00001000
00010000
00001000
00000100
00000001
00001000
00000000
00001000
,
00000100
00000000
00010000
00001000
00010000
00000010
00010000
00001000
,
00000000
00100000
00010000
10000000
00010000
00100000
00010000
10000000
,
00100000
01000000
00010000
10000000
00000000
01000000
00100000
00001000
,
00010000
00001000
00010000
00001000
00010000
00001000
00010000
00000000
,
00011000
00000000
00010100
00000000
00010000
00001000
00000000
00000110
,
00000000
00010000
00001000
00000000
00011000
00000000
00001000
00010000
,
00100000
00000000
01000000
00001000
00000000
00011000
00000000
00001000
,
00010000
00000000
00001000
00100000
00001000
00010000
00001000
01000000
,
00001000
00000000
00010000
00100000
01000000
00010000
01000000
00100000
,
01000000
00000000
00100000
10000000
00010000
10000000
01000000
00000000
,
00100000
00001000
00010000
00001000
00010000
00010000
00000000
00011000
,
00000000
00000010
00000010
00000000
00001000
00000001
00001000
00000000
,
00001001
00000000
00000001
00000100
00000000
00000010
00001000
00000001
,
00001000
00000100
00000000
00001000
00000001
00000100
00001000
00010000
,
00000000
00001000
00010000
01000000
00100000
00010000
10000000
00100000
,
00010000
00001000
00010000
00100000
10000000
00010000
10000000
00000000
,
00010000
10000000
00100000
10000000
00010000
00100000
01000000
00100000
,
00001000
00010000
00000000
00010000
00000100
00001000
00000100
00000010
,
00000000
00000010
00000001
00001000
00000001
00000100
00000010
00000100
,
00001000
00010000
00001000
00010000
00100000
01000000
00010000
00000000
,
10000000
00100000
00020000
00000000
00130000
02000000
00000000
03010000
,
10000000
01000000
00100000
00010000
00100000
01000000
00100000
00001000
,
00020000
00000000
00031000
00010000
00000010
00001000
00000010
00001000
,
00000002
00000000
00000000
00000103
00001000
00010000
00001000
00000000
,
00010000
00000010
00001000
00000000
00000010
00010000
00001000
00000000
,
01000000
00001000
00010000
00000000
00001000
01000000
00010000
00000000
,
01000000
00010000
10000000
00000000
01000000
00100000
00000000
00001000
,
00010000
00020020
00000000
00000000
00030030
00022000
00000000
00033000
,
00010000
00000000
00001000
00000000
00000100
00000010
00001000
00000000
00000001
00000000
00000010
00000000
00000020
00000000
00000000
00000000
,
00000031
00000000
00000000
00000000
00000100
00000000
00000000
00000000
00001000
00000000
00010000
00000000
00100000
00000000
00000000
00000000
01000000
00000000
00000000
00000000
00010000
00000000
00000000
00000000
10000000
00000000
00000000
10000000
00000000
00000000
10000000
00000000
,
01000000
00000000
00100000
00010000
00100000
00001000
00010000
00001000
01000000
00000000
00001000
00000000
00020000
00000000
00000000
00031000
,
00010000
00000000
00001000
00000000
00000010
00000100
00001000
00000000
00000010
00000000
00000100
00000000
00000202
00000000
00000000
00000303
,
00000001
00000000
00001000
00000001
00000010
00000001
00001000
00000100
,
00000000
00010000
00001000
00000000
00010000
00000010
00001000
00000010
,
00010000
00001000
00000100
00000001
00001000
00000100
00000010
00000001
,
00002000
00000000
00000002
00003003
,
00000001
00000100
00001000
00010000
,
00001000
00010000
00100000
01000000
00010000
01000000
00100000
10000000
,
00010000
10000000
01000000
00100000
00001000
00010000
00000010
00010000
,
00001000
00001000
00000000
00010000
00001000
00000100
00000001
00001000
,
00001002
00000000
00001003
00000100
00000010
00000001
00001000
00000000
,
00001200
00010300
00201000
00310000
,
00021000
00000000
00031000
00010000
00000000
00100000
10000000
00000000
,
01200000
00310000
02100000
13000000
,
01000000
00000000
00000000
01100000
00000000
00000000
00100000
00001000
00100000
00001000
00000000
00001000
,
00010000
00000000
00000000
00010010
00000000
00000000
00000010
00001000
00000010
00001000
00000000
00001000
,
00000100
00000000
00000000
00000110
00000000
00000000
00000010
00000001
00001000
00000001
00000000
00000001
,
00000100
00000000
00000000
00000110
00000000
00000000
00000010
00001000
00000010
00010000
00001000
00010000
,
00001000
00000000
00010000
00100000
01000000
00010000
10000000
01000000
,
00200000
00300000
00000000
00000000
00000000
00000000
00000000
00000000
00200000
00300000
00000000
00000000
00000000
00000000
00000000
00000000
00200000
00300000
00000000
00000000
00000000
00000000
00000000
00000000
,
00021000
00001000
00001000
00031000
,
00020000
00031000
00000020
00001030
,
00010000
00000000
00010000
00001000
00000000
00001000
00000100
00000000
00000100
00000001
00000000
00000001
,
00001000
00000000
00001000
00000010
00000000
00000010
00010000
00000000
00010000
00001000
00000000
00001000
,
00100000
00010000
10000000
00100000
01000000
00010000
10000000
01000000
,
00100000
00001000
00010000
00000100
00000010
00000001
00001000
00000000
,
00001001
00000000
00000000
00000000
00000000
00000110
00000000
00000000
,
00000000
00000000
00001010
00000000
00000000
00010010
00000000
00000000
,
00011000
00000000
00000000
00000000
00000000
01001000
00000000
00000000
,
00000000
00000000
01010000
00000000
00000000
11000000
00000000
00000000
,
01100000
00000000
00000000
00000000
00000000
10100000
00000000
00000000
,
00000000
00000000
00110000
00000000
00000000
00011000
00000000
00000000
,
00001100
00000000
00000000
00000000
00000000
00000101
00000000
00000000
,
00000000
00000000
00000110
00000000
00000000
00010000
00001000
00000000
,
00011000
00000000
00000000
00000000
00001000
00010000
00001000
00010000
,
00000000
00001000
01000000
00000000
00010000
00000000
00100000
00000000
,
00001000
00000000
01000000
00000000
00001000
00010000
00001000
00010000
,
00000000
00000010
00010000
00000000
00001000
00010000
00000100
00000000
,
00011000
00000000
00000000
00000000
00010000
00001000
00000100
00000010
,
00000000
00010000
00001000
00000000
00010000
00000000
00000010
00000000
,
00020000
00000000
00032000
00000000
00013000
00000100
00001000
00000100
,
00010000
00001000
00022000
00033000
,
00011000
00010000
00001000
00000100
00000001
00001000
00000100
00000010
,
00000001
00000000
00000100
00000000
00001000
00010000
00001000
00000000
00010000
00000000
00100000
01000000
00010000
00000000
10000000
00000000
,
01000000
00000000
00100000
00010000
00100000
00010000
00100000
00000000
00001000
00000000
00010000
00001000
00010000
00000000
00000000
00000010
,
00001000
00000000
00000100
00000000
00000010
00000001
00001000
00000000
00000001
00000000
00000100
00000010
00000100
00000000
00001000
00000000
,
00010000
00000000
00100000
01000000
00100000
00000000
10000000
00010000
10000000
00000000
01000000
00100000
00001000
00010000
00001000
00010000
,
00001000
00000000
00000000
00000000
;

//--------------- dance-double - Fred-104 ----------------
#NOTEDATA:;
#STEPSTYPE:dance-double;
#DESCRIPTION:Fred-104;
#DIFFICULTY:Challenge;
#METER:17;
#CREDIT:Fred-104;
#NOTES:
00000000
00000000
00000000
00000000
,
00000000
00000000
00000000
00000000
,
00000000
00000000
00000000
00000000
,
00000000
00000000
00000000
00000000
,
00000000
00000000
00000000
00000000
,
00011000
00000000
00000000
00000000
00000000
00100000
00000000
00000000
,
00000000
00000000
10000000
00000000
00000000
01000000
00000000
00000000
,
00010000
00000000
00000000
00000000
00000000
00001000
00000000
00000000
,
00000100
00000001
00001000
00000001
00000010
00000100
00010000
00001000
,
00011000
00000000
00000000
00000000
01001000
00000000
00000000
00000000
00001000
00000000
00010000
00000100
00010000
00000000
00001000
00000000
,
00010000
00000000
00000100
00000000
00001000
00000000
00000100
00000010
00000100
00000000
00000010
00000000
00000001
00000000
00000100
00000000
,
00001000
00000000
00000000
00000000
00010000
00000000
00100000
00000000
01000000
00000000
00010000
10000000
00010000
00000000
00100000
00000000
,
01000000
00000000
00100000
00000000
00010000
00000000
10000000
00000000
01000000
00000000
00100000
00010000
00100000
00000000
00001000
00000000
,
00010000
01000000
00010000
00001000
00010000
00100000
00010000
00000000
,
00001000
00010000
00001000
00000010
00001000
00010000
00001000
01000000
,
00000000
00011000
00000000
00000000
,
00000000
00000000
00000000
00000000
00000000
00000000
00000000
00000000
00001000
00000000
00010000
00001000
00010000
00000000
00000200
00000000
,
00001300
00000001
00000010
00000001
00000010
00000001
00000100
00000001
,
00000100
00001000
00010000
00001000
00010000
00100000
00010000
00100000
,
10000000
00100000
10000000
00010000
10000000
00010000
10000000
01000000
,
10000000
01000000
00010000
00001000
00020000
00032000
00003100
00000002
,
00002003
00003001
00000100
00000020
00000000
00002030
00000000
00003001
,
00000010
00000000
00000100
00000000
00001000
00000000
00000100
00000000
00010000
00000000
00001000
00000000
00010000
00001000
00010000
00001000
,
00010000
00001000
00100000
00020000
00000000
00130000
01000000
10000000
,
00010000
00000000
01000000
00000000
10000000
00000000
01000000
00000000
00100000
10000000
00100000
10000000
00010000
00000000
10000000
00000000
,
01000000
00100000
00010000
00000000
00001000
00101000
00000000
00011000
,
00000000
00000000
00010000
00000000
00010010
00000000
00000000
00000000
00010000
00000000
00000100
00000000
00001000
00000100
00001000
00000100
,
00001000
00000001
00001000
00000020
00000000
00000230
00000000
00000302
,
00000013
00000000
00000001
00000000
00001000
00000000
00000001
00000000
00000100
00000000
00000010
00001000
00000010
00000000
00000100
00000000
,
00000001
00000010
00001000
00020000
00000000
00032000
00000000
00003020
,
00000031
00000000
00001000
00000000
00000010
00000000
00010000
00000000
00001000
00010000
00001000
00010000
00001000
00000000
00100000
00000000
,
00001000
00010000
00001000
00000010
00000100
00001100
00000000
00001001
,
00000000
00000000
00000100
00000000
00000110
00000000
00000000
00000000
00001000
00000000
00000010
00000000
00010000
00001000
00010000
00001000
,
00010000
00000000
00001000
00000010
00000000
00000100
00010000
00001000
,
00100000
00000000
01000000
00000000
00000000
00000000
00010000
00001000
00010000
00000000
00001000
00000000
00010000
00000000
00011000
00000000
,
00000000
00010000
00001000
00000010
00000001
00001000
00000100
00000010
,
00000001
00000000
00000100
00000000
00001000
00000000
00010000
00001000
00010000
00000000
00100000
00000000
01000000
00000000
00010000
00000000
,
10000000
01000000
10000000
00100000
10000000
01000000
00100000
00010000
,
00100000
00000000
00101000
00000000
00000000
00000000
00001000
00010000
00001000
00000000
00010000
00000000
00000010
00000000
00001010
00000000
,
00000000
00000000
00001000
00000000
00000100
00000000
00000010
00000000
00000001
00000000
00001000
00000000
00000001
00000000
00000100
00000010
,
00000100
00000000
00000001
00000000
00000010
00000000
00001000
00010000
01000000
00000000
00100000
00010000
10000000
00000000
00010000
00000000
,
01000000
00001000
00010000
00001000
00000010
00000200
00000000
00001300
,
00000001
00000100
00000010
00000100
00001000
00010000
00100000
01000000
,
00020000
00000000
10030000
00100000
00010000
00001000
00000100
00000010
,
00002000
00000000
00000000
00003100
00000010
00000001
00001000
00000000
,
00000001
00000100
00001000
00010000
00001000
00000100
00000001
00001000
,
00000001
00000010
00001000
00010000
00001000
00000010
00000001
00001000
,
00000001
00000100
00001000
00000000
00010000
00011000
00000000
00001000
,
00100000
00220000
00000000
00330000
00000000
20020000
00000000
30030000
,
10000000
00000000
00010000
00000000
01000000
01000000
01000000
00000000
00010000
00000000
00100000
00001000
00020000
00000000
00000000
00000000
,
00031000
00000000
00000000
00000000
00000010
00000000
00000000
00000000
00000100
00000000
00001000
00000001
00001000
00000000
00000000
00000000
00000001
00000000
00000000
00000000
00000001
00000000
00000100
00000010
00000100
00000000
00000000
00000001
00000000
00000000
00000001
00000000
,
00001000
00000000
00000000
00000000
00000001
00000100
00000001
00000000
00000010
00000000
00000100
00000000
00001000
00000000
00000100
00000000
00010000
00000000
00000000
00000000
00001000
00000000
00001000
00000000
00002000
00000000
00000000
00000000
00000000
00000000
01003000
00100000
,
01000000
00000000
00000000
00000000
00100000
00000000
00000000
00000000
10000000
00000000
10000000
01000000
10000000
00000000
00000000
00000000
00100000
00000000
00000000
00000000
00010000
00000000
00000000
00000000
00022000
00000000
00000000
00000000
00000000
00000000
00033000
00000000
,
00010000
00000000
00000010
00010000
00001000
00100000
00001000
00010000
,
00000100
00002000
00000000
00003001
00000010
00000100
00000010
00000001
,
00001000
00000100
00000010
00001000
00010000
00001000
01000000
00100000
,
02000000
00000000
00000000
00000000
00000000
00000000
03100000
20000000
00020000
00000000
00000000
00000000
00000000
00000000
30030000
00000000
,
10000000
01000000
10000000
00100000
01000000
00010000
00100000
00001000
,
00010000
00000100
00001000
00000001
00000100
00000010
00001000
00000010
,
00001000
00000100
00001000
00000000
00000001
00000100
00000001
00000000
00000100
00000010
00000100
00000000
00000001
00001000
00000001
00000000
,
00001000
00000000
00000001
00000000
00000000
00000000
00001000
00000000
00000100
00010000
00000100
00010000
00002000
00000000
00000000
00003000
,
00011000
00000000
00010000
00001000
00000010
00001000
00010000
00000000
,
00021000
00000000
00031000
00000000
00102000
00000000
00103000
00010000
,
20000000
00000000
30010000
02000000
13000000
01000000
00200000
00000000
,
10300000
00000000
01000000
00100000
00002000
00000000
00013000
00000000
,
00001000
00000000
00000000
00011000
00000000
00000000
00010000
00001000
00000010
00000001
00001000
00000100
,
00000010
00000000
00000000
00000011
00000000
00000000
00000001
00000100
00001000
00010000
00001000
01000000
,
00100000
00000000
00000000
10010000
00000000
00000000
10000000
01000000
00010000
00001000
00010000
01000000
,
10000000
00000000
00000000
10010000
00000000
00000000
01000000
00100000
00010000
00001000
00000100
00000010
,
00001000
00000001
00000010
00000001
00000100
00000001
00001000
00000100
,
00000220
00000330
00000000
00000000
00000000
00000000
00000000
00000000
00022000
00033000
00000000
00000000
00000000
00000000
00000000
00000000
02200000
03300000
00000000
00000000
00000000
00000000
00000000
00000000
,
10010000
00000000
00010000
10000000
00100000
01000000
00010000
00000000
,
00201000
00301000
00010020
00010030
,
00001000
00010000
00000100
00010000
00001000
00010000
00000010
00001000
00000010
00000100
00000000
00000000
,
00000001
00000010
00000100
00001000
00000100
00010000
00001000
00000100
00000010
00001000
00000000
00000000
,
00000001
00000010
00000001
00001000
00000001
00000100
00000010
00001000
,
00000100
00000000
00000010
00000001
00000010
00000000
00000001
00001000
00000100
00000000
00010000
00001000
00020000
00000000
00000000
00030000
,
00011000
00000000
00000000
00000000
00000000
01001000
00000000
00000000
,
00000000
00000000
01100000
00000000
00000000
11000000
00000000
00000000
,
01010000
00000000
00000000
00000000
00000000
00011000
00000000
00000000
,
00000000
00000000
00001010
00000000
00000000
00000011
00000000
00000000
,
00001001
00000000
00000000
00000000
00000000
00010010
00000000
00000000
,
00000000
00000000
01001000
00000000
00000000
00010100
00000000
00000000
,
00101000
00000000
00000000
00000000
00000000
00011000
00000000
00000000
,
00000000
00000000
00000000
00000000
00001010
00000000
00000000
00000000
00000000
00000000
00000001
00001000
00000002
00000000
00000000
00000000
,
00000103
00000001
00000100
00000001
00000100
00000010
00001000
00000010
,
00000000
00001000
00000001
00000000
00000010
00000100
00010000
00001000
,
00010000
01000000
00100000
00010000
00200000
02300000
23000000
31000000
,
00000000
00000000
00100000
00000000
00001000
00000000
00000000
00000000
00010000
00001000
00010000
00000000
00000100
00000000
00000000
00000000
,
00010000
00001000
00000010
00001000
00010000
00001000
00000010
00000001
,
00000000
00001000
00000010
00000000
00000100
00000001
00001000
00000001
,
00000020
00000000
00000230
00000000
00020300
00032000
00203000
00310000
,
01000000
00000000
00001000
00000000
00100000
00000000
00010000
00000000
10000000
01000000
10000000
00100000
01000000
00000000
00100000
00000000
,
10100000
00000000
00000000
00000000
11000000
00000000
00000000
00000000
00100000
00000000
00100000
00010000
00100000
00000000
00000000
00000000
00001000
00000000
00000000
00000000
00010000
00000000
00000000
00000000
00000100
00010000
00000100
00010000
00000100
00010000
00000100
00000000
,
00001000
00000000
00000000
00000000
00000001
00000000
00000000
00000000
00000010
00000000
00000010
00000100
00000010
00000000
00000000
00000000
00000001
00000000
00000000
00000000
00000100
00000000
00001000
00000000
00010000
00000000
00000000
00000000
00100000
00000000
01000000
00010000
,
01000000
00000000
00000000
00000000
00010000
10000000
00010000
00000000
10000000
00010000
10000000
00010000
10000000
00000000
01000000
00000000
00100000
00000000
00000000
00000000
00001000
00000000
00010000
00000000
00001000
00000000
00000000
00000000
00000000
00000000
00010000
00000010
,
00010000
00000000
00000000
00000000
00000100
00000000
00000000
00000000
00001000
00000000
00001000
00000010
00001000
00000000
00000000
00000000
00000001
00000000
00000000
00000000
00000100
00000000
00000010
00000000
00000100
00000000
00000000
00000000
00001000
00000000
00010000
00000000
,
00100000
00000000
00000000
00000000
01000000
00010000
10000000
00010000
10000000
00000000
00000000
00000000
00010000
00100000
00010000
00100000
00001000
00000000
00000000
00000000
00010000
00001000
00010000
00001000
00010000
00001000
00010000
00001000
00010000
00001000
00010000
00001000
,
00010000
00000000
00000000
00000000
;
