#TITLE:White Eve;
#ARTIST:さな;
#ARTISTTRANSLIT:Sana;
#GENRE:WINTER DANCE;
#BANNER:White Eve.png;
#BACKGROUND:White Eve-bg.png;
#CDTITLE:./CDTitles/pnm 9.png;
#MUSIC:White Eve.ogg;
#SAMPLESTART:16.8;
#SAMPLELENGTH:15;
#DISPLAYBPM:125;
#BPMS:0=125;
#BGSTAGE:3;

//--------------- dance-single - Fred-104 ----------------
#NOTES:
     dance-single:
     Fred-104:
     Beginner:
     1:
     :
0000
0000
0000
0000
,
0000
0000
0000
0000
,
0000
0000
0000
0000
,
0000
0000
0000
0000
,
0000
0000
0000
0000
,
1000
0000
0000
0000
,
0001
0000
0000
0000
,
1000
0000
0000
0000
,
0000
0000
0000
0000
,
0001
0000
0000
0000
,
0010
0000
0000
0000
,
0100
0000
0000
0000
,
0010
0000
0000
0000
,
0001
0000
0000
0000
,
1000
0000
0000
0000
,
0001
0000
0000
0000
,
0000
0000
0000
0000
,
1000
0000
0000
0000
,
0010
0000
0000
0000
,
0001
0000
0000
0000
,
0001
0000
0000
0000
,
0001
0000
0000
0000
,
0100
0000
0000
0000
,
1000
0000
0000
0000
,
0001
0000
0000
0000
,
1000
0000
0000
0000
,
1000
0000
0000
0000
,
0100
0000
0000
0000
,
0100
0000
0000
0000
,
0010
0000
0000
0000
,
0010
0000
0000
0000
,
0001
0000
0000
0000
,
0001
0000
0000
0000
,
0001
0000
0000
0000
,
1000
0000
0000
0000
,
0001
0000
0000
0000
,
1000
0000
0000
0000
,
0010
0000
0000
0000
,
0100
0000
0000
0000
,
0001
0000
0000
0000
,
1000
0000
0000
0000
,
1000
0000
0000
0000
,
0001
0000
0000
0000
,
0001
0000
0000
0000
,
0010
0000
0000
0000
,
0100
0000
0000
0000
,
1000
0000
0000
0000
,
0001
0000
0000
0000
,
1000
0000
0000
0000
,
0000
0000
0000
0000
,
0001
0000
0000
0000
,
0100
0000
0000
0000
,
0001
0000
0000
0000
,
1000
0000
0000
0000
,
0001
0000
0000
0000
,
1000
0000
0000
0000
,
0001
0000
0000
0000
,
2000
0000
0000
0000
0000
0000
0000
3000
;

//--------------- dance-single - Fred-104 ----------------
#NOTES:
     dance-single:
     Fred-104:
     Easy:
     3:
     :
0000
0000
0000
0000
,
0000
0000
0000
0000
,
0000
0000
0000
0000
,
0000
0000
0000
0000
,
0000
0000
0000
0000
,
0002
0003
0020
0030
,
0200
0300
2000
3001
,
0100
0000
0100
0000
,
0100
0100
0002
0003
,
2000
3000
0200
0300
,
0020
0030
0002
0003
,
2000
3000
0002
0003
,
0100
0000
0100
0000
,
0002
0003
2000
3000
,
0002
0003
0020
0030
,
0100
0000
1000
0000
,
0001
0001
1000
1000
,
0200
0000
0000
0300
,
0010
0010
0001
1000
,
0002
0000
0103
0100
,
0010
1000
0001
0000
,
1000
0100
0020
0030
,
0001
0100
0020
0030
,
1000
0001
0020
0030
,
1001
0000
0000
0000
,
0002
0000
0013
0010
,
0100
0100
1000
0001
,
2000
0000
3001
0001
,
0100
0001
0100
0001
,
2000
3000
0100
0100
,
0010
0010
0001
1000
,
0002
0003
2000
3000
,
0001
1000
0001
1000
,
0001
0000
0100
0000
,
1000
0000
1000
0000
,
0100
0000
0001
0000
,
0001
1000
0001
0000
,
1000
0000
0100
0000
,
0001
0000
0001
0000
,
0100
0000
1000
0000
,
0001
0000
1000
0000
,
1001
0000
0000
0000
,
2000
3000
0200
0300
,
0020
0030
0002
0003
,
2000
3000
0002
0003
,
0100
0100
0010
0010
,
0200
0300
0002
0003
,
2000
3000
0002
0003
,
0020
0230
0320
0230
,
0310
0010
0001
0000
,
2000
3000
0002
0003
,
2000
3000
0020
0030
,
2000
3000
0002
0003
,
0010
0010
0100
0100
,
2000
3000
0002
0003
,
0200
0300
0020
0030
,
0100
0100
0001
1000
,
2002
0000
0000
0000
0000
0000
0000
3003
;

//--------------- dance-single - Fred-104 ----------------
#NOTES:
     dance-single:
     Fred-104:
     Medium:
     8:
     :
0000
0000
0000
0000
,
0000
0000
0000
0000
,
0000
0000
0000
0000
,
0000
0000
0000
0000
,
0000
0000
0000
0000
,
0002
0000
0003
1000
2000
0000
3000
0010
,
0020
0000
0030
0100
0200
0000
0301
1000
,
0200
0320
0230
2300
,
3001
1000
0001
0000
0100
0010
0100
0000
,
0110
0000
0000
0001
0002
0000
0003
1000
,
2000
0000
3000
0100
0200
0000
0300
0010
,
0020
0000
0030
0100
0200
0000
0300
1000
,
0001
1000
0010
0000
0100
0001
0010
0000
,
1001
0000
0000
1000
2000
0000
3000
0100
,
0200
0000
0300
0010
0020
0000
0031
1000
,
0020
0230
0320
2030
,
3001
0010
0001
0000
1000
0010
1000
0000
,
0002
0023
0230
2300
,
3001
1000
0020
0000
0230
0000
0301
0001
,
2000
0000
3200
0000
0301
0001
0100
1000
,
0002
0000
0000
0000
1003
0001
1000
0000
,
0001
0010
0200
0000
1000
0000
1300
0000
,
0001
0100
0020
0000
1000
0000
1030
0000
,
0002
0000
1000
0000
1003
0100
0010
0000
,
2002
0000
3003
0000
,
1000
0000
0001
1000
0100
1000
0100
0001
,
0000
0101
0000
1100
0000
1000
0001
1000
,
0010
0000
1000
0100
0000
0010
0001
1000
,
0001
0010
0100
0000
1000
0010
0100
0010
,
0000
0010
1000
0010
1000
0000
0001
1000
,
0000
1100
0000
0011
0000
0001
1000
0010
,
0100
0000
0010
1000
0000
1000
0001
1000
,
0100
0010
0001
0100
0010
0010
1000
1000
,
0002
0000
0023
0000
0130
1000
0001
0000
,
0200
0000
0320
0000
1030
0100
0010
0000
,
0002
0000
2003
0000
3010
1000
0001
0000
,
0010
0100
0010
0100
0000
1001
0000
1000
,
0100
0000
0120
0000
0031
1000
0010
0010
,
0200
0000
0302
0000
1003
0001
0010
0010
,
0200
0000
0320
0000
0031
0100
0010
0010
,
0100
0001
1000
0000
0100
0010
0001
0000
,
1001
0000
0000
0000
0000
0000
0001
1000
,
0002
0000
1003
0100
0020
0000
0031
1000
,
0020
0000
1030
0001
0020
0000
0130
0010
,
0002
0000
0103
0010
2000
0000
3001
0010
,
0001
0100
0010
0000
1000
0001
0010
0000
,
0210
0000
1300
0001
0200
0000
0310
1000
,
0002
0000
0013
0100
2000
0000
3001
1000
,
0020
0230
0302
2003
,
3100
0100
0010
0010
0001
1000
0001
0000
,
2001
0000
3001
1000
0020
0000
1030
0001
,
0200
0000
0310
1000
0002
0000
0013
0100
,
2000
0000
3001
0010
0200
0000
0310
0001
,
1000
0010
0100
0000
0010
1000
0001
0000
,
2001
0000
3010
1000
0002
0000
0013
0100
,
0020
0000
0031
1000
0020
0000
0130
0001
,
0020
0230
2300
3002
,
0103
0010
0100
0010
0100
0100
0010
0110
;

//--------------- dance-single - Fred-104 ----------------
#NOTES:
     dance-single:
     Fred-104:
     Hard:
     13:
     :
0000
0000
0000
0000
,
0000
0000
0000
0000
,
0000
0000
0000
0000
,
0000
0000
0000
0000
,
0000
0000
0000
0000
0000
0000
1000
0100
,
0020
0000
0030
0001
0002
0000
0003
1000
,
2000
0000
0000
0000
3000
0000
0001
0000
0002
0000
0000
0000
0103
0010
0100
0010
,
0200
1000
0010
0302
,
1003
0001
1000
0001
0010
0100
0010
0100
1000
0000
0000
0000
1000
0001
1000
0001
,
2000
0000
3001
0010
2000
0000
3010
0001
,
0200
0000
0310
1000
0200
0000
0301
0100
,
0020
0000
0031
1000
0020
0000
0031
0010
,
1000
0000
0001
0000
0010
0000
0200
0000
0000
0000
0300
0000
1000
0001
1000
0001
,
2000
0000
3001
0010
2000
0000
3001
0100
,
2000
0000
3001
0100
0020
0000
1030
0001
,
0020
1000
0100
0032
,
1003
0100
1000
0100
0010
0001
0010
0001
0010
0000
0010
0000
0001
1000
0001
0000
,
2000
0010
0001
3200
,
0310
0100
0010
0100
0010
0000
0001
1000
0001
0000
0100
0000
0010
1000
0010
1000
,
0020
0000
0000
0000
0230
0000
0000
0000
0301
0000
0010
0100
0010
0000
0001
1000
,
0002
0000
0000
0000
0100
0000
0000
0000
1000
0000
0000
0000
0013
0000
0001
1000
,
0001
0000
0200
0000
0010
0000
0000
0000
0001
0000
0000
0000
0310
0000
1000
0001
,
1000
0000
0200
0000
0010
0000
0000
0000
1000
0000
0000
0000
0310
0000
0001
1000
,
0002
0000
0000
0000
1000
0000
0000
0000
1003
0000
0100
0000
0010
0000
0001
1000
,
0002
0000
0000
0000
0000
0000
0000
0003
,
1000
0100
1000
0001
0100
0010
1000
0001
,
0010
0100
0010
0001
0100
0010
1000
1000
,
0001
0010
0100
1000
0010
0100
0001
0001
,
1000
0100
0010
1000
0010
0100
1000
0001
,
0000
0001
0100
0010
0100
1000
0100
0002
,
0000
0000
0013
0100
0010
0000
0100
1000
0100
0000
1000
0001
1000
0000
0001
0000
,
0020
0000
0130
1000
0010
0010
0100
0100
,
0001
1000
0001
1000
0010
0100
0010
0100
0001
0000
0001
0000
1000
0100
1000
0100
,
0020
0000
0031
1000
0010
0100
0001
1000
,
0002
0000
1003
0100
1000
0001
0100
0001
,
0020
0000
0130
0010
0001
1000
0010
1000
,
0001
0010
0100
1000
0000
1001
0000
0100
,
0110
0000
0000
0000
1001
0000
0001
0000
1000
0000
0100
0010
0100
0000
1000
0000
,
0002
0000
0000
0000
0103
0000
0010
0000
1000
0000
0001
0010
0001
0000
0010
0000
,
0200
0000
0000
0000
1300
0000
0001
0100
0001
0000
1000
0000
0100
0000
0010
0000
,
0100
0000
1000
0000
0001
0000
0100
0000
0010
0000
0010
0000
0100
0010
0100
0010
,
0100
0000
0000
0000
0000
0000
0000
0000
0000
0000
0000
0000
0001
1000
0001
1000
,
0002
0000
1003
0100
0002
0000
1003
0010
,
0002
0000
0103
0010
2000
0000
3010
0100
,
0002
0000
0013
0100
0020
0000
0031
1000
,
0010
0000
1000
0000
0001
0000
0020
0000
0000
0000
0030
0000
0100
1000
0100
1000
,
0200
0000
0310
0001
0200
0000
0310
1000
,
0002
0000
0000
0000
0013
0000
0100
0000
2000
0000
0000
0000
3001
1000
0001
1000
,
0002
0010
1000
0203
,
0301
1000
0001
1000
0100
0010
0100
0010
0100
0000
0100
0000
1000
0001
1000
0001
,
1000
0000
0001
0010
0200
0000
0301
0100
,
0020
0000
0031
0100
0020
0000
0031
0010
,
0200
0000
0301
1000
0200
0000
0310
0100
,
1000
0000
0001
0000
1000
0000
0020
0000
0000
0000
0030
0000
0100
0001
0100
0001
,
0200
0000
0301
1000
0200
0000
1300
0001
,
0200
0000
0310
1000
0002
0000
1003
0001
,
0200
1000
0001
0320
,
1030
0001
1000
0001
1000
0100
1000
0100
0010
0000
0001
0000
1000
0000
1001
0000
;

//--------------- dance-double - Fred-104 ----------------
#NOTES:
     dance-double:
     Fred-104:
     Easy:
     4:
     :
00000000
00000000
00000000
00000000
,
00000000
00000000
00000000
00000000
,
00000000
00000000
00000000
00000000
,
00000000
00000000
00000000
00000000
,
00000000
00000000
00000000
00000000
,
00002000
00003000
00020000
00030000
,
00000200
00000300
00002000
00003000
,
00000001
00000000
00001000
00000000
,
00000020
00000030
00010000
00010000
,
00002000
00003000
00020000
00030000
,
00002000
00003000
00200000
00300000
,
00020000
00030000
20000000
30000000
,
00010000
00000000
10000000
10000000
,
02000000
03000000
00200000
00300000
,
00020000
00030000
00200000
00300000
,
00001000
00000000
00010000
00000000
,
00001000
00001000
00010000
00010000
,
00000020
00000000
00000000
00000030
,
00001000
00001000
00000001
00000010
,
00000200
00000000
00001300
00001000
,
00000100
00010000
00001000
00000000
,
00010000
00001000
00200000
00300000
,
00010000
10000000
00200000
00300000
,
01000000
00000000
00002000
00003000
,
00011000
00000000
00000000
00000000
,
00020000
00000000
00031000
00000000
,
00010000
00010000
00000100
00000010
,
00000002
00000000
00001003
00000000
,
00000001
00000001
00000100
00001000
,
00020000
00000000
00031000
00000000
,
00100000
00100000
00010000
10000000
,
00020000
00030000
20000000
30000000
,
01000000
01000000
00010000
00010000
,
00001000
00000000
00010000
00000000
,
00000010
00000000
00010000
00000000
,
00001000
00000000
00100000
00000000
,
00001000
00010000
00001000
00000000
,
00010000
00000000
00000100
00000000
,
00010000
00000000
00001000
00000000
,
00100000
00000000
00010000
00000000
,
10000000
00000000
00010000
00000000
,
10010000
00000000
00000000
00000000
,
20000000
30000000
02000000
03000000
,
00200000
00300000
00002000
00003000
,
00020000
00030000
00000020
00000030
,
00001000
00001000
00000001
00000010
,
00000200
00000300
00020000
00030000
,
00002000
00003000
00020000
00030000
,
00200000
02300000
03200000
02300000
,
03010000
00000000
10000000
10000000
,
02000000
03000000
00200000
00300000
,
00002000
00003000
00020000
00030000
,
00000020
00000030
00020000
00030000
,
00001000
00001000
00010000
00010000
,
00000020
00000030
00020000
00030000
,
00002000
00003000
02000000
03000000
,
00001000
00001000
00010000
00010000
,
00022000
00000000
00000000
00000000
00000000
00000000
00000000
00033000
;

//--------------- dance-double - Fred-104 ----------------
#NOTES:
     dance-double:
     Fred-104:
     Medium:
     8:
     :
00000000
00000000
00000000
00000000
,
00000000
00000000
00000000
00000000
,
00000000
00000000
00000000
00000000
,
00000000
00000000
00000000
00000000
,
00000000
00000000
00000000
00000000
,
00020000
00000000
00030000
00001000
00002000
00000000
00003000
01000000
,
02000000
00000000
03000000
00001000
00002000
00000000
00013000
00000100
,
00000020
00000032
00002003
00003002
,
00000103
00001000
00000100
00000000
00001000
00010000
00001000
00000000
,
00011000
00000000
00000000
00001000
00002000
00000000
00003000
01000000
,
02000000
00000000
03000000
00010000
00020000
00000000
00030000
10000000
,
20000000
00000000
30000000
01000000
02000000
00000000
03000000
00010000
,
00001000
00010000
00000100
00000000
00001000
00000001
00000100
00000000
,
00000110
00000000
00000000
00001000
00002000
00000000
00003000
00000100
,
00000200
00000000
00000300
00000010
00000020
00000000
00001030
00010000
,
00002000
00203000
02300000
23000000
,
30010000
01000000
00100000
00000000
00010000
00001000
00010000
00000000
,
00002000
00023000
00230000
02300000
,
03001000
00010000
00100000
00000000
01000000
00001000
00010000
00000000
,
00002000
00000000
00023000
00000000
00030100
00000100
00000010
00000010
,
00002000
00000000
00010000
00000000
00013000
00001000
00010000
00000000
,
00001000
00000100
00000020
00000000
00001000
00000000
00001030
00000000
,
00000100
00000010
00000002
00000000
00000100
00000000
00000103
00000000
,
00002000
00000000
00010000
00000000
00013000
00001000
00010000
00000000
,
00022000
00000000
00033000
00000000
,
00001000
00000000
00100000
00010000
10000000
00010000
01000000
00100000
,
00000000
10100000
00000000
01010000
00000000
10000000
01000000
00010000
,
00001000
00000000
00010000
00000100
00000000
00000010
00000100
00001000
,
00000001
00000100
00000010
00000000
00000100
00001000
00010000
00001000
,
00000000
00001000
01000000
00001000
00010000
00000000
00000100
00010000
,
00000000
00011000
00000000
00101000
00000000
00001000
00010000
00000010
,
00001000
00000000
00000100
00000010
00000000
00000010
00000001
00001000
,
00000001
00000100
00001000
00010000
00001000
00001000
00010000
00010000
,
00000020
00000000
00002030
00000000
00003100
00000010
00000001
00000000
,
00000200
00000000
00002300
00000000
00013000
00001000
01000000
00000000
,
00200000
00000000
20300000
00000000
30010000
00100000
01000000
00000000
,
00010000
00001000
00010000
00001000
00000000
00011000
00000000
00010000
,
00000200
00000000
00020300
00000000
00031000
00010000
00100000
10000000
,
00020000
00000000
00230000
00000000
01300000
00100000
00001000
00010000
,
00000020
00000000
00002030
00000000
00003100
00000010
00000001
00000010
,
00000100
00001000
00000010
00000100
00001000
00001000
00010000
00000000
,
00011000
00000000
00000000
00000000
00000000
00000000
00010000
00001000
,
00020000
00000000
00030000
00000100
00000200
00000000
00000300
00000010
,
00000020
00000000
00000030
00000001
00000002
00000000
00000103
00001000
,
00020000
00000000
00030000
00100000
00200000
00000000
00300000
00010000
,
00010000
00001000
00010000
00001000
00000000
01000000
00010000
10000000
,
02000000
00000000
03000000
00100000
00200000
00000000
00300000
00001000
,
00002000
00000000
00003000
00010000
00020000
00000000
00030100
00000010
,
00000002
00000203
00002300
00023000
,
00130000
10000000
00100000
00000000
01000000
00010000
10000000
00000000
,
10010000
00000000
00000000
00010000
00020000
00000000
00030000
00100000
,
00200000
00000000
00300000
01000000
02000000
00000000
03010000
00001000
,
00020000
00000000
00030000
00000100
00000200
00000000
00000310
00000001
,
00001000
00000010
00000100
00001000
00000000
00001000
00010000
00001000
,
00200000
00000000
00300000
00010000
00020000
00000000
00030000
01000000
,
02000000
00000000
03000000
00100000
00200000
00000000
10300000
01000000
,
00020000
00032000
00003200
00000302
,
00000013
00000100
00000010
00000100
00001000
00000100
00010000
00011000
;

//--------------- dance-double - Fred-104 ----------------
#NOTES:
     dance-double:
     Fred-104:
     Hard:
     12:
     :
00000000
00000000
00000000
00000000
,
00000000
00000000
00000000
00000000
,
00000000
00000000
00000000
00000000
,
00000000
00000000
00000000
00000000
,
00000000
00000000
00000000
00000000
00000000
00000000
00010000
00010000
,
00002000
00000000
00003000
00010000
00000200
00000000
00000300
00000010
,
00000002
00000000
00000000
00000000
00000003
00000000
00000100
00000000
00002000
00000000
00000000
00000000
00013000
00001000
00010000
00001000
,
00020000
00000010
00100000
00032000
,
00013000
00001000
00010000
00000000
00000010
00001000
00000010
00000000
00000100
00000000
00000100
00000000
00000001
00001000
00000001
00001000
,
00000002
00000000
00001003
00000100
00000002
00000000
00000103
00001000
,
00000020
00000000
00010030
00001000
00200000
00000000
01300000
10000000
,
00020000
00000000
01030000
00100000
00020000
00000000
00031000
00000100
,
00000010
00000000
00010000
00000000
00001000
00000000
00000200
00000000
00000000
00000000
00000300
00000000
00000010
00001000
00000010
00001000
,
00000002
00000000
00000103
00001000
00020000
00000000
01030000
00100000
,
00020000
00000000
10030000
00100000
00020000
00000000
00031000
00000100
,
00000002
00000100
00001000
00000023
,
00000130
00001000
00000100
00000000
00010000
00001000
00010000
00000000
00001000
01000000
00001000
00000000
00010000
00001000
00010000
00001000
,
00020000
00000010
00100000
00032000
,
00013000
00001000
00010000
00001000
01000000
00000000
00100000
10000000
00100000
00000000
01000000
00000000
00010000
10000000
00010000
10000000
,
00020000
00000000
00000000
00000000
20030000
00000000
00000000
00000000
31000000
00000000
00100000
00010000
00100000
00000000
00001000
00010000
,
00002000
00000000
00000000
00000000
01000000
00000000
00000000
00000000
00000100
00000000
00000000
00000000
00013000
00000000
00000100
00001000
,
00000100
00000000
00000020
00000000
00001000
00000000
00000000
00000000
00000100
00000000
00000000
00000000
00000031
00000000
00001000
00000100
,
00010000
00000000
00002000
00000000
00010000
00000000
00000000
00000000
00000010
00000000
00000000
00000000
00103000
00000000
00010000
10000000
,
00020000
00000000
00000000
00000000
01000000
00000000
00000000
00000000
01030000
00000000
00100000
00000000
00010000
00000000
00001000
00010000
,
00002000
00000000
00000000
00000000
00000000
00000000
00000000
00003000
,
00010000
00001000
00000010
00000100
00001000
00000010
00010000
00010000
,
00001000
00000100
00000001
00001000
00000100
00010000
00001000
00001000
,
00100000
01000000
10000000
00010000
01000000
00100000
10000000
00100000
,
00010000
00001000
00100000
00001000
00000010
00000001
00001000
00000010
,
00000000
00000010
00000100
00001000
00010000
00100000
10000000
02000000
,
00000000
00000000
03100000
00010000
00100000
00000000
00001000
00010000
00001000
00000000
00010000
00000010
00010000
00000000
00000010
00000000
,
00000200
00000000
00001300
00000100
00000001
00000001
00000010
00000010
,
00000100
00001000
00000100
00000000
00010000
00001000
00010000
00000000
00001000
00100000
00001000
00000000
00010000
00001000
00010000
00001000
,
00020000
00000000
00031000
00010000
00100000
10000000
00010000
00100000
,
02000000
00000000
03010000
01000000
00100000
00001000
00010000
00000100
,
00000020
00000000
00000031
00001000
00000010
00000100
00001000
00010000
,
00001000
00010000
00100000
10000000
00000000
01100000
00000000
00010000
,
10010000
00000000
01100000
00100000
10000000
01000000
00010000
00001000
,
00020000
00000000
00030100
00000010
00001000
00000001
00000100
00001000
,
00000002
00000000
00000103
00001000
00010000
00100000
10000000
00010000
,
00100000
00000000
01000000
00000000
00010000
00000000
00001000
00000000
00000010
00000000
00000010
00000000
00000100
00001000
00000100
00001000
,
00000001
00000000
00000000
00000000
00000000
00000000
00000000
00000000
00000000
00000000
00000000
00000000
00001000
00000001
00001000
00000001
,
00002000
00000000
00003100
00000010
00002000
00000000
00013000
01000000
,
00200000
00000000
00310000
10000000
00200000
00000000
00310000
00001000
,
00000200
00000000
00000301
00000010
00000200
00000000
00010300
00001000
,
00000100
00000000
00000010
00000000
00010000
00000000
00002000
00000000
00000000
00000000
00003100
00000000
00000001
00001000
00000001
00001000
,
00000002
00000000
00000013
00001000
00020000
00000000
00031000
00000100
,
00002000
00000000
00000000
00000000
00013000
00000000
00100000
00000000
00020000
00000000
00000000
00000000
00031000
00010000
00001000
00010000
,
00002000
01000000
00000010
00023000
,
00031000
00010000
00001000
00000000
01000000
00100000
01000000
00000000
00010000
10000000
00010000
00000000
00100000
00001000
00100000
00001000
,
00020000
00000000
00030100
00000010
00000002
00000000
00000103
00001000
,
00020000
00000000
00031000
00000010
00000002
00000000
00001003
00000001
,
00000200
00000000
00001300
00010000
00200000
00000000
00310000
00001000
,
00010000
00000000
01000000
00000000
10000000
00000000
00020000
00000000
00000000
00000000
01030000
00000000
00100000
10000000
00100000
10000000
,
02000000
00000000
03100000
00001000
00020000
00000000
00031000
00100000
,
00020000
00000000
01030000
00001000
00020000
00000000
00031000
00000100
,
00000002
00000010
00001000
00000203
,
00000301
00001000
00000001
00001000
00000001
00000100
00000001
00000100
00000010
00000000
00010000
00000000
00001000
00000000
00011000
00000000
;
