#TITLE:Wenkamui;
#ARTIST:Zektbach;
#BANNER:Wenkamui.png;
#BACKGROUND:Wenkamui-bg.png;
#CDTITLE:./CDTitles/REFLEC BEAT.png;
#MUSIC:Wenkamui.ogg;
#SAMPLESTART:58.667;
#SAMPLELENGTH:15;
#BPMS:0=135;
#STAGE:3;

//--------------- dance-single - Fred-104 ----------------
#NOTES:
     dance-single:
     Fred-104:
     Beginner:
     2:
     :
0000
0000
0000
0000
,
0000
0000
0000
0000
,
0000
0000
0000
0000
,
0000
0000
0000
0000
,
0000
0000
0000
0000
,
0000
1000
0000
0000
0000
0000
0000
0000
,
0000
0001
0000
0000
0000
0000
0000
0000
,
0000
1000
0000
0000
0000
0000
0000
0000
,
0000
0001
0000
0000
0000
0000
0000
0000
,
0000
1000
0000
0000
0000
0000
0000
0000
,
0000
0100
0000
0000
0000
0000
0000
0000
,
0000
0010
0000
0000
0000
0000
0000
0000
,
0000
0001
0000
0000
0000
0000
0000
0000
,
0000
1000
0000
0000
0000
0000
0000
0000
,
0000
0001
0000
0000
0000
0000
0000
0000
,
0000
1000
0000
0000
0000
0000
0000
0000
,
0000
1000
0000
0000
0000
0000
0000
0000
,
1001
0000
0002
0003
,
1000
0000
0002
0003
,
1000
0000
0010
0000
,
1000
0000
0001
0000
,
1001
0000
2000
3000
,
0001
0000
1000
0000
,
0010
0000
0100
0000
,
0010
0000
0100
0000
,
0020
0000
0000
0030
,
0020
0000
0000
0030
,
0200
0000
0000
0300
,
0100
0000
0100
0000
,
0200
0000
0000
0300
,
0200
0000
0000
0300
,
0002
0003
2000
3000
,
0001
0000
1001
0000
,
1000
1000
1000
0000
,
0001
0000
0010
0000
,
0001
0000
0100
0000
,
0001
0000
0001
0000
,
0100
0100
0100
0000
,
0001
0000
0100
0000
,
0001
0000
1000
0000
,
0001
0000
1000
0000
,
1000
1000
1000
0000
,
0001
0000
0100
0000
,
0001
0001
0001
0000
,
1000
0000
0010
0000
,
1000
1000
1000
0000
,
0001
0001
0001
0000
,
1000
1000
1000
0000
,
0001
0001
0001
0000
,
1001
0000
0000
0000
,
0100
0000
0000
0000
,
0010
0000
0000
0000
,
0001
0000
1000
0000
,
0001
0000
1000
0000
,
0001
0000
0001
0000
,
2002
0000
3003
0000
;

//--------------- dance-single - Fred-104 ----------------
#NOTES:
     dance-single:
     Fred-104:
     Easy:
     5:
     :
0000
0000
0000
0000
,
0000
0000
0000
0000
,
0000
0000
0000
0000
,
0000
0000
0000
0000
,
0000
0000
0000
0000
,
0000
0001
0000
0000
0000
0010
0000
0000
,
0000
0001
0000
0000
0000
0100
0000
0000
,
0000
0010
0000
0000
0000
1000
0000
0000
,
0000
0100
0000
0000
0000
1000
0000
0000
,
0001
0001
0010
0010
,
0100
0100
1000
1000
,
0010
0010
1000
1000
,
0001
0001
1000
1000
,
0100
0100
0010
0010
,
0001
0010
0001
0100
,
0001
0010
0100
1000
,
0001
0000
1000
0000
0010
0000
1000
0001
,
2000
0000
3002
0000
,
0203
0000
0320
0000
,
1030
0100
0010
0010
,
0001
0000
0100
0000
0010
0100
0010
0000
,
0200
0000
2300
0000
,
3002
0000
0023
0000
,
0031
0100
0100
0010
,
1000
0000
0001
0000
1000
0001
1000
0000
,
2002
0000
0000
3003
,
0220
0000
0000
0330
,
2002
0000
0000
3003
,
1000
1000
0001
0100
,
2002
0000
0000
3003
,
0220
0000
0000
0330
,
2002
0000
0000
3003
,
0100
0100
0100
0010
,
1001
0000
0100
0000
0010
0000
0001
0010
,
0001
0000
0100
0000
0010
0000
1000
0001
,
1000
0000
0100
0000
1000
0000
0001
1000
,
0001
0000
0000
1000
0000
0000
0001
0000
,
1001
0000
0100
0000
0010
0000
0100
0010
,
0100
0000
0010
0000
0001
0000
1000
0100
,
1000
0000
0001
0000
0100
0000
0010
0100
,
0010
0000
0000
0100
0000
0000
0010
0000
,
0110
0000
0100
0000
0010
0000
0001
0010
,
0001
0000
1000
0000
0001
0000
0010
0100
,
0010
0000
0001
0000
1000
0000
0100
0010
,
0100
0000
0000
0100
0000
0000
0010
0000
,
0110
0000
0100
0000
1000
0010
1000
0000
,
0001
0000
0010
0000
0100
0010
0100
0000
,
0010
0000
0001
0000
1000
0100
1000
0000
,
0001
0010
0100
1000
,
2002
0000
0000
3003
,
0200
0320
0032
2003
,
3020
0000
0230
0000
,
0302
0000
2003
0000
,
3002
0000
0023
0000
,
2030
0000
3002
0003
,
2002
0000
3003
0000
;

//--------------- dance-single - Fred-104 ----------------
#NOTES:
     dance-single:
     Fred-104:
     Medium:
     9:
     :
0000
0000
0000
0000
,
0000
0000
0000
0000
,
0000
0000
0000
0000
,
0000
0000
0000
0000
,
0000
0000
0000
0000
,
0000
1000
0000
0100
0000
0001
0000
0000
,
0000
1000
0000
0100
0000
0010
0000
0000
,
0000
0001
0000
0100
0000
1000
0000
0000
,
0000
0001
0000
0100
0000
0010
0000
0000
,
1000
0100
1000
0000
0010
1000
0010
0000
,
1000
0100
1000
0000
0001
0100
0001
0000
,
0010
0001
0010
0000
0001
1000
0001
0000
,
0100
0010
0100
0000
0001
1000
0001
0000
,
1000
0100
0010
0000
0001
0100
0010
0000
,
1000
0010
0100
0000
0001
0010
0100
0000
,
1000
0001
0100
0000
0001
1000
0100
0000
,
1000
0010
0100
0000
0001
0010
0100
1000
,
0002
0010
0203
0000
,
0310
0000
0001
1000
0100
0000
1000
0000
,
0020
0230
2300
3020
,
0230
0000
0302
0000
1003
0001
2000
0000
,
3002
1000
0203
0000
,
0310
0000
0001
1000
0100
0000
1000
0000
,
0002
0013
0200
0310
,
0002
0103
2000
3010
,
2001
0000
3020
0000
,
0230
0000
0302
0023
,
2030
0000
3000
0002
2000
0000
3003
0000
,
0001
0000
0000
0001
0000
0000
1000
0000
0010
0000
0000
0010
0000
0000
0100
0000
,
1002
0000
0203
0000
,
0320
0000
2030
3200
,
0320
0000
0030
0002
2000
0000
3003
0010
,
0100
0000
0000
0100
0000
0000
0010
0000
0110
0000
0000
0000
1001
0000
0000
0000
,
0001
0010
0001
0010
0100
1000
0100
0000
,
0100
1000
0001
1000
0100
1000
0001
0000
,
0001
0100
0001
0010
0001
0010
0100
1000
,
0001
0000
0000
0100
0000
0000
0010
0000
,
1000
0100
1000
0100
1000
0001
0010
0000
,
0010
0001
0100
0001
1000
0100
1000
0000
,
1000
0001
0010
0001
0010
0001
1000
0001
,
0100
0010
0100
0010
0000
0100
1001
0000
,
0001
0010
0001
1000
0010
0100
0010
0100
,
0010
1000
0100
0010
0001
1000
0001
1000
,
0100
1000
0001
0010
0100
0010
0100
0010
,
0001
0000
0000
1000
0000
0000
1001
0000
,
0100
0010
0001
0010
0001
0100
0001
0100
,
0010
0100
0010
1000
0100
0010
0100
0010
,
0001
1000
0100
1000
0001
0010
0001
0010
,
0001
1000
0001
1000
0000
0010
0100
0000
,
1000
1000
0010
0010
,
0002
0103
2000
3100
,
0001
0010
0100
0000
1000
0010
0100
0000
,
0001
0100
0010
1000
,
0002
0000
0100
0000
2003
0000
0010
3000
,
0002
0203
0320
1030
,
2002
0000
3003
0000
;

//--------------- dance-single - Fred-104 ----------------
#NOTES:
     dance-single:
     Fred-104:
     Hard:
     13:
     :
0000
0000
0000
0000
,
0000
0000
0000
0000
,
0000
0000
0000
0000
,
0000
0000
0000
0000
,
0000
0000
0000
0000
,
0000
2000
0000
0000
0000
0001
0000
0000
,
0000
3002
0000
0000
0000
0100
0000
0000
,
0000
0203
0000
0000
0000
0010
0000
0000
,
0000
0320
0000
0000
0000
1000
0000
0000
,
1030
0100
1000
0010
1000
0100
0010
0001
,
0001
0010
0001
1000
0010
0100
0010
1000
,
1000
0001
0010
0001
1000
0100
0001
0100
,
0010
1000
0010
0100
0010
1000
0100
0010
,
0100
0001
0100
0010
0001
1000
0010
0100
,
0001
1000
0001
0010
0100
0001
0100
0010
,
0001
1000
0001
1000
0100
0010
1000
0010
,
0100
0001
0010
1000
0010
0001
1000
0010
,
0210
0000
0301
1000
0020
0000
0230
0000
,
0302
0000
1003
0100
0002
0000
1003
0010
,
0002
0100
2003
0010
,
3002
0000
0203
0000
2300
0000
3001
0010
,
0200
0000
1300
0010
0002
0000
0023
0000
,
2030
0000
3001
0100
2000
0000
3001
0010
,
2000
0100
3002
0100
,
1003
0010
1000
0010
0100
0010
0001
0010
,
2000
0000
3000
0100
0002
0000
0000
0000
,
0203
0000
2300
3020
,
0230
0000
0300
0002
2000
0000
3003
0000
,
0002
0000
0000
0010
0000
0000
1003
0000
2000
0000
0000
0010
0000
0000
3001
0000
,
2000
0000
3000
0001
0200
0000
0000
0000
,
0320
0000
2030
3020
,
0032
0000
0103
0100
2000
0000
3100
0100
,
0001
0000
0000
0010
0000
0000
0100
0000
1000
0000
0000
0000
1001
0000
0000
0000
,
1100
0000
0100
0000
1000
0000
0001
1000
0100
0000
1000
0000
0001
0000
0100
0010
,
0110
0000
0100
0000
0010
0000
0001
1000
0100
0000
0010
0000
0100
0000
0001
1000
,
1001
0000
1000
0000
0010
0000
0100
0001
0010
0000
0100
0000
1000
0000
0010
1000
,
1010
0000
0001
1000
0000
0010
0010
0010
,
0110
0000
0100
0000
1000
0000
0010
1000
0100
0000
0010
0000
0001
0000
0100
0001
,
0101
0000
0001
0000
0100
0000
0010
0100
0010
0000
1000
0000
0001
0000
1000
0100
,
1100
0000
0010
0000
0100
0000
0001
1000
0100
0000
0010
0000
0001
0000
0010
0001
,
0011
0001
1000
0200
0000
0310
0010
0100
,
1001
0000
1000
0100
0010
0000
0001
1000
0010
0000
0100
0001
1000
0000
0010
0000
,
0100
0000
0001
0010
0001
0000
1000
0010
0100
0000
0010
1000
0100
0000
1000
0000
,
0001
0000
0010
0001
1000
0000
0010
0100
0001
0000
1000
0100
0010
0000
0100
0000
,
2000
0010
3100
0002
0000
0103
0010
0100
,
1001
0000
0001
0010
0100
0000
1000
0001
0100
0000
0010
1000
0001
0000
0100
0010
,
0100
0000
1000
0100
0001
0000
0100
1000
0010
0000
1000
0001
0100
0000
0010
1000
,
0001
0000
0010
0100
1000
0000
0001
0100
0010
0000
1000
0100
0001
0000
0100
1000
,
0010
0100
0001
1000
0100
0010
0010
0010
,
0001
0100
0001
0000
0100
1000
0100
0000
,
0010
1000
0010
0000
0001
0010
0001
0000
,
1000
0100
1000
0100
0001
0100
0001
0100
,
0001
0010
0001
0010
1000
0010
1000
0010
,
0002
0100
0100
0000
2003
0000
0010
3100
,
0200
0001
0320
1030
,
2002
0000
3003
0000
;

//--------------- dance-double - Fred-104 ----------------
#NOTES:
     dance-double:
     Fred-104:
     Easy:
     5:
     :
00000000
00000000
00000000
00000000
,
00000000
00000000
00000000
00000000
,
00000000
00000000
00000000
00000000
,
00000000
00000000
00000000
00000000
,
00000000
00000000
00000000
00000000
,
00000000
00000010
00000000
00000000
00000000
00000001
00000000
00000000
,
00000000
00000100
00000000
00000000
00000000
00001000
00000000
00000000
,
00000000
00010000
00000000
00000000
00000000
00100000
00000000
00000000
,
00000000
10000000
00000000
00000000
00000000
00010000
00000000
00000000
,
10000000
10000000
01000000
01000000
,
00010000
00010000
00001000
00001000
,
00000100
00000100
00000001
00000001
,
00001000
00001000
00000001
00000001
,
00000010
00000010
00001000
00001000
,
00010000
00010000
00100000
00100000
,
10000000
10000000
00010000
00010000
,
10000000
10000000
01000000
00100000
,
00002000
00000000
00023000
00000000
,
00031000
00000000
00000100
00000000
00000010
00000000
00000001
00000100
,
00000002
00000000
00000203
00000000
,
00001300
00010000
01000000
10000000
,
00020000
00000000
02030000
00000000
,
03100000
00000000
10000000
00000000
01000000
00000000
00100000
00010000
,
00200000
00000000
00302000
00000000
,
00003010
00000100
00000001
00001000
,
00002002
00000000
00000000
00003003
,
00022000
00000000
00000000
00033000
,
20020000
00000000
00000000
30030000
,
01000000
01000000
00100000
00001000
,
00022000
00000000
00000000
00033000
,
00002002
00000000
00000000
00003003
,
00022000
00000000
00000000
00033000
,
00010000
10000000
00100000
01100000
,
01000000
00000000
00100000
00000000
00010000
00000000
10000000
01000000
,
10000000
00000000
01000000
00000000
00100000
00000000
00001000
00010000
,
00001000
00000000
00010000
00000000
00000010
00000000
00001000
00000010
,
00001000
00000000
00000000
00000001
00000000
00000000
00001000
00000000
,
00000001
00000000
00000010
00000000
00000100
00000000
00000010
00000100
,
00000010
00000000
00000001
00000000
00001000
00000000
00000010
00000100
,
00000010
00000000
00001000
00000000
00000100
00000000
00010000
00001000
,
00010000
00001000
00010000
00010000
,
00011000
00000000
00001000
00000000
00100000
00000000
00010000
10000000
,
00010000
00000000
01000000
00000000
00100000
00000000
10000000
01000000
,
10000000
00000000
01000000
00000000
00100000
00000000
00001000
00010000
,
00001000
00000000
00000000
00010000
00000000
00000000
00001000
00000000
,
00001100
00000000
00000100
00000000
00000010
00000001
00000010
00000000
,
00000001
00000000
00000100
00000000
00000010
00001000
00000010
00000000
,
00001000
00000000
00010000
00000000
00100000
01000000
00100000
00000000
,
00001000
00010000
00001000
00001000
,
00022000
00000000
00000000
00033000
,
00002002
00000000
00000000
00003003
,
00000220
00000000
00000000
00000330
,
00002002
00003003
00000220
00000330
,
00000002
00000000
00000023
00000000
,
00002030
00000000
00023000
00031000
,
00022000
00000000
00033000
00000000
;

//--------------- dance-double - Fred-104 ----------------
#NOTES:
     dance-double:
     Fred-104:
     Medium:
     9:
     :
00000000
00000000
00000000
00000000
,
00000000
00000000
00000000
00000000
,
00000000
00000000
00000000
00000000
,
00000000
00000000
00000000
00000000
,
00000000
00000000
00000000
00000000
,
00000000
00010000
00000000
00000000
00000000
00001000
00000000
00000000
,
00000000
00100000
00000000
01000000
00000000
00100000
00000000
00000000
,
00000000
10000000
00000000
00000000
00000000
01000000
00000000
00000000
,
00000000
00010000
00000000
00001000
00000000
00000100
00000000
00000000
,
00000001
00000010
00000001
00000000
00000100
00000010
00001000
00000000
,
00000100
00010000
00001000
00000000
00010000
00001000
00010000
00000000
,
00001000
00010000
00100000
00000000
00010000
00100000
10000000
00000000
,
00100000
00010000
00001000
00000000
00010000
00000010
00001000
00000000
,
00000010
00010000
00001000
00000000
00000100
00000010
00000001
00000000
,
00001000
00000100
00000010
00000000
00000001
00000100
00001000
00000000
,
00010000
00001000
00010000
00000000
00001000
00010000
01000000
00000000
,
10000000
01000000
00100000
00000000
00010000
01000000
00100000
10000000
,
00200000
01300000
00020000
00000000
,
01030000
00000000
00010000
00001000
00010000
00000000
00001000
00000100
,
00000020
00000001
00002030
00000100
,
00013000
00000000
00010000
00000000
00001000
00010000
00001000
00000000
,
00020000
00100000
20030000
00000000
,
31000000
00000000
00010000
10000000
01000000
00000000
00100000
00001000
,
00020000
00000010
00032000
00000010
,
00013000
00000000
00001000
00000000
00000100
00000010
00000100
00000000
,
00002001
00000000
00003000
00000010
00000200
00000000
00000000
00000000
,
00000302
00000000
00000203
00002300
,
00023000
00000000
00030000
00001000
00020000
00000000
00030000
00000000
,
00010000
00000000
00000000
00100000
00000000
00000000
01000000
00000000
00100000
00000000
00000000
00010000
00000000
00000000
10000000
00000000
,
20010000
00000000
30000000
01000000
20000000
00000000
00000000
00000000
,
30020000
00000000
00032000
00003200
,
00000320
00000000
00000030
00000100
00000020
00000000
00000030
00000100
,
00000001
00000000
00000000
00000010
00000000
00000000
00000100
00000000
00001000
00000000
00000000
00000000
00011000
00000000
00000000
00000000
,
00010000
00001000
00100000
00010000
00100000
01000000
00100000
00010000
,
00000000
10000000
01000000
00100000
01000000
00100000
00001000
00010000
,
00000000
00001000
00010000
00000100
00001000
00000001
00000100
00000001
,
00000100
00000000
00000010
00000100
00000000
00000100
00000010
00000000
,
00000001
00000010
00000001
00000010
00001000
00010000
00001000
00010000
,
00000000
00001000
00010000
00100000
01000000
00010000
00100000
00001000
,
00000000
00100000
00010000
00001000
00000100
00000010
00001000
00000100
,
00010000
00001000
00010000
00001000
00000000
00010000
00001000
00000000
,
00100000
00010000
00100000
01000000
10000000
00100000
01000000
00100000
,
00000000
10000000
01000000
00010000
01000000
00010000
00001000
00000100
,
00000000
00000001
00000100
00000001
00000010
00000001
00000010
00001000
,
00010000
00000000
00001000
00010000
00000000
00010000
00001000
00000000
,
00010000
00100000
00010000
00100000
10000000
00100000
00010000
00001000
,
00000000
00010000
00001000
00010000
00001000
00000010
00000001
00000010
,
00000000
00000001
00000100
00000001
00000100
00001000
00010000
01000000
,
10000000
00010000
10000000
00010000
00000000
01000000
00100000
00000000
,
10000000
10000000
01000000
01000000
,
00200000
00302000
00023000
00030020
,
00001030
00000100
00000010
00000000
00000001
00000000
00000100
00000000
,
00000010
00001000
00000100
00000000
00010000
00000000
00001000
00000000
,
00020000
01000000
00230000
01000000
,
00320000
00031000
00000020
00000031
,
00002002
00000000
00003003
00000000
;

//--------------- dance-double - Fred-104 ----------------
#NOTES:
     dance-double:
     Fred-104:
     Hard:
     13:
     :
00000000
00000000
00000000
00000000
,
00000000
00000000
00000000
00000000
,
00000000
00000000
00000000
00000000
,
00000000
00000000
00000000
00000000
,
00000000
00000000
00000000
00000000
,
00000000
00010000
00000000
00100000
00000000
10000000
00000000
00000000
,
00000000
10000000
00000000
01000000
00000000
00010000
00000000
00000000
,
00000000
00001000
00000000
00000100
00000000
00000001
00000000
00000000
,
00000000
00000001
00000000
00000010
00000000
00001000
00000000
00010000
,
00001000
00100000
00010000
00100000
01000000
10000000
00100000
01000000
,
00000000
00010000
01000000
10000000
00100000
01000000
00010000
00100000
,
00000000
00001000
00010000
00000010
00001000
00000001
00000010
00000100
,
00000000
00000010
00000001
00001000
00000100
00000010
00001000
00000100
,
00000000
00010000
00001000
00010000
00100000
01000000
00010000
00001000
,
00000000
00010000
00001000
00000100
00000010
00001000
00000100
00010000
,
00000000
00001000
00010000
00100000
10000000
00100000
00010000
00001000
,
00000000
00010000
00001000
00000100
00000001
00000100
00001000
00010000
,
00012000
00000000
00103000
00010000
20000000
00000000
01000000
00000000
,
30020000
00000000
01030000
10000000
00020000
00000000
01030000
00010000
,
02000000
03200000
00302000
00023000
,
00030020
00000000
00002030
00000000
00003001
00000010
00000100
00010000
,
00002000
00000000
00013000
00000010
00020000
00000000
00032000
00000000
,
00203000
00000000
01300000
00010000
02000000
00000000
03010000
00100000
,
20000000
30200000
00320000
00032000
,
00003020
00000000
00000032
00000000
00000103
00001000
00010000
01000000
,
20020000
00000000
30030000
01000000
00200000
00000000
00000000
00000000
,
02300000
00000000
03020000
00030200
,
00000320
00000000
00000000
00000130
00000010
00000000
00000000
00000000
,
00000001
00000000
00000000
00000010
00000000
00000000
00001000
00000000
00010000
00000000
00000000
01000000
00000000
00000000
10000000
00000000
,
20020000
00000000
30030000
01000000
00200000
00000000
00000000
00000000
,
00302000
00000000
00003020
00000032
,
00002003
00000000
00003000
00000010
00000200
00000000
00000300
00000010
,
00001000
00000000
00000000
00010000
00000000
00000000
00001000
00000000
00011000
00000000
00000000
00000000
00011000
00000000
00000000
00000000
,
00101000
00000000
00100000
00000000
00010000
00000000
01000000
00100000
01000000
00000000
00010000
00000000
10000000
00000000
01000000
00100000
,
01100000
00000000
01000000
00000000
00010000
00000000
00100000
00001000
00010000
00000000
00000010
00000000
00001000
00000000
00000100
00000010
,
00000110
00000000
00000010
00000000
00000001
00000000
00000100
00000001
00001000
00000000
00000100
00000000
00000010
00000000
00000001
00001000
,
00001001
00000000
00000100
00010000
00000000
00001000
00001000
00001000
,
00011000
00000000
00010000
00000000
00000010
00000000
00001000
00000100
00010000
00000000
00001000
00000000
00100000
00000000
00010000
01000000
,
01010000
00000000
01000000
00000000
00100000
00000000
10000000
01000000
00100000
00000000
00001000
00000000
00010000
00000000
00000100
00010000
,
00010100
00000000
00010000
00000000
00000100
00000000
00001000
00000001
00000100
00000000
00000010
00000000
00000100
00000000
00000001
00001000
,
00001001
00000001
00000100
00001000
00000000
00010000
00010000
00010000
,
00011000
00000000
00001000
00010000
00100000
00000000
01000000
00100000
00010000
00000000
01000000
00100000
10000000
00000000
00010000
00000000
,
00100000
00000000
00001000
00010000
00000100
00000000
00010000
00001000
01000000
00000000
00001000
00010000
00000010
00000000
00001000
00000000
,
00000100
00000000
00000001
00000100
00001000
00000000
00000010
00000100
00000001
00000000
00001000
00000100
00000001
00000000
00000100
00000000
,
00000010
00000001
00000100
00002000
00000000
00013000
00100000
10000000
,
10010000
00000000
01000000
00100000
10000000
00000000
00100000
01000000
00010000
00000000
00100000
00001000
00010000
00000000
00011000
00000000
,
00001000
00000000
00000100
00000010
00000001
00000000
00000010
00001000
00000010
00000000
00000001
00000100
00000010
00000000
00001010
00000000
,
00001000
00000000
00000100
00010000
00001000
00000000
00100000
00010000
10000000
00000000
00100000
01000000
00010000
00000000
10000000
01000000
,
00010000
00001000
00000100
00000001
00001000
00000010
00000100
00000001
,
00000010
00000001
00000010
00000000
00001000
00000010
00001000
00000000
,
00010000
00001000
00010000
00000000
00100000
00010000
00100000
00000000
,
00010000
01000000
00010000
01000000
10000000
00100000
10000000
00100000
,
00010000
00001000
00010000
00001000
00000010
00000001
00000010
00000001
,
00002000
00000000
00000100
00000000
00000001
00000000
00003010
00001000
,
00020000
00000000
01000000
00000000
10000000
00000000
00130000
00010000
,
00022000
00000000
00033000
00000000
;
