#TITLE:Water Horizon;
#ARTIST:青龍;
#ARTISTTRANSLIT:Seiryu;
#BANNER:Water Horizon.png;
#BACKGROUND:Water Horizon-bg.png;
#CDTITLE:./CDTitles/AGEHA.png;
#MUSIC:Water Horizon.ogg;
#SAMPLESTART:98;
#SAMPLELENGTH:15;
#BPMS:0=191;
#BGSTAGE:27;

//--------------- dance-single - Fred-104 ----------------
#NOTES:
     dance-single:
     Fred-104:
     Beginner:
     4:
     :
0000
0000
0000
0000
,
0000
0000
0000
0000
,
0000
0000
0000
0000
,
0000
0000
0000
0000
,
0000
0000
0000
0000
,
1000
0000
0000
0000
,
0001
0000
0000
0000
,
1000
0000
0000
0000
,
0001
0000
0000
0000
,
1000
0000
0000
0000
,
0001
0000
0000
0000
,
1000
0000
1000
0000
,
2000
0000
3000
0000
,
0001
0000
0001
0000
,
0001
0000
0000
0000
,
0010
0000
0010
0000
,
0010
0000
0000
0000
,
0100
0000
0100
0000
,
0100
0000
0000
0000
,
1000
0000
1000
0000
,
1000
0000
0000
0000
,
0001
0000
1000
0000
,
0001
0000
0000
0000
,
1000
0000
0100
0000
,
1000
0000
0000
0000
,
0001
0000
0001
0000
,
0001
0000
0001
0000
,
1000
0000
1000
0000
,
2000
0000
3000
0000
,
0002
0000
0000
0003
,
2000
0000
0000
3000
,
0002
0000
0000
0003
,
2000
0000
0000
3000
,
0100
0000
0100
0000
,
0010
0000
0010
0000
,
0001
0000
0001
0000
,
2000
0000
0000
3000
,
0002
0000
0000
0000
,
0000
0000
0000
0003
,
1000
0000
1000
0000
,
0010
0000
1000
0000
,
1000
0000
0001
0000
,
0010
0000
0010
0000
,
0100
0000
0100
0000
,
2000
0000
0000
3000
,
0001
0000
0001
0000
,
0010
0000
0010
0000
,
0001
0000
0001
0000
,
1000
0000
0010
0000
,
0100
0000
0100
0000
,
0100
0000
0100
0000
,
0010
0000
0010
0000
,
0020
0000
0000
0030
,
1001
0000
0000
0000
,
0000
0000
0000
0000
,
0000
0000
0000
0000
,
0000
0000
0000
0000
,
0000
0000
0000
0000
,
0000
0000
0000
0000
,
0000
0000
0000
0000
,
0000
0000
0000
0000
,
2000
0000
0000
0000
,
0000
0000
3000
0000
,
0002
0000
0000
0000
,
0000
0000
0003
0000
,
2000
0000
0000
0000
,
0000
0000
3000
0000
,
0002
0000
0000
0000
,
0000
0000
0003
0000
,
1000
0000
0000
0000
,
0100
0000
0000
0000
,
0010
0000
0000
0000
,
0001
0000
0000
0000
,
1000
0000
1000
0000
,
0001
0000
0001
0000
,
1000
0000
1000
0000
,
0001
0000
0001
0000
,
0002
0000
0003
0000
,
1000
0000
0100
0000
,
2000
0000
3000
0000
,
0001
0000
1000
0000
,
0002
0000
0003
0000
,
0100
0000
0010
0000
,
0200
0000
0300
0000
,
0001
0000
1000
0000
,
0002
0000
0003
0000
,
1000
0000
1000
0000
,
0100
0000
0100
0000
,
0010
0000
0010
0000
,
0001
0000
0001
0000
,
1000
0000
1000
0000
,
0001
0001
0001
0001
,
1001
0000
0000
0000
,
0110
0000
0000
0000
,
2002
0000
0000
0000
,
3003
0000
0000
0000
;

//--------------- dance-single - Fred-104 ----------------
#NOTES:
     dance-single:
     Fred-104:
     Easy:
     9:
     :
0000
0000
0000
0000
,
0000
0000
0000
0000
,
0000
0000
0000
0000
,
0000
0000
0000
0000
,
0000
0000
0000
0000
,
1000
0000
0100
0010
,
0002
0003
2000
3000
,
0001
0000
1000
0000
,
0001
0000
1000
0000
,
0001
0010
1000
0010
,
0001
0010
1000
0010
,
0001
1000
0001
0000
0100
0010
0100
0000
,
2002
0000
3003
0000
,
1000
0100
0010
0001
,
1000
0000
0001
0000
0200
0300
0200
0300
,
0010
0100
0001
0100
,
0010
0000
1000
0000
0002
0003
0002
0003
,
0010
0100
1000
0001
,
0100
0000
0010
0000
2000
3000
2000
3000
,
0100
0010
0001
1000
,
0001
0000
0100
0000
0020
0030
0020
0030
,
0100
0001
1000
0100
,
0001
0000
0100
0000
1000
0001
1000
0000
,
0001
0100
0010
1000
,
0001
0000
0010
0000
0100
1000
0100
0000
,
0010
0000
0010
0000
0010
0000
0010
0010
,
0001
0000
0001
0000
0001
1000
0001
0000
,
0100
0000
0100
0000
0100
0010
0100
0000
,
0010
1000
0010
0000
2000
3000
2000
3000
,
0002
0000
0023
0000
,
0130
1000
0001
0000
,
0200
0000
0320
0000
,
1030
0100
0010
0000
,
0001
1000
0010
0100
,
0010
1000
0100
0000
,
0010
0001
1000
0001
,
0200
0000
0000
0300
,
0010
0010
0100
0100
,
0010
0100
0220
0330
,
0001
1000
0001
0100
,
0010
0000
0100
0000
0001
0100
0001
0000
,
1000
0100
0010
0001
,
0010
0000
0100
0000
1000
0001
1000
0000
,
0001
0100
0010
1000
,
0002
0023
0230
2300
,
3001
0010
0001
0000
,
1000
0010
0100
0010
,
1000
0100
1000
0000
,
0100
0010
0001
1000
,
0100
0000
0100
0000
0100
0000
0100
0100
,
1000
0000
1000
0000
1000
0001
1000
0000
,
0001
0000
0001
0000
0100
0010
0100
0000
,
0001
1000
2002
3003
,
2000
0000
3200
0000
,
0320
0000
0032
0000
,
2003
0000
3200
0000
,
0320
0000
0032
0000
,
2003
0000
3020
0000
,
0230
0000
0302
0000
,
2003
0000
3002
0000
,
0013
0100
1000
0001
,
0100
0000
0010
0000
0100
0000
0000
0010
,
0000
0100
0001
0000
,
1000
0000
0100
0000
1000
0000
0000
0001
,
0000
1000
0010
0100
,
0010
0000
0100
0000
0001
0000
0000
1000
,
0000
0001
0010
0100
,
1000
0000
0000
0001
0000
0000
0100
0000
,
0010
0000
0100
0000
0020
0030
0020
0030
,
1000
1000
0100
0100
,
0001
0001
0010
0010
,
1000
1000
0001
0001
,
0010
0010
0100
0100
,
1000
0000
0001
0000
0100
0010
0100
0000
,
0001
0000
1000
0000
0100
0010
0100
0000
,
0010
0000
0001
0000
1000
0010
1000
0000
,
0001
0100
0001
0000
1000
0100
1000
0000
,
2002
0000
3003
0000
,
1000
0000
1000
0000
0100
0010
0100
0010
,
0000
0010
0001
0000
1000
0000
0000
0000
,
0001
0000
0001
0000
0100
0010
0100
0010
,
0000
0010
1000
0000
0010
0000
0100
0000
,
0010
0000
0010
0000
1000
0100
1000
0100
,
0000
0010
0001
0000
1000
0000
0001
0000
,
0100
0000
0000
0010
0000
0100
0010
0000
,
0100
0000
0000
2002
0000
0000
3003
0000
,
0001
0010
1000
0010
,
0001
0000
1000
0000
0001
1000
0001
0000
,
1000
0100
0001
0100
,
1000
0000
0001
0000
0100
0010
0100
0000
,
0001
0000
0010
0000
0100
1000
0100
0000
,
0010
0001
0010
0000
0001
1000
0001
0000
,
1001
0000
1000
1000
0000
0001
0100
0001
,
0000
0100
0010
0000
0100
0000
0110
0000
,
2002
0000
0000
0000
,
3003
0000
0000
0000
;

//--------------- dance-single - Fred-104 ----------------
#NOTES:
     dance-single:
     Fred-104:
     Medium:
     12:
     :
0000
0000
0000
0000
,
0000
0000
0000
0000
,
0000
0000
0000
0000
,
0000
0000
0000
0000
,
0000
0000
0000
0000
,
1000
0100
1000
0100
1000
0000
1000
0000
,
0001
0100
0001
0000
0001
0100
0001
0000
,
1000
0010
1000
0000
0001
0010
0001
0000
,
1000
0100
1000
0000
0001
0100
0001
0000
,
1000
0100
0010
0000
0001
1000
0010
0000
,
0100
0001
1000
0000
0001
0010
0100
0000
,
1000
0100
0010
0001
1000
0010
0100
0001
,
2000
0000
0000
0000
3002
0003
0002
0003
,
0010
0100
1000
0000
0001
1000
0010
0000
,
0100
0001
1000
0000
1001
0000
1001
0000
,
0001
0100
0010
0000
1000
0001
0010
0000
,
0100
0010
0001
0000
0110
0000
0110
0000
,
1000
0001
0100
0000
0010
1000
0100
0000
,
0010
0001
1000
0000
0110
0000
0110
0000
,
0001
1000
0010
0000
1000
0001
0010
0000
,
0100
1000
0001
0000
1100
0000
1100
0000
,
0001
0100
0001
0000
1000
0001
0010
0000
,
0100
1000
0100
0000
0010
0001
1000
0000
,
0010
0100
0010
0000
1000
0001
0010
0000
,
0100
1000
0100
1000
0001
1000
0001
1000
,
0010
0000
0010
0000
0010
0000
0010
0100
,
0001
0000
0001
0000
1000
0001
1000
0000
,
0100
0000
0100
0000
0100
0010
0001
0000
,
1000
0001
1000
0001
2000
3000
2000
3000
,
0001
0010
0001
0010
0100
0010
0100
0000
,
1000
0001
0100
0000
0010
1000
0001
0000
,
1000
0010
1000
0010
0100
0010
0100
0000
,
0001
1000
0100
0000
0010
0001
1000
0000
,
0010
1000
0010
1000
0001
1000
0100
0000
,
0010
0100
1000
0000
0001
1000
0010
0000
,
0100
0001
0100
0001
1000
0001
0010
0000
,
0100
0010
0100
0010
0001
1000
0001
1000
,
0010
1000
0001
0010
0100
1000
0001
1000
,
0100
0001
1000
0010
0001
1000
1001
0000
,
1000
0100
1000
0001
0100
0010
0100
0000
,
0001
1000
0100
1000
0001
0100
0001
0000
,
1000
0100
0010
0001
0010
0100
1000
0000
,
0001
1000
0010
1000
0001
1000
0100
0000
,
0010
0001
1000
0010
0100
0010
1000
0000
,
0002
0203
0320
2030
,
3001
0010
0001
0010
0001
0000
1000
0010
,
0100
0001
1000
0100
0010
0000
0001
0000
,
1000
0010
1000
0010
1000
0000
0001
1000
,
0100
1000
0001
0100
0010
0000
0100
0000
,
0001
0000
0001
0000
0001
1000
0001
1000
,
0100
0000
0100
0000
0100
0010
0100
0010
,
0001
0000
0001
0000
0001
1000
0010
1000
,
0001
0010
0100
1000
0001
0000
1000
0000
,
1002
0000
2003
0000
,
3002
0000
0203
0000
,
0320
0000
0230
0000
,
0302
0000
2003
0000
,
3200
0000
0320
0000
,
0032
0000
2003
0000
,
3002
0000
0203
0000
,
0310
1000
0001
1000
,
0100
0000
0010
0000
0001
1000
0001
1000
,
0000
0010
1000
0010
1000
0000
0000
0000
,
0100
0000
0010
0000
0001
1000
0001
1000
,
0000
0010
1000
0010
0100
0000
0001
0000
,
1000
0000
0100
0000
0010
0001
0010
0001
,
0000
1000
0010
0100
0010
0000
1000
0000
,
0001
0000
0000
0010
0000
0100
1000
0000
,
0001
0100
0001
0000
2000
3000
2000
3000
,
0001
0001
0010
0010
,
0100
0100
1000
1000
,
0001
0001
0100
0100
,
0010
0010
1000
1000
,
0001
0010
0001
0000
0010
0100
1000
0000
,
0001
0100
0010
0000
1000
0001
0010
0000
,
0100
1000
0001
0000
0100
0001
1000
0000
,
0100
0010
0001
1000
0010
0100
0001
1000
,
0002
0000
0000
0000
2003
3000
2000
3000
,
0100
0010
0100
0010
0001
0010
0001
0010
,
0000
0001
1000
0001
1000
0000
0000
0000
,
0100
1000
0100
1000
0001
1000
0001
1000
,
0000
0010
1000
0010
0100
0001
0100
0000
,
0001
1000
0001
1000
0100
0010
0100
0010
,
0000
0001
1000
0010
0100
0001
1000
0000
,
0001
0000
0010
0100
0000
0100
1000
0001
,
0100
0010
0100
0020
0000
0000
0030
0000
,
1000
0000
1000
0000
0100
0010
0001
0000
,
1000
0000
1000
0000
0001
0100
0010
0000
,
1000
0001
0010
0000
0100
1000
0001
0000
,
0100
0010
0100
0000
0010
1000
0001
0000
,
0010
0100
1000
0000
0001
1000
0010
0000
,
0100
0001
0100
0001
1000
0001
0010
0000
,
0110
0000
0100
0100
0000
1000
0001
1000
,
0000
0001
1000
0001
0200
0000
0310
0000
,
2002
0000
0000
0000
,
3003
0000
0000
0000
;

//--------------- dance-single - Fred-104 ----------------
#NOTES:
     dance-single:
     Fred-104:
     Hard:
     16:
     :
0000
0000
0000
0000
,
0000
0000
0000
0000
,
0000
0000
0000
0000
,
0000
0000
0000
0000
,
0000
0000
0000
0000
,
0001
0000
0010
0000
0100
0000
1000
0000
0001
0000
0100
0000
0010
1000
0010
1000
,
0001
0000
1000
0000
0100
0010
0100
0010
0001
0000
1000
0000
0010
0000
0100
0000
,
0001
1000
0001
1000
0100
0010
0100
0010
,
0001
1000
0010
0100
0001
1000
0010
0100
,
0001
1000
0010
0100
0001
1000
0100
0010
,
0001
1000
0100
0010
0001
1000
0010
0100
,
0001
0100
0001
0100
0001
1000
0001
1000
0100
1000
0100
1000
0001
1000
0001
1000
,
0020
0000
0000
0000
0230
0300
0200
0300
,
0001
1000
0100
0010
0001
1000
0010
0100
,
0010
1000
0001
0010
0002
0103
2000
3100
,
0001
1000
0100
1000
0010
0100
0001
1000
,
0100
0010
0001
1000
0020
0130
0002
0013
,
0001
1000
0010
0100
0010
0001
0010
1000
,
0001
0010
1000
0010
0200
1300
0002
1003
,
0010
0001
0010
0100
0010
1000
0001
0010
,
1000
0010
0001
1000
1001
0000
1001
0000
,
1000
0100
1000
0001
0100
0010
1000
0001
,
0010
0100
0001
0100
1000
0001
0100
0010
,
1000
0001
1000
0100
0010
1000
0010
0001
,
1000
0010
0100
0010
0001
0010
0100
0001
,
1000
0000
0000
0000
1000
0000
0000
0000
1000
0000
0000
0000
1000
0000
0100
0010
,
0001
0000
0001
0000
0001
0001
1000
1000
,
0001
0000
0000
0000
0001
0000
0000
0000
0001
0000
0100
0010
1000
0000
0001
0000
,
0010
0100
0010
0100
0010
0100
0010
0100
0020
0000
0030
0000
0020
0000
0030
0000
,
0001
0000
1000
0000
0010
0000
0100
0000
0001
1000
0001
1000
0001
0000
0010
0000
,
0100
0000
1000
0000
0001
0000
0100
0000
0010
0000
1000
0001
0010
0000
0100
0000
,
0010
0000
0001
0000
1000
0000
0010
0000
0100
0001
0100
0001
0100
0000
0001
0000
,
1000
0000
0100
0000
1000
0000
0001
0000
0100
0000
0010
1000
0001
0000
1000
0000
,
0001
0000
0010
0000
0100
0000
1000
0000
0001
1000
0010
0100
0001
0000
1000
0000
,
0100
0000
0010
0000
0100
0000
1000
0000
0001
0000
0100
0010
0100
0000
0001
0000
,
1000
0000
0001
0000
1000
0000
0100
0000
0010
0001
1000
0001
0100
0000
0010
0000
,
2000
3002
0023
2030
3002
0203
0320
0032
,
1003
0000
0100
0000
0010
0000
0001
0000
1000
0001
0100
0010
1000
0000
0001
0000
,
0010
1000
0001
0100
1000
0001
1001
0000
,
1000
0000
0001
0000
0100
0000
1000
0000
0100
0010
0100
0010
1000
0000
0001
0000
,
0010
0100
0001
0100
0010
1000
0010
0001
,
1000
0000
0010
0000
0001
0000
0010
0000
0100
0001
0100
0001
1000
0000
0001
0000
,
0010
0100
0010
1000
0010
0001
1000
0001
,
0100
0000
0010
0000
0001
0000
0010
0000
0100
0010
0100
0010
1000
0000
0001
0000
,
0020
2030
3002
0203
0320
0230
2300
3002
,
1003
0001
0100
0010
1000
0000
0001
0010
,
0100
0000
1000
0000
0001
0100
0010
0100
0001
0000
1000
0000
0100
0000
1000
0000
,
0001
0100
0010
1000
0001
0000
1000
0001
,
0100
0000
0001
0000
1000
0100
0010
0100
1000
0000
0001
0000
0100
0000
0010
0000
,
0100
0000
0001
0000
0100
0000
1000
0000
0100
0010
0100
0010
0100
0000
0001
1000
,
0100
0010
0100
0010
0100
0100
0010
0010
,
0001
0000
1000
0000
0001
0000
1000
0000
0001
1000
0100
1000
0001
0000
1000
0000
,
0001
0100
0001
0100
0001
1000
0001
1000
0100
0000
0010
0000
0001
0000
0000
0000
,
2001
0000
3002
0000
,
2003
0000
3200
0000
,
0320
0000
0032
0000
,
2003
0000
3020
0000
,
0230
0000
0302
0000
,
0023
0000
0230
0000
,
2300
3002
2003
3002
,
0203
0320
2030
3002
,
1003
0100
0010
1000
0010
0001
1000
0001
,
0000
0100
1000
0100
0001
0000
0000
0000
,
0010
0100
1000
0001
0100
1000
0100
0001
,
0000
1000
0100
0001
0100
0010
0100
1000
,
0001
0100
1000
0100
0010
0001
0010
1000
,
0000
0001
0010
0100
1000
0001
0100
0010
,
0100
0000
1000
0100
0001
1000
0100
0001
,
0100
0010
0001
1000
1001
0000
1001
0000
,
0001
0001
0100
0100
,
0010
0000
0010
0000
1000
0001
1000
0000
,
0100
0100
0010
0010
,
0001
0000
0001
0000
1000
0001
1000
0000
,
0001
0000
0100
0000
0010
0000
1000
0000
0001
0000
0010
0000
0100
0000
1000
0001
,
0100
0010
1000
0001
0010
0100
0010
0001
,
1000
0000
0010
0000
0100
0000
0001
0000
1000
0000
0100
0010
0001
0000
1000
0000
,
0001
1000
0100
0010
0001
0010
0100
1000
0001
0100
0010
1000
0001
1000
0010
0100
,
0002
0000
0000
0000
2003
3000
2000
3000
,
0001
0000
0100
0010
0100
0000
0001
0000
1000
0000
0100
0010
0100
0000
1000
0000
,
0000
0000
0001
0100
0001
0000
1000
0000
0100
0010
0001
1000
0001
0000
0000
0000
,
1000
0000
0001
0100
0001
0000
1000
0000
0001
0000
1000
0100
1000
0000
0001
0000
,
0000
0100
0010
0001
1000
0100
0001
1000
,
0100
0000
1000
0001
1000
0000
0010
0000
0100
0000
0001
1000
0001
0000
0010
0000
,
0000
0000
0100
1000
0100
0000
0010
0000
0001
0000
1000
0010
0100
0000
0001
0000
,
1000
0000
0001
0010
0100
0001
1000
0010
,
0001
1000
0010
0200
0000
0000
0300
0000
,
0001
1000
0100
0010
1000
0001
0100
1000
,
0001
0100
1000
0100
0010
0001
0010
0100
,
0010
1000
0001
0010
1000
0001
0100
1000
,
0001
0100
1000
0100
0010
0100
1000
0100
,
0001
0000
1000
0000
0100
0000
0001
0000
0100
0000
0010
0000
0001
0000
1000
0001
,
0100
0010
1000
0010
0100
0000
0001
0000
1000
0000
0100
0010
0001
0000
0100
0010
,
1000
0001
1001
1010
0000
0101
1100
0110
,
0000
0011
0011
0011
0110
0000
1000
0000
,
2002
0000
0000
0000
,
3003
0000
0000
0000
;

//--------------- dance-double - Fred-104 ----------------
#NOTES:
     dance-double:
     Fred-104:
     Easy:
     9:
     :
00000000
00000000
00000000
00000000
,
00000000
00000000
00000000
00000000
,
00000000
00000000
00000000
00000000
,
00000000
00000000
00000000
00000000
,
00000000
00000000
00000000
00000000
,
00010000
00001000
00010000
00001000
,
02000000
03000000
00020000
00030000
,
10000000
00000000
00100000
00000000
,
00010000
00000000
00001000
00000000
,
00010000
00001000
00000010
00001000
,
00010000
00001000
00000010
00001000
,
00010000
00001000
01000000
00000000
00010000
00100000
01000000
00000000
,
20020000
00000000
30030000
00000000
,
10000000
01000000
00010000
00001000
,
00000000
00000000
00010000
00000000
00002000
00003000
00002000
00003000
,
00010000
00001000
00000010
00000100
,
00000000
00000000
00001000
00000000
00000002
00000003
00000002
00000003
,
00000010
00000100
00010000
00001000
,
00000000
00000000
01000000
00000000
00020000
00030000
00020000
00030000
,
00100000
01000000
10000000
00100000
,
00010000
00000000
00001000
00000000
00020000
00030000
00020000
00030000
,
00001000
00010000
00001000
00010000
,
00000010
00000000
00001000
00000000
00000010
00001000
00000001
00000000
,
00000010
00000100
00001000
00000100
,
00010000
00000000
00001000
00000000
00010000
00000100
00001000
00000000
,
00000100
00000000
00000100
00000000
00000100
00000000
00000100
00000010
,
00000001
00000000
00000001
00000000
00000001
00000100
00001000
00000000
,
00010000
00000000
00010000
00000000
00010000
00001000
00010000
00000000
,
00001000
01000000
00001000
00000000
00020000
00030000
00020000
00030000
,
00002000
00000000
00023000
00000000
,
00130000
10000000
00010000
00100000
,
02000000
00000000
23000000
00000000
,
30100000
00010000
00001000
00010000
,
00001000
00010000
00000100
00000010
,
00000001
00001000
00000010
00000000
,
00000100
00001000
00010000
00001000
,
00020000
00000000
00000000
00030000
,
00001000
00001000
00010000
00010000
,
00001000
00010000
00022000
00033000
,
00001000
00010000
01000000
00100000
,
00010000
00000000
10000000
00000000
00100000
01000000
00100000
00000000
,
10000000
01000000
00010000
00001000
,
00010000
00000000
00000100
00000000
00001000
00000001
00001000
00000000
,
00000100
00010000
00001000
01000000
,
00020000
20030000
32000000
03200000
,
00301000
00010000
00001000
00000000
,
00010000
00001000
00000010
00001000
,
00010000
00000010
00001000
00000000
,
00000010
00010000
00001000
00100000
,
01000000
00000000
01000000
00000000
01000000
00000000
10000000
00100000
,
00010000
00000000
00001000
00000000
00001000
00010000
00001000
00000000
,
00010000
00000000
00010000
00000000
00000100
00001000
00000100
00000000
,
00010000
00001000
00022000
00033000
,
00021000
00000000
00032000
00000000
,
02003000
00000000
03002000
00000000
,
00023000
00000000
00032000
00000000
,
00023000
00000000
00030200
00000000
,
00020300
00000000
00032000
00000000
,
00203000
00000000
00302000
00000000
,
00023000
00000000
00030020
00000000
,
00001030
00000001
00000010
00000100
,
00010000
00000000
00001000
00000000
00010000
00000000
00000000
00001000
,
00000000
01000000
00010000
00000000
,
00100000
00000000
01000000
00000000
10000000
00000000
00000000
01000000
,
00000000
10000000
00100000
00010000
,
00001000
00000000
00010000
00000000
00000010
00000000
00000000
00001000
,
00000000
00000100
00000010
00000001
,
00000100
00000000
00000000
00001000
00000000
00000000
00010000
00000000
,
00001000
00000000
00010000
00000000
00002000
00003000
00002000
00003000
,
00010000
00010000
00001000
00001000
,
00000010
00000010
00000001
00000001
,
00001000
00001000
00000010
00000010
,
00000100
00000100
00001000
00001000
,
00010000
00000000
00001000
00000000
01000000
00010000
01000000
00000000
,
00100000
00000000
10000000
00000000
01000000
00100000
01000000
00000000
,
00100000
00001000
00010000
00000000
00001000
00010000
00000010
00000000
,
00001000
00000100
00000010
00000000
00000001
00000010
00000100
00000000
,
00022000
00000000
00033000
00000000
,
00001000
00000000
00001000
00000000
01000000
00010000
01000000
00010000
,
00000000
00010000
10000000
00000000
01000000
00000000
00000000
00000000
,
00100000
00000000
00100000
00000000
00001000
00010000
00001000
00010000
,
00000000
00010000
00000010
00000000
00001000
00000000
00000100
00000000
,
00000010
00000000
00000010
00000000
00000001
00000010
00000001
00000010
,
00000000
00000100
00010000
00000000
00001000
00000000
00010000
00000000
,
00001000
00000000
00000000
01000000
00000000
00001000
00010000
00000000
,
00000100
00000000
00001000
00000002
00000000
00000000
00000003
00000000
,
00000001
00000100
00001000
00000100
,
00000001
00000000
00000010
00000000
00000100
00010000
00001000
00000000
,
00010000
00100000
01000000
00010000
,
00100000
00000000
01000000
00000000
10000000
00010000
10000000
00000000
,
01000000
00000000
00100000
00000000
00001000
00010000
00001000
00000000
,
00010000
00000010
00010000
00000000
00001000
00100000
00010000
00000000
,
10010000
00000000
10000000
10000000
00000000
01000000
00100000
01000000
,
00000000
00100000
00001000
00000000
00010000
00000000
00010010
00000000
,
00000220
00000000
00000000
00000000
,
00000330
00000000
00000000
00000000
;

//--------------- dance-double - Fred-104 ----------------
#NOTES:
     dance-double:
     Fred-104:
     Medium:
     12:
     :
00000000
00000000
00000000
00000000
,
00000000
00000000
00000000
00000000
,
00000000
00000000
00000000
00000000
,
00000000
00000000
00000000
00000000
,
00000000
00000000
00000000
00000000
,
00001000
00010000
00001000
00010000
00001000
00000000
00001000
00000000
,
01000000
00010000
01000000
00000000
00010000
10000000
00010000
00000000
,
10000000
01000000
00010000
00000000
00001000
00000010
00000001
00000000
,
00000001
00000100
00001000
00000000
00010000
00100000
10000000
00000000
,
10000000
00100000
00010000
00000000
00001000
00000100
00000001
00000000
,
00000001
00000010
00001000
00000000
00010000
01000000
10000000
00000000
,
10000000
01000000
00100000
00001000
00010000
00000010
00001000
00000001
,
00002000
00000000
00000000
00000000
00003002
00000003
00000002
00000003
,
00000010
00000100
00001000
00000000
00000100
00010000
00001000
00010000
,
00000000
00001000
01000000
00000000
01100000
00000000
10010000
00000000
,
00010000
00100000
01000000
00000000
10000000
00100000
10000000
00100000
,
00000000
00010000
00001000
00000000
00011000
00000000
00011000
00000000
,
00010000
00001000
00000100
00000000
00000010
00001000
00000010
00001000
,
00000000
00000100
00000010
00000000
00000011
00000000
00000011
00000000
,
00000001
00000100
00001000
00000000
00010000
00001000
00010000
00001000
,
01000000
00010000
01000000
00010000
10010000
00000000
10010000
00000000
,
10000000
01000000
00100000
00000000
00001000
00010000
00000010
00000000
,
00010000
00001000
00010000
00000000
00000010
00001000
00000001
00000000
,
00000010
00000100
00001000
00000000
00000010
00000100
00001000
00000000
,
00010000
00100000
01000000
00000000
00010000
00100000
01000000
00000000
,
10000000
00000000
10000000
00000000
10000000
00000000
01000000
00010000
,
00001000
00000000
00010000
00000000
00001000
00000010
00000001
00000010
,
00000100
00000000
00000100
00000000
00000100
00010000
00001000
00000000
,
00010000
00001000
00000100
00001000
00020000
00030000
00020000
00030000
,
00001000
00010000
00001000
00010000
00100000
01000000
00010000
00000000
,
10000000
01000000
00010000
00000000
00001000
00010000
00001000
00000000
,
00010000
00001000
00010000
00001000
00000100
00000001
00001000
00000000
,
00000100
00000010
00000001
00000000
00000100
00001000
00010000
00000000
,
00001000
00010000
00001000
01000000
00010000
01000000
00001000
00000000
,
00010000
00001000
00000100
00000000
00001000
00010000
00001000
00000000
,
01000000
00001000
00010000
00000010
00001000
00000100
00010000
00000000
,
00001000
00010000
00001000
00010000
01000000
00100000
01000000
00100000
,
00010000
10000000
00100000
00010000
00001000
00010000
01000000
00010000
,
00001000
00000010
00001000
00010000
00001000
00000100
00000001
00000000
,
00000010
00000100
00001000
00000010
00000100
00001000
00010000
00001000
,
01000000
00010000
01000000
00001000
00010000
00000100
00010000
00000000
,
00001000
00010000
00001000
00100000
00010000
00100000
01000000
10000000
,
00100000
00010000
00001000
00010000
00000010
00010000
00001000
00000000
,
00010000
00001000
00000100
00000001
00001000
00000100
00000010
00000000
,
00000002
00000023
00000230
00020300
,
00031000
00010000
00001000
00010000
00001000
00000000
01000000
00010000
,
10000000
00000000
01000000
00100000
00001000
00000000
00010000
00000000
,
00001000
00010000
00001000
00010000
00001000
00000000
00010000
00001000
,
00000100
00000000
00000010
00001000
00000001
00000000
00000010
00000000
,
00000100
00000000
00000100
00000000
00000100
00001000
00000100
00010000
,
00001000
00000000
00001000
00000000
00001000
00010000
00100000
10000000
,
01000000
00000000
01000000
00000000
01000000
00100000
00001000
00010000
,
00000010
00001000
00000010
00010000
00001000
00000000
00010000
00000000
,
00012000
00000000
02003000
00000000
,
03002000
00000000
00023000
00000000
,
00032000
00000000
00203000
00000000
,
00320000
00000000
20030000
00000000
,
30200000
00000000
00320000
00000000
,
00032000
00000000
00003200
00000000
,
00000302
00000000
00000023
00000000
,
00000130
00010000
00001000
00010000
,
00001000
00000000
00010000
00000000
00100000
00000000
10000000
10000000
,
00000000
01000000
00100000
00000000
00001000
00000000
00000000
00000000
,
00010000
00000000
00001000
00000000
00000100
00000000
00000001
00000001
,
00000000
00000010
00000010
00000000
00000100
00000000
00010000
00000000
,
00001000
00000000
00010000
00000000
00001000
01000000
00001000
01000000
,
00000000
00001000
00010000
00001000
00010000
00000000
00001000
00000000
,
00100000
00000000
00000000
00010000
00000000
10000000
00100000
00000000
,
00010000
00001000
00000100
00000000
00000002
00000003
00000002
00000003
,
00001000
00001000
00000100
00000100
,
00000010
00000010
00000001
00000001
,
00000100
00000100
00001000
00001000
,
00010000
00010000
01000000
01000000
,
10000000
01000000
10000000
00000000
01000000
00100000
00001000
00000000
,
00010000
00000100
00001000
00000000
00000100
00000010
00000001
00000000
,
00001000
00000010
00000100
00000000
00001000
00010000
00100000
00000000
,
01000000
00010000
01000000
00010000
00100000
01000000
00010000
00001000
,
00020000
00000000
00000000
00000000
00032000
00003000
00002000
00003000
,
00010000
00001000
00010000
00001000
00000100
00000001
00000100
00000001
,
00000000
00001000
00000100
00000010
00000001
00000000
00000000
00000000
,
00000100
00001000
00000100
00001000
00010000
01000000
00010000
01000000
,
00000000
00100000
00010000
10000000
01000000
00100000
00001000
00000000
,
00010000
00001000
00010000
00001000
00000010
00000100
00000010
00000100
,
00000000
00000010
00000001
00001000
00000010
00010000
00001000
00000000
,
00011000
00000000
00001000
00010000
00000000
00010000
00000100
00010000
,
00001000
01000000
00010000
20000000
00000000
00000000
30000000
00000000
,
10000000
00000000
01000000
00000000
00100000
00001000
00010000
00000000
,
00001000
00000000
00000100
00000000
00000010
00001000
00000001
00000000
,
00000010
00000000
00000100
00000000
00001000
00000100
00010000
00000000
,
00001000
00010000
00001000
00000000
01000000
00010000
01000000
00000000
,
00001000
00010000
01000000
00000000
00010000
00001000
00010000
00000000
,
00001000
00010000
00000010
00001000
00000010
00001000
00000001
00000000
,
00000110
00000000
00000100
00000100
00000000
00010000
00001000
00010000
,
00000000
00001000
00010000
00100000
20000000
00000000
31000000
00000000
,
02200000
00000000
00000000
00000000
,
03300000
00000000
00000000
00000000
;

//--------------- dance-double - Fred-104 ----------------
#NOTES:
     dance-double:
     Fred-104:
     Hard:
     16:
     :
00000000
00000000
00000000
00000000
,
00000000
00000000
00000000
00000000
,
00000000
00000000
00000000
00000000
,
00000000
00000000
00000000
00000000
,
00000000
00000000
00000000
00000000
,
00010000
00000000
00001000
00000000
01000000
00000000
00001000
00000000
00010000
00000000
00000100
00000000
00001000
00000001
00001000
00000001
,
00001000
00000000
00000100
00000000
00000010
00000000
00000001
00000000
00001000
00000010
00001000
00000010
00000100
00000000
00000001
00000000
,
00001000
00000100
00000010
00001000
00010000
01000000
00100000
00010000
,
01000000
00100000
00010000
00001000
00010000
00000100
00000010
00001000
,
00010000
01000000
00100000
00010000
01000000
00100000
00010000
00001000
,
00000100
00000010
00000001
00000010
00001000
00000001
00000010
00000100
,
00010000
00001000
00010000
00000000
00000100
00010000
00000100
00000000
00010000
00001000
00010000
00001000
01000000
00001000
01000000
00001000
,
00020000
00000000
00000000
00000000
00032000
00003000
00002000
00003000
,
00010000
00001000
00000100
00000010
00000001
00000010
00001000
00000100
,
00000010
00001000
00010000
00001000
00011000
00000000
00011000
00000000
,
00001000
00010000
00100000
01000000
00100000
10000000
00010000
00100000
,
01000000
00010000
00001000
00010000
00010100
00000000
00010100
00000000
,
00001000
00010000
00000010
00010000
00001000
00010000
00100000
01000000
,
10000000
01000000
00010000
10000000
11000000
00000000
11000000
00000000
,
10000000
00100000
01000000
00100000
00010000
00001000
00010000
00000100
,
00000010
00000001
00001000
00000010
00000110
00000000
00000110
00000000
,
00000001
00001000
00000100
00000010
00001000
00010000
00001000
01000000
,
00010000
00100000
01000000
00010000
00001000
00010000
00100000
00010000
,
00001000
00010000
00000100
00000010
00000001
00001000
00000010
00010000
,
00001000
00010000
00100000
01000000
10000000
01000000
00010000
10000000
,
01000000
00000000
00000000
00000000
01000000
00000000
00000000
00000000
01000000
00000000
00000000
00000000
01000000
00000000
00100000
00001000
,
00010000
00000000
00010000
00000000
00010000
00010000
00001000
00001000
,
00010000
00000000
00000000
00000000
00010000
00000000
00000000
00000000
00010000
00000000
00001000
00000100
00000001
00000000
00000010
00000000
,
00000100
00001000
00000100
00001000
00000100
00001000
00000100
00001000
00000200
00000000
00000300
00000000
00000200
00000000
00000300
00000000
,
00010000
00000000
00001000
00000000
01000000
00000000
00010000
00000000
10000000
01000000
10000000
01000000
00100000
00000000
00001000
00000000
,
00010000
00000000
00001000
00000000
00000100
00000000
00000010
00000000
00001000
00000000
00000001
00000010
00000001
00000000
00001000
00000000
,
00000010
00000000
00000100
00000000
00001000
00000000
00010000
00000000
00001000
01000000
00001000
01000000
00010000
00000000
10000000
00000000
,
00100000
00000000
01000000
00000000
00100000
00000000
00010000
00000000
00001000
00000000
00010000
00000100
00010000
00000000
00001000
00000000
,
00010000
00000000
00001000
00000000
00000100
00000000
00000001
00000000
00001000
00000100
00000010
00000001
00001000
00000000
00000010
00000000
,
00010000
00000000
00001000
00000000
00100000
00000000
00001000
00000000
00010000
00000000
00001000
01000000
00010000
00000000
10000000
00000000
,
01000000
00000000
00100000
00000000
00001000
00000000
00010000
00000000
00000010
00001000
00000010
00000100
00000010
00000000
00001000
00000000
,
00000002
00000023
00000230
00002300
00023000
00230000
02300000
23000000
,
30010000
00000000
01000000
00000000
00100000
00000000
10000000
00000000
00010000
00100000
00001000
00010000
00000010
00000000
00010000
00000000
,
00001000
00010000
00100000
10000000
01000000
00010000
00011000
00000000
,
00010000
00000000
00001000
00000000
00000100
00000000
00000010
00000000
00001000
00000010
00001000
00000001
00000010
00000000
00000100
00000000
,
00010000
00001000
00000100
00000010
00000001
00000010
00000100
00000001
,
00000010
00000000
00001000
00000000
00010000
00000000
01000000
00000000
00100000
00010000
10000000
00010000
01000000
00000000
00100000
00000000
,
00010000
00001000
00000100
00000010
00010000
00001000
00000010
00000001
,
00001000
00000000
00000010
00000000
00000100
00000000
00001000
00000000
00010000
00001000
01000000
00001000
00010000
00000000
00001000
00000000
,
00020000
00230000
02300000
03020000
00230000
02300000
03002000
00003200
,
00000310
00000100
00001000
00000010
00000100
00000000
00001000
00010000
,
00001000
00000000
01000000
00000000
00010000
00100000
01000000
00100000
00010000
00000000
01000000
00000000
00100000
00000000
00010000
00000000
,
00001000
00000100
00000010
00001000
00000100
00000000
00000010
00000100
,
00001000
00000000
00000100
00000000
00010000
00001000
00100000
00001000
00010000
00000000
00000010
00000000
00001000
00000000
00000100
00000000
,
00000010
00000000
00000001
00000000
00000100
00000000
00001000
00000000
00010000
00001000
00010000
00001000
00010000
00000000
00100000
01000000
,
00010000
10000000
00010000
10000000
01000000
01000000
00100000
00100000
,
00001000
00000000
00010000
00000000
00001000
00000000
00010000
00000000
00000010
00001000
00000010
00001000
00000010
00000000
00010000
00000000
,
00001000
00010000
00001000
00010000
00000100
00010000
00000100
00010000
00001000
00000000
01000000
00000000
00001000
00000000
00000000
00000000
,
00021000
00000000
00032000
00000000
,
00003200
00000000
00000302
00000000
,
00000023
00000000
00000230
00000000
,
00020300
00000000
00032000
00000000
,
02003000
00000000
03020000
00000000
,
20030000
00000000
32000000
00000000
,
03200000
00302000
00023000
00030020
,
00010030
00001000
00000100
00000001
,
00001000
00000001
00000100
00000010
00000100
00001000
00010000
00001000
,
00000000
00010000
01000000
10000000
00100000
00000000
00000000
00000000
,
00010000
00001000
00010000
00000100
00001000
00000100
00000010
00000001
,
00000000
00001000
00000010
00000100
00001000
00010000
01000000
10000000
,
00010000
01000000
00100000
00010000
00001000
00000100
00000010
00000001
,
00000000
00000010
00001000
00000001
00000010
00001000
00010000
00001000
,
01000000
00000000
00100000
10000000
01000000
00100000
00001000
00010000
,
00000010
00010000
00001000
00010000
00011000
00000000
00011000
00000000
,
00001000
00001000
00010000
00010000
,
00100000
00100000
10000000
10000000
,
01000000
01000000
00010000
00010000
,
00001000
00000000
00001000
00000000
00000010
00000001
00000010
00000000
,
00000001
00000000
00000100
00000000
00000010
00000000
00001000
00000000
00000001
00000000
00000010
00000000
00000100
00000000
00010000
00001000
,
00010000
00001000
01000000
00010000
10000000
01000000
00100000
00001000
,
00010000
00000000
00001000
00000000
00000010
00000000
00000001
00000000
00001000
00000000
00000100
00000010
00000001
00000000
00001000
00000000
,
00000010
00010000
00000010
00010000
00000010
00010000
00000010
00010000
00001000
00010000
00001000
00010000
00001000
00010000
00001000
00010000
,
00002000
00000000
00000000
00000000
00023000
00030000
00020000
00030000
,
00001000
00100000
00001000
00000000
00010000
00000000
00000100
00000000
00001000
00000001
00001000
00000000
00000010
00000000
00000100
00000000
,
00000000
00000000
00001000
00010000
00001000
00000000
01000000
00000000
00010000
10000000
01000000
10000000
00010000
00000000
00000000
00000000
,
10000000
00100000
10000000
00000000
00010000
00000000
01000000
00000000
00001000
00010000
00001000
00000000
00000010
00000000
00000001
00000000
,
00000000
00001000
00000010
00000001
00001000
00000100
00000010
00001000
,
00000001
00000010
00000001
00000000
00000010
00000000
00000100
00000000
00010000
00001000
00010000
00000000
00001000
00000000
01000000
00000000
,
00000000
00000000
00001000
00010000
00001000
00000000
00100000
00000000
00010000
00000000
10000000
00100000
01000000
00000000
00010000
00000000
,
10000000
00000000
00100000
00010000
00001000
00000010
00000001
00001000
,
00000010
00000100
00001000
00020000
00000000
00000000
00030000
00000000
,
00001000
00010000
01000000
00100000
10000000
00100000
01000000
10000000
,
00100000
00010000
00001000
00010000
00000010
00001000
00000100
00010000
,
00000100
00001000
00000001
00000100
00000010
00000100
00001000
00010000
,
00001000
00010000
01000000
00100000
00010000
10000000
00100000
00010000
,
00001000
00000000
00000100
00000000
00000010
00000000
00000001
00000000
00000010
00000000
00001000
00000000
00000001
00000000
00000010
00000100
,
00001000
00000001
00000100
00000001
00001000
00000000
00000001
00000000
00000010
00000000
00000100
00001000
00000100
00000000
00010000
00001000
,
00010000
00001000
00011000
00101000
00000000
00010010
00010000
00011000
,
00000000
01001000
00001000
00010000
00010100
00000000
00001000
00000000
,
00022000
00000000
00000000
00000000
,
00033000
00000000
00000000
00000000
;
