#TITLE:Waiting for you;
#ARTIST:Soda Sphere;
#BANNER:Waiting for you.png;
#BACKGROUND:Waiting for you-bg.png;
#CDTITLE:./CDTitles/DANCERUSH STARDOM.png;
#MUSIC:Waiting for you.ogg;
#SAMPLESTART:24.375;
#SAMPLELENGTH:15;
#BPMS:0=128;
#BGSTAGE:2;

//--------------- dance-single - Fred-104 ----------------
#NOTES:
     dance-single:
     Fred-104:
     Beginner:
     1:
     :
0000
0000
0000
0000
,
0000
0000
0000
0000
,
0000
0000
0000
0000
,
0000
0000
0000
0000
,
0000
0000
0000
0000
,
0000
0000
0000
0000
,
0000
0000
0000
0000
,
0000
0000
0000
0000
,
0000
0000
0000
0000
,
1000
0000
0000
0000
,
1000
0000
0000
0000
,
1000
0000
0000
0000
,
1000
0000
0000
0000
,
0001
0000
0000
0000
,
0001
0000
0000
0000
,
1000
0000
0000
0000
,
1000
0000
0000
0000
,
0001
0000
0000
0000
,
0001
0000
0000
0000
,
1000
0000
0000
0000
,
1000
0000
0000
0000
,
0001
0000
0000
0000
,
0100
0000
0000
0000
,
0001
0000
0000
0000
,
0100
0000
0000
0000
,
0001
0000
0000
0000
,
1000
0000
0000
0000
,
0001
0000
0000
0000
,
0010
0000
0000
0000
,
0000
0000
0000
0000
,
0000
0000
0000
0000
,
0001
0000
0000
0000
,
0000
0000
0000
0000
,
0001
0000
0000
0000
,
0000
0000
0000
0000
,
1000
0000
0000
0000
,
0000
0000
0000
0000
,
1000
0000
0000
0000
,
0000
0000
0000
0000
,
0100
0000
0000
0000
,
0100
0000
0000
0000
,
0100
0000
0000
0000
,
0100
0000
0000
0000
,
1000
0000
0000
0000
,
1000
0000
0000
0000
,
0001
0000
0000
0000
,
0001
0000
0000
0000
,
0100
0000
0000
0000
,
0100
0000
0000
0000
,
0001
0000
0000
0000
,
0001
0000
0000
0000
,
1000
0000
0000
0000
,
1000
0000
0000
0000
,
0001
0000
0000
0000
,
0001
0000
0000
0000
,
1000
0000
0000
0000
,
1000
0000
0000
0000
,
0001
0000
0000
0000
,
0010
0000
0000
0000
,
0010
0000
0000
0000
;

//--------------- dance-single - Fred-104 ----------------
#NOTES:
     dance-single:
     Fred-104:
     Easy:
     4:
     :
0000
0000
0000
0000
,
0000
0000
0000
0000
,
0000
0000
0000
0000
,
0000
0000
0000
0000
,
0000
0000
0000
0000
,
0000
0000
0000
0000
,
0000
0000
0000
0000
,
0000
0000
0000
0000
,
0000
0000
0000
0000
,
1000
0000
1000
0000
,
0001
0000
0001
0000
,
1000
1000
0001
0001
,
2000
0000
0000
3000
,
0001
0000
0010
0000
,
0100
0000
1000
1000
,
1000
0000
0001
0000
,
0100
0000
0010
0010
,
0010
0000
0100
0000
,
0001
0000
1000
1000
,
1000
0000
0100
0000
,
0010
0000
0001
0001
,
0001
0000
1000
0000
,
0001
0000
0100
0100
,
0100
0000
1000
0000
,
1000
0000
0010
0010
,
0010
0000
0001
0000
,
1000
0000
0001
0001
,
0001
0000
1000
0000
,
0100
0100
0100
0100
,
0000
0000
0000
0000
,
0000
0000
0000
0000
,
2000
0000
3002
0000
,
2003
0000
3002
0000
,
2003
0000
0000
3000
,
0001
0000
1000
0000
,
0200
0000
0000
0000
,
0320
0000
0000
0000
,
0030
0000
0000
0000
,
0002
0000
0000
0003
,
1000
0000
1000
0000
,
0001
0000
0001
0000
,
1000
1000
0001
0001
,
2000
0000
0000
3000
,
0001
0000
0001
0000
,
0100
0000
1000
1000
,
0100
0000
0010
0010
,
0100
0000
0001
0001
,
0001
0000
1000
0100
,
0100
0000
0010
0010
,
0010
0000
0001
0001
,
1000
1000
0001
0001
,
1001
0000
0001
0000
,
1000
0000
0010
0010
,
0010
0000
0001
0001
,
0010
0000
0100
0100
,
0010
0000
1000
0001
,
0001
0000
0010
0010
,
0100
0100
1000
1000
,
0001
1000
0001
1000
,
1001
0000
0000
0000
;

//--------------- dance-single - Fred-104 ----------------
#NOTES:
     dance-single:
     Fred-104:
     Medium:
     7:
     :
0000
0000
0000
0000
,
0000
0000
0000
0000
,
0000
0000
0000
0000
,
0000
0000
0000
0000
,
0000
0000
0000
0000
,
0000
0000
0000
0000
,
0000
0000
0000
0000
,
0000
0000
0000
0000
,
0000
0000
0000
0000
,
0001
0001
0010
0010
,
0100
0100
1000
1000
,
0010
1000
0010
0000
0100
0001
0100
0000
,
0001
1000
0001
1000
0000
2002
0000
3003
,
1000
0000
0100
0020
0000
0030
0001
0200
,
0000
0300
0010
2000
0000
3002
0000
1003
,
0100
0000
0010
0002
0000
0003
0100
0020
,
0000
0030
1000
0002
0000
0023
0000
0031
,
0100
0000
0010
2000
0000
3000
0001
2000
,
0000
3000
0100
2000
0000
3020
0000
0130
,
0001
0000
1000
0200
0000
0300
0010
0100
,
1000
0000
1000
0010
0000
0010
0000
0010
,
0110
0000
1000
0002
0000
0003
0010
0200
,
0000
0300
1000
0020
0000
0230
0000
0301
,
1000
0000
0100
0020
0000
0030
0001
0020
,
0000
0030
0100
2000
0000
3002
0000
0103
,
0010
0000
1000
0002
0000
0003
0010
0200
,
0000
0300
0010
0002
0000
0203
0000
0310
,
1000
0000
0001
0020
0000
0030
0100
1000
,
0001
0100
0001
0100
0000
0010
0000
0010
,
0000
0000
0000
0000
,
0000
0000
0000
0000
,
2000
0000
3002
0000
,
0023
0000
0230
0000
,
0320
0000
0000
0000
,
0032
0000
2003
0000
,
3002
0000
0203
0000
,
0320
0000
0000
0000
,
0030
0000
0000
1000
,
0100
0010
0100
0010
0000
0002
0000
0003
,
1000
0000
0001
0100
1000
0000
1000
0100
,
0001
0000
1000
0100
0001
0000
0001
0100
,
1000
0001
1000
0000
0010
0100
0010
0000
,
1000
0001
1000
0001
0000
2002
0000
3003
,
1000
0000
0100
0010
0100
0000
1000
0001
,
1000
0000
0001
0100
0010
0000
1000
0000
,
0001
0000
0010
0100
0010
0000
0100
1000
,
0001
0000
0100
0010
1000
0000
0001
0000
,
1000
0000
0001
1000
0010
0000
0100
0001
,
1000
0000
0100
0010
0001
0000
0100
0000
,
0010
0000
1000
0001
0010
0000
0100
0010
,
0001
0010
0001
0010
0000
0100
0000
0100
,
0110
0000
1000
0010
0000
1000
0001
1000
,
0000
0010
1000
0001
0000
0010
0000
0010
,
0100
0000
0010
0001
0000
1000
0001
0100
,
0000
0001
0100
0010
0000
0100
0000
0100
,
0001
0000
1000
0100
0000
0010
0100
0010
,
0000
0001
1000
0001
0000
0100
0000
0100
,
0010
0000
1000
0001
0000
1000
0100
0010
,
0001
0010
0001
0010
0000
0110
0000
2002
,
3003
0000
0000
0000
;

//--------------- dance-single - Fred-104 ----------------
#NOTES:
     dance-single:
     Fred-104:
     Hard:
     12:
     :
0000
0000
0000
0000
,
0000
0000
0000
0000
,
0000
0000
0000
0000
,
0000
0000
0000
0000
,
0000
0000
0000
0000
,
0000
0000
0000
0000
,
0000
0000
0000
0000
,
0000
0000
0000
0000
,
0000
0000
0000
0000
,
1000
0100
1000
0200
0000
0310
0001
2000
,
0000
3010
1000
0002
0000
0023
0000
0230
,
1300
0010
1000
0020
0000
0130
0001
1000
,
0100
1000
0001
0100
0000
0100
0010
0100
,
0001
1000
0100
0020
0000
0031
0100
0020
,
0000
1030
0010
0200
0000
0301
0010
0100
,
1000
0001
0100
0020
0000
1030
0100
0020
,
0000
0000
0031
0000
0010
0000
0200
0000
0000
0000
1300
0000
0010
0000
0100
0001
,
0100
0010
1000
0002
0000
0013
0001
2000
,
0000
3100
1000
0002
0000
0103
0001
1000
,
0100
0010
0001
2000
0000
3010
1000
0001
,
0010
0000
0100
0000
0010
0000
0100
0000
0000
0000
1100
0000
0000
0000
1000
0001
,
1000
0000
0000
0000
1001
0000
0001
0000
0100
0000
0010
0000
1000
0000
0001
1000
,
0001
0000
0010
0000
0100
0000
1000
0000
0010
0000
0100
0000
0001
0000
1000
0100
,
1000
0000
0001
0000
0100
0000
0010
0000
1000
0000
0001
0000
0010
0000
0100
0010
,
0100
0000
1000
0000
0001
0000
0100
0000
0010
1000
0010
1000
0010
0000
1000
0000
,
0001
0000
0010
0000
0100
0000
1000
0000
0010
0000
0100
0000
0001
0000
1000
0001
,
1000
0000
0100
0000
0010
0000
0100
0000
1000
0000
0001
0000
0100
0000
0010
1000
,
0010
0000
1000
0001
1000
0000
0100
0000
0010
0000
0001
1000
0001
0000
0100
0000
,
0010
0100
0010
0000
1000
0001
1000
0000
0100
0010
0100
0010
0001
0000
1000
0001
,
1000
0000
0000
0000
,
0000
0000
0000
0000
0000
0000
0000
1000
,
0200
0000
0320
0000
,
2030
0000
3020
0000
,
0002
0000
0000
0033
,
2000
0000
3002
0203
0000
0320
0000
0230
,
0000
0000
0000
0002
0300
0000
0000
0000
,
2000
0000
0000
0000
,
3003
0000
0000
0000
0000
0002
0203
0000
,
0320
0000
2030
0001
0000
3002
2003
3002
,
1003
0100
0010
0001
1000
0010
0100
0001
,
1000
0100
0010
0100
1000
0010
0100
0001
,
1000
0100
1000
0000
0001
0010
0001
0000
1000
0010
1000
0000
0001
0100
0001
0000
,
0010
0100
1000
0002
0000
1003
0001
1000
,
0002
2003
3200
0320
0031
1000
0010
2000
,
3001
0000
0010
0000
0100
0000
0020
0000
0031
0000
2000
0000
3010
0000
0100
0001
,
0200
0320
2030
3200
0310
0002
1003
0001
,
0100
0000
0020
0000
0130
0000
0002
0000
0013
0000
0200
0000
1300
0000
0001
1000
,
0002
0203
0320
0230
1300
0100
0010
2000
,
3100
0010
0100
0002
0103
0020
0031
1000
,
0001
1000
0001
0000
0010
0000
0100
0000
1000
0001
1000
0000
0010
0000
0100
0000
,
0001
0100
0001
0000
1000
0100
1000
0000
0001
0000
1000
0000
0010
0100
0010
0100
,
0010
0000
0000
0000
1001
0000
1000
0000
0100
0000
0010
0000
0001
0000
1000
0001
,
1000
0000
0010
0000
0100
0000
0001
1000
0001
0000
0010
0000
0100
0000
0010
0100
,
0010
0000
0001
0000
1000
0000
0001
0100
0001
0000
0100
0000
0010
0000
1000
0001
,
1000
0000
0100
0000
0010
0000
0100
1000
0100
0000
1000
0000
0001
0000
1000
0010
,
1000
0000
0001
0000
0010
0000
0100
0010
0100
0000
1000
0000
0001
0000
0100
0010
,
0100
0000
0001
0000
1000
0000
0100
0010
0100
0000
0010
0001
0010
0000
0001
0000
,
1000
0000
0010
0000
0100
0000
0001
1000
0001
0000
1000
0000
0010
0000
0100
0000
,
1000
0001
0010
1000
0000
1001
0000
2002
,
3003
0000
0000
0000
;

//--------------- dance-double - Fred-104 ----------------
#NOTES:
     dance-double:
     Fred-104:
     Easy:
     4:
     :
00000000
00000000
00000000
00000000
,
00000000
00000000
00000000
00000000
,
00000000
00000000
00000000
00000000
,
00000000
00000000
00000000
00000000
,
00000000
00000000
00000000
00000000
,
00000000
00000000
00000000
00000000
,
00000000
00000000
00000000
00000000
,
00000000
00000000
00000000
00000000
,
00000000
00000000
00000000
00000000
,
00010000
00000000
00001000
00000000
,
00010000
00000000
00001000
00000000
,
01000000
01000000
00010000
00010000
,
02000000
00000000
00000000
03000000
,
00010000
00000000
10000000
00000000
,
01000000
00000000
00010000
00010000
,
00010000
00000000
00001000
00000000
,
00010000
00000000
00000100
00000100
,
00000100
00000000
00001000
00000000
,
00000001
00000000
00000100
00000100
,
00000100
00000000
00000010
00000000
,
00000100
00000000
00001000
00001000
,
00001000
00000000
00010000
00000000
,
00001000
00000000
00100000
00100000
,
00100000
00000000
00010000
00000000
,
01000000
00000000
00100000
00100000
,
00100000
00000000
10000000
00000000
,
01000000
00000000
00100000
00100000
,
00100000
00000000
00001000
00000000
,
00010000
00010000
00010000
00010000
,
00000000
00000000
00000000
00000000
,
00000000
00000000
00000000
00000000
,
00002000
00000000
00023000
00000000
,
00032000
00000000
02003000
00000000
,
03200000
00000000
00000000
00300000
,
01000000
00000000
00010000
00000000
,
20000000
00000000
00000000
00000000
,
32000000
00000000
00000000
00000000
,
03000000
00000000
00000000
00000000
,
00200000
00000000
00000000
00300000
,
00001000
00000000
00001000
00000000
,
00010000
00000000
00010000
00000000
,
00001000
00001000
00010000
00010000
,
00002000
00000000
00000000
00003000
,
00010000
00000000
00010000
00000000
,
00001000
00000000
00000100
00000001
,
00000100
00000000
00000001
00001000
,
00000001
00000000
00000010
00000100
,
00000010
00000000
00001000
00010000
,
00001000
00000000
00100000
00010000
,
00100000
00000000
00001000
00010000
,
00001000
00001000
01000000
01000000
,
10010000
00000000
00010000
00000000
,
10000000
00000000
01000000
01000000
,
01000000
00000000
00010000
00010000
,
00001000
00000000
00010000
00001000
,
00010000
00000000
00001000
00010000
,
00010000
00000000
00100000
00100000
,
01000000
01000000
00010000
00010000
,
10000000
01000000
00010000
00001000
,
00011000
00000000
00000000
00000000
;

//--------------- dance-double - Fred-104 ----------------
#NOTES:
     dance-double:
     Fred-104:
     Medium:
     7:
     :
00000000
00000000
00000000
00000000
,
00000000
00000000
00000000
00000000
,
00000000
00000000
00000000
00000000
,
00000000
00000000
00000000
00000000
,
00000000
00000000
00000000
00000000
,
00000000
00000000
00000000
00000000
,
00000000
00000000
00000000
00000000
,
00000000
00000000
00000000
00000000
,
00000000
00000000
00000000
00000000
,
00001000
00001000
00010000
00010000
,
00001000
00010000
00001000
00010000
,
00001000
00100000
00010000
00000000
10000000
00100000
01000000
00000000
,
00010000
10000000
01000000
00010000
00000000
00022000
00000000
00033000
,
00010000
00000000
00000100
00002000
00000000
00003000
00000001
00000200
,
00000000
00000300
00000001
00002000
00000000
00003020
00000000
00010030
,
00001000
00000000
00100000
00002000
00000000
00003000
00010000
00002000
,
00000000
00003000
01000000
00002000
00000000
00023000
00000000
00031000
,
01000000
00000000
00010000
20000000
00000000
30000000
01000000
20000000
,
00000000
30000000
00010000
20000000
00000000
32000000
00000000
03100000
,
00001000
00000000
00010000
00000020
00000000
00000030
00010000
00001000
,
00010000
00000000
00000100
00000010
00000000
00000010
00000000
00000010
,
00000110
00000000
00000001
00002000
00000000
00003000
00000010
00000200
,
00000000
00000300
00001000
00020000
00000000
00032000
00000000
01003000
,
00010000
00000000
10000000
00200000
00000000
00300000
01000000
00200000
,
00000000
00300000
01000000
00002000
00000000
00023000
00000000
00030100
,
00010000
00000000
00000010
00002000
00000000
00003000
00000001
00000020
,
00000000
00000030
00000100
00020000
00000000
00032000
00000000
00103000
,
01000000
00000000
10000000
00020000
00000000
00030000
10000000
00010000
,
00100000
00001000
00010000
00000100
00000000
00000010
00000000
00000010
,
00000000
00000000
00000000
00000000
,
00000000
00000000
00000000
00000000
,
00002000
00000000
00023000
00000000
,
00230000
00000000
02300000
00000000
,
03020000
00000000
00000000
00030000
,
20000000
00000000
32000000
00000000
,
03020000
00000000
00032000
00000000
,
00023000
00000000
00000000
00000000
,
00030000
00000000
00000000
00001000
,
00010000
00000100
00010000
00000100
00000000
00000020
00000000
00000030
,
00000001
00000000
00000001
00000100
00001000
00000000
00010000
01000000
,
10000000
00000000
10000000
00100000
00010000
00000000
00001000
00000010
,
00000001
00001000
00000001
00000000
00000100
00000010
00000100
00000000
,
00001000
00010000
00001000
00010000
00000000
00022000
00000000
00033000
,
00001000
00000000
01000000
00010000
00000000
10000000
01000000
00100000
,
00000000
00001000
00010000
00001000
00000000
00100000
00001000
00000000
,
00010000
00000000
00000100
00001000
00000000
00000001
00001000
00000010
,
00000000
00010000
00001000
01000000
00000000
00100000
10000000
00000000
,
00010000
00000000
10000000
01000000
00000000
00100000
00010000
00100000
,
00000000
00001000
00010000
00000100
00000000
00010000
00001000
00000000
,
00010000
00000000
00000010
00001000
00000000
00000100
00000010
00000000
,
00000001
00001000
00000001
00001000
00000000
00000010
00000000
00000010
,
00010010
00000000
00010000
00001000
00000000
01000000
00010000
01000000
,
00000000
00100000
10000000
01000000
00000000
00100000
00000000
00100000
,
00001000
00000000
00010000
00000010
00000000
00001000
00000010
00000100
,
00000000
00000010
00010000
00001000
00000000
01000000
00000000
01000000
,
00010000
00000000
10000000
01000000
00000000
00100000
00010000
00100000
,
00000000
00001000
00010000
00000010
00000000
00001000
00000000
00001000
,
00000001
00000000
00000010
00000100
00000000
00010000
00001000
00010000
,
00001000
00010000
00000010
00001000
00000000
00000110
00000000
00002002
,
00003003
00000000
00000000
00000000
;

//--------------- dance-double - Fred-104 ----------------
#NOTES:
     dance-double:
     Fred-104:
     Hard:
     12:
     :
00000000
00000000
00000000
00000000
,
00000000
00000000
00000000
00000000
,
00000000
00000000
00000000
00000000
,
00000000
00000000
00000000
00000000
,
00000000
00000000
00000000
00000000
,
00000000
00000000
00000000
00000000
,
00000000
00000000
00000000
00000000
,
00000000
00000000
00000000
00000000
,
00000000
00000000
00000000
00000000
,
00010000
00000000
00001000
00010000
00000100
00000000
00001000
00000010
,
00000100
00000000
00000010
00001000
00000100
00010000
00001000
01000000
,
00100000
00000000
00010000
00001000
00100000
00010000
01000000
00000000
,
00100000
01000000
00001000
00010000
00000000
00010000
00001000
00010000
,
00000010
00001000
00000100
00000020
00000000
00000031
00000100
00000020
,
00000000
00010030
00000100
00000020
00000000
00000031
00001000
00000010
,
00010000
00001000
00100000
02000000
00000000
13000000
00100000
02000000
,
00000000
00000000
03010000
00000000
00100000
00000000
02000000
00000000
00000000
00000000
03100000
00000000
00001000
00000000
00010000
00001000
,
00010000
00001000
00000100
00000002
00000000
00001003
00000100
00000002
,
00000000
00000103
00001000
00000002
00000000
00000103
00001000
00010000
,
00001000
00010000
00100000
20000000
00000000
30010000
00100000
10000000
,
00100000
00000000
00010000
00000000
01000000
00000000
00100000
00000000
00000000
00000000
00110000
00000000
00000000
00000000
00010000
00001000
,
00010000
00000000
00000000
00000000
00011000
00000000
00010000
00001000
00010000
00000000
00000100
00000000
00001000
00000000
00000001
00000000
,
00000100
00000000
00001000
00000000
00010000
00000000
01000000
00000000
00100000
00000000
00001000
00000000
00010000
00000000
00001000
00010000
,
00001000
00010000
00100000
10000000
00010000
00100000
01000000
00010000
,
00001000
00000000
00010000
00000000
00000010
00000000
00000100
00000000
00001000
00000000
00010000
00000000
00001000
00000000
00100000
00010000
,
00100000
00001000
00010000
00000100
00000010
00001000
00010000
00001000
,
01000000
00000000
00100000
00000000
00010000
00000000
00001000
00000000
00000100
00000000
00000010
00000000
00001000
00000000
00000001
00001000
,
00000001
00000000
00000010
00000000
00000100
00000000
00000010
00000000
00001000
00000000
00010000
00001000
00010000
00000000
00001000
00000000
,
01000000
00100000
01000000
00000000
00100000
10000000
00100000
00000000
01000000
00010000
01000000
00010000
10000000
00000000
01000000
00000000
,
00010000
00000000
00000000
00000000
,
00000000
00000000
00000000
00000000
00000000
00000000
00000000
00001000
,
00020000
00000000
00030200
00000000
,
00000320
00000000
00000032
00000000
,
00002000
00000000
00000000
00003003
,
00000002
00000000
00000203
00002300
00000000
00023000
00000000
00032000
,
00000000
00000000
00000000
02000000
00003000
00000000
00000000
00000000
,
00200000
00000000
00000000
00000000
,
03300000
00000000
00000000
00000000
00000000
20000000
32000000
00000000
,
03200000
00000000
00302000
00010000
00000000
00023000
00032000
00023000
,
00031000
00010000
00000010
00001000
00000001
00000010
00000100
00010000
,
00001000
00100000
00010000
10000000
00100000
01000000
00010000
10000000
,
01000000
00100000
01000000
00000000
00100000
00010000
00100000
00000000
00001000
00010000
00001000
00010000
00001000
00000000
00010000
00000000
,
00001000
00010000
00100000
02000000
00000000
03010000
10000000
00010000
,
10000000
01000000
00100000
00001000
00010000
00000100
00010000
00001000
,
01000000
00000000
00010000
00000000
01000000
00000000
00100000
00000000
10000000
00000000
00010000
00000000
00100000
00000000
01000000
00100000
,
01000000
00100000
00001000
00010000
00000100
00001000
00000001
00000100
,
00000010
00000000
00001000
00000000
00000001
00000000
00000010
00000000
00000100
00000000
00010000
00000000
00001000
00000000
00010000
00000010
,
00010000
00001000
00100000
00010000
10000000
00100000
01000000
00100000
,
00010000
00001000
00010000
01000000
10000000
00010000
01000000
00001000
,
00010000
00001000
00010000
00000000
00000100
00000000
00000010
00000000
00000001
00001000
00000001
00000000
00001000
00000000
00000001
00000000
,
00000100
00000010
00000100
00000000
00001000
00000100
00001000
00000000
00010000
00000000
00010000
00000000
00001000
00010000
00001000
00010000
,
00001000
00000000
00011000
00001000
00010000
01000000
00100000
00001000
,
01000000
00000000
00100000
00000000
00010000
00000000
00001000
00000000
00010000
00000000
00000010
00000000
00000100
00000000
00001000
00010000
,
00001000
00010000
00001000
00000010
00000100
00010000
00001000
00010000
,
01000000
00000000
00100000
00000000
00010000
00000000
01000000
00000000
00001000
00000000
00010000
00000000
00001000
00000000
00000010
00000100
,
00000010
00000100
00001000
00010000
00100000
00001000
00010000
00100000
,
01000000
00000000
00001000
00000000
00100000
00000000
00010000
00000000
01000000
00000000
00001000
00000000
00010000
00000000
00000010
00001000
,
00000010
00010000
00001000
00100000
01000000
00010000
00001000
00010000
,
00100000
01000000
00010000
10000000
00000000
01100000
00000000
20020000
,
30030000
00000000
00000000
00000000
;
