#TITLE:Waiting 4 u(Fred-Special);
#ARTIST:DDT;
#BANNER:Waiting 4 u(Fred-Special).png;
#BACKGROUND:Waiting 4 u(Fred-Special)-bg.png;
#CDTITLE:./CDTitles/DDR X.png;
#MUSIC:Waiting 4 u(Fred-Special).ogg;
#SAMPLESTART:46.63;
#SAMPLELENGTH:15;
#BPMS:0=175;
#STAGE:28;

//--------------- dance-single - Fred-104-CSP ----------------
#NOTES:
     dance-single:
     Fred-104:
     Challenge:
     16:
     :
0000
0000
0000
0000
,
0000
0000
0000
0000
,
0000
0000
0000
0000
,
0000
0000
0000
0000
,
0000
0000
0000
0000
,
0000
0000
0000
0000
,
0100
0000
1000
0010
0100
0000
0010
0000
0100
0000
0001
1000
0100
1000
0001
0000
,
1000
0000
0001
0100
0010
0000
1000
0000
0100
0000
0010
0001
1000
0001
0100
0000
,
0001
0000
1000
0010
0100
0000
0001
0000
0100
0000
0010
0100
0001
0100
0010
0000
,
1000
0000
0001
1000
0010
0000
0100
0000
0110
0000
0000
0000
1001
0000
0000
0000
,
1000
0000
0100
0010
0001
0000
1000
0000
0001
0000
0100
0000
0010
0000
1000
0000
,
0001
0000
0010
0100
1000
0000
0001
0000
0100
0000
0010
0000
1000
0000
0010
0000
,
0100
0000
0001
0100
1000
0000
0100
0000
0010
0000
0100
0000
0001
0000
0100
0000
,
1000
0000
0010
0100
0001
0000
0010
0000
1000
0000
0010
0000
0001
0000
0010
0000
,
0100
0000
0010
0001
1000
0000
0001
0000
0100
0010
1000
0010
0100
0001
1000
0000
,
0001
0000
0100
0010
1000
0000
0001
0000
1000
0100
1000
0100
0010
0001
0010
0000
,
0001
0100
0001
0100
0010
1000
0010
1000
0001
0010
0100
1000
0010
0100
0001
1000
,
0002
0000
2000
3003
,
1010
0000
1000
1100
0000
0100
0010
0001
,
0101
0000
0001
0011
0000
0001
0100
0010
,
0110
0000
0100
1100
0000
0100
0010
0011
,
0000
0100
0010
1010
0000
1000
0001
0010
,
0011
0000
0001
1001
0000
1000
0010
0100
,
0110
0000
0001
0011
0000
1000
0010
0100
,
0110
0000
0010
1010
0000
1000
0100
0110
,
0000
0000
0001
0000
0100
0000
0010
0000
1000
0000
0001
1000
0001
0000
0100
0000
,
0001
0010
0010
0011
0000
0001
1000
0010
,
0100
0100
0010
0110
0000
0010
0010
1000
,
0100
0100
1000
1100
0000
0101
0000
1010
,
0000
0011
0000
0110
0000
1001
1000
0001
,
0100
0001
1000
1100
0000
0100
0010
0001
,
1000
0001
0010
0011
0000
0001
0100
0010
,
1000
0000
0010
1000
0100
0000
0010
0001
0100
0000
0010
1000
0100
0010
0001
0100
,
0010
0000
0000
0000
0010
0000
0000
0000
0100
0010
1000
0001
0100
0000
0000
0000
,
0010
0000
0001
1000
0010
0000
0210
0000
0000
0000
0310
0000
1000
0000
0100
0000
,
1000
0000
0001
1000
0100
0000
0120
0000
0000
0000
0031
0000
0010
0000
0001
0000
,
1000
0010
1000
0000
0010
0000
0100
0000
0001
0000
1000
0001
1000
0000
0010
0000
,
1000
0100
0010
0000
0001
0000
0010
0000
0001
0000
0010
0100
2000
0000
0000
0000
,
3001
0000
1000
0001
0100
0000
0120
0000
0000
0000
0130
0000
0001
0000
1000
0000
,
0100
0000
0010
0100
1000
0000
1020
0000
0000
0000
0130
0000
0001
0000
1000
0000
,
0001
0010
0001
0000
1000
0000
0010
0000
0100
0000
0001
0100
0001
0000
1000
0000
,
1010
0000
0000
0000
0101
0000
0000
0000
0110
0000
1000
0001
1000
0000
0001
0000
,
0100
0000
0001
0100
0010
0000
2010
0000
0000
0000
3100
0000
0010
0000
0100
0000
,
1000
0000
0001
0100
0010
0000
0210
0000
0000
0000
0301
0000
1000
0000
0001
0000
,
0010
0001
1000
0000
0010
0000
0100
0000
0010
0000
1000
0001
0100
0000
0010
0000
,
1000
0010
0100
0000
0001
0000
0100
0000
0001
0000
0100
0010
1000
0000
0000
0000
,
1100
0100
0010
0101
0000
0011
0001
1000
,
1010
0010
0100
0101
0000
0001
1000
0010
,
0110
0200
0001
1000
0000
0301
0001
0100
,
0102
0000
0000
0003
2001
0000
0000
3000
1020
0000
0000
0030
0210
0000
0000
0000
,
0301
0000
0100
0010
1000
0000
1002
0000
0000
0000
0013
0000
0100
0000
1000
0000
,
0010
0000
0100
0001
1000
0000
1200
0000
0000
0000
0310
0000
0001
0000
1000
0000
,
0001
0000
0100
0001
1000
0000
0010
0000
0200
0000
0001
1000
0000
0000
1000
0001
,
0000
0000
0001
1000
0000
0000
1000
0001
0300
0000
0001
1000
0100
0000
1000
0000
,
0010
0000
0100
0010
1000
0000
1020
0000
0000
0000
0130
0000
0010
0000
0100
0000
,
0001
0000
1000
0001
0100
0000
0102
0000
0000
0000
0103
0000
0010
0000
1000
0000
,
0001
0000
0010
0100
1000
0000
0001
0000
0020
0000
0001
1000
0000
0000
1000
0001
,
0000
0000
0001
1000
0000
0000
1000
0001
0030
0000
0001
1000
0010
0000
0100
0000
,
0001
0000
0100
0010
1000
0000
0100
0000
0010
0001
1000
0000
0010
0000
0010
0000
,
0100
0000
0001
1000
0100
0000
0010
0000
0100
1000
0010
0000
0100
0000
0100
0000
,
0001
0000
1000
0010
0200
0000
0001
0010
0000
0000
1000
0010
0000
0000
0001
0010
,
0000
0000
1000
0010
0000
0000
0001
0010
0300
0000
1000
0010
0100
0000
0001
0000
,
1001
0000
0000
0000
0000
0000
0100
0000
0000
0110
0000
0000
0000
0000
0000
0011
0000
0000
0000
0000
0000
0001
0100
0001
,
0100
0000
0000
0000
0000
0000
0010
0000
0000
1010
0000
0000
0000
0000
0000
1100
0000
0000
0000
0000
0000
0010
0100
0010
,
0100
0000
0000
0100
0000
0000
0010
0000
0000
0001
1000
0001
1000
0000
0000
0010
0000
0000
0100
0000
0000
0001
0100
0001
,
0100
0000
0000
0010
1000
0010
1000
0000
0000
0001
0010
0001
0010
0000
0000
0100
1000
0100
1000
0000
0000
0000
0000
0000
,
2002
0000
0000
0000
,
0000
0000
0000
0000
,
0000
0000
0000
3003
;

//--------------- dance-double - Fred-104-CDP ----------------
#NOTES:
     dance-double:
     Fred-104:
     Challenge:
     16:
     :
00000000
00000000
00000000
00000000
,
00000000
00000000
00000000
00000000
,
00000000
00000000
00000000
00000000
,
00000000
00000000
00000000
00000000
,
00000000
00000000
00000000
00000000
,
00000000
00000000
00000000
00000000
,
00000010
00000000
00000001
00001000
00000010
00000100
00000001
00000000
00001000
00000000
00000000
00000010
00010000
00000000
00001000
00000000
,
00100000
00000000
00010000
00100000
01000000
00100000
00010000
00000000
10000000
00000000
00000000
00100000
01000000
00000000
00100000
00000000
,
10000000
00000000
01000000
00100000
00010000
10000000
00100000
00000000
01000000
00000000
00000000
00010000
00100000
00000000
01000000
00000000
,
00100000
00000000
00001000
00010000
00001000
00000000
00010000
00000000
00011000
00000000
00000000
00000000
00000110
00000000
00000000
00000000
,
00001001
00000001
00000100
00001000
00010000
01000000
10000000
00100000
,
01000000
00000000
00100000
00000000
10000000
00000000
00100000
00000000
00010000
00001000
00010000
00001000
00010000
00000000
00000000
00000000
,
00011000
00001000
00000010
00000001
00001000
00000001
00000010
00001000
,
00010000
00000000
00100000
00000000
10000000
00000000
00010000
00000000
01000000
00100000
01000000
00100000
01000000
00000000
00000000
00000000
,
00010000
00000000
01000000
00100000
10000000
00000000
01000000
00000000
00100000
00001000
00010000
00000000
00001000
00010000
00000010
00000000
,
00001000
00000000
00000100
00000010
00000001
00000000
00001000
00000000
00000001
00001000
00000100
00000000
00001000
00000010
00000100
00000000
,
00000001
00000100
00000001
00000010
00000100
00001000
00000100
00010000
00001000
00100000
00010000
10000000
00100000
01000000
00010000
10000000
,
02000000
00000000
00200000
03300000
,
01010000
00000000
00001000
00011000
00000000
00010000
00001000
00000100
,
00000110
00000000
00000001
00000101
00000000
00000010
00001000
00000100
,
00010100
00000000
00001000
00021000
00000000
01000000
00000000
00000100
,
00000000
01000000
00000000
00000100
00000000
01030000
00001000
00010000
,
00011000
00000000
00001000
00101000
00000000
00010000
10000000
00100000
,
01100000
00000000
01000000
11000000
00000000
10000000
01000000
00100000
,
00110000
00000000
00001000
00012000
00000000
00100000
00000000
00000010
,
00003000
00000000
00100000
00000000
00001000
00000000
00010000
00000000
00001000
00000000
00010000
00001000
00010000
00000000
00000010
00000000
,
00010000
00001000
00000100
00000010
00000000
00000001
00000100
00001000
,
00000100
00000001
00000100
00000010
00000000
00000100
00000010
00001000
,
00000100
00010000
00001000
00021000
00000000
01000000
00000000
00000100
,
00000000
00100000
00000000
00030010
00000000
00011000
00001000
00010000
,
00001000
00100000
00010000
01000000
00000000
01000000
10000000
01000000
,
00010000
00001000
00000100
00000001
00000000
00000100
00000010
00001000
,
00000001
00000000
00000010
00000100
00001000
00000000
00000010
00000100
00000001
00000000
00001000
00000010
00000100
00000001
00001000
00000100
,
00010000
00000000
00000000
00000000
00001000
00000000
00000000
00000000
00010000
01000000
10000000
01000000
00010000
00000000
00000000
00000000
,
01000000
00000000
00100000
10000000
01000000
00000000
02100000
00000000
00000000
00000000
03100000
00000000
00010000
00000000
00001000
00000000
,
00010000
00000000
00000100
00001000
00000100
00000000
00000120
00000000
00000000
00000000
00001030
00000000
00000001
00000000
00000100
00000000
,
00000010
00001000
00000100
00000000
00000010
00000001
00001000
00000000
00000001
00000000
00001000
00000100
00000010
00000000
00010000
00000000
,
00001000
00010000
00100000
00000000
01000000
00000000
00100000
00000000
01000000
00000000
00100000
00010000
00002000
00000000
00000000
00000000
,
00013000
00000000
00001000
00100000
00010000
00000000
02010000
00000000
00000000
00000000
03100000
00000000
10000000
00000000
01000000
00000000
,
00100000
00000000
01000000
10000000
00010000
00000000
02010000
00000000
00000000
00000000
03100000
00000000
01000000
00000000
00100000
00000000
,
00001000
00010000
00100000
00000000
00001000
00010000
00000010
00000000
00001000
00000000
00000001
00000100
00000010
00000000
00010000
00000000
,
00010010
00000000
00000000
00000000
01001000
00000000
00000000
00000000
00011000
00000000
00001000
00010000
00001000
00000000
00100000
00000000
,
00010000
00000000
10000000
01000000
00010000
00000000
02100000
00000000
00000000
00000000
13000000
00000000
00100000
00000000
01000000
00000000
,
00100000
00000000
00001000
00010000
00001000
00000000
00001020
00000000
00000000
00000000
00000130
00000000
00000010
00000000
00001000
00000000
,
00000001
00000010
00000100
00000000
00001000
00000001
00000100
00000000
00000010
00000000
00001000
00010000
00100000
00000000
01000000
00000000
,
00010000
00001000
00000010
00000000
00000100
00000000
00000010
00000000
00000100
00000000
00000010
00010000
00001000
00000000
00000000
00000000
,
00011000
00001000
01000000
01010000
00000000
10010000
00010000
10000000
,
11000000
01000000
00010000
00011000
00000000
00001000
00000100
00000010
,
00000110
00000200
00001000
00000001
00000300
00000100
00000010
00001000
,
00000002
00002003
00023000
20030000
,
30010000
00000000
10000000
01000000
00100000
00000000
00120000
00000000
00000000
00000000
01030000
00000000
00010000
00000000
00001000
00000000
,
00000100
00000000
00000010
00000100
00001000
00000000
00021000
00000000
00000000
00000000
00031000
00000000
00010000
00000000
01000000
00000000
,
00100000
00000000
01000000
10000000
01000000
00000000
00100000
00000000
00020000
00000000
00001000
00100000
00000000
00000000
00100000
00001000
,
00000000
00000000
00001000
00100000
00000000
00000000
00100000
00001000
00030000
00000000
00001000
00100000
00010000
00000000
01000000
00000000
,
00001000
00000000
00010000
00001000
00000100
00000000
00000120
00000000
00000000
00000000
00000130
00000000
00001000
00000000
00000001
00000000
,
00000100
00000000
00000010
00001000
00000001
00000000
00002001
00000000
00000000
00000000
00003010
00000000
00001000
00000000
00010000
00000000
,
00100000
00000000
00001000
00010000
00000100
00000000
00001000
00000000
00000020
00000000
00001000
00000001
00000000
00000000
00000001
00001000
,
00000000
00000000
00001000
00000001
00000000
00000000
00000001
00001000
00000030
00000000
00001000
00000001
00000010
00000000
00000100
00000000
,
00000010
00000000
00000001
00001000
00000010
00000000
00000100
00000000
00000001
00000010
00000100
00000000
00010000
00000000
00001000
00000000
,
00010000
00000000
00001000
00010000
00100000
00000000
01000000
00000000
00001000
00100000
00010000
00000000
01000000
00000000
01000000
00000000
,
00100000
00000000
10000000
01000000
00200000
00000000
00010000
01000000
00000000
00000000
10000000
01000000
00000000
00000000
00010000
01000000
,
00000000
00000000
10000000
01000000
00000000
00000000
00010000
01000000
00300000
00000000
10000000
01000000
00100000
00000000
00001000
00000000
,
00011000
00000000
00000000
00000000
00100000
00000000
00101000
00000000
00000000
00000000
00011000
00000000
00000000
00000000
00010000
00001000
,
00000010
00000000
00000000
00000000
00000100
00000000
00000110
00000000
00000000
00000000
00000010
00000000
00001000
00000000
00000001
00000100
,
00000010
00000000
00000000
00000000
00000000
00000000
00001000
00000000
00000000
00000000
00000000
00000000
00000001
00000000
00000000
00000000
00000000
00000000
00000010
00000000
00000000
00000100
00000000
00000000
00001000
00000000
00000000
00000000
00000000
00000000
00000010
00000000
00000000
00000000
00000000
00000000
00000100
00000000
00000000
00000000
00000000
00000000
00000001
00000000
00000100
00000000
00000001
00000000
,
00000100
00000000
00000000
00000010
00001000
00000010
00001000
00000000
00000000
00000100
00010000
00000100
00010000
00000000
00000000
00001000
00100000
00001000
00100000
00000000
00000000
00000000
00000000
00000000
,
02200000
00000000
00000000
00000000
,
00000000
00000000
00000000
00000000
,
00000000
00000000
00000000
03300000
;
