#VERSION:0.83;
#TITLE:WONDERLAND;
#ARTIST:BEMANI Sound Team "Sota Fujimori";
#ARTISTTRANSLIT:Sota Fujimori;
#BANNER:WONDERLAND.png;
#BACKGROUND:WONDERLAND-bg.png;
#CDTITLE:./CDTitles/NOSTALGIA Op.3.png;
#MUSIC:WONDERLAND.ogg;
#SAMPLESTART:53.684;
#SAMPLELENGTH:15;
#BPMS:0=152;
#BGSTAGE:16;

//--------------- dance-single - Fred-104 ----------------
#NOTEDATA:;
#STEPSTYPE:dance-single;
#DESCRIPTION:Fred-104;
#DIFFICULTY:Beginner;
#METER:3;
#CREDIT:Fred-104;
#NOTES:
0000
0000
0000
0000
,
0000
0000
0000
0000
,
0000
0000
0000
0000
,
0000
0000
0000
0000
,
0000
0000
0000
0000
,
1000
0000
0000
0000
,
0001
0000
1000
0000
,
0100
0000
0100
0000
,
2000
0000
0000
3000
,
0001
0000
0001
0000
,
1000
0000
0001
0000
,
0010
0000
0000
0000
,
0100
0000
1000
0000
,
0001
0000
1000
0000
,
1000
0000
0010
0000
,
0100
0000
0000
0000
,
0001
0000
1000
0000
,
0001
0000
0001
0000
,
1000
0000
0001
0000
,
0100
0000
0000
0000
,
0001
0001
2000
3000
,
0001
0000
0001
0000
,
0010
0000
0100
0000
,
0010
0000
0000
0000
,
0100
0000
1000
0000
,
0002
0000
0000
0003
,
2000
0000
0000
3000
,
0002
0000
0000
0003
,
2000
0000
0000
3000
,
0200
0000
0000
0300
,
0020
0000
0000
0030
,
0200
0000
0000
0300
,
0020
0000
0000
0000
,
0030
0000
0000
0000
,
0001
0000
1000
0000
,
0001
0000
1000
0000
,
0100
0000
0100
0000
,
0010
0000
0000
0000
,
0001
0000
1000
0000
,
0001
0000
0001
0000
,
1000
0000
1000
0000
,
0200
0000
0300
0000
,
1000
0000
0001
0000
,
1000
0000
1000
0000
,
0001
0000
1000
0000
,
0010
0000
0000
0000
,
0100
0000
0001
0000
,
0100
0000
0001
0000
,
1000
0000
0001
0000
,
1000
0000
0000
0000
,
1001
0000
0000
0000
,
0001
0000
0000
0000
,
1000
0000
0000
0000
,
0010
0000
0000
0000
,
0100
0100
0100
0000
,
0001
0000
0000
0000
,
1000
0000
0000
0000
,
0001
1000
0010
0000
,
1000
0001
2000
3000
,
0002
0000
0000
0003
,
2002
0000
0000
0000
,
0000
0000
3003
0000
;

//--------------- dance-single - Fred-104 ----------------
#NOTEDATA:;
#STEPSTYPE:dance-single;
#DESCRIPTION:Fred-104;
#DIFFICULTY:Easy;
#METER:5;
#CREDIT:Fred-104;
#NOTES:
0000
0000
0000
0000
,
0000
0000
0000
0000
,
0000
0000
0000
0000
,
0000
0000
0000
0000
,
0000
0000
0000
0000
,
1000
0100
0010
0000
,
0001
1000
0010
0000
,
1000
0100
0001
0100
,
2000
0000
0000
0000
0000
3000
1001
0000
,
0001
1000
0100
0000
,
1000
0100
0001
0100
,
1000
0001
0100
0000
,
0010
0100
0010
0110
,
1000
0001
0010
0000
,
0001
0010
1000
0010
,
0001
1000
0010
0000
,
0100
0001
1000
1001
,
0001
0010
0100
0000
,
1000
0010
0100
0010
,
1000
0001
0010
0000
,
0100
1000
0001
1000
,
0100
0100
0010
0000
,
0001
1000
0001
0100
,
0010
0010
1000
0000
,
0001
0010
0100
1000
,
1002
0000
0000
0000
,
2003
0000
0000
0000
,
3002
0000
0023
0000
,
0230
0000
2300
0000
,
3001
0000
0000
1000
0000
0000
0001
0000
,
1000
0010
0001
0100
,
1000
0000
0000
0001
0000
0000
0100
0000
,
0010
0000
0000
0100
0000
0000
0001
0000
,
2002
0000
0000
3003
,
1000
0100
0100
0010
,
0001
1000
0010
0010
,
0100
0010
0010
1000
,
0001
1000
2002
3003
,
1000
0001
0010
0000
,
0100
0010
0001
0000
,
1000
0001
0100
0000
,
0010
1000
2002
3003
,
0001
0010
0100
0000
,
1000
0010
0100
0000
,
0001
1000
0100
0000
,
0010
0001
1000
0000
,
0001
0010
0001
0010
,
0100
1000
0001
0000
,
0100
0010
0100
0001
,
1000
0100
0010
0000
,
2002
0000
0000
3003
,
0001
0000
0000
1000
0000
0000
0001
0000
,
0100
0010
0100
0000
,
0001
0000
0000
1000
0000
0000
0100
0000
,
1000
0001
1001
0000
,
0001
0000
0000
1000
0000
0000
0010
0000
,
0100
0010
1000
0001
,
0010
0000
0100
0000
,
1000
0001
1000
0001
,
2002
0000
0000
3003
,
0110
0000
0000
0000
0000
2002
0000
0000
,
0000
0000
3003
0000
;

//--------------- dance-single - Fred-104 ----------------
#NOTEDATA:;
#STEPSTYPE:dance-single;
#DESCRIPTION:Fred-104;
#DIFFICULTY:Medium;
#METER:10;
#CREDIT:Fred-104;
#NOTES:
0000
0000
0000
0000
,
0000
0000
0000
0000
,
0000
0000
0000
0000
,
0000
0000
0000
0000
,
0000
0000
0000
0000
,
0001
0000
0000
0010
0000
0000
0100
0000
0000
1000
0000
0000
0001
0000
0100
0000
,
0010
0000
0000
1000
0000
0000
0001
0000
0010
0000
0000
0000
0110
0000
0000
0000
,
1000
0100
1000
0100
0010
0001
0010
0001
,
1000
0010
0100
0000
0001
1000
1001
0000
,
0001
0010
0100
1000
0001
1000
0010
0000
,
0100
0001
0100
0001
1000
0001
0010
0000
,
0100
1000
0100
1000
0000
0001
1000
0020
,
0000
0100
0130
0000
0110
0000
1001
0000
,
1000
0100
0010
0100
1000
0100
1000
0000
,
0001
1000
0010
1000
0001
1000
0001
0000
,
0010
0100
1000
0001
0000
0100
0010
0200
,
0000
0001
0301
0000
0110
0000
1001
0000
,
1000
0000
0000
0001
0000
0000
0010
0000
0010
0000
0000
0000
0100
0000
1000
0000
,
0001
0100
1000
0000
0001
0010
1000
0000
,
0001
0000
0000
1000
0000
0000
0100
0000
0100
0000
0000
0000
0010
0000
0001
0000
,
1000
0000
0000
0001
0000
0000
0100
0000
0010
0000
0100
0000
0001
0000
0000
0000
,
1000
0000
0000
0100
0000
0000
0010
0000
0010
0000
0000
0000
0001
0000
1000
0000
,
0001
0000
0000
0100
0000
0000
0010
0000
0100
0000
0100
0000
0001
0000
0000
0000
,
1000
0000
0000
0100
0000
0000
0010
0000
0010
0000
0000
0000
0001
0000
1000
0000
,
0010
0000
0000
0100
0000
0000
0001
0000
1000
0000
0100
0000
0010
0000
0001
0000
,
2001
0000
0000
0000
,
3002
0000
0000
0000
,
1003
0000
0000
1000
0000
0000
0100
0000
0000
0100
0000
0000
0010
0000
0001
0000
,
1000
0000
0000
0001
0000
0000
0100
0000
0000
0000
0010
0000
0010
0000
0000
0000
,
0100
0000
0001
2000
0000
0000
3100
0010
,
0001
1000
0010
0100
0000
0001
0010
0100
,
1000
0000
0000
0100
0000
0000
0001
0000
0000
0100
0000
0000
1000
0000
0001
0000
,
0100
0000
0000
0010
0000
0000
0100
0000
0000
0001
0000
0000
0010
0000
0100
0000
,
1000
0000
0001
0100
1000
0100
0001
0000
,
1000
0000
0000
0001
0000
0000
0100
0000
0010
0000
0100
0000
0001
0000
1000
0000
,
0100
0000
0000
0010
0000
0000
0001
0000
0100
0000
0010
0000
0110
0000
0000
0000
,
0001
0000
0000
1000
0000
0000
0010
0000
0100
0000
0010
0000
1000
0000
0001
0000
,
0010
0000
0000
0100
0000
0000
1000
0000
0001
0000
1000
0000
1001
0000
0000
0000
,
1000
0000
0000
0100
0000
0000
0010
0000
0001
0000
1000
0000
0010
0000
0100
0000
,
0010
0000
0000
1000
0000
0000
0100
0000
0010
0000
0001
0000
1001
0000
0000
0000
,
0001
0000
0000
0100
0000
0000
0010
0000
0100
0000
0001
0000
0010
0000
0100
0000
,
1000
0000
0000
0001
0000
0000
1000
0000
0100
0000
0010
0000
0110
0000
0000
0000
,
0001
1000
0001
0100
0010
1000
0001
0000
,
0010
0100
1000
0000
0001
1000
0010
0000
,
0100
0001
1000
0001
0010
0100
1000
0000
,
0001
0100
1000
0000
0001
0010
1000
0000
,
0001
0010
0100
1000
0100
1000
0001
0000
,
0100
0010
0100
0001
1000
0001
0010
0000
,
0100
0000
1000
0000
0001
0000
0000
0000
0100
0000
0000
0010
0000
0000
0100
0000
,
0001
0000
0000
1000
0000
0000
0100
0000
0010
0000
0000
0000
0011
0000
0000
0000
,
2002
0000
0000
3003
,
1100
0000
0000
1000
0000
0000
0001
0000
0000
1000
0000
0000
0010
0000
0100
0000
,
0001
0000
0000
1000
0000
0000
0100
0000
0010
0000
0000
0000
0011
0000
0000
0000
,
1000
0000
0000
0001
0000
0000
0100
0000
0000
0010
0000
0000
1000
0000
0001
0000
,
0010
0000
0000
0010
0100
0000
1000
0000
0001
0000
0000
0000
1001
0000
0000
0000
,
1000
0000
0000
0001
0000
0000
0100
0000
0000
0001
0000
0000
0010
0000
0100
0000
,
1000
0000
0000
0001
0000
0000
0100
0000
0010
0000
0000
0000
1001
0000
0000
0000
,
0001
0010
0100
0000
1000
0001
0100
0000
,
0010
1000
0001
1000
0100
0010
0001
0000
,
1000
0000
0000
1000
0000
0000
1000
0000
0000
0000
1000
0000
0000
0000
1000
0000
,
0001
0000
0000
0100
0000
0000
0010
0000
0000
0000
2002
0000
0000
0000
0000
0000
,
0000
0000
3003
0000
;

//--------------- dance-single - Fred-104 ----------------
#NOTEDATA:;
#STEPSTYPE:dance-single;
#DESCRIPTION:Fred-104;
#DIFFICULTY:Hard;
#METER:14;
#CREDIT:Fred-104;
#NOTES:
0000
0000
0000
0000
,
0000
0000
0000
0000
,
0000
0000
0000
0000
,
0000
0000
0000
0000
,
0000
0000
0000
0000
,
0001
0000
0000
1000
0000
0000
0010
0000
0000
0100
0000
0000
0001
0000
1000
0100
,
1000
0000
0000
0100
0000
0000
0010
0000
0001
1000
0000
0000
0010
0000
0100
0001
,
0100
0000
0001
0000
1000
0000
0100
0010
0100
0000
0010
0001
0010
0000
0001
0000
,
1000
0010
1000
0000
0001
0100
0001
0000
1000
0001
1000
0001
1000
0000
0000
0000
,
0001
0000
0010
0000
0100
0000
1000
0000
0001
0000
0100
0000
0010
1000
0010
1000
,
0001
0010
0100
0010
0001
1000
0010
0000
,
1000
0100
0001
0200
0000
0310
0001
1000
,
0010
0000
0100
0000
0100
0000
0001
0000
1001
0000
0000
0000
0001
0010
0001
0010
,
0100
0000
1000
0000
0010
0000
0100
0000
0001
0000
1000
0000
0001
0010
0100
0010
,
0100
1000
0010
0100
0010
1000
0001
0000
,
1000
0100
0010
2000
0000
3010
0001
1000
,
0001
0000
0100
0000
0100
0000
0000
0000
0110
0000
0000
0000
1000
0100
1000
0100
,
0010
0000
0000
0001
0000
0000
0100
0000
0110
0000
0000
0000
1000
0000
0010
1000
,
0010
0000
1000
0001
1000
0000
0100
0000
0010
0000
0100
0000
0001
0000
0100
0000
,
1000
0000
0001
1000
0000
0001
0100
0000
0110
0000
0000
0000
1000
0001
1000
0001
,
0100
0000
0000
0001
0000
0000
1000
0100
0010
0001
0010
0000
1001
0000
0000
0000
,
0001
0000
1000
0001
0000
0000
0010
0000
0110
0000
0000
0000
1000
0000
0010
0100
,
0010
0000
1000
0001
0000
0001
0010
0000
0100
0000
0010
0000
0001
0000
0100
0000
,
0010
1000
0010
1000
0000
0001
1000
0000
1001
0000
0000
0000
0001
1000
0001
1000
,
0010
0000
0100
0001
0000
1000
0100
0000
0010
0001
0010
0001
0010
0001
1000
0000
,
1002
0000
0000
0000
,
2003
0000
0000
0000
,
3100
0000
0000
0100
0000
0000
0010
0000
0000
0010
0000
0000
0001
1000
0001
1000
,
0001
0000
0000
0100
0000
0000
0100
0000
0000
0000
0010
0000
0010
0000
0000
0000
,
0100
0000
0000
0001
1000
0001
2000
0000
0000
0000
0000
0000
3001
0000
1000
0100
,
1000
0100
1000
0100
1000
0001
1000
0001
0000
0000
0001
0000
0010
0000
0100
0000
,
1000
0000
0000
0001
0000
0000
1000
0000
0000
0010
0000
0000
0100
0001
0100
0001
,
0100
0000
0000
0001
0000
0000
0010
0000
0000
0100
1000
0100
1000
0000
0001
0000
,
0100
0000
0000
0000
0010
0000
1000
0001
1000
0001
1000
0000
1001
0000
0000
0000
,
0001
0000
0000
1000
0000
0000
0001
0000
0010
0000
0100
0000
1100
0000
1000
0000
,
0001
0000
0000
0101
0000
0000
0001
0000
0010
0100
0010
0100
1000
0000
0001
0000
,
0100
0000
0000
0010
0000
0000
0100
0000
0001
0000
1000
0000
1100
0000
0100
0000
,
0010
0000
0000
0011
0000
0000
0001
0000
1000
0001
1000
0001
1000
0000
0001
0100
,
0001
0000
0000
0100
0000
0000
0100
0000
0010
0000
1000
0000
1001
0000
0001
1000
,
0100
0000
0000
0110
0000
0000
0010
0000
0001
0100
0001
0100
0010
0000
1000
0000
,
0001
0000
0000
1000
0000
0000
1000
0000
0100
0000
0010
0000
0011
0000
0001
0000
,
1000
0000
0000
1010
0000
0000
1000
0000
0001
0010
0001
0010
0100
0000
0000
0000
,
1000
0000
0001
0100
0001
0000
1000
0000
0100
0010
0100
0000
0010
0000
0001
1000
,
0001
0000
0100
0010
0100
0000
0001
0000
1000
0100
1000
0000
0001
0100
0001
0100
,
0010
0000
1000
0001
1000
0000
0100
0000
0010
0100
0010
0000
0001
0000
1000
0010
,
1000
0000
0001
0010
0001
0000
1000
0000
0100
0000
0010
0000
0011
0000
0000
0000
,
1000
0000
0100
0000
1000
0001
1000
0000
0001
0000
0100
0010
0000
1000
0010
1000
,
0010
0000
1000
0001
0000
1000
0100
0000
0010
0001
0010
0000
0100
0010
0100
0000
,
0010
0000
0001
1000
0001
1000
0010
0000
0100
0000
0000
0001
0000
0000
1000
0000
,
0100
0000
0010
0001
0000
1000
0001
0000
0100
0000
0001
0000
1001
0000
1000
0000
,
0200
0000
0000
0310
,
0011
0000
0000
0001
0000
0000
1000
0000
0000
0010
0000
0000
0100
0000
0001
1000
,
0100
0000
0000
0010
0000
0000
0001
0000
0100
0001
0000
0000
1000
0000
0100
0010
,
0100
0000
0000
1000
0000
0000
0001
0000
0000
1000
0000
0000
0010
0000
1000
0100
,
1000
0000
0000
0001
0010
0000
0100
0000
1000
0001
0100
0000
0001
0000
0001
0000
,
1000
0000
0000
0001
0000
0000
0010
0000
0000
0100
0000
0000
1000
0000
0001
0100
,
0001
0000
0000
1000
0000
0000
0100
0000
0010
0100
0000
0000
1000
0000
0010
1000
,
0010
0000
0100
0000
0001
0000
1000
0010
1000
0000
0001
1000
0000
0000
0100
0000
,
0010
0001
0010
0000
0100
1000
0100
0000
1000
0001
1000
0001
1000
0000
0000
0000
,
0001
0000
0000
0010
0000
0000
0200
0000
0000
0000
1000
0000
0000
0000
1300
0001
,
0100
0000
0000
0010
0000
0000
1000
0000
0000
0000
2002
0000
0000
0000
0000
0000
,
0000
0000
3003
0000
;

//--------------- dance-double - Fred-104 ----------------
#NOTEDATA:;
#STEPSTYPE:dance-double;
#DESCRIPTION:Fred-104;
#DIFFICULTY:Easy;
#METER:5;
#CREDIT:Fred-104;
#NOTES:
00000000
00000000
00000000
00000000
,
00000000
00000000
00000000
00000000
,
00000000
00000000
00000000
00000000
,
00000000
00000000
00000000
00000000
,
00000000
00000000
00000000
00000000
,
00010000
00000100
00010000
00000000
,
00001000
01000000
00001000
00000000
,
00010000
00001000
00000010
00000001
,
00000020
00000000
00000000
00000000
00000000
00000030
00000110
00000000
,
00000001
00000100
00001000
00000000
,
00010000
00001000
00010000
01000000
,
10000000
00010000
10000000
00000000
,
01000000
00100000
00001000
00011000
,
00010000
00000010
00010000
00000000
,
00001000
00100000
00001000
00010000
,
00001000
01000000
00001000
00000000
,
00010000
00001000
00010000
00011000
,
00010000
00000100
00001000
00000000
,
00000100
00000010
00000100
00000010
,
00000001
00001000
00000010
00000000
,
00010000
00001000
00010000
00000100
,
00010000
00010000
00001000
00000000
,
00100000
00010000
10000000
00010000
,
10000000
10000000
01000000
00000000
,
00100000
00001000
00010000
00000000
,
00012000
00000000
00000000
00000000
,
00023000
00000000
00000000
00000000
,
00032000
00000000
00203000
00000000
,
00302000
00000000
00023000
00000000
,
00031000
00000000
00000000
00010000
00000000
00000000
00100000
00000000
,
01000000
00010000
10000000
01000000
,
00100000
00000000
00000000
00001000
00000000
00000000
00010000
00000000
,
00001000
00000000
00000000
01000000
00000000
00000000
00100000
00000000
,
20020000
00000000
00000000
30030000
,
10000000
01000000
00100000
00001000
,
00010000
00001000
00010000
00010000
,
00000010
00001000
00001000
00000001
,
00000010
00000100
00002002
00003003
,
00000001
00000010
00001000
00000000
,
00010000
00100000
10000000
00000000
,
00010000
10000000
01000000
00000000
,
00100000
00001000
00022000
00033000
,
00010000
00001000
00000100
00000000
,
00000001
00001000
00000001
00000000
,
00000100
00001000
00010000
00000000
,
00001000
00010000
01000000
00000000
,
10000000
00100000
10000000
00100000
,
10000000
00010000
00100000
00001000
,
00010000
00001000
00010000
00000010
,
00001000
00000001
00000010
00000000
,
00002002
00000000
00000000
00003003
,
00000001
00000000
00000000
00001000
00000000
00000000
00000010
00000000
,
00010000
00000010
00010000
00000000
,
00001000
00000000
00000000
00100000
00000000
00000000
00001000
00000000
,
00010000
01000000
01100000
00000000
,
10000000
00000000
00000000
01000000
00000000
00000000
00100000
00000000
,
00001000
00010000
00001000
00000100
,
00000001
00000000
00001000
00000000
,
00000010
00010000
00001000
00010000
,
00022000
00000000
00000000
00033000
,
01001000
00000000
00000000
00000000
00000000
00022000
00000000
00000000
,
00000000
00000000
00033000
00000000
;

//--------------- dance-double - Fred-104 ----------------
#NOTEDATA:;
#STEPSTYPE:dance-double;
#DESCRIPTION:Fred-104;
#DIFFICULTY:Medium;
#METER:10;
#CREDIT:Fred-104;
#NOTES:
00000000
00000000
00000000
00000000
,
00000000
00000000
00000000
00000000
,
00000000
00000000
00000000
00000000
,
00000000
00000000
00000000
00000000
,
00000000
00000000
00000000
00000000
,
00001000
00000000
00000000
00010000
00000000
00000000
00001000
00000000
00000000
01000000
00000000
00000000
00010000
00000000
10000000
00000000
,
01000000
00000000
00000000
00100000
00000000
00000000
00001000
00000000
00010000
00000000
00000000
00000000
00011000
00000000
00000000
00000000
,
00010000
00001000
00010000
00001000
00000100
00000001
00000100
00001000
,
00020000
00000000
00000000
00000000
00000000
00030000
00011000
00000000
,
00001000
00100000
00001000
00100000
00010000
10000000
00010000
00000000
,
10000000
01000000
00100000
00001000
00010000
00001000
00100000
00000000
,
00001000
00010000
00100000
01000000
00000000
00010000
10000000
02000000
,
00000000
00100000
03100000
00000000
00011000
00000000
00010010
00000000
,
00010000
00000010
00001000
00000010
00001000
00000001
00000010
00000000
,
00000100
00010000
00001000
00010000
01000000
00100000
00010000
00000000
,
00100000
01000000
10000000
00010000
00000000
00100000
00001000
00020000
,
00000000
00000010
00030010
00000000
00000110
00000000
00001001
00000000
,
00000001
00000000
00000000
00001000
00000000
00000000
00000010
00000000
00010000
00000000
00000000
00000000
00001000
00000000
00010000
00000000
,
00001000
00010000
00100000
00000000
00010000
00001000
00000010
00000000
,
00001000
00000000
00000000
00010000
00000000
00000000
00001000
00000000
01000000
00000000
00000000
00000000
00010000
00000000
10000000
00000000
,
01000000
00000000
00000000
00100000
00000000
00000000
00010000
00000000
00100000
00000000
00001000
00000000
00010000
00000000
00000000
00000000
,
00001000
00000000
00000000
00000010
00000000
00000000
00000001
00000000
00001000
00000000
00000000
00000000
00000001
00000000
00000010
00000000
,
00000100
00000000
00000000
00010000
00000000
00000000
00001000
00000000
00010000
00000000
00010000
00000000
00001000
00000000
00000000
00000000
,
00010000
00000000
00000000
00000100
00000000
00000000
00001000
00000000
00000100
00000000
00000000
00000000
00010000
00000000
00001000
00000000
,
01000000
00000000
00000000
00010000
00000000
00000000
10000000
00000000
01000000
00000000
00010000
00000000
00001000
00000000
00000000
00000000
,
00021000
00000000
00000000
00000000
,
00032000
00000000
00000000
00000000
,
00013000
00000000
00000000
00010000
00000000
00000000
00001000
00000000
00000000
00001000
00000000
00000000
00000100
00000000
00000001
00000000
,
00001000
00000000
00000000
00000100
00000000
00000000
00000010
00000000
00000000
00000000
00000001
00000000
00000001
00000000
00000000
00000000
,
00001000
00000000
00000010
00020000
00000000
00000000
00031000
00100000
,
00001000
00100000
00001000
00010000
00000000
00001000
00010000
00100000
,
01000000
00000000
00000000
00010000
00000000
00000000
10000000
00000000
00000000
01000000
00000000
00000000
00100000
00000000
00001000
00000000
,
00010000
00000000
00000000
00001000
00000000
00000000
01000000
00000000
00000000
00010000
00000000
00000000
10000000
00000000
01000000
00000000
,
00010000
00000000
00001000
00010000
00100000
10000000
00010000
00000000
,
01000000
00000000
00000000
00001000
00000000
00000000
01000000
00000000
00001000
00000000
00010000
00000000
00001000
00000000
00100000
00000000
,
00010000
00000000
00000000
10000000
00000000
00000000
01000000
00000000
00100000
00000000
00001000
00000000
00011000
00000000
00000000
00000000
,
00010000
00000000
00000000
00000010
00000000
00000000
00010000
00000000
00001000
00000000
00000010
00000000
00000001
00000000
00001000
00000000
,
00000010
00000000
00000000
00000100
00000000
00000000
00000001
00000000
00001000
00000000
00000100
00000000
00000110
00000000
00000000
00000000
,
00000001
00000000
00000000
00000100
00000000
00000000
00000010
00000000
00000100
00000000
00001000
00000000
00010000
00000000
00100000
00000000
,
10000000
00000000
00000000
00010000
00000000
00000000
10000000
00000000
01000000
00000000
00100000
00000000
00110000
00000000
00000000
00000000
,
00001000
00000000
00000000
01000000
00000000
00000000
00001000
00000000
00010000
00000000
00001000
00000000
00100000
00000000
00010000
00000000
,
00100000
00000000
00000000
01000000
00000000
00000000
00010000
00000000
00001000
00000000
00010000
00000000
00011000
00000000
00000000
00000000
,
00010000
00001000
00000100
00000010
00001000
00000001
00001000
00000000
,
00000001
00000100
00001000
00000000
00010000
01000000
10000000
00000000
,
00010000
10000000
01000000
00100000
00001000
00010000
00001000
00000000
,
00010000
00001000
00000100
00000000
00001000
00010000
01000000
00000000
,
00010000
00001000
00010000
00000010
00001000
00000001
00000010
00000000
,
00000001
00001000
00000100
00010000
00001000
00010000
00100000
00000000
,
01000000
00000000
00010000
00000000
10000000
00000000
00000000
00000000
01000000
00000000
00000000
00100000
00000000
00000000
00001000
00000000
,
00010000
00000000
00000000
00000010
00000000
00000000
00010000
00000000
00001000
00000000
00000000
00000000
00101000
00000000
00000000
00000000
,
00022000
00000000
00000000
00033000
,
00011000
00000000
00000000
00001000
00000000
00000000
01000000
00000000
00000000
00010000
00000000
00000000
10000000
00000000
01000000
00000000
,
00100000
00000000
00000000
00001000
00000000
00000000
00010000
00000000
00001000
00000000
00000000
00000000
00011000
00000000
00000000
00000000
,
00010000
00000000
00000000
00001000
00000000
00000000
00000100
00000000
00000000
00000001
00000000
00000000
00001000
00000000
00000100
00000000
,
00000010
00000000
00000000
00000010
00000001
00000000
00001000
00000000
00000100
00000000
00000000
00000000
00011000
00000000
00000000
00000000
,
00001000
00000000
00000000
00010000
00000000
00000000
01000000
00000000
00000000
10000000
00000000
00000000
01000000
00000000
00010000
00000000
,
00001000
00000000
00000000
00010000
00000000
00000000
00100000
00000000
10000000
00000000
00000000
00000000
10010000
00000000
00000000
00000000
,
10000000
00100000
00010000
00000000
00001000
00000010
00000001
00000000
,
00001000
00000100
00000010
00000001
00000100
00001000
00010000
00000000
,
00001000
00000000
00000000
00001000
00000000
00000000
00001000
00000000
00000000
00000000
00010000
00000000
00000000
00000000
01000000
00000000
,
10000000
00000000
00000000
00010000
00000000
00000000
01000000
00000000
00000000
00000000
20020000
00000000
00000000
00000000
00000000
00000000
,
00000000
00000000
30030000
00000000
;

//--------------- dance-double - Fred-104 ----------------
#NOTEDATA:;
#STEPSTYPE:dance-double;
#DESCRIPTION:Fred-104;
#DIFFICULTY:Hard;
#METER:14;
#CREDIT:Fred-104;
#NOTES:
00000000
00000000
00000000
00000000
,
00000000
00000000
00000000
00000000
,
00000000
00000000
00000000
00000000
,
00000000
00000000
00000000
00000000
,
00000000
00000000
00000000
00000000
,
00010000
00000000
00000000
00001000
00000000
00000000
00000100
00000000
00000000
00000001
00000000
00000000
00001000
00000000
00000001
00000010
,
00000001
00000000
00000000
00000010
00000000
00000000
00000100
00000000
00010000
00001000
00000000
00000000
01000000
00000000
00010000
10000000
,
00010000
00000000
10000000
00000000
01000000
00000000
00100000
00010000
00100000
00000000
00001000
00010000
00001000
00000000
00010000
00000000
,
00000010
00001000
00000010
00000000
00000100
00000001
00000100
00000000
00000001
00001000
00000001
00001000
00000001
00000000
00000000
00000000
,
00001000
00000000
00000100
00000000
00000010
00000000
00001000
00000000
00010000
00000000
01000000
00000000
00100000
00010000
10000000
00010000
,
10000000
00100000
00010000
00001000
00000100
00000010
00001000
00000000
,
00000001
00001000
00000100
00000020
00000000
00000130
00010000
00001000
,
01000000
00000000
01000000
00000000
00010000
00000000
00010000
00000000
10010000
00000000
00000000
00000000
10000000
00100000
10000000
00100000
,
01000000
00000000
00010000
00000000
10000000
00000000
01000000
00000000
00100000
00000000
00001000
00000000
00010000
00000010
00010000
00000010
,
00001000
00000001
00000010
00000100
00000010
00000001
00001000
00000000
,
00000001
00000100
00001000
00020000
00000000
00130000
01000000
00020000
,
00000000
00000000
10030000
00000000
01000000
00000000
00000000
00000000
00011000
00000000
00000000
00000000
00010000
00001000
00010000
00001000
,
00010000
00000000
00000000
00000010
00000000
00000000
00001000
00000000
00001010
00000000
00000000
00000000
00000001
00000000
00001000
00000100
,
00001000
00000000
00000001
00000100
00000001
00000000
00000100
00000000
00001000
00000000
00010000
00000000
01000000
00000000
10000000
00000000
,
00010000
00000000
10000000
01000000
00000000
00100000
00001000
00000000
00011000
00000000
00000000
00000000
00010000
00000100
00010000
00000100
,
00010000
00000000
00000000
00001000
00000000
00000000
00000100
00000001
00001000
00000001
00001000
00000000
00001001
00000000
00000000
00000000
,
00000001
00000000
00000000
00001000
00000000
00000000
00000010
00000000
00010010
00000000
00000000
00000000
00001000
00000000
00100000
00010000
,
00100000
00000000
00001000
00010000
00000000
00001000
00100000
00000000
00010000
00000000
01000000
00000000
00100000
00000000
00010000
00000000
,
00001000
00010000
00001000
00010000
00000000
00000010
00001000
00000000
00001001
00000000
00000000
00000000
00000001
00001000
00000001
00001000
,
00000001
00000000
00001000
00000010
00000000
00010000
00001000
00000000
00100000
00001000
00100000
00001000
00100000
00001000
00010000
00000000
,
00012000
00000000
00000000
00000000
,
00023000
00000000
00000000
00000000
,
00031000
00000000
00000000
00010000
00000000
00000000
00100000
00000000
00000000
10000000
00000000
00000000
00010000
10000000
00010000
10000000
,
01000000
00000000
00000000
00100000
00000000
00000000
00001000
00000000
00000000
00000000
00010000
00000000
00010000
00000000
00000000
00000000
,
00001000
00000000
00000000
00010000
00000100
00010000
00000200
00000000
00000000
00000000
00000000
00000000
00001300
00000000
00000001
00000000
,
00000100
00000001
00001000
00000100
00001000
00000100
00000010
00000001
00000000
00000000
00001000
00000000
00000010
00000000
00000100
00000000
,
00001000
00000000
00000000
00010000
00000000
00000000
00001000
00000000
00000000
01000000
00000000
00000000
00010000
10000000
00010000
10000000
,
01000000
00000000
00000000
00100000
00000000
00000000
00001000
00000000
00000000
00010000
00000010
00010000
00000010
00000000
00001000
00000000
,
00000001
00000000
00000000
00000000
00000010
00000000
00001000
00000000
00010000
00001000
00010000
00000000
00011000
00000000
00000000
00000000
,
00001000
00000000
00000000
00010000
00000000
00000000
00100000
00000000
10000000
00000000
00010000
00000000
00110000
00000000
00100000
00000000
,
01000000
00000000
00000000
11000000
00000000
00000000
10000000
00000000
00100000
00000000
00010000
00000000
00001000
00010000
00001000
00010000
,
00001000
00000000
00000000
00000010
00000000
00000000
00000001
00000000
00000010
00000000
00000100
00000000
00001100
00000000
00001000
00000000
,
00000001
00000000
00000000
00000101
00000000
00000000
00000100
00000000
00000010
00001000
00000010
00001000
00000001
00000000
00000010
00000100
,
00000010
00000000
00000000
00000001
00000000
00000000
00001000
00000000
00000010
00000000
00010000
00000000
00011000
00000000
00001000
00100000
,
00001000
00000000
00000000
00011000
00000000
00000000
00001000
00000000
01000000
00010000
01000000
00010000
10000000
00000000
01000000
00000000
,
00010000
00000000
00000000
00001000
00000000
00000000
00000100
00000000
00000001
00000000
00001000
00000000
00001100
00000000
00000100
00000000
,
00000010
00000000
00000000
00000011
00000000
00000000
00001000
00000000
00000010
00010000
00000010
00010000
00001000
00000000
00000000
00000000
,
00100000
00000000
00001000
00010000
00001000
00000000
01000000
00000000
00010000
10000000
00010000
00000000
00100000
00000000
01000000
10000000
,
01000000
00000000
00100000
00010000
00100000
00000000
00001000
00000000
00010000
00000010
00010000
00000000
00000010
00001000
00000010
00001000
,
00000001
00000000
00001000
00000100
00001000
00000000
00000001
00000000
00000010
00000100
00000010
00000000
00000001
00000000
00001000
00000010
,
00001000
00000000
00000001
00001000
00000001
00000000
00000100
00000000
00001000
00000000
00010000
00000000
00011000
00000000
00000000
00000000
,
01000000
00000000
00010000
00000000
00100000
01000000
00100000
00000000
00010000
00000000
10000000
01000000
00000000
00100000
00010000
00100000
,
00010000
00000000
00100000
00001000
00000000
00010000
00000010
00000000
00001000
00000001
00001000
00000000
00000010
00000100
00000010
00000000
,
00001000
00000000
00000001
00000010
00000100
00001000
00000100
00000000
00010000
00000000
00000000
00001000
00000000
00000000
01000000
00000000
,
00001000
00000000
00010000
00001000
00000000
01000000
00010000
00000000
10000000
00000000
01000000
00000000
01100000
00000000
00100000
00000000
,
00002000
00000000
00000000
00013000
,
00011000
00000000
00000000
00010000
00000000
00000000
00001000
00000000
00000000
00000010
00000000
00000000
00000001
00000000
00000010
00000100
,
00000010
00000000
00000000
00001000
00000000
00000000
00010000
00000000
00100000
01000000
00000000
00000000
00100000
00000000
10000000
00010000
,
10000000
00000000
00000000
01000000
00000000
00000000
00010000
00000000
00000000
00001000
00000000
00000000
00000100
00000000
00000001
00001000
,
00000001
00000000
00000000
00000010
00000100
00000000
00010000
00000000
00001000
01000000
00001000
00000000
00010000
00000000
00010000
00000000
,
00001000
00000000
00000000
00010000
00000000
00000000
00100000
00000000
00000000
01000000
00000000
00000000
00010000
00000000
10000000
01000000
,
10000000
00000000
00000000
01000000
00000000
00000000
00100000
00000000
00001000
00010000
00000000
00000000
00000010
00000000
00001000
00000001
,
00001000
00000000
00000100
00000000
00000010
00000000
00000001
00001000
00000001
00000000
00001000
00000010
00000000
00000000
00010000
00000000
,
00001000
00010000
00001000
00000000
01000000
00010000
01000000
00000000
00010000
10000000
00010000
10000000
01000000
00000000
00000000
00000000
,
00100000
00000000
00000000
00001000
00000000
00000000
00020000
00000000
00000000
00000000
00001000
00000000
00000000
00000000
00031000
00010000
,
00000010
00000000
00000000
00001000
00000000
00000000
00000100
00000000
00000000
00000000
00000220
00000000
00000000
00000000
00000000
00000000
,
00000000
00000000
00000330
00000000
;
