#TITLE:WONDER WALKER;
#ARTIST:L.E.D.;
#GENRE:HARD TRANCE;
#BANNER:WONDER WALKER.png;
#BACKGROUND:WONDER WALKER-bg.png;
#CDTITLE:./CDTitles/bm IIDX 19 Lincle.png;
#MUSIC:WONDER WALKER.ogg;
#SAMPLESTART:40.708;
#SAMPLELENGTH:15;
#BPMS:0=165;
#STOPS:104=1.455;
#BGSTAGE:3;

//--------------- dance-single - Fred-104 ----------------
#NOTES:
     dance-single:
     Fred-104:
     Beginner:
     4:
     :
0000
0000
0000
0000
,
0000
0000
0000
0000
,
0000
0000
0000
0000
,
0000
0000
0000
0000
,
0000
0000
0000
0000
,
0000
0000
0000
0000
,
0000
0000
0000
0000
,
0000
0000
0000
0000
,
0000
0000
0000
0000
,
0000
0000
0000
0000
,
1000
1000
0000
0001
,
0000
1000
0000
1000
,
0000
0001
0000
0100
,
0100
0100
0000
0010
,
0010
0010
0000
1000
,
0000
0001
0000
0010
,
0000
1000
0000
0010
,
0000
0001
0000
1000
,
1001
0000
0000
0001
,
1001
0000
0000
1000
,
1001
0000
0000
0001
,
1001
0000
0000
1000
,
1001
0000
0001
0000
,
1000
0000
0010
0000
,
0100
0100
0100
0100
,
0010
0010
0010
0010
,
0000
0000
0000
0000
,
1001
0000
1000
0000
,
0010
0000
1000
0000
,
0100
0000
1000
0000
,
0001
0000
0001
0000
,
0010
0000
1000
0000
,
0010
0000
0010
0000
,
0001
0000
0100
0000
,
0002
0000
0000
0003
,
1001
0000
1000
0000
,
0010
0000
0100
0000
,
0010
0000
1000
0000
,
0100
0000
0100
0000
,
1000
0000
0010
0000
,
1000
0000
0001
0000
,
1000
0000
0010
0000
,
2002
0000
0000
3003
,
0001
0000
0010
0000
,
0001
0001
0001
0000
,
0100
0000
0010
0000
,
0100
0100
0100
0000
,
0010
0000
1000
0000
,
0100
0100
0100
0000
,
1000
0000
0010
0000
,
1000
1000
1000
1000
,
1000
0000
0010
0000
,
1000
1000
1000
0000
,
0010
0000
0100
0000
,
0010
0010
0010
0000
,
0100
0000
0001
0000
,
0010
0010
0010
0000
,
0001
0000
1000
0000
,
0001
0001
0001
0001
,
1001
0000
0000
0000
,
0000
0000
0000
0000
,
0000
0000
0000
0000
,
0000
0000
0000
0000
,
1001
0000
0000
0000
,
1001
0000
0000
0000
,
0001
0000
1000
0000
,
0002
0000
0000
0003
,
1001
0000
0001
0000
,
0010
0000
0001
0000
,
0100
0000
0001
0000
,
1000
0000
1000
0000
,
0010
0000
0001
0000
,
0010
0000
0010
0000
,
1000
0000
0100
0000
,
2000
0000
0000
3000
,
1001
0000
0001
0000
,
0010
0000
0100
0000
,
0010
0000
0001
0000
,
0100
0000
0100
0000
,
0001
0000
0010
0000
,
0001
0000
1000
0000
,
0001
0000
0010
0000
,
2002
0000
0000
3003
,
2002
0000
0000
0000
,
3003
0000
0000
0000
;

//--------------- dance-single - Fred-104 ----------------
#NOTES:
     dance-single:
     Fred-104:
     Easy:
     8:
     :
0000
0000
0000
0000
,
0000
0000
0000
0000
,
0000
0000
0000
0000
,
0000
0000
0000
0000
,
0000
0000
0000
0000
,
0000
0000
0000
0000
,
0000
0000
0000
0000
,
0000
0000
0000
0000
,
0000
0000
0000
0000
,
0000
0000
0000
0000
,
1000
0000
0000
0010
0000
0000
1000
0000
,
0000
0100
0000
0000
0010
0000
0010
0000
,
0001
0000
0000
0100
0000
0000
0010
0000
,
0000
0100
0000
0000
0001
0000
0001
0000
,
0010
0000
0000
0100
0000
0000
0100
0000
,
0000
1000
0000
0000
0010
0000
1000
0000
,
0001
0001
0000
1000
,
0010
0010
1000
0001
,
1001
0000
0000
0100
,
1001
0000
0000
0100
,
1001
0000
0000
0010
,
1001
0000
0000
0010
,
1001
0000
0110
0000
,
1001
0000
0110
0000
,
1001
1000
0100
0010
,
0001
1000
0010
0010
,
0220
0330
0000
0000
0000
0000
0000
0000
0000
0000
0000
0000
0000
0000
0000
0000
0000
0000
0000
0000
0000
0000
0000
0000
0000
0000
0000
0000
0000
0000
0000
0000
0000
0000
0000
0000
0000
0000
0000
0000
0000
0000
0000
0000
0000
0000
0000
0000
0000
0000
0000
0000
0000
0000
0000
0000
0000
0000
0000
0000
0000
0000
0000
0000
,
1000
0100
1000
0010
,
1000
0000
0100
0000
1000
0000
0100
0010
,
0100
0010
0010
0100
,
0001
0000
0010
0000
0001
0000
0010
0001
,
0010
0001
0010
0100
,
0100
0000
0010
0000
0001
0000
1000
0001
,
1000
0010
1000
0100
,
1000
0010
2000
3002
,
1003
0100
0010
0010
,
1000
0000
0010
0000
0100
0000
0001
0010
,
0001
0010
0100
0100
,
0010
0000
0001
0000
0100
0000
0001
1000
,
0001
0100
0100
0010
,
0100
0000
0010
0000
1000
0000
0100
0010
,
0100
1000
0001
1000
,
0001
0000
0000
0001
0000
0000
0001
0000
1000
0000
0000
1000
0000
0000
1000
0000
,
0002
0010
0010
0013
,
0001
1000
0010
0100
,
0020
1000
1000
1030
,
0100
0000
1000
0000
0001
0000
0100
0010
,
0200
0010
0010
0310
,
0001
0010
1000
0100
,
0002
1000
1000
1003
,
0100
0000
0010
0000
0001
0000
1000
0001
,
2000
3100
0002
0103
,
1000
0010
0100
0010
,
2000
3010
0002
0013
,
1000
0010
0100
0001
,
0020
1030
0020
0031
,
0100
0010
1000
0100
,
1000
1000
0001
0001
,
1000
0010
0100
0001
,
2002
0000
0000
0000
,
0000
0000
0000
0000
,
0000
0000
0000
0000
,
3003
0000
0000
0000
,
1001
0000
0000
0000
0000
0000
0000
0100
,
0010
0000
0000
0000
0000
0000
0000
0100
,
0010
0010
0001
0001
,
0001
0100
1000
0010
,
0001
0100
0001
0010
,
0001
0000
0100
0000
0001
0000
0100
0010
,
0100
0010
0010
0100
,
1000
0000
0010
0000
1000
0000
0010
1000
,
0010
1000
0010
0100
,
0100
0000
0010
0000
1000
0000
0001
1000
,
0001
0010
0001
0100
,
0001
0010
0002
2003
,
3001
0100
0010
0010
,
0001
0000
0010
0000
0100
0000
1000
0010
,
1000
0010
0100
0100
,
0010
0000
1000
0000
0100
0000
1000
0001
,
1000
0100
0100
0010
,
0100
0000
0010
0000
0001
0000
0100
0010
,
0100
0001
1000
0001
,
1000
0000
0000
1000
0000
0000
1000
0000
0001
0000
0000
0001
0000
0000
0001
0000
,
2002
0000
0000
0000
,
3003
0000
0000
0000
;

//--------------- dance-single - Fred-104 ----------------
#NOTES:
     dance-single:
     Fred-104:
     Medium:
     13:
     :
0000
0000
0000
0000
,
0000
0000
0000
0000
,
0000
0000
0000
0000
,
0000
0000
0000
0000
,
0000
0000
0000
0000
,
0000
0000
0000
0000
,
0000
0000
0000
0000
,
0000
0000
0000
0000
,
0000
0000
0000
0000
,
0000
0000
0000
0000
,
1000
0000
0100
1000
0000
0001
1000
0200
,
0000
0010
0000
0010
0310
0000
1001
0000
,
0100
0000
0010
0001
0000
1000
0001
0200
,
0000
0010
0000
0010
0310
0000
1001
0000
,
0100
0000
1000
0010
0000
1000
0001
0020
,
0000
0100
0000
0100
0130
0000
1001
0000
,
0100
0000
0110
0000
0000
0010
0000
0010
,
1000
0100
0010
0001
0000
0100
0000
0100
,
0010
1000
0010
0100
0000
0100
0000
0100
,
0010
1000
0001
0010
0000
0010
0000
0010
,
0100
0010
0001
1000
0000
0001
0000
0001
,
1000
0010
0100
0010
0000
0010
0000
0010
,
1000
0100
0010
0000
0001
0100
0010
0000
,
1000
0100
0001
0000
1000
0010
0001
0000
,
1000
0100
0010
0100
1000
0100
0010
0100
,
1000
0001
0100
0001
1000
0010
0100
0001
,
2002
3003
0000
0000
0000
0000
0000
0000
0000
0000
0000
0000
0000
0000
0000
0000
0000
0000
0000
0000
0000
0000
0000
0000
0000
0000
0000
0000
0000
0000
0000
0000
0000
0000
0000
0000
0000
0000
0000
0000
0000
0000
0000
0000
0000
0000
0000
0000
0000
0000
0000
0000
0000
0000
0000
0000
0000
0000
0000
0000
0000
0000
0000
0000
,
0001
0010
0001
0100
0010
1000
0100
0010
,
0001
0000
0000
0100
0000
0000
0010
0000
1000
0000
0100
0000
1000
0000
0001
0000
,
0010
0100
0010
0001
0100
0010
1000
0001
,
0100
0000
0000
0010
0000
0000
0100
0000
0001
0000
1000
0000
0100
1000
0100
0000
,
1000
0010
0100
0010
1000
0100
0001
0100
,
1000
0000
0000
0010
0000
0000
0001
0000
1000
0000
0100
0000
0001
0000
1000
0000
,
0010
0100
0010
1000
0001
0010
0100
1000
,
0001
0010
0001
0100
0110
0000
1001
0000
,
0110
0001
0100
0010
1000
0100
0100
0010
,
0100
0000
0000
0010
0000
0000
0001
0000
0100
0000
0010
0000
1000
0000
0010
0000
,
0100
0010
1000
0001
0010
0100
0001
0100
,
1000
0000
0000
0010
0000
0000
0100
0000
0001
0000
1000
0000
0100
0000
0010
0000
,
1000
0001
0010
0100
0001
0010
0100
0010
,
0001
0000
0000
0100
0000
0000
0010
0000
0100
0000
0001
0000
0100
0000
0010
0000
,
1000
1000
0001
0001
0100
0100
0010
0010
,
1000
0000
0000
1100
0000
0000
0010
0000
0001
0100
0000
0010
0000
0000
0100
0000
,
0002
0023
0230
2300
,
3010
0000
1000
2000
0000
3002
0000
0203
,
0320
2030
3200
0320
,
0130
0010
0001
2000
0000
3020
0000
0230
,
0320
0032
0203
0320
,
0130
0001
0010
0002
0000
2003
0000
3200
,
2300
3020
0032
0203
,
2300
0000
3002
0000
1003
0100
0010
0001
,
0100
0000
0010
0100
0000
0010
0100
0010
,
1000
0000
0001
1000
0000
0100
1000
0100
,
0010
0000
0001
1000
0000
0100
0010
0001
,
0010
0001
0010
0001
0000
1000
0000
0001
,
1000
0000
0100
1000
0000
0010
1000
0001
,
1000
0010
0100
0010
0000
1000
0010
0100
,
0001
0010
0001
1000
,
0001
1000
0001
1000
0100
0010
0100
0010
,
0002
0000
0000
0000
,
0000
0000
0000
0000
,
0000
0000
0000
0000
,
0003
0000
0000
0000
,
1001
0000
0000
0000
0000
0000
0000
0010
,
0100
0000
0000
0000
0000
0000
0000
0100
,
0010
0001
0010
0001
1000
0010
0100
0010
,
1000
0001
1000
0000
0001
1000
0001
0000
1000
0001
1000
0000
0001
1000
0001
0000
,
1000
0010
1000
0100
0010
0001
0100
0010
,
1000
0000
0000
0100
0000
0000
0010
0000
0001
0000
0100
0000
0001
0000
1000
0000
,
0010
0100
0010
1000
0100
0010
0001
1000
,
0100
0000
0000
0010
0000
0000
0100
0000
1000
0000
0001
0000
0100
0001
0100
0000
,
0001
0010
0100
0010
0001
0100
1000
0100
,
0001
0000
0000
0010
0000
0000
1000
0000
0001
0000
0100
0000
1000
0000
0001
0000
,
0010
0100
0010
0001
1000
0010
0100
0001
,
1000
0010
1000
0100
0110
0000
1001
0000
,
0110
1000
0100
0010
0001
0100
0100
0010
,
0100
0000
0000
0010
0000
0000
1000
0000
0100
0000
0010
0000
0001
0000
0010
0000
,
0100
0010
0001
1000
0010
0100
1000
0100
,
0001
0000
0000
0010
0000
0000
0100
0000
1000
0000
0001
0000
0100
0000
0010
0000
,
0001
1000
0010
0100
1000
0010
0100
0010
,
1000
0000
0000
0100
0000
0000
0010
0000
0100
0000
1000
0000
0100
0000
0010
0000
,
0001
0001
1000
1000
0100
0100
0010
0010
,
0001
0000
0000
0101
0000
0000
0010
0000
1000
0100
0000
0010
0000
0000
0100
0000
,
2002
0000
0000
0000
,
3003
0000
0000
0000
;

//--------------- dance-single - Fred-104 ----------------
#NOTES:
     dance-single:
     Fred-104:
     Hard:
     15:
     :
0000
0000
0000
0000
,
0000
0000
0000
0000
,
0000
0000
0000
0000
,
0000
0000
0000
0000
,
0000
0000
0000
0000
,
0000
0000
0000
0000
,
0000
0000
0000
0000
,
0000
0000
0000
0000
,
0000
0000
0000
0000
,
0000
0000
0000
0000
,
1000
0010
1000
0200
0000
0310
0001
1000
,
0010
0200
0000
0310
2000
0000
3002
0000
,
1003
0010
1000
0200
0000
0301
0100
1000
,
0001
0000
0100
0000
0010
0000
0100
0001
0100
0000
0001
0000
1000
0000
0000
0000
,
1001
0001
0100
0002
0000
0103
1000
0100
,
1000
0100
0001
0100
0002
0000
0023
0000
,
0031
0010
2000
0000
3010
0002
0000
1003
,
0001
0000
0100
0000
0010
0000
1000
0001
1000
0000
0010
0000
0100
0000
0001
0000
,
1001
0001
0100
0001
0000
0001
0000
0001
,
1001
1000
0100
1000
0000
1000
0000
1000
,
1001
0001
0010
0001
0000
0001
0000
0001
,
1001
1000
0010
1000
0000
1000
0000
1000
,
0001
0001
0100
0010
1000
1000
0100
0010
,
0001
0001
0010
0100
1000
1000
0010
0100
,
0001
0001
1000
1000
0010
0010
0100
0100
,
0001
0000
0010
0000
0100
0000
1000
0000
0001
1000
0001
1000
0001
1000
0001
2000
,
0002
3003
0000
0000
0000
0000
0000
0000
0000
0000
0000
0000
0000
0000
0000
0000
0000
0000
0000
0000
0000
0000
0000
0000
0000
0000
0000
0000
0000
0000
0000
0000
1000
0000
0000
0000
0010
0000
0000
0000
1000
0000
0000
0000
0010
0000
0000
0000
1000
0000
0000
0000
0010
0000
0000
0000
1000
0000
0000
0000
0010
0000
0000
0000
,
1000
0000
0001
0010
0001
1000
0000
1000
0100
0000
1000
0001
0000
1000
0010
0100
,
0001
0000
0000
0100
0000
0000
0010
0000
1000
0000
0001
0000
1000
0010
1000
0010
,
0100
0000
0001
0000
0010
0001
0010
0100
0010
0000
0001
0000
1000
0010
0100
0001
,
1000
0010
0000
0010
0100
0000
0001
0000
1000
0000
0100
0000
1000
0100
1000
0010
,
0100
0000
0001
0000
1000
0100
0010
0001
1000
0000
0001
0000
0010
0100
0001
1000
,
0001
0000
0100
0010
0000
0100
0010
1000
0010
0000
0100
0000
0001
0000
1000
0100
,
0010
0000
0100
1000
0000
0010
0100
0010
1000
0000
0010
0100
0000
0001
1000
0100
,
0010
0000
0001
1000
0001
0000
1000
0000
1001
0000
0000
0000
0110
0000
0000
0000
,
1001
0000
0001
0100
0000
0001
0010
0001
0100
0010
0000
0100
0010
0000
1000
0001
,
1000
0000
0000
1000
0000
0000
0010
0100
0010
0000
1000
0000
0001
0100
0001
0100
,
0010
0000
1000
0000
0010
0100
0010
0100
0000
0001
0100
0000
0010
0100
0010
1000
,
0001
0000
0000
0001
0000
0000
1000
0000
0001
0000
1000
0000
0100
0010
0001
1000
,
0001
0000
1000
0000
0100
1000
0010
0100
0001
0000
1000
0001
0000
1000
0010
0100
,
0010
0000
0000
1000
0000
0001
1000
0010
0100
0000
0010
0000
1000
0001
0100
0010
,
1000
0100
1000
0010
0100
0001
1000
0100
,
1100
0000
0000
0101
0000
0000
1001
0000
0010
0100
0000
0110
0000
0000
1001
0000
,
0001
0010
1000
0010
0001
0100
0010
1000
,
0002
0023
0032
2003
3020
2030
3200
2300
,
3001
0100
0001
0000
1000
0010
1000
0000
0001
1000
0001
0000
1000
0000
0010
0000
,
2000
0000
3200
0000
2300
0000
3002
0000
0203
0000
0302
0000
2003
0000
3001
1000
,
0001
0010
0100
0010
0001
0100
0010
1000
,
0200
2300
3002
0203
2300
3200
0302
0023
,
0130
1000
0100
0000
0010
0100
0010
0000
0001
0100
0001
0000
0100
0000
0010
0000
,
2000
0000
3020
0000
0032
0000
0023
0000
0130
0000
0001
0000
1000
0000
0001
1000
,
0001
0000
0010
0001
0010
0000
0100
0000
1000
0000
0010
1000
0010
0000
0100
0000
,
0001
0100
0001
0000
1000
0100
1000
0000
0001
0000
0100
0000
0100
0000
1000
0000
,
0001
0000
0010
0100
0010
0000
0001
0000
0100
0000
0010
0100
0010
0000
1000
0000
,
0010
1000
0010
0000
0100
0001
0100
0000
0001
0000
0100
0000
0100
0000
1000
0000
,
1001
0000
1000
0010
1000
0000
0010
0000
0100
0000
0001
0010
0001
0000
1000
0000
,
0001
0100
0001
0000
1000
0010
1000
0000
0001
0010
0001
0000
1000
0100
1000
0000
,
1100
0010
0001
0100
0101
0010
1000
0100
,
1000
0010
1000
0010
1000
0010
1000
0010
0100
0001
0100
0001
0100
0001
0100
0001
,
2000
0000
0000
0000
,
0000
0000
0000
0000
,
0000
0000
0000
0000
,
3000
0000
0000
0000
,
1001
0000
0000
0000
0000
0000
0000
0100
,
1001
0000
0000
0000
0000
0000
0000
0010
,
0101
0001
0010
0100
1100
1000
0010
0100
,
0001
1000
0001
1000
0001
1000
0001
1000
0010
0100
0010
0100
0010
0100
0010
0100
,
0001
0000
1000
0010
1000
0001
0000
0001
0100
0000
0001
1000
0000
0001
0010
0100
,
1000
0000
0000
0100
0000
0000
0010
0000
0001
0000
1000
0000
0001
0010
0001
0010
,
0100
0000
1000
0000
0010
1000
0010
0100
0010
0000
1000
0000
0001
0010
0100
1000
,
0001
0010
0000
0010
0100
0000
1000
0000
0001
0000
0100
0000
0001
0100
0001
0010
,
0001
0000
1000
0000
0001
0100
0010
1000
0001
0000
0001
0000
1000
0100
1000
0001
,
1000
0000
0100
0010
0000
0100
0010
0001
0010
0000
0100
0000
1000
0000
0001
0100
,
0010
0000
0100
0001
0000
0010
0100
0010
0001
0000
0010
0100
0000
1000
0001
0100
,
0010
0000
1000
0001
1000
0000
0001
0000
1001
0000
0000
0000
0110
0000
0000
0000
,
1001
0000
1000
0100
0000
1000
0010
1000
0100
0010
0000
0100
0010
0000
0001
1000
,
0001
0000
0000
0001
0000
0000
0010
0100
0010
0000
0001
0000
1000
0100
1000
0100
,
0010
0000
0001
0000
0010
0100
0010
0100
0000
1000
0100
0000
0010
0100
0010
0001
,
1000
0000
0000
1000
0000
0000
0001
0000
1000
0000
0001
0000
0100
0010
1000
0001
,
1000
0000
0001
0000
0100
0001
0010
0100
1000
0000
0001
1000
0000
0001
0010
0100
,
0010
0000
0000
0001
0000
1000
0001
0010
0100
0000
0010
0000
0001
1000
0100
0010
,
0001
0100
0001
0010
0100
1000
0001
0100
,
0101
0000
0000
1100
0000
0000
1001
0000
0010
0100
0000
0110
0000
0000
1001
0000
,
2020
0000
0000
0000
,
3030
0000
0000
0000
;

//--------------- dance-single - Fred-104† ----------------
#NOTES:
     dance-single:
     Fred-104†:
     Challenge:
     17:
     :
0000
0000
0000
0000
,
0000
0000
0000
0000
,
0000
0000
0000
0000
,
0000
0000
0000
0000
,
0000
0000
0000
0000
,
0000
0000
0000
0000
,
0000
0000
0000
0000
,
0000
0000
0000
0000
,
0000
0000
0000
0000
,
0000
0000
0000
0000
,
1000
0000
0100
0000
0010
0000
0100
1000
0100
0000
1000
0000
0010
0000
0100
0000
,
0001
0000
0010
0000
0100
0000
0010
0001
0010
0001
0010
0000
0100
0000
1000
0000
,
0001
0000
0100
0000
0001
0000
0010
0100
0010
0000
0001
0000
1000
0000
0010
0000
,
1000
0000
0100
1000
0100
0000
0010
0001
1000
0001
0100
0000
0010
0000
1000
0000
,
0001
0000
0010
0100
0010
0000
0001
0100
0001
0000
0010
0000
0100
0000
1000
0000
,
0001
0000
1000
0010
1000
0000
0010
1000
0100
1000
0010
0000
0100
0000
0001
0000
,
1000
0000
0100
0000
0010
0000
0000
0000
1000
0000
0010
0001
1000
0000
0001
0000
,
0100
0000
1000
0000
0100
0000
0010
1000
0001
0100
0010
0000
1000
0000
0001
0000
,
1001
0000
0000
0110
,
1001
0000
0000
0110
,
1001
0000
0000
0110
,
1001
0000
0000
0110
,
2001
3100
1002
0013
,
2001
3010
1002
0103
,
1100
0100
0101
0001
0011
0010
1010
1000
,
0001
0000
0000
0100
0000
0000
0010
0000
0000
0000
0000
0000
1000
0000
0000
0100
0000
0000
0010
0000
0000
0000
0000
0000
0001
0000
0000
0100
0000
0000
0010
0000
0000
1000
0000
0000
0001
0000
1000
0000
0001
0000
1000
0000
0001
0000
1000
0000
,
0001
0000
0000
0000
0000
0000
0000
0000
1000
0100
0010
0001
1000
0100
0010
0001
,
1000
0000
0010
1000
0010
0100
0000
0001
1000
0000
0001
0100
0001
0010
0001
1000
,
0001
0000
1000
0100
0000
0010
0001
1000
0001
0000
1000
0000
0010
1000
0001
1000
,
0100
0000
1000
0001
0100
0001
0000
1000
0010
0000
0100
0001
0010
0001
1000
0001
,
0010
0100
0000
0100
1000
0000
0001
0000
1000
0010
0100
0000
0010
1000
0100
1000
,
0001
0000
1000
0100
0010
0001
0000
0100
0010
0000
1000
0001
0010
0001
0100
0010
,
0100
0000
0001
0010
0000
0100
1000
0001
1000
0000
0010
0000
0100
0001
1000
0100
,
0010
0000
0001
1000
0000
0010
1000
0001
0010
0000
0100
1000
0000
0010
0100
0001
,
0010
0000
0100
0010
0001
0000
1000
0001
0100
0001
1000
0010
1000
0001
0010
0100
,
1000
0000
0010
1000
0100
1000
0010
1000
0100
0010
0000
0001
1000
0000
0010
0100
,
0001
0000
1000
0100
0000
0010
0100
0010
0001
0000
0100
0000
0001
1000
0010
0100
,
0001
0000
0100
0001
1000
0000
0010
1000
0001
0100
0001
0000
1000
0100
0010
0001
,
1000
0000
0001
0100
0000
0010
0100
0010
1000
0000
0001
0000
1000
0100
0010
0001
,
1000
0000
0001
0000
0010
0100
1000
0100
0010
0000
0001
0100
0001
0010
0001
1000
,
0001
0000
0100
0001
0000
1000
0001
0100
0001
0000
0010
0000
0100
1000
0010
1000
,
0100
1000
0010
0100
0010
1000
0100
0010
0001
0100
0010
1000
0100
0010
0001
0000
,
0101
0000
0000
0011
0000
0000
1001
0000
1000
0100
0000
1100
0000
0000
1010
0000
,
1000
0100
0010
1000
0001
0100
0010
0001
,
1000
0000
0001
0100
1000
0000
0100
0000
0010
1000
0100
0000
0010
0001
1000
0000
,
0001
0010
0100
0001
0100
0010
0001
1000
,
0001
0000
0100
0010
0001
0000
0010
0000
1000
0001
0010
0000
0100
1000
0001
0100
,
0010
1000
0001
0100
1000
0100
0001
0010
,
0001
0000
1000
0010
0001
0000
0010
0000
1000
0100
0001
0000
0100
0000
1000
0000
,
0010
0100
0010
1000
0001
0100
0010
1000
,
0100
0000
0010
0001
1000
0000
0001
0000
0100
0010
1000
0000
0001
0010
0100
1000
,
0001
0100
0001
0000
0010
0100
0010
0000
0001
0010
0001
0000
1000
0010
1000
0000
,
0001
0100
0001
0100
0010
0000
1000
0100
1000
0100
0010
0000
0001
1000
0010
1000
,
0001
1000
0001
0000
0100
0010
0100
0000
0010
1000
0010
0000
0100
0001
0100
0000
,
0010
1000
0001
1000
0100
0000
0010
0001
1000
0001
0100
0000
0010
1000
0001
0100
,
0010
1000
0100
0000
0010
0001
1000
0000
0100
1000
0001
0000
0100
0010
1000
0000
,
0001
0010
0100
1000
0010
0000
0100
0001
1000
0010
0100
0001
1000
0010
1000
0000
,
1100
0010
0001
0100
0101
0010
1000
0100
,
1000
0001
1000
0001
0100
1000
0100
1000
0100
0010
0100
0010
1000
0100
0010
0001
,
2000
0000
0000
0000
,
0000
0000
0000
0000
,
3002
0000
0000
0000
,
0003
0000
0000
0000
,
1001
0000
0000
0000
0000
0000
0000
0110
,
1001
0000
0000
0000
0000
0000
0000
0110
,
1002
1003
0010
0100
1002
1003
0100
0010
,
0001
0010
0100
1000
0001
0010
0100
1000
0001
0100
0010
1000
0001
0100
0010
1000
,
0001
0000
0010
0001
0010
0100
0000
1000
0001
0000
1000
0100
1000
0010
1000
0001
,
1000
0000
0001
0100
0000
0010
1000
0001
1000
0000
0001
0000
0010
0001
1000
0001
,
0100
0000
0001
1000
0100
1000
0000
0001
0010
0000
0100
1000
0010
1000
0001
1000
,
0010
0100
0000
0100
0001
0000
1000
0000
0001
0010
0100
0000
0010
0001
0100
0001
,
1000
0000
0001
0100
0010
1000
0000
0100
0010
0000
0001
1000
0010
1000
0100
0010
,
0100
0000
1000
0010
0000
0100
0001
1000
0001
0000
0010
0000
0100
1000
0001
0100
,
0010
0000
1000
0001
0000
0010
0001
1000
0010
0000
0100
0001
0000
0010
0100
1000
,
0010
0000
0100
0010
1000
0000
0001
1000
0100
1000
0001
0010
0001
1000
0010
0100
,
0001
0000
0010
0001
0100
0001
0010
0001
0100
0010
0000
1000
0001
0000
0010
0100
,
1000
0000
0001
0100
0000
0010
0100
0010
1000
0000
0100
0000
1000
0001
0010
0100
,
1000
0000
0100
1000
0001
0000
0010
0001
1000
0100
1000
0000
0001
0100
0010
1000
,
0001
0000
1000
0100
0000
0010
0100
0010
0001
0000
1000
0000
0001
0100
0010
1000
,
0001
0000
1000
0000
0010
0100
0001
0100
0010
0000
1000
0100
1000
0010
1000
0001
,
1000
0000
0100
1000
0000
0001
1000
0100
1000
0000
0010
0000
0100
0001
0010
0001
,
0100
0001
0010
0100
0010
0001
0100
0010
1000
0100
0010
0001
0100
0010
1000
0000
,
1100
0000
0000
1010
0000
0000
1001
0000
0001
0100
0000
0101
0000
0000
0011
0000
,
0220
0000
0000
0000
,
0330
0000
0000
0000
;

//--------------- dance-double - Fred-104 ----------------
#NOTES:
     dance-double:
     Fred-104:
     Easy:
     8:
     :
00000000
00000000
00000000
00000000
,
00000000
00000000
00000000
00000000
,
00000000
00000000
00000000
00000000
,
00000000
00000000
00000000
00000000
,
00000000
00000000
00000000
00000000
,
00000000
00000000
00000000
00000000
,
00000000
00000000
00000000
00000000
,
00000000
00000000
00000000
00000000
,
00000000
00000000
00000000
00000000
,
00000000
00000000
00000000
00000000
,
00010000
00000000
00000000
10000000
00000000
00000000
01000000
00000000
,
00000000
00100000
00000000
00000000
00001000
00000000
00001000
00000000
,
00010000
00000000
00000000
00000100
00000000
00000000
00010000
00000000
,
00000000
00000100
00000000
00000000
00001000
00000000
00000010
00000000
,
00000100
00000000
00000000
00000001
00000000
00000000
00000010
00000000
,
00000000
00001000
00000000
00000000
00010000
00000000
00100000
00000000
,
10000000
10000000
00000000
00010000
,
01000000
00100000
00100000
10000000
,
10010000
00000000
00000000
00010000
,
00011000
00000000
00000000
00001000
,
00011000
00000000
00000000
00000001
,
00001001
00000000
00000000
00000100
,
00000110
00000000
00001100
00000000
,
00011000
00000000
00110000
00000000
,
01100000
01000000
00100000
10000000
,
01000000
01000000
00100000
00100000
,
02200000
03300000
00000000
00000000
00000000
00000000
00000000
00000000
00000000
00000000
00000000
00000000
00000000
00000000
00000000
00000000
00000000
00000000
00000000
00000000
00000000
00000000
00000000
00000000
00000000
00000000
00000000
00000000
00000000
00000000
00000000
00000000
00000000
00000000
00000000
00000000
00000000
00000000
00000000
00000000
00000000
00000000
00000000
00000000
00000000
00000000
00000000
00000000
00000000
00000000
00000000
00000000
00000000
00000000
00000000
00000000
00000000
00000000
00000000
00000000
00000000
00000000
00000000
00000000
,
10000000
00100000
01000000
01000000
,
00100000
00000000
00001000
00000000
00010000
00000000
00000100
00010000
,
00000100
00001000
00000100
00000010
,
00000100
00000000
00000001
00000000
00000100
00000000
00001000
00000001
,
00001000
00000010
00010000
00001000
,
00010000
00000000
00001000
00000000
00100000
00000000
00010000
01000000
,
00010000
10000000
01000000
00100000
,
10000000
00010000
00200000
00302000
,
00013000
00001000
00001000
00000100
,
00000001
00000000
00000100
00000000
00000010
00000000
00001000
00000100
,
00001000
00000010
00010000
00010000
,
00001000
00000000
00100000
00000000
00010000
00000000
01000000
00100000
,
01000000
00100000
00100000
10000000
,
01000000
00000000
00010000
00000000
00001000
00000000
00010000
00001000
,
00010000
00001000
00000100
00000001
,
00000100
00000000
00000000
00000100
00000000
00000000
00000100
00000000
00000010
00000000
00000000
00000010
00000000
00000000
00000010
00000000
,
00002000
00000100
00000100
00003100
,
00010000
00001000
00100000
00010000
,
02000000
00100000
00100000
03100000
,
10000000
00000000
01000000
00000000
00010000
00000000
00001000
00100000
,
00002000
00010000
00010000
00013000
,
00001000
00000100
00000001
00000100
,
00000020
00000100
00000100
00000130
,
00010000
00000000
00000100
00000000
00010000
00000000
00001000
00010000
,
00100000
01000000
00200000
00310000
,
10000000
01000000
10000000
00100000
,
02000000
03100000
00020000
00130000
,
00001000
00010000
00000100
00000010
,
00000002
00000103
00002000
00003100
,
00000001
00000010
00001000
00010000
,
00100000
00100000
10000000
10000000
,
00010000
00100000
01000000
10000000
,
20020000
00000000
00000000
00000000
,
00000000
00000000
00000000
00000000
,
00000000
00000000
00000000
00000000
,
30030000
00000000
00000000
00000000
,
10010000
00000000
00000000
00000000
00000000
00000000
00000000
00010000
,
00001000
00000000
00000000
00000000
00000000
00000000
00000000
00000100
,
00000010
00000010
00000001
00000100
,
00001000
00010000
00001000
00000100
,
00000001
00000010
00000100
00000100
,
00000010
00000000
00010000
00000000
00001000
00000000
01000000
00001000
,
01000000
00010000
01000000
00100000
,
01000000
00000000
10000000
00000000
01000000
00000000
00010000
10000000
,
00010000
00100000
00001000
00010000
,
00001000
00000000
00010000
00000000
00000010
00000000
00001000
00000100
,
00001000
00000001
00000100
00000010
,
00000001
00001000
00000020
00020030
,
00031000
00010000
00010000
01000000
,
10000000
00000000
01000000
00000000
00100000
00000000
00010000
01000000
,
00010000
00100000
00001000
00001000
,
00010000
00000000
00000010
00000000
00001000
00000000
00000100
00000010
,
00000100
00000010
00000010
00000001
,
00000100
00000000
00001000
00000000
00010000
00000000
00001000
00010000
,
00001000
00010000
01000000
10000000
,
01000000
00000000
00000000
01000000
00000000
00000000
01000000
00000000
00100000
00000000
00000000
00100000
00000000
00000000
00100000
00000000
,
20020000
00000000
00000000
00000000
,
30030000
00000000
00000000
00000000
;

//--------------- dance-double - Fred-104 ----------------
#NOTES:
     dance-double:
     Fred-104:
     Medium:
     13:
     :
00000000
00000000
00000000
00000000
,
00000000
00000000
00000000
00000000
,
00000000
00000000
00000000
00000000
,
00000000
00000000
00000000
00000000
,
00000000
00000000
00000000
00000000
,
00000000
00000000
00000000
00000000
,
00000000
00000000
00000000
00000000
,
00000000
00000000
00000000
00000000
,
00000000
00000000
00000000
00000000
,
00000000
00000000
00000000
00000000
,
00001000
00000000
00000100
00000001
00000000
00000100
00001000
00020000
,
00000000
00001000
00000000
00100000
00130000
00000000
10010000
00000000
,
01000000
00000000
00100000
00010000
00000000
00001000
00010000
00000020
,
00000000
00000100
00000000
00000100
00000130
00000000
00001001
00000000
,
00001000
00000000
00000001
00000100
00000000
00001000
00010000
00002000
,
00000000
00100000
00000000
00010000
00013000
00000000
00011000
00000000
,
00010000
00000000
01100000
00000000
00000000
00100000
00000000
00100000
,
10000000
01000000
00100000
01000000
00000000
00010000
00000000
00010000
,
00001000
00000100
00000001
00000100
00000000
00000100
00000000
00001000
,
00010000
00100000
10000000
00100000
00000000
00100000
00000000
00010000
,
00001000
00000010
00000001
00000010
00000000
00000010
00000000
00001000
,
00010000
01000000
10000000
01000000
00000000
01000000
00000000
00010000
,
00001000
00000100
00000001
00000000
00000001
00000100
00001000
00000000
,
00010000
00100000
10000000
00000000
10000000
00100000
00010000
00000000
,
00001000
00010000
00000100
00001000
00000010
00001000
00000100
00010000
,
00001000
00100000
01000000
10000000
00100000
00010000
00001000
00000010
,
00002002
00003003
00000000
00000000
00000000
00000000
00000000
00000000
00000000
00000000
00000000
00000000
00000000
00000000
00000000
00000000
00000000
00000000
00000000
00000000
00000000
00000000
00000000
00000000
00000000
00000000
00000000
00000000
00000000
00000000
00000000
00000000
00000000
00000000
00000000
00000000
00000000
00000000
00000000
00000000
00000000
00000000
00000000
00000000
00000000
00000000
00000000
00000000
00000000
00000000
00000000
00000000
00000000
00000000
00000000
00000000
00000000
00000000
00000000
00000000
00000000
00000000
00000000
00000000
,
00010000
00001000
00000100
00001000
00010000
01000000
00100000
00010000
,
00001000
00000000
00000000
00001000
00000000
00000000
00001000
00000000
00000100
00000000
00000010
00000000
00001000
00000000
00010000
00000000
,
01000000
00100000
00010000
00001000
00000100
00010000
00001000
00100000
,
01000000
00000000
00000000
01000000
00000000
00000000
00100000
00000000
00001000
00000000
00010000
00000000
00000100
00010000
00000100
00000000
,
00010000
00001000
00000010
00001000
00010000
00100000
00001000
00010000
,
00000010
00000000
00000000
00010000
00000000
00000000
00001000
00000000
00100000
00000000
01000000
00000000
00100000
00000000
00010000
00000000
,
00001000
00100000
00010000
00001000
00010000
00000100
00000010
00001000
,
00000100
00010000
00000100
00000010
00000110
00000000
00011000
00000000
,
01100000
01000000
00100000
10000000
01000000
00010000
01000000
10000000
,
00100000
00000000
00000000
01000000
00000000
00000000
01000000
00000000
00010000
00000000
00100000
00000000
00001000
00000000
00010000
00000000
,
00001000
00000010
00000001
00001000
00000100
00000010
00000001
00000100
,
00000010
00000000
00000000
00010000
00000000
00000000
00001000
00000000
00100000
00000000
00010000
00000000
10000000
00000000
01000000
00000000
,
00100000
00010000
10000000
01000000
00010000
00001000
00100000
00001000
,
00000010
00000000
00000000
00001000
00000000
00000000
00010000
00000000
00001000
00000000
00100000
00000000
00010000
00000000
10000000
00000000
,
01000000
00010000
00001000
00000100
00000001
00001000
00000100
00000010
,
00000001
00000000
00000000
00000101
00000000
00000000
00000100
00000000
00000010
00001000
00000000
00010000
00000000
00000000
00001000
00000000
,
00020000
02030000
23000000
30020000
,
01030000
00000000
00100000
02000000
00000000
03020000
00000000
00032000
,
00203000
00302000
00003020
00002030
,
00013000
00001000
00000100
00000002
00000000
00000203
00000000
00000320
,
00002030
00003200
00020300
00032000
,
00103000
01000000
00100000
00020000
00000000
20030000
00000000
32000000
,
03020000
00032000
00003200
00000302
,
00000203
00000000
00000320
00000000
00000031
00000100
00000010
00000100
,
00000001
00000000
00000100
00000010
00000000
00000010
00000001
00000100
,
00001000
00000000
00010000
00100000
00000000
00100000
10000000
00100000
,
01000000
00000000
00010000
10000000
00000000
01000000
00100000
00010000
,
00001000
00000100
00000001
00001000
00000000
00000010
00000000
00000100
,
00001000
00000000
00010000
00001000
00000000
00100000
00010000
00100000
,
10000000
00100000
01000000
00010000
00000000
10000000
01000000
00010000
,
00001000
00000100
00000001
00000010
,
00001000
00010000
00100000
10000000
01000000
00010000
00001000
00100000
,
00002000
00000000
00000000
00000000
,
00000000
00000000
00000000
00000000
,
00000000
00000000
00000000
00000000
,
00003000
00000000
00000000
00000000
,
00011000
00000000
00000000
00000000
00000000
00000000
00000000
01000000
,
00100000
00000000
00000000
00000000
00000000
00000000
00000000
00000100
,
00000010
00001000
00000100
00001000
00010000
00100000
01000000
00100000
,
10000000
01000000
10000000
00000000
01000000
00100000
01000000
00000000
00100000
00010000
00100000
00000000
00010000
00001000
00010000
00000000
,
00001000
00010000
01000000
00010000
00001000
00000100
00000010
00001000
,
00010000
00000000
00000000
00010000
00000000
00000000
00010000
00000000
01000000
00000000
00100000
00000000
00010000
00000000
00001000
00000000
,
00000100
00000010
00001000
00010000
01000000
00001000
00010000
00000010
,
00000100
00000000
00000000
00000100
00000000
00000000
00000010
00000000
00010000
00000000
00001000
00000000
01000000
00001000
01000000
00000000
,
00001000
00010000
00100000
00010000
00001000
00000010
00010000
00001000
,
00100000
00000000
00000000
00001000
00000000
00000000
00010000
00000000
00000010
00000000
00000100
00000000
00000010
00000000
00001000
00000000
,
00010000
00000010
00001000
00010000
00001000
01000000
00100000
00010000
,
01000000
00001000
01000000
00100000
01100000
00000000
00011000
00000000
,
00000110
00000100
00000010
00000001
00000100
00001000
00000100
00000001
,
00000010
00000000
00000000
00000100
00000000
00000000
00000100
00000000
00001000
00000000
00000010
00000000
00010000
00000000
00001000
00000000
,
00010000
00100000
10000000
00010000
01000000
00100000
10000000
01000000
,
00100000
00000000
00000000
00001000
00000000
00000000
00010000
00000000
00000010
00000000
00001000
00000000
00000001
00000000
00000100
00000000
,
00000010
00001000
00000001
00000010
00001000
00010000
00000010
00010000
,
00100000
00000000
00000000
00010000
00000000
00000000
00001000
00000000
00010000
00000000
00000010
00000000
00001000
00000000
00000001
00000000
,
00000100
00001000
00010000
01000000
10000000
00010000
01000000
00100000
,
10000000
00000000
00000000
11000000
00000000
00000000
01000000
00000000
00100000
00010000
00000000
00001000
00000000
00000000
00010000
00000000
,
00022000
00000000
00000000
00000000
,
00033000
00000000
00000000
00000000
;

//--------------- dance-double - Fred-104 ----------------
#NOTES:
     dance-double:
     Fred-104:
     Hard:
     15:
     :
00000000
00000000
00000000
00000000
,
00000000
00000000
00000000
00000000
,
00000000
00000000
00000000
00000000
,
00000000
00000000
00000000
00000000
,
00000000
00000000
00000000
00000000
,
00000000
00000000
00000000
00000000
,
00000000
00000000
00000000
00000000
,
00000000
00000000
00000000
00000000
,
00000000
00000000
00000000
00000000
,
00000000
00000000
00000000
00000000
,
00000001
00000100
00000010
00000200
00000000
00000310
00001000
00010000
,
00100000
00002000
00000000
00013000
02000000
00000000
03200000
00000000
,
10300000
01000000
00100000
02000000
00000000
13000000
00100000
01000000
,
00010000
00000000
00100000
00000000
01000000
00000000
00100000
01000000
00100000
00000000
01000000
00000000
01000000
00000000
00000000
00000000
,
00010000
00001000
00000100
00000020
00000000
00000130
00001000
00000010
,
00000100
00000002
00000000
00000013
00000200
00000000
00020300
00000000
,
00032000
00000000
00203000
00000000
00300000
01100000
00000000
01000000
,
00100000
10000000
01000000
00100000
00010000
01000000
00100000
10000000
,
11000000
01000000
00100000
00010000
00000000
00010000
00000000
00010000
,
00011000
00001000
00000100
00000001
00000000
00000001
00000000
00000001
,
00000011
00000010
00001000
00010000
00000000
00010000
00000000
00010000
,
00011000
00001000
00010000
01000000
00000000
01000000
00000000
01000000
,
00100000
10000000
01000000
10000000
00100000
01000000
00100000
10000000
,
01000000
00100000
00001000
00010000
00000100
00001000
00000010
00000100
,
00000001
00000001
00000010
00000010
00000100
00000100
00010000
00010000
,
00001000
00000000
00100000
00000000
00010000
00000000
01000000
00000000
00100000
10000000
00100000
10000000
00100000
10000000
00100000
02000000
,
00200000
03300000
00000000
00000000
00000000
00000000
00000000
00000000
00000000
00000000
00000000
00000000
00000000
00000000
00000000
00000000
00000000
00000000
00000000
00000000
00000000
00000000
00000000
00000000
00000000
00000000
00000000
00000000
00000000
00000000
00000000
00000000
10000000
00000000
00000000
00000000
00010000
00000000
00000000
00000000
10000000
00000000
00000000
00000000
00010000
00000000
00000000
00000000
10000000
00000000
00000000
00000000
00010000
00000000
00000000
00000000
10000000
00000000
00000000
00000000
00010000
00000000
00000000
00000000
,
10000000
00000000
01000000
00100000
01000000
00100000
00000000
00010000
01000000
00000000
00001000
00100000
00000000
00001000
00010000
00001000
,
00010000
00000000
00000000
00000100
00000000
00000000
00001000
00000010
00000100
00000000
00000001
00000000
00001000
00000100
00001000
00000100
,
00001000
00000000
00000001
00000000
00000100
00000001
00000100
00000010
00000100
00000000
00000001
00000000
00001000
00000000
00000100
00010000
,
00001000
00010000
00000000
00010000
00001000
00000000
00100000
00000000
00010000
00000000
10000000
00000000
00100000
01000000
00100000
01000000
,
00100000
00000000
10000000
00000000
10000000
00010000
10000000
01000000
00100000
00000000
00001000
00010000
00000000
00001000
00010000
00000010
,
00001000
00000000
00000000
00000010
00000000
00000100
00000010
00001000
00000001
00000000
00000001
00000000
00000010
00000001
00000100
00000010
,
00000100
00000000
00000001
00000100
00000000
00000010
00001000
00000000
00000100
00000000
00010000
00001000
00000000
00010000
00001000
00000000
,
00100000
00010000
10000000
00100000
01000000
01000000
00010000
00010000
,
10000000
00000000
10000000
01000000
00000000
01000000
00100000
00010000
10000000
00100000
00000000
00100000
01000000
00000000
00001000
00010000
,
00001000
00000000
00000000
00010000
00000000
00000000
00000100
00001000
00000100
00000000
00010000
00000000
00000010
00000000
00000100
00000010
,
00000100
00000000
00000001
00000000
00001000
00000100
00001000
00000001
00000000
00000100
00000010
00000000
00001000
00000000
00000100
00010000
,
00001000
00000000
00000000
01000000
00000000
00000000
00001000
00010000
00000100
00000000
00001000
00000000
00000010
00001000
00000010
00001000
,
00000001
00000000
00000001
00000000
00001000
00000000
00000010
00000100
00000010
00000000
00001000
00000000
00010000
00000000
00001000
00010000
,
00100000
00000000
00000000
01000000
00000000
00000000
00010000
10000000
00010000
00000000
01000000
00000000
00100000
00000000
10000000
00100000
,
10000000
00100000
00010000
00001000
00000010
00000100
00001000
00000001
,
00000100
00000000
00000000
00000010
00000000
00000000
00000110
00000000
00000010
00001000
00000000
00010000
00000000
00000000
00011000
00000000
,
00001000
00010000
00100000
10000000
00010000
00100000
01000000
00100000
,
00010000
10000000
01000000
00020000
00000000
00032000
00003200
00000302
,
00001003
00000010
00000100
00000001
00000010
00000001
00001000
00000010
,
00001000
00000001
00000100
00002000
00000000
00023000
00000000
00032000
,
00013000
00000010
00010000
00001000
00100000
00001000
00010000
00100000
,
01000000
00100000
00010000
00200000
00000000
20300000
00000000
30200000
,
00310000
01000000
00100000
10000000
01000000
00100000
00001000
00010000
,
00001000
00000000
00010000
00000000
00001000
00000000
00000100
00000000
00000010
00000000
00000010
00000000
00000100
00000000
00000100
00000010
,
00000100
00000000
00000001
00000010
00000001
00000000
00000100
00000000
00000010
00000000
00001000
00000100
00001000
00000000
00000010
00000000
,
00000100
00000010
00000100
00000000
00000001
00000100
00000001
00000000
00000100
00000000
00001000
00000000
00010000
00000000
01000000
00000000
,
10000000
00000000
00010000
00100000
00010000
00000000
10000000
00000000
01000000
00000000
00100000
01000000
00100000
00000000
00001000
00000000
,
00010000
00001000
00010000
00000000
00000100
00000010
00000100
00000000
00000010
00000000
00000001
00000000
00000100
00000000
00001000
00000000
,
00011000
00000000
00010000
00001000
00010000
00000000
00100000
00000000
01000000
00000000
10000000
00100000
10000000
00000000
01000000
00000000
,
00100000
00010000
00100000
00000000
00001000
00010000
00001000
00000000
00010000
00000100
00010000
00000000
00000010
00001000
00000010
00000000
,
00000110
00000100
00000001
00000010
00000110
00000100
00010000
00001000
,
00100000
00010000
00100000
00010000
00100000
00010000
00100000
00010000
10000000
00100000
10000000
00100000
10000000
00100000
10000000
00100000
,
02000000
00000000
00000000
00000000
,
00000000
00000000
00000000
00000000
,
00000000
00000000
00000000
00000000
,
03000000
00000000
00000000
00000000
,
00011000
00000000
00000000
00000000
00000000
00000000
00000000
00000010
,
00001001
00000000
00000000
00000000
00000000
00000000
00000000
00100000
,
10010000
01000000
00100000
00001000
00011000
00010000
00000100
00000010
,
00000001
00000010
00000001
00000010
00000001
00000010
00000001
00000010
00000100
00001000
00000100
00001000
00000100
00001000
00000100
00001000
,
00000001
00000000
00000100
00000010
00000100
00000010
00000000
00001000
00000100
00000000
00010000
00000010
00000000
00010000
00001000
00010000
,
00001000
00000000
00000000
01000000
00000000
00000000
00010000
00100000
01000000
00000000
10000000
00000000
00010000
01000000
00010000
01000000
,
00010000
00000000
10000000
00000000
01000000
10000000
01000000
00100000
01000000
00000000
10000000
00000000
00010000
00000000
01000000
00001000
,
00010000
00001000
00000000
00001000
00010000
00000000
00000010
00000000
00001000
00000000
00000001
00000000
00000010
00000100
00000010
00000100
,
00000010
00000000
00000001
00000000
00000001
00001000
00000001
00000100
00000010
00000000
00010000
00001000
00000000
00010000
00001000
00100000
,
00010000
00000000
00000000
00100000
00000000
01000000
00100000
00010000
10000000
00000000
10000000
00000000
00100000
10000000
01000000
00100000
,
01000000
00000000
10000000
01000000
00000000
00100000
00010000
00000000
01000000
00000000
00001000
00010000
00000000
00001000
00010000
00000000
,
00000010
00001000
00000001
00000010
00000100
00000100
00001000
00001000
,
00000001
00000000
00000001
00000100
00000000
00000100
00000010
00001000
00000001
00000010
00000000
00000010
00000100
00000000
00010000
00001000
,
00010000
00000000
00000000
00001000
00000000
00000000
01000000
00010000
01000000
00000000
00001000
00000000
00100000
00000000
01000000
00100000
,
01000000
00000000
10000000
00000000
00010000
01000000
00010000
10000000
00000000
01000000
00100000
00000000
00010000
00000000
01000000
00001000
,
00010000
00000000
00000000
00000100
00000000
00000000
00010000
00001000
01000000
00000000
00010000
00000000
00100000
00010000
00100000
00010000
,
10000000
00000000
10000000
00000000
00010000
00000000
00100000
01000000
00100000
00000000
00010000
00000000
00001000
00000000
00010000
00001000
,
00000010
00000000
00000000
00000100
00000000
00000000
00001000
00000001
00001000
00000000
00000100
00000000
00000010
00000000
00000001
00000010
,
00000001
00000010
00001000
00010000
00100000
01000000
00010000
10000000
,
01000000
00000000
00000000
00100000
00000000
00000000
01100000
00000000
00100000
00010000
00000000
00001000
00000000
00000000
00011000
00000000
,
00000220
00000000
00000000
00000000
,
00000330
00000000
00000000
00000000
;

//--------------- dance-double - Fred-104† ----------------
#NOTES:
     dance-double:
     Fred-104†:
     Challenge:
     17:
     :
00000000
00000000
00000000
00000000
,
00000000
00000000
00000000
00000000
,
00000000
00000000
00000000
00000000
,
00000000
00000000
00000000
00000000
,
00000000
00000000
00000000
00000000
,
00000000
00000000
00000000
00000000
,
00000000
00000000
00000000
00000000
,
00000000
00000000
00000000
00000000
,
00000000
00000000
00000000
00000000
,
00000000
00000000
00000000
00000000
,
00010000
00000000
00001000
00000000
00010000
00000000
00000010
00001000
00000010
00000000
00010000
00000000
00001000
00000000
00100000
00000000
,
00001000
00000000
00010000
00000000
00000100
00000000
00001000
00000010
00000100
00000010
00000100
00000000
00000001
00000000
00000010
00000000
,
00000001
00000000
00000100
00000000
00001000
00000000
00010000
00001000
00010000
00000000
00100000
00000000
01000000
00000000
00010000
00000000
,
10000000
00000000
00100000
10000000
00100000
00000000
01000000
00010000
10000000
00010000
00100000
00000000
00010000
00000000
01000000
00000000
,
00100000
00000000
10000000
01000000
10000000
00000000
00010000
00100000
00010000
00000000
10000000
00000000
00100000
00000000
01000000
00000000
,
00010000
00000000
00100000
00001000
00100000
00000000
00001000
00010000
00001000
00010000
00001000
00000000
00000010
00000000
00000100
00000000
,
00001000
00000000
00000001
00000000
00000010
00000000
00000000
00000000
00000100
00000000
00000010
00000100
00001000
00000000
00000010
00000000
,
00000100
00000000
00000001
00000000
00000010
00000000
00001000
00010000
00001000
00000000
00010000
00000000
01000000
00000000
10000000
00000000
,
10010000
00000000
00000000
00011000
,
00001001
00000000
00000000
00011000
,
10010000
00000000
00000000
00011000
,
00001001
00000000
00000000
00011000
,
20010000
31000000
00021000
00030010
,
00001002
00000103
00012000
00103000
,
10010000
10000000
11000000
01000000
01100000
00100000
00101000
00001000
,
00010000
00000000
00000000
00000100
00000000
00000000
00010000
00000000
00000000
00000000
00000000
00000000
00000100
00000000
00000000
00001000
00000000
00000000
00000100
00000000
00000000
00000000
00000000
00000000
00001000
00000000
00000000
00000010
00000000
00000000
00000100
00000000
00000000
00000001
00000000
00000000
00001000
00000000
00000001
00000000
00001000
00000000
00000001
00000000
00001000
00000000
00000001
00000000
,
00001000
00000000
00000000
00000000
00000000
00000000
00000000
00000000
00000001
00000010
00000001
00000010
00000100
00001000
00000100
00001000
,
00000100
00000000
00001000
00000010
00000100
00000001
00000000
00000100
00000010
00000000
00001000
00000000
00000100
00010000
00001000
00010000
,
00100000
00000000
01000000
00010000
00000000
10000000
00010000
01000000
00010000
00000000
10000000
00000000
01000000
00100000
01000000
00100000
,
01000000
00000000
10000000
00010000
01000000
00010000
00000000
10000000
01000000
00000000
00100000
00000000
00001000
00010000
00001000
00010000
,
00001000
00000000
00010000
00000010
00000000
00001000
00000010
00010000
00000010
00000000
00001000
00000000
00000100
00001000
00000001
00000100
,
00000010
00000000
00001000
00000100
00000010
00000001
00000000
00000100
00000010
00000000
00001000
00000001
00000010
00000000
00000001
00000100
,
00000010
00000000
00001000
00000100
00000000
00010000
00001000
00010000
00100000
00000000
01000000
00000000
00010000
10000000
01000000
10000000
,
00010000
00000000
00100000
01000000
10000000
00100000
01000000
00000000
00010000
10000000
00010000
00000000
00100000
00010000
10000000
00010000
,
10000000
00000000
01000000
00010000
00001000
00000000
00010000
00001000
00000100
00000010
00000100
00000010
00001000
00000001
00001000
00000001
,
00000100
00000000
00000100
00000001
00000000
00001000
00000001
00000100
00000001
00000010
00000000
00000100
00001000
00000000
00000010
00010000
,
00000010
00000000
00010000
00001000
00000000
00100000
00001000
00010000
00001000
00000000
01000000
00000000
00010000
10000000
00010000
01000000
,
00100000
00000000
10000000
00100000
01000000
00000000
00010000
00100000
01000000
00100000
00010000
00000000
10000000
00100000
01000000
00100000
,
00010000
00000000
00001000
00000100
00000000
00000010
00001000
00000001
00000100
00000000
00000010
00000000
00000100
00000001
00001000
00000001
,
00001000
00000000
00000001
00000010
00000100
00000010
00000000
00000001
00001000
00000000
00000001
00000000
00000100
00000010
00001000
00000100
,
00010000
00000000
00001000
00010000
00000000
00100000
01000000
00010000
10000000
00000000
00100000
00000000
10000000
00100000
01000000
00010000
,
00100000
00001000
00010000
00000100
00001000
00000100
00000010
00000001
00001000
00000010
00000100
00000010
00001000
00000001
00000100
00000000
,
00000101
00000000
00000000
00001100
00000000
00000000
00011000
00000000
00001000
00010000
00000000
00110000
00000000
00000000
10100000
00000000
,
10000000
01000000
00100000
01000000
10000000
00100000
00010000
00001000
,
00000100
00000001
00001000
00000001
00000010
00000100
00000010
00000001
,
00001000
00000001
00000010
00001000
00010000
00100000
01000000
00010000
,
10000000
00000000
00100000
00000000
01000000
00000000
00100000
00000000
10000000
00000000
00010000
00000000
00100000
00000000
01000000
00100000
,
01000000
00100000
00010000
10000000
01000000
00010000
00001000
00010000
,
00100000
10000000
01000000
00010000
00001000
00010000
00100000
00010000
,
00001000
00000010
00001000
00010000
00001000
00000100
00000001
00000100
,
00001000
00000000
00000010
00000000
00000100
00000000
00000001
00000000
00000100
00000010
00001000
00000000
00000001
00000010
00000100
00001000
,
00000001
00000100
00000001
00000000
00001000
00000010
00001000
00000000
00000100
00010000
00000100
00000000
00010000
00001000
00010000
00000000
,
00001000
00100000
00010000
10000000
00010000
00000000
01000000
00100000
10000000
00100000
01000000
00000000
00010000
00100000
01000000
10000000
,
00100000
01000000
00100000
00000000
10000000
00100000
10000000
00000000
00010000
01000000
00010000
00000000
10000000
01000000
10000000
00000000
,
01000000
00100000
01000000
00010000
00100000
00000000
00001000
00010000
00000010
00001000
00000100
00000000
00010000
00001000
00000100
00000001
,
00001000
00000001
00001000
00000000
00000001
00000100
00000001
00000000
00000100
00000010
00000100
00000000
00000010
00001000
00000010
00000000
,
00001000
00000100
00010000
00001000
01000000
00000000
00010000
00100000
00001000
00010000
00000010
00001000
00000100
00010000
00001000
00000000
,
00011000
00001000
00100000
01000000
11000000
10000000
00100000
01000000
,
00010000
10000000
00010000
10000000
01000000
00100000
01000000
00100000
00001000
00010000
00001000
00010000
00000010
00001000
00000001
00001000
,
00000200
00000000
00000000
00000000
,
00000000
00000000
00000000
00000000
,
00020300
00000000
00000000
00000000
,
00030000
00000000
00000000
00000000
,
00011000
00000000
00000000
00000000
00000000
00000000
00000000
00001000
,
00001001
00000000
00000000
00000000
00000000
00000000
00000000
00001000
,
00011000
00010000
00001000
00100000
00110000
00010000
10000000
00100000
,
10000000
01000000
10000000
01000000
00100000
00010000
00100000
00010000
10000000
00100000
10000000
00100000
01000000
00010000
01000000
00010000
,
01000000
00000000
00010000
00100000
01000000
10000000
00000000
01000000
00100000
00000000
00010000
00000000
01000000
00001000
00010000
00001000
,
00000010
00000000
00000100
00001000
00000000
00000001
00001000
00000100
00001000
00000000
00000001
00000000
00000100
00000010
00000100
00000010
,
00000100
00000000
00000001
00001000
00000100
00001000
00000000
00000001
00000100
00000000
00000010
00000000
00010000
00001000
00010000
00001000
,
00010000
00000000
00001000
00100000
00000000
00010000
00100000
00001000
00100000
00000000
00010000
00000000
01000000
00010000
10000000
01000000
,
00100000
00000000
00010000
01000000
00100000
10000000
00000000
01000000
00100000
00000000
00010000
10000000
00100000
00000000
10000000
01000000
,
00100000
00000000
00010000
01000000
00000000
00001000
00010000
00001000
00000010
00000000
00000100
00000000
00001000
00000001
00000100
00000001
,
00001000
00000000
00000010
00000100
00000001
00000010
00000100
00000000
00001000
00000001
00001000
00000000
00000010
00001000
00000001
00001000
,
00000001
00000000
00000100
00001000
00010000
00000000
00001000
00010000
01000000
00100000
01000000
00100000
00010000
10000000
00010000
10000000
,
01000000
00000000
01000000
10000000
00000000
00010000
10000000
01000000
10000000
00100000
00000000
01000000
00010000
00000000
00100000
00001000
,
00100000
00000000
00001000
00010000
00000000
00000010
00010000
00001000
00010000
00000000
00000100
00000000
00001000
00000001
00001000
00000100
,
00000010
00000000
00000001
00000010
00000100
00000000
00001000
00000010
00000100
00000010
00001000
00000000
00000001
00000010
00000100
00000010
,
00001000
00000000
00010000
01000000
00000000
00100000
00010000
10000000
01000000
00000000
00100000
00000000
01000000
10000000
00010000
10000000
,
00010000
00000000
10000000
00100000
01000000
00100000
00000000
10000000
00010000
00000000
10000000
00000000
01000000
00100000
00010000
01000000
,
00001000
00000000
00010000
00001000
00000000
00000010
00000100
00001000
00000001
00000000
00000010
00000000
00000001
00000010
00000100
00001000
,
00000010
00010000
00001000
01000000
00010000
01000000
00100000
10000000
00010000
00100000
01000000
00100000
00010000
10000000
01000000
00000000
,
11000000
00000000
00000000
01010000
00000000
00000000
00011000
00000000
00010000
00001000
00000000
00001010
00000000
00000000
00000011
00000000
,
00002002
00000000
00000000
00000000
,
00003003
00000000
00000000
00000000
;
