#VERSION:0.83;
#TITLE:WILD SIDE(Fred-Special);
#ARTIST:Tatsh;
#BANNER:WILD SIDE(Fred-Special).png;
#BACKGROUND:WILD SIDE(Fred-Special)-bg.png;
#CDTITLE:./CDTitles/DDR (2013).png;
#MUSIC:WILD SIDE(Fred-Special).ogg;
#SAMPLESTART:24.74;
#SAMPLELENGTH:15;
#BPMS:0=165,266=330,267=165;
#STOPS:266=0.046,266.25=0.045,266.5=0.046,266.75=0.045;
#BGSTAGE:28;

//--------------- dance-single - Fred-104 ----------------
#NOTEDATA:;
#STEPSTYPE:dance-single;
#DESCRIPTION:Fred-104;
#DIFFICULTY:Challenge;
#METER:16;
#CREDIT:Fred-104;
#NOTES:
0000
0000
0000
0000
,
0000
0000
0000
0000
,
0000
0000
0000
0000
,
0000
0000
0000
0000
,
0000
0000
0000
0000
,
0000
0000
0000
0000
,
0000
0000
0000
0000
,
0000
0000
0000
0000
,
0000
0000
0000
0000
,
1000
0000
0010
1000
0000
1000
0100
0000
0100
0010
0000
0010
0001
0000
0100
0000
,
0002
0000
0000
0100
0000
0000
1003
0000
2000
0000
0000
0100
0000
0000
3001
0000
,
1000
0000
0001
0010
0000
0010
0100
0000
0100
1000
0000
1000
0001
0000
0100
0000
,
0020
0000
0000
1000
0000
0000
0130
0000
0001
0000
0100
0000
1000
0000
0100
0001
,
1000
0000
1000
0100
0000
0010
0001
0000
1000
0010
0000
0100
0001
0000
1000
0000
,
0002
0000
0103
2000
0000
3100
0002
0000
1003
0000
0100
0010
0001
0000
1000
0000
,
0001
0000
0010
1000
0000
0010
0100
0000
0001
0100
0000
1000
0001
0000
1000
0000
,
1010
0000
0000
0101
0000
0000
1100
0000
0001
1000
0100
0010
0002
0000
0000
0000
,
1003
0010
0000
0001
0010
0000
0100
1000
0000
0100
0010
0000
1000
0000
0001
0000
,
1000
0000
1000
0100
0010
0000
0012
0000
0000
0000
0103
0000
1000
0000
0100
0000
,
0001
0100
0000
1000
0100
0000
0001
0000
0011
0000
1000
0000
0001
0000
1000
0000
,
0001
0000
0100
1000
0000
0001
0010
0000
1000
0000
1001
0000
0001
1000
0200
0310
,
0001
0100
0000
0100
1000
0000
0001
0010
0000
0010
1000
0000
0001
0000
0100
0000
,
0010
0000
1000
0001
0100
0000
0010
1000
0000
1000
0100
0000
0010
0000
0001
0000
,
1000
0100
0000
0001
0100
0000
0010
0100
0000
1000
0001
0000
0100
0000
0010
0000
,
1000
0010
0100
0001
0010
0100
1000
0000
0010
0100
0010
1000
0100
0010
0001
1000
,
0001
0100
0010
0001
1000
0100
0010
1000
,
0100
0000
0001
0000
1000
0000
0010
0000
0001
0000
1000
0000
0001
0000
0100
0010
,
0100
1000
0100
0001
1000
0010
0001
1000
,
0100
0000
0010
0000
1000
0000
0100
0000
0001
0000
1000
0000
0010
0000
0100
1000
,
0001
0000
1000
0100
0010
0000
1000
0000
0010
0000
0001
0010
0100
0000
1000
0000
,
0001
0000
0100
0010
0001
0000
1000
0000
0100
0000
0001
1000
0100
0000
0010
0000
,
0012
0003
0101
0010
2000
3000
1100
0010
,
0001
0100
0010
1000
0001
0000
1000
0010
0100
0010
0001
1000
0100
0010
0100
0001
,
1000
0000
0100
1000
0000
0001
0200
0000
0000
0000
1300
0000
0100
0000
0001
0000
,
1000
0000
0001
0010
0000
0001
0100
0000
0001
0000
1010
0000
0001
0000
1100
0000
,
0001
0000
0010
0001
0000
1000
0020
0000
0000
0000
0031
0000
0010
0000
0100
0000
,
0001
0000
1000
0100
0000
0100
0010
0000
0001
0000
0101
0000
1000
0000
1100
0000
,
0001
0000
1000
0100
0000
0010
2000
0000
0000
0000
3001
0000
0100
0010
0001
0000
,
1000
0000
0001
0100
0000
0001
1000
0000
0010
0000
0010
0000
0100
0000
0100
0000
,
0001
0000
0000
0011
0000
0000
0100
0000
1000
0000
0000
1010
0000
0000
0100
0000
,
0001
0000
0000
1001
0000
0000
1000
0000
0001
0100
0010
1000
0001
0010
0100
1000
,
0001
0000
0010
0001
0000
0001
0100
0000
0100
0010
0000
0010
1000
0000
0100
0000
,
2000
0000
0000
0100
0000
0000
3001
0000
0002
0000
0000
0100
0000
0000
1003
0000
,
0001
0000
1000
0010
0000
0010
0100
0000
0100
0001
0000
0001
1000
0000
0100
0000
,
0020
0000
0000
0001
0000
0000
0130
0000
1000
0000
0100
0000
0001
0000
0100
1000
,
0001
0000
0001
0100
0000
0010
1000
0000
0001
0010
0000
0100
1000
0000
0001
0000
,
2000
0000
3100
0002
0000
0103
2000
0000
3001
0000
0100
0010
1000
0000
0001
0000
,
1000
0000
0010
0001
0000
0010
0100
0000
1000
0100
0000
0001
1000
0000
0001
0000
,
0011
0000
0000
1100
0000
0000
0101
0000
1000
0001
0100
0010
2000
0000
0000
0000
,
3001
0010
1000
0010
0001
0000
1000
0010
0000
0100
0010
0000
1000
0000
0001
0000
,
1000
0000
0001
1000
0000
0100
1000
0100
0010
0000
0001
0100
0000
0010
1000
0010
,
0100
0001
0100
1000
0100
0000
0001
0010
0000
0100
1000
0000
0001
0000
0010
0000
,
0001
0000
1000
0100
0000
0100
0010
0001
1000
0000
0010
0100
0010
0000
1000
0000
,
0001
0100
0010
1000
0100
0000
0001
0100
0000
0010
0001
0000
1000
0000
0010
0000
,
1000
0000
0001
0010
0000
0100
0010
0100
2000
0000
0010
0000
3002
0000
0100
0000
,
1003
0100
1000
0001
0010
0000
1000
0001
0000
0100
0010
0000
0001
0000
0100
0000
,
0010
0001
1000
0100
0001
1000
0100
0000
0110
0000
0000
0000
1001
0000
0000
0000
,
1000
0000
0100
0010
0000
0000
0011
0000
0001
0000
0100
0010
0000
0000
1010
0000
,
1000
0000
0100
0010
0000
0000
0011
0000
1000
0000
0110
0000
0001
0000
0110
0000
,
1000
0000
1000
0001
0000
0000
0011
0000
0001
0000
0100
0010
0000
0000
1010
0000
,
1000
0000
0100
0010
0000
0000
0011
0000
0001
0000
1010
0000
0001
0000
1100
0000
,
0001
0000
1000
0100
0000
0100
0010
0000
0001
0000
0100
0010
0000
0010
1000
0000
,
0001
0000
0100
1000
0000
1000
0100
0000
0001
0000
0010
0100
1000
0000
0001
0000
,
1000
0000
0100
0010
0000
0100
0001
0100
1000
0000
0001
0100
0000
1000
0100
0010
,
0200
0000
0000
0000
,
0000
0000
0000
0300
,
1100
0000
0000
0000
0000
0000
0000
0000
0101
0000
0000
0000
0000
0000
0000
0000
0000
0000
0000
0000
0000
0000
0000
0000
0110
0000
0000
0000
0000
0000
0000
0000
2000
3000
0000
0000
0200
0300
0000
0000
0020
0030
0000
0000
2000
3000
0000
0000
0001
0000
0000
0000
0100
0000
0000
0000
0010
0000
0000
0000
0001
0000
0000
0000
,
1000
0100
0001
0000
0100
1000
0010
0000
,
0001
0010
1000
0000
0100
0001
1000
0100
,
0220
0000
0000
0000
,
0000
0000
0000
0000
,
0000
0000
0000
0330
;

//--------------- dance-double - Fred-104 ----------------
#NOTEDATA:;
#STEPSTYPE:dance-double;
#DESCRIPTION:Fred-104;
#DIFFICULTY:Challenge;
#METER:16;
#CREDIT:Fred-104;
#NOTES:
00000000
00000000
00000000
00000000
,
00000000
00000000
00000000
00000000
,
00000000
00000000
00000000
00000000
,
00000000
00000000
00000000
00000000
,
00000000
00000000
00000000
00000000
,
00000000
00000000
00000000
00000000
,
00000000
00000000
00000000
00000000
,
00000000
00000000
00000000
00000000
,
00000000
00000000
00000000
00000000
,
00001000
00000000
00000001
00000100
00000000
00000100
00001000
00000000
00001000
00010000
00000000
00010000
01000000
00000000
10000000
00000000
,
00010000
00000000
01000000
00100000
00000000
10000000
01000000
00000000
00100000
00000000
00000000
00011000
00000000
00000000
00001000
00000000
,
00010000
00000000
00000010
00001000
00000000
00001000
00000100
00000000
00000100
00000010
00000000
00000010
00000001
00000000
00001000
00000000
,
00000001
00000000
00000100
00000010
00000000
00000100
00001000
00000000
00010000
00000000
00100000
00000000
01000000
00000000
01100000
00000000
,
00010000
00000000
10000000
00100000
00000000
00010000
00100000
00000000
01000000
10000000
00000000
01000000
00010000
00000000
10000000
00000000
,
01000000
00000000
00100000
00001000
00000000
00010000
00001000
00000000
00000100
00000000
00001000
00010000
01000000
00000000
10000000
00000000
,
00010000
00000000
01000000
00001000
00000000
00010000
00001000
00000000
00000100
00000001
00000000
00000010
00000100
00000000
00001000
00000000
,
00001010
00000000
00000000
00000101
00000000
00000000
00001100
00000000
00010000
00001000
00010000
00001000
00020000
00000000
00000000
00000000
,
00031000
00010000
00000000
00100000
00010000
00000000
00001000
00010000
00000000
00000010
00010000
00000000
00001000
00000000
00010000
00000000
,
00100000
00000000
01000000
00100000
01000000
00000000
00010000
00000000
10000000
00000000
01000000
00000000
00001000
00000000
00000100
00000000
,
00000010
00000000
00000001
00000010
00000000
00001000
00000010
00000000
00000100
00000000
00001000
00000000
00000010
00000000
00000100
00000000
,
00001000
00000000
00010000
00100000
00000000
01000000
00010000
00000000
10000000
00000000
00010000
00000000
00100000
01000000
10000000
00010000
,
10000000
01000000
00000000
00010000
00001000
00000000
00010000
00100000
00000000
01000000
00001000
00000000
00100000
00000000
00010000
00000000
,
00001000
00000000
00000100
00000010
00000001
00000000
00000100
00000000
00000000
00000010
00000100
00000000
00001000
00000000
00000100
00000000
,
00000001
00000010
00000000
00000100
00000010
00000000
00001000
00010000
00000000
00100000
10000000
00000000
01000000
00000000
00100000
00000000
,
00001000
00010000
00100000
00000000
10000000
01000000
00100000
00000000
00001000
00010000
00001000
00010000
00000010
00001000
00000010
00000100
,
00000001
00000100
00001000
00010000
00100000
01000000
00010000
00100000
,
10000000
00100000
00001000
00010000
00000010
00000001
00000010
00010000
,
00001000
00010000
00000100
00000010
00000001
00000100
00001000
00010000
,
00100000
01000000
00010000
00100000
01000000
00001000
00000100
00000010
,
00000001
00000000
00000100
00000010
00000001
00000000
00000010
00000000
00000100
00000000
00000001
00000100
00001000
00000000
00010000
00000000
,
00100000
00000000
01000000
00010000
00100000
00000000
01000000
00000000
10000000
00000000
00100000
01000000
00010000
00000000
10000000
00000000
,
20010000
00000000
31000000
00010000
00012000
00000000
00003100
00000001
,
00001000
00000010
00001000
00000010
00000100
00000000
00000001
00000010
00000100
00001000
00000100
00010000
00001000
01000000
00010000
10000000
,
00100000
00000000
10000000
01000000
00000000
01000000
00020000
00000000
00000000
00000000
10030000
00000000
01000000
00000000
00100000
00000000
,
00001000
00010000
00000000
00001000
00010000
00000000
00000100
00000000
00001100
00000000
00000001
00000000
00000101
00000000
00001000
00000000
,
00000001
00000000
00001000
00000010
00000000
00000010
00000002
00000000
00000000
00000000
00000103
00000000
00001000
00000000
00010000
00000000
,
00001000
00010000
00000000
01000000
00100000
00000000
00010000
00000000
00110000
00000000
10000000
00000000
01010000
00000000
10000000
00000000
,
00010000
00000000
10000000
01000000
00000000
01000000
00200000
00000000
00000000
00000000
10300000
00000000
00100000
00000000
00010000
00000000
,
00001000
00010000
00000000
00000010
00010000
00000000
00001000
00000000
00000010
00000000
00000100
00000000
00001000
00000000
00000001
00000000
,
00000100
00000000
00000000
00000110
00000000
00000000
00000001
00000000
00001000
00000000
00000000
00010100
00000000
00000000
00001000
00000000
,
01000000
00000000
00000000
10010000
00000000
00000000
01000000
00000000
00010000
00100000
01000000
10000000
00010000
01000000
00100000
10000000
,
00010000
00000000
10000000
01000000
00000000
01000000
00010000
00000000
00010000
00001000
00000000
00001000
00000100
00000000
00000001
00000000
,
00001000
00000000
00000100
00000010
00000000
00000001
00000100
00000000
00000010
00000000
00000000
00011000
00000000
00000000
00010000
00000000
,
00001000
00000000
00100000
00010000
00000000
00010000
01000000
00000000
01000000
00100000
00000000
00100000
10000000
00000000
00010000
00000000
,
10000000
00000000
01000000
00100000
00000000
01000000
00010000
00000000
00001000
00000000
00000010
00000000
00000100
00000000
00000110
00000000
,
00001000
00000000
00000001
00000010
00000000
00001000
00000010
00000000
00000100
00000001
00000000
00000100
00001000
00000000
00000001
00000000
,
00000100
00000000
00000010
00010000
00000000
00001000
00010000
00000000
01000000
00000000
00010000
00001000
00000100
00000000
00000001
00000000
,
00001000
00000000
00000100
00010000
00000000
00001000
00010000
00000000
01000000
10000000
00000000
00100000
01000000
00000000
00010000
00000000
,
00110000
00000000
00000000
11000000
00000000
00000000
01010000
00000000
00001000
00010000
00001000
00010000
00002000
00000000
00000000
00000000
,
00013000
00000100
00001000
00000100
00010000
00000000
00000010
00001000
00000000
00000001
00000010
00000000
00000100
00000000
00000010
00000000
,
00000001
00000000
00001000
00000010
00000000
00000100
00001000
00010000
00100000
00000000
01000000
00010000
00000000
10000000
00100000
00000000
,
10000000
01000000
00010000
00001000
00010000
00000000
00001000
00010000
00000000
01000000
00100000
00000000
00001000
00000000
00010000
00000000
,
00001000
00000000
00000100
00000010
00000000
00010000
00001000
00000100
00000001
00000000
00001000
00000100
00000010
00000000
00000001
00000000
,
00001000
00000010
00000100
00001000
00000100
00000000
00000001
00001000
00000000
00000100
00000010
00000000
00000001
00000000
00000100
00000000
,
00001000
00010000
00001000
00010000
00100000
00000000
01000000
00010000
00100000
01000000
10000000
00100000
01000000
00000000
00010000
00000000
,
10000000
01000000
00010000
01000000
00100000
00000000
00010000
10000000
00000000
00100000
00010000
00000000
00001000
00000000
00000100
00000000
,
00000010
00001000
00000100
00000010
00000001
00000100
00000010
00000000
00000110
00000000
00000000
00000000
00011000
00000000
00000000
00000000
,
00001000
00000000
01000000
00100000
00000000
00000000
01100000
00000000
10000000
00000000
01000000
00100000
00000000
00000000
00110000
00000000
,
00001000
00000000
00010000
00000010
00000000
00000000
00001010
00000000
00000010
00000000
00000100
00000000
00000001
00000000
00001000
00000000
,
00000001
00000000
00000100
00001000
00000000
00000000
00001100
00000000
00001000
00000000
00010000
01000000
00000000
00000000
01010000
00000000
,
10000000
00000000
01000000
00100000
00000000
00000000
01100000
00000000
01000000
00000000
00001000
00000000
00010000
00000000
00000010
00000000
,
00001000
00000000
00000100
00000001
00000000
00000100
00001000
00000000
00000001
00000000
00000100
00001000
00000000
00010000
01000000
00000000
,
10000000
00000000
00010000
01000000
00000000
10000000
01000000
00000000
00010000
00000000
10000000
01000000
00010000
00000000
00001000
00000000
,
00000100
00000000
00000001
00000010
00000000
00000100
00000010
00000001
00000100
00000000
00001000
00010000
00000000
01000000
10000000
01000000
,
00200000
00000000
00000000
00000000
,
00000000
00000000
00000000
00300000
,
11000000
00000000
00000000
00000000
00000000
00000000
00000000
00000000
11000000
00000000
00000000
00000000
00000000
00000000
00000000
00000000
00000000
00000000
00000000
00000000
00000000
00000000
00000000
00000000
00100000
00000000
00000000
00000000
00000000
00000000
00000000
00000000
00002000
00003000
00000000
00000000
00020000
00030000
00000000
00000000
00000200
00000300
00000000
00000000
00002000
00003000
00000000
00000000
00000100
00000000
00000000
00000000
00000010
00000000
00000000
00000000
00000001
00000000
00000000
00000000
00001000
00000000
00000000
00000000
,
00000001
00000010
00001000
00010000
,
01000000
00000000
10000000
00000000
00010000
01000000
00100000
00000000
,
20020000
00000000
00000000
00000000
,
00000000
00000000
00000000
00000000
,
00000000
00000000
00000000
30030000
;
