#VERSION:0.83;
#TITLE:WICKeD CRφSS;
#ARTIST:OSTER project;
#TITLETRANSLIT:WICKeD CROSS;
#BANNER:WICKeD CROSS.png;
#BACKGROUND:WICKeD CROSS-bg.png;
#CDTITLE:./CDTitles/RB groovin'!!.png;
#MUSIC:WICKeD CROSS.ogg;
#SAMPLESTART:13.334;
#SAMPLELENGTH:15;
#DISPLAYBPM:180;
#BPMS:0=179.3,4=180;
#TIMESIGNATURES:0=4=4,144=3=4,192=4=4;
#BGSTAGE:29;

//--------------- dance-single - SPooKY FRΣD ----------------
#NOTEDATA:;
#STEPSTYPE:dance-single;
#DESCRIPTION:SPooKY FRΣD;
#DIFFICULTY:Beginner;
#METER:3;
#CREDIT:SPooKY FRΣD;
#NOTES:
0000
0000
0000
0000
,
0000
0000
0000
0000
,
0000
0000
0000
0000
,
0000
0000
0000
0000
,
0000
0000
0000
0000
,
1000
0000
0000
0000
,
0002
0000
0003
0000
,
1000
0000
0000
0000
,
0002
0000
0000
0000
,
0003
0000
0000
0000
,
1001
0000
0000
0000
,
1000
0000
0000
0000
,
0001
0000
0000
0000
,
1000
0000
0000
0000
,
0001
0000
0100
0000
,
0001
0000
0000
0000
,
1000
0000
0100
0000
,
2000
0000
3000
0000
,
0000
0000
0000
0000
,
1001
0000
0000
0000
,
1000
0000
0000
0000
,
0000
0000
0000
0000
,
0001
0000
0000
0000
,
0000
0000
0000
0000
,
1000
0000
0000
0000
,
0001
0000
0000
0000
,
1000
0000
0000
0000
,
0001
0000
0000
0000
,
1000
0000
1000
0000
,
0010
0000
0000
0000
,
0100
0000
0001
0000
,
0010
0000
0000
0000
,
0001
0000
1000
0000
,
0001
0000
0000
0000
,
1000
0000
0010
0000
,
0100
0000
0000
0000
,
0001
0000
0000
1000
,
0000
0000
0001
0000
,
0000
0001
0000
0000
,
1000
0000
0000
0010
,
0000
0000
0100
0000
,
0000
0001
0000
0000
,
1000
0000
0000
0001
,
0000
0000
1000
0000
,
0000
0001
0000
0000
,
1000
0000
0000
0001
,
0000
0000
1000
0000
,
0000
0001
0000
0000
,
1001
0000
0000
0000
,
2000
0000
0000
3000
,
0002
0000
0000
0003
,
1000
0000
0010
0000
,
0100
0000
0001
0000
,
0001
0000
0010
0000
,
0001
0000
0100
0000
,
0001
0000
0100
0000
,
1000
0000
0100
0000
,
0001
0000
1000
0000
,
0001
0000
1000
0000
,
2002
0000
0000
3003
,
0001
0000
1000
0000
,
0001
0000
0010
0000
,
0100
0000
1000
0000
,
1001
0000
0000
0000
,
0001
0000
0000
0000
,
1000
0000
0000
0000
,
0001
0000
0000
0000
,
1000
0000
0010
0000
,
1000
0000
0001
0000
,
1000
0000
0001
0000
,
0001
0000
1000
0000
,
0001
0000
1000
1000
,
2002
0000
0000
0000
,
0000
0000
0000
3003
,
2002
0000
0000
0000
,
0000
0000
0000
0000
,
3003
2002
0000
0000
,
0000
0000
0000
0000
,
0000
0000
0000
0000
,
0000
3003
0000
0000
;

//--------------- dance-single - SPooKY FRΣD ----------------
#NOTEDATA:;
#STEPSTYPE:dance-single;
#DESCRIPTION:SPooKY FRΣD;
#DIFFICULTY:Easy;
#METER:9;
#CREDIT:SPooKY FRΣD;
#NOTES:
0000
0000
0000
0000
,
0000
0000
0000
0000
,
0000
0000
0000
0000
,
0000
0000
0000
0000
,
0000
0000
0000
0000
,
1000
0100
0001
0000
,
0001
0100
1000
0001
,
0100
0100
0010
0010
,
1000
1000
0001
0001
,
1001
0000
0000
0000
,
1001
0000
1010
1000
,
1001
0000
0011
0001
,
2002
3003
2000
3020
,
0130
0001
0100
0000
0001
1000
0001
0000
,
0100
0010
0100
0000
0001
0000
1000
0000
,
0100
0010
0001
0000
1000
0000
0001
0000
,
0100
0010
0100
0000
0001
0000
1000
0000
,
0100
1000
0100
0000
2000
0000
3200
0000
,
0320
0032
2003
3002
,
2003
0000
0000
3000
,
1001
0000
0000
0000
,
0100
0000
0000
0000
,
0010
0000
0000
0000
,
0001
0000
0000
0000
,
1000
0000
0010
0000
,
1000
0000
0100
0000
,
0010
0001
0010
0000
0001
1000
0001
0000
,
1000
0100
1000
0000
0001
0100
0001
0000
,
1000
0010
0001
0000
,
0001
0010
1000
0000
,
0001
0100
1000
0000
,
1000
0100
0001
0000
,
2000
3200
0320
0032
,
0203
0302
0023
0032
,
2003
3200
0302
0203
,
2300
3002
0203
0320
,
1030
0100
0010
1000
,
0010
0001
1000
0001
,
0100
1000
0100
0010
,
1000
0001
0010
0100
,
0010
0001
1000
0001
,
0100
0020
2030
3200
,
0310
0000
0001
0000
1000
0001
1000
0000
,
0010
0000
0100
0010
0100
0000
0001
0000
,
1000
0001
1000
0000
0010
0000
0100
0000
,
0002
0000
0000
1003
,
0000
0010
0000
0000
0100
0000
0000
0001
,
0000
1000
1000
0001
,
1001
0000
0000
0000
,
0001
1000
0100
0010
,
0001
1000
0010
0100
,
0001
0000
0100
0000
0001
0010
0001
0000
,
1000
0100
0001
0000
,
0001
0000
0100
0000
1000
0001
1000
0000
,
0010
0000
0100
0000
0001
0010
0001
0000
,
1000
0000
0001
0000
0100
0010
0100
0000
,
0001
0010
1000
0000
,
1000
0000
0010
0000
0001
1000
0001
0000
,
0100
0010
0100
0000
0001
0000
1000
0000
,
2002
0000
0000
3003
,
1000
0100
0010
0001
,
1000
0010
1000
0000
0010
0000
0100
0000
,
0001
0000
1000
0000
0001
0000
1000
1000
,
1000
0000
1001
0001
,
0101
0000
1001
1000
,
1100
0000
1000
0000
0010
0100
0010
0000
,
0100
0000
0001
0000
1000
0001
1000
0000
,
0001
0000
0010
0000
0100
1000
0010
0000
,
1000
0000
0100
0000
0010
0001
1000
0000
,
0001
0000
0100
0001
0010
0000
0100
0000
,
1000
0010
0100
0010
2000
0000
3002
0000
,
2003
3002
0203
0320
,
2030
0000
0000
0000
,
0000
0000
0000
3000
,
2002
0000
0000
0000
,
0000
0000
0000
0000
,
3003
2002
0000
0000
,
0000
0000
0000
0000
,
0000
0000
0000
0000
,
0000
3003
0000
0000
;

//--------------- dance-single - SPooKY FRΣD ----------------
#NOTEDATA:;
#STEPSTYPE:dance-single;
#DESCRIPTION:SPooKY FRΣD;
#DIFFICULTY:Medium;
#METER:12;
#CREDIT:SPooKY FRΣD;
#NOTES:
0000
0000
0000
0000
,
0000
0000
0000
0000
,
0000
0000
0000
0000
,
0000
0000
0000
0000
,
0000
0000
0000
0000
,
1001
0000
0001
0100
0010
0000
0100
0000
,
0002
0023
2030
3200
,
0301
0100
0001
0100
0010
0100
0010
0100
,
0010
1000
0010
1000
0100
0010
0100
0010
,
0000
0000
0000
0000
0000
0000
0001
1000
,
1001
0000
0011
0101
,
0110
0000
1010
1100
,
0220
0000
0330
0010
0002
0000
2003
0000
,
3001
0100
1000
0000
0001
0010
1000
0000
,
0001
0100
0010
0000
1000
0010
0100
0000
,
0010
1000
0100
0000
0010
0001
1000
0000
,
0001
0100
1000
0000
0100
0001
0010
0000
,
0100
0000
0000
1000
0000
0000
0001
0000
0000
0000
0000
0000
0100
0000
0000
0000
0100
0000
0010
0000
0000
0000
0010
0000
,
1000
0000
1000
0100
0000
0100
0010
0000
0010
0001
1000
0001
,
2000
0000
0000
3000
,
1001
0000
0001
0000
,
0100
0000
0100
0000
,
0010
0000
0010
0000
,
1000
0000
1000
0000
,
0001
0100
1000
0000
0100
0001
0010
0000
,
0100
1000
0001
0000
1000
0001
0010
0000
,
0001
0100
0001
0100
0010
1000
0010
1000
,
0100
0010
0001
1000
0001
0100
0010
0000
,
1000
0100
1000
0100
0010
0100
0010
0100
,
1000
0010
1000
0010
0100
0001
0100
0000
,
0001
0010
0001
0010
0100
0010
0100
0010
,
0001
0100
0001
0100
0010
1000
0001
0000
,
1000
0000
1000
0100
0000
0100
0010
0000
0010
0001
0000
0001
,
0100
0000
0100
0010
0000
0010
1000
0001
1000
0001
0000
0000
,
0010
0000
0010
0001
0000
0001
0100
0000
0100
0001
0000
0001
,
1000
0000
1000
0100
0000
0100
0010
0000
0010
0001
1000
0001
,
1000
0000
0100
0000
0001
0100
1000
0000
,
0100
0000
0001
0100
1000
0000
0010
0000
,
0001
0010
1000
0000
0010
0000
0001
0010
,
1000
0000
0001
0100
1000
0100
0010
0000
,
1000
0001
1000
0100
0010
0000
1000
0010
,
0001
1000
0001
0100
0010
0100
0001
1000
,
0001
0000
1000
0100
0001
0000
0100
0000
,
0010
0001
1000
0000
0001
0000
0100
0010
,
0001
0000
0000
0010
0000
0010
1000
0000
1000
0001
1000
0001
,
2000
0000
0000
3200
,
0000
0320
0000
0000
0032
0000
0000
0203
,
0000
0310
1000
0001
,
1001
0000
0000
0000
,
1000
0010
0100
1000
,
0001
0010
0100
0000
0001
1000
0010
0000
,
1000
0100
1000
0010
0100
0100
0100
0000
,
0001
0010
0010
0001
0100
0100
0001
0000
,
1000
0100
0010
0001
0100
0010
0100
0000
,
0001
0100
0010
0100
0001
1000
0001
0000
,
1000
0100
1000
0001
0100
0001
0010
0000
,
0001
0100
0100
0001
0010
0010
0001
0000
,
1000
0100
0010
0001
1000
0001
0100
0000
,
0001
0100
0001
0100
0010
1000
0100
0000
,
2002
0000
0000
3003
,
1000
0000
1000
0001
0000
0001
1000
0000
1000
0001
0000
0000
,
1000
0100
1000
0010
0100
0010
1000
0000
,
0001
0000
1000
0000
0010
0000
0100
0010
,
0110
0000
1010
0101
,
1001
0000
0000
0000
1100
0000
1000
0010
,
1000
0100
0010
0000
0001
0010
1000
0000
,
0010
0001
0100
0000
0010
1000
0001
0000
,
1000
0010
1000
0100
1000
0000
0010
0000
,
0100
0010
0100
0001
0010
0001
0100
0000
,
0001
0100
0001
0000
1000
0010
0100
0000
,
0001
0000
0000
1000
0000
0000
0010
0000
0000
0000
0000
0000
1000
0000
0000
0000
1000
0000
0100
0000
0000
0000
0100
0000
,
0010
0000
0010
0001
0000
0001
0100
0000
0100
0010
1000
0001
,
2000
0000
0000
0000
,
0000
0000
0000
3000
,
2002
0000
0000
0000
,
0000
0000
0000
0000
,
3003
0220
0000
0000
,
0000
0000
0000
0000
,
0000
0000
0000
0000
,
0000
0330
0000
0000
;

//--------------- dance-single - SPooKY FRΣD ----------------
#NOTEDATA:;
#STEPSTYPE:dance-single;
#DESCRIPTION:SPooKY FRΣD;
#DIFFICULTY:Hard;
#METER:16;
#CREDIT:SPooKY FRΣD;
#NOTES:
0000
0000
0000
0000
,
0000
0000
0000
0000
,
0000
0000
0000
0000
,
0000
0000
0000
0000
,
0000
0000
0000
0000
,
1100
0000
0000
0000
1000
0000
0001
0100
0001
0000
0000
0000
1000
0000
0100
0000
,
0020
0230
0302
0203
,
1300
0100
1000
0100
0010
0001
0010
0001
,
0100
0001
0100
0001
1000
0010
1000
0010
,
0000
0000
0000
0000
0000
0000
0000
0000
0000
0000
0000
0000
1000
0001
1000
0001
,
1000
0000
1100
0101
,
0110
0000
0000
0000
0000
0000
0000
0000
1010
0000
0000
0000
0001
1000
0010
1000
,
0002
0000
0003
0010
0200
0000
2300
0000
,
3001
0000
0100
0001
0100
0000
0010
1000
0100
1000
0100
0010
0001
0010
0001
1000
,
0001
0000
0010
0100
1000
0000
0010
0000
0100
0000
0001
0000
1000
0010
1000
0100
,
1000
0000
0010
1000
0001
0000
0100
0000
0001
0000
0010
0000
0100
1000
0010
1000
,
0100
0000
1000
0001
0100
0000
0010
0000
0100
0000
0001
0000
0010
0001
1000
0001
,
0100
0000
0000
0000
0000
0000
0001
0000
0000
1000
0000
0000
0010
0000
0000
0000
0000
0000
1000
0000
0000
0000
0000
0000
0001
0000
0000
0000
0100
0000
0000
0000
1000
0000
0000
0000
0100
0000
0000
0000
0001
0000
0000
0000
1000
0000
0000
0000
,
0001
0010
0100
0001
0100
0010
0001
0100
0010
0001
0010
0100
,
0002
0000
0000
0003
,
2001
0000
0010
0000
,
0001
0000
3100
0000
,
0002
0000
0100
0000
,
1000
0000
0013
0000
,
1000
0100
1000
0010
1000
0100
0010
0001
,
0100
0001
0010
0001
0200
0320
0230
0302
,
1003
0010
1000
0000
0001
0010
0001
0000
1000
0100
1000
0100
0010
0100
0010
0100
,
1000
0000
0001
1000
0010
0000
0100
0000
0001
0000
0100
0000
0010
0000
1000
0000
,
0001
0010
0100
1000
0010
0100
0010
1000
,
0100
0010
1000
0010
0100
1000
0001
0100
,
0001
0100
0010
0001
0010
1000
0001
0100
,
0010
0000
0100
0000
0010
0000
1000
0000
0001
0000
1000
0010
1000
0000
0001
0000
,
1000
0010
0001
0010
0100
0001
1000
0001
0100
1000
0100
0010
,
1000
0001
0010
0100
0001
0100
1000
0010
0001
1000
0100
0001
,
1000
0100
0010
0100
0001
1000
0010
0100
1000
0001
0100
0001
,
1000
0100
0010
0001
0010
0100
1000
0100
0010
0001
0100
1000
,
0100
0000
0010
1000
0001
0010
0100
0001
,
0100
1000
0001
0010
0001
0000
1000
0001
,
0010
0100
0001
1000
0010
0100
1000
0001
,
1000
0000
0001
0100
1000
0100
0001
0000
,
1000
0100
0001
0100
1000
0000
0001
0100
,
0010
0000
1000
0000
0001
0000
0010
0000
0100
1000
0100
1000
0001
1000
0001
1000
,
0001
0000
0000
0000
0100
0010
1000
0000
0010
1000
0100
0000
0010
0001
0100
0000
,
0001
0010
0100
0000
1000
0001
0010
0000
0001
0100
0001
0100
0010
0100
0010
0100
,
0001
0000
0000
1000
0000
0000
0001
0000
0010
0000
0100
0000
1000
0000
0010
0000
0100
0000
1000
0000
0100
0000
0001
0000
,
2000
0000
0000
3002
,
0000
0023
0000
0000
2030
0000
0000
3200
,
0000
0301
1000
0001
,
1001
0000
0000
0000
,
1000
1000
0100
0100
0010
0010
0001
0001
,
1000
0001
0010
0100
1000
0100
0010
0001
,
0100
0000
0010
0000
0100
0000
0001
0000
0100
0000
0010
1000
0010
0000
1000
0000
,
0100
1000
0100
1000
0100
0000
0010
0001
0010
0001
0010
0000
0001
1000
0001
0000
,
0100
0000
0001
0000
0010
0000
0001
0000
1000
0010
1000
0010
0100
0000
0010
0000
,
1000
0100
1000
0000
0001
0100
0001
0000
0100
0000
0010
0100
0010
0000
1000
0000
,
0001
0000
0010
0000
0010
0000
0100
0010
0100
0000
1000
0010
0100
0000
0010
0000
,
1000
0010
1000
0010
0100
0000
0001
0010
0001
0010
0100
0000
1000
0000
0001
0000
,
0100
0000
0010
0000
1000
0000
0010
0000
0100
0001
0100
0001
0010
0000
0100
0000
,
1000
0001
1000
0010
0100
0000
0001
0000
0100
0000
0010
0100
0010
1000
0001
0000
,
1000
0010
0100
0000
0001
0100
0010
0000
1000
0001
1000
0001
1000
0000
0000
0000
,
0001
0100
1000
0001
0010
1000
0001
0010
0100
1000
0000
0000
,
1000
0001
1000
0000
0100
0000
1000
0001
1000
0000
0100
0000
0010
0000
0100
0000
,
1000
0000
0000
0000
0100
0000
0000
0000
0001
0000
0000
0000
0100
0000
0000
0000
1000
0000
0000
0000
0010
0000
0000
0000
0100
0000
0000
0000
0000
0000
0000
0000
0000
0000
0000
0000
0001
0000
0000
1000
0000
0000
0001
0000
0000
1000
0000
0000
,
0001
0000
0011
1100
,
0101
0000
0000
0000
0000
0000
0000
0000
1010
0000
0000
0000
0001
1000
0010
0100
,
0001
0000
0010
0001
1000
0000
0010
0000
0100
0001
0100
0001
1000
0001
1000
0001
,
0100
0000
0010
0100
0010
0000
1000
0000
0100
1000
0001
1000
0100
0010
0001
1000
,
0001
0000
1000
0100
1000
0000
0010
0000
0100
0000
0001
0100
0001
0010
0100
1000
,
0100
0000
1000
0010
1000
0000
0001
0000
1000
0000
0100
1000
0001
0100
0001
1000
,
0010
0000
1000
0001
0010
0000
0100
0000
1000
0000
0001
0100
0010
0100
0001
0100
,
0010
0000
0000
0000
0000
0000
1000
0000
0000
0001
0000
0000
1000
0000
0000
0000
0000
0000
0100
0000
0000
0000
0000
0000
1000
0000
0000
0000
0010
0000
0000
0000
0100
0000
0000
0000
0001
0000
0000
0000
0010
0000
0000
0000
0100
0000
0000
0000
,
1000
0010
0100
1000
0100
0001
1000
0001
0010
0100
0001
0100
,
2000
0000
0000
0000
,
0000
0000
0000
3000
,
2002
0000
0000
0000
0000
0000
0000
0000
0000
0000
0000
0000
0000
0000
0000
0000
0000
0000
0000
0000
0000
0000
0000
0000
0000
0000
0000
0000
0000
0000
0000
0000
0000
0000
0000
0000
0000
0000
0000
0000
0000
0000
0000
0000
0000
0000
0000
0000
3003
0000
0000
0000
0000
0000
0000
0000
0000
0000
0000
0010
0000
0000
0000
0000
,
0000
0000
0000
0000
0000
0000
0000
0000
0000
0000
0000
0000
0000
0000
0000
0000
0000
0000
0000
0000
0000
0000
0000
0000
0000
0000
0000
0000
0000
0000
0000
0000
0000
0000
0000
0000
0000
0000
0000
0000
0000
0000
0000
0000
0000
0000
0000
0000
0000
0000
0100
0000
0000
0000
0000
0000
0000
0000
0000
0000
0000
0000
0000
0000
0000
0000
0000
0000
0000
0000
0000
0000
0000
0000
0000
0000
0000
0000
0000
0000
0000
0000
0000
0000
0000
0000
0000
0000
0000
0000
0000
0000
0000
0000
0000
0000
0000
0000
0000
0000
0000
0000
0000
0000
0000
0000
0000
0000
0000
0000
0000
0000
0000
0000
0000
0000
0000
0000
0000
0000
0000
0000
0000
0000
0000
0000
0000
0000
0000
0000
0000
0000
0000
0000
0000
0000
0000
0000
0000
0000
0000
0000
0000
0000
0000
0001
0000
0000
0000
0000
0000
0000
0000
0000
0000
0000
0000
0000
0000
0000
0000
0000
0000
0000
0000
0000
0000
0000
0000
0000
0000
0000
0000
0000
0000
0000
0000
0000
0000
0000
0000
0000
0000
0000
0000
0000
0000
0000
0000
0000
0000
0000
,
0000
2002
0000
0000
,
0000
0000
0000
0000
,
0000
0000
0000
0000
,
0000
3003
0000
0000
;

//--------------- dance-double - SPooKY FRΣD ----------------
#NOTEDATA:;
#STEPSTYPE:dance-double;
#DESCRIPTION:SPooKY FRΣD;
#DIFFICULTY:Easy;
#METER:8;
#CREDIT:SPooKY FRΣD;
#NOTES:
00000000
00000000
00000000
00000000
,
00000000
00000000
00000000
00000000
,
00000000
00000000
00000000
00000000
,
00000000
00000000
00000000
00000000
,
00000000
00000000
00000000
00000000
,
00010000
01000000
00100000
00000000
,
10000000
01000000
00100000
00000000
,
00001000
00001000
00010000
00010000
,
00000100
00000100
00001000
00000001
,
00000000
00000000
00000000
00000000
,
00001001
00000000
00000110
00000010
,
00001010
00000000
00011000
00001000
,
00202000
00303000
00200000
00320000
,
10030000
00010000
01000000
00100000
,
00010000
00001000
00010000
00000000
00001000
00000000
00000010
00000000
,
00000001
00001000
00000001
00000000
00000100
00000000
00000010
00000000
,
00001000
00000001
00001000
00000000
00000010
00000000
00010000
00000000
,
00001000
00010000
00001000
00000000
00020000
00000000
00032000
00000000
,
00023000
00030020
00002030
00003002
,
00000203
00000000
00000000
00000300
,
00000110
00000000
00000000
00000000
,
00000001
00000000
00000000
00000000
,
00001000
00000000
00000000
00000000
,
00000010
00000000
00000000
00000000
,
00010000
00000000
00001000
00000000
,
00100000
00000000
00010000
00000000
,
01000000
00001000
00010000
00001000
,
01000000
00001000
01000000
00000000
00001000
00010000
00001000
00000000
,
00100000
00010000
00001000
00000000
,
00000010
00001000
00010000
00000000
,
01000000
00010000
00001000
00000000
,
00000100
00001000
00010000
00000000
,
02000000
03020000
02030000
03020000
,
00032000
00003020
00002030
00003020
,
00002030
00003002
00002003
00003020
,
00000230
00000302
00000023
00002030
,
00013000
00000000
00010000
01000000
,
00000000
01000000
10000000
00000000
,
10000000
00100000
00000000
00100000
,
00010000
00000000
00010000
00001000
,
00000000
00001000
00000100
00000000
,
00000100
00002002
00000000
00003003
,
00001000
00000000
00000001
00000000
00000100
00000010
00000100
00000000
,
00000001
00000000
00001000
00000010
00001000
00000000
00000100
00000000
,
00010000
00001000
00010000
00000000
01000000
00000000
00100000
00000000
,
02000000
00000000
00000000
03010000
,
00000000
01000000
00000000
00000000
00100000
00000000
00000000
10000000
,
00000000
01000000
01000000
00100000
,
10010000
00000000
00000000
00000000
,
00010000
00010000
00001000
00001000
,
00010000
00000000
00000000
00000000
,
00000010
00000000
00010000
00000000
00000010
00001000
00000010
00000000
,
00010000
00001000
00010000
00000000
,
00001000
00000000
01000000
00000000
00001000
00010000
00001000
00000000
,
00100000
00000000
00001000
00000000
00010000
00001000
00010000
00000000
,
00001000
00000000
00100000
00000000
00010000
00100000
00010000
00000000
,
01000000
00100000
10000000
00000000
,
10000000
00000000
00100000
00000000
00010000
00001000
00010000
00000000
,
00001000
00000010
00001000
00000000
00000010
00000000
00000001
00000000
,
00002002
00000000
00000000
00003003
,
00000001
00000100
00001000
00000100
,
00000001
00001000
00000001
00000000
00000100
00000000
00000010
00000000
,
00001000
00000000
00000100
00000000
00010000
00000000
00001000
00001000
,
00001000
00000000
00011000
00001000
,
00101000
00000000
00110000
00010000
,
10010000
00000000
10000000
00000000
00010000
01000000
00010000
00000000
,
10000000
01000000
00100000
00010000
,
01000000
00000000
00010000
00000000
00100000
00001000
00100000
00000000
,
00001000
00000000
00010000
00000000
00000100
00001000
00000100
00000000
,
00000010
00000000
00000001
00000100
00000001
00000000
00001000
00000000
,
00000010
00000100
00000010
00000100
00000020
00000000
00020030
00000000
,
00032000
00203000
00302000
00023000
,
00032000
00000000
00000000
00000000
,
00000000
00000000
00000000
00003000
,
00022000
00000000
00000000
00000000
,
00000000
00000000
00000000
00000000
,
00033000
02200000
00000000
00000000
,
00000000
00000000
00000000
00000000
,
00000000
00000000
00000000
00000000
,
00000000
03300000
00000000
00000000
;

//--------------- dance-double - SPooKY FRΣD ----------------
#NOTEDATA:;
#STEPSTYPE:dance-double;
#DESCRIPTION:SPooKY FRΣD;
#DIFFICULTY:Medium;
#METER:12;
#CREDIT:SPooKY FRΣD;
#NOTES:
00000000
00000000
00000000
00000000
,
00000000
00000000
00000000
00000000
,
00000000
00000000
00000000
00000000
,
00000000
00000000
00000000
00000000
,
00000000
00000000
00000000
00000000
,
00011000
00000000
00001000
00010000
00001000
00000000
00100000
00000000
,
00020000
02030000
03200000
20300000
,
30010000
00100000
00010000
00100000
01000000
00100000
01000000
00100000
,
01000000
10000000
01000000
10000000
00010000
01000000
00100000
10000000
,
00000000
00000000
00000000
00000000
00000000
00000000
01000000
00100000
,
01100000
00000000
00101000
00101000
,
00011000
00000000
00010010
00010010
,
00022000
00000000
00033000
00001000
00020000
00000000
00032000
00000000
,
00013000
00001000
00000010
00000000
00001000
00010000
00100000
00000000
,
00001000
00010000
00001000
00000000
00100000
00010000
10000000
00000000
,
01000000
00100000
00001000
00000000
00010000
00001000
00000010
00000000
,
00000001
00001000
00000001
00000000
00000100
00000010
00001000
00000000
,
00000001
00000000
00000000
00000100
00000000
00000000
00001000
00000000
00000000
00000000
00000000
00000000
00010000
00000000
00000000
00000000
00010000
00000000
01000000
00000000
00000000
00000000
01000000
00000000
,
10000000
00000000
10000000
00100000
00000000
00100000
00010000
00000000
00010000
00001000
00010000
00000010
,
00020000
00000000
00000000
00030000
,
00011000
00000000
00001000
00000000
,
00000010
00000000
00000010
00000000
,
00000001
00000000
00000001
00000000
,
00000100
00000000
00000100
00000000
,
00001000
00010000
01000000
00000000
00010000
00001000
00000100
00000000
,
00001000
00010000
00100000
00000000
00010000
00001000
00000010
00000000
,
00001000
00010000
00100000
10000000
,
00010000
01000000
00100000
10000000
01000000
00100000
00001000
00000000
,
00010000
00001000
00010000
00000010
00001000
00000010
00000100
00000001
,
00000100
00000001
00000010
00000100
00001000
00000100
00010000
00000000
,
00010000
00001000
00010000
00001000
00100000
00010000
01000000
00010000
,
00100000
01000000
10000000
00100000
01000000
00010000
10000000
00000000
,
00100000
00000000
00100000
01000000
00000000
01000000
00001000
00000000
00001000
00010000
00000000
00010000
,
00000100
00000000
00000100
00000010
00000000
00000010
00000001
00001000
00000001
00001000
00000000
00000000
,
00000001
00000000
00000001
00000100
00000000
00000100
00001000
00000000
00001000
00010000
00000000
00010000
,
01000000
00000000
01000000
10000000
00000000
10000000
00010000
00000000
00010000
01000000
00100000
01000000
,
00010000
01000000
10000000
00100000
,
00010000
00001000
00000100
00000001
,
00000010
00001000
00010000
01000000
,
10000000
00000000
00010000
01000000
00100000
00000000
10000000
00000000
,
01000000
00100000
00001000
00000000
00010000
00000000
00000100
00000010
,
00000001
00000000
00001000
00000010
00000100
00000010
00001000
00000001
,
00001000
00000000
00000001
00000010
00000100
00000000
00010000
00000000
,
00001000
00010000
00001000
00000000
00100000
00000000
00010000
10000000
,
00100000
00000000
00000000
10000000
00000000
10000000
01000000
00000000
01000000
00100000
00001000
00010000
,
00002000
00000000
00000000
02003000
,
00000000
03002000
00000000
00000000
00023000
00000000
00000000
00032000
,
00000000
00103000
00001000
00010000
,
00011000
00000000
00000000
00000000
,
00010000
00100000
00001000
00000010
,
00010000
00001000
00010000
00000000
00001000
00100000
00010000
00000000
,
10000000
00100000
01000000
00010000
00100000
00100000
00100000
00000000
,
00001000
00010000
00010000
00000010
00010000
00010000
00001000
00000000
,
00010000
00001000
00000100
00000000
00000001
00001000
00000010
00000000
,
00001000
00000010
00000100
00000010
00001000
00000001
00000100
00000000
,
00000001
00000100
00000001
00000100
00001000
00001000
00001000
00000000
,
00010000
01000000
10000000
00010000
00100000
10000000
00010000
00000000
,
10000000
01000000
00100000
00000000
00001000
00010000
00100000
00000000
,
10000000
01000000
00100000
00010000
01000000
00100000
00010000
00000000
,
00022000
00000000
00000000
00033000
,
00010000
00000000
00001000
00010000
00000000
00001000
00010000
00000000
00001000
00010000
00000000
00000000
,
00000010
00001000
00000010
00001000
00000010
00000100
00000001
00000000
,
00001000
00000000
00000100
00000000
00000010
00000000
00000001
00000100
,
00000110
00000000
00010100
00010100
,
00011000
00000000
00000000
00000000
01001000
00000000
00001000
00100000
,
00001000
00010000
00100000
00000000
10000000
01000000
00100000
00000000
,
00001000
00010000
01000000
00000000
10000000
00010000
10000000
00000000
,
00010000
01000000
00010000
01000000
00100000
00000000
10000000
00000000
,
01000000
00100000
01000000
00100000
00010000
00001000
00010000
00000000
,
00001000
00010000
00001000
00000000
00000100
00000010
00000001
00000000
,
00001000
00000000
00000000
00000001
00000000
00000000
00000100
00000000
00000000
00000000
00000000
00000000
00000001
00000000
00000000
00000000
00000001
00000000
00000010
00000000
00000000
00000000
00000010
00000000
,
00001000
00000000
00001000
00010000
00000000
00010000
00100000
00000000
00100000
10000000
00010000
10000000
,
02000000
00000000
00000000
00000000
,
00000000
00000000
00000000
03000000
,
00220000
00000000
00000000
00000000
,
00000000
00000000
00000000
00000000
,
00330000
00022000
00000000
00000000
,
00000000
00000000
00000000
00000000
,
00000000
00000000
00000000
00000000
,
00000000
00033000
00000000
00000000
;

//--------------- dance-double - SPooKY FRΣD ----------------
#NOTEDATA:;
#STEPSTYPE:dance-double;
#DESCRIPTION:SPooKY FRΣD;
#DIFFICULTY:Hard;
#METER:16;
#CREDIT:SPooKY FRΣD;
#NOTES:
00000000
00000000
00000000
00000000
,
00000000
00000000
00000000
00000000
,
00000000
00000000
00000000
00000000
,
00000000
00000000
00000000
00000000
,
00000000
00000000
00000000
00000000
,
00011000
00000000
00000010
00001000
00000100
00000000
00001000
00000010
,
00000200
00000302
00002003
00003002
,
00001003
00000001
00000100
00000001
00000100
00001000
00010000
00001000
,
00010000
01000000
00010000
01000000
10000000
00010000
10000000
00010000
,
00000000
00000000
00000000
00000000
00000000
00000000
00000000
00000000
00000000
00000000
00000000
00000000
01000000
00100000
01000000
00100000
,
01000000
00000000
00101000
00011000
,
00010010
00000000
00000000
00000000
00000000
00000000
00000000
00000000
00011000
00000000
00000000
00000000
00010000
00001000
00010000
00001000
,
00020000
00000000
00030000
00000100
00020000
00000000
00032000
00000000
,
00013000
00000000
00000100
00001000
00000100
00000000
00000010
00000000
00000001
00000100
00000001
00000100
00000010
00001000
00000010
00000000
,
00001000
00000000
00000010
00000100
00000010
00000000
00001000
00000000
00000100
00000000
00010000
00000000
00001000
00100000
00001000
00000000
,
01000000
00000000
00010000
00100000
00010000
00000000
01000000
00000000
00010000
00000000
10000000
00000000
01000000
00100000
01000000
00000000
,
10000000
00000000
00100000
01000000
00100000
00000000
10000000
00000000
01000000
00000000
00100000
00000000
00001000
00010000
00001000
00000000
,
00010000
00000000
00000000
00000000
00000000
00000000
00000010
00000000
00000000
00001000
00000000
00000000
00000010
00000000
00000000
00000000
00000000
00000000
00000100
00000000
00000000
00000000
00000000
00000000
00000001
00000000
00000000
00000000
00000010
00000000
00000000
00000000
00000100
00000000
00000000
00000000
00001000
00000000
00000000
00000000
00000010
00000000
00000000
00000000
00000100
00000000
00000000
00000000
,
00001000
00010000
00000100
00001000
00010000
00100000
00001000
00010000
00100000
01000000
10000000
00010000
,
20000000
00000000
00000000
30000000
,
10010000
00000000
01000000
00000000
,
00010000
00000000
00001000
00000000
,
00000010
00000000
00000001
00000000
,
00000100
00000000
00001000
00000000
,
00010000
00001000
00010000
01000000
00010000
01000000
10000000
00000000
,
01000000
10000000
01000000
00010000
00002000
00003200
00000302
00000000
,
00001003
00000001
00001000
00000000
00000010
00000100
00000010
00000000
00001000
00000010
00000100
00000000
00000001
00000010
00000100
00000000
,
00000010
00000000
00000001
00001000
00000001
00000000
00000100
00000000
00001000
00000000
00010000
00000000
01000000
00000000
10000000
00000000
,
00010000
10000000
00010000
00100000
01000000
10000000
01000000
00010000
,
00001000
00000100
00000001
00001000
00000010
00001000
00000100
00000010
,
00000001
00000100
00001000
00000100
00000001
00000100
00001000
00010000
,
01000000
00000000
10000000
00000000
00010000
00000000
01000000
00000000
00100000
00000000
10000000
00010000
10000000
00000000
01000000
00000000
,
10000000
00000000
10000000
00100000
00010000
00100000
00010000
00001000
00010000
00001000
00000010
00000001
,
00000010
00000000
00000001
00000100
00000001
00000100
00001000
00010000
00001000
00010000
01000000
10000000
,
01000000
10000000
00100000
01000000
00010000
00100000
00001000
00010000
00000100
00001000
00000010
00000100
,
00000001
00000010
00001000
00010000
00100000
10000000
01000000
00010000
00001000
00010000
00000000
00000000
,
00011000
00000000
00010000
00000100
00001000
00000010
00010000
00001000
,
01000000
00010000
00100000
00001000
00010000
00000000
00000010
00001000
,
00000100
00010000
00000010
00000100
00001000
00010000
00100000
01000000
,
00001000
00000000
00100000
00001000
00010000
00001000
00000010
00000000
,
00010000
00001000
00010000
00000100
00001000
00000000
00000100
00010000
,
00001000
00000000
00010000
00000000
01000000
00000000
00100000
00000000
10000000
00000000
01000000
00000000
00100000
00010000
00100000
00010000
,
00100000
00000000
00000000
00000000
00001000
00010000
00001000
00000000
00010000
00000100
00010000
00000000
00000010
00001000
00000010
00000000
,
00000100
00000010
00000100
00000000
00000001
00000100
00000001
00000000
00001000
00000010
00000100
00000000
00000001
00000000
00001000
00000100
,
00000010
00000000
00000000
00000001
00000000
00000000
00000100
00000000
00000001
00000000
00000010
00000000
00000100
00000000
00010000
00000000
00001000
00000000
00100000
00000000
01000000
00000000
10000000
00000000
,
00020000
00000000
00000000
20030000
,
00000000
30200000
00000000
00000000
00320000
00000000
00000000
00032000
,
00000000
00003010
00000001
00001000
,
00001001
00000000
00000000
00000000
,
00000001
00000001
00001000
00001000
00000001
00000001
00001000
00001000
,
00000001
00000010
00000100
00001000
00010000
00100000
01000000
10000000
,
00010000
00000000
01000000
00000000
00100000
00000000
01000000
00000000
00010000
00000000
10000000
01000000
10000000
00000000
01000000
00000000
,
00100000
00000000
00010000
00100000
00010000
00000000
00100000
00001000
00010000
00001000
00010000
00000000
00000010
00001000
00000010
00001000
,
00000010
00000000
00000100
00000000
00000001
00000000
00001000
00000000
00000100
00000010
00000100
00000010
00000100
00000000
00001000
00000000
,
00000001
00000100
00000001
00000000
00000100
00001000
00000100
00000000
00001000
00000000
00010000
00001000
00010000
00000000
01000000
00000000
,
10000000
00000000
00010000
00000000
01000000
00000000
00100000
10000000
00100000
00000000
01000000
00010000
01000000
00000000
00001000
00000000
,
00010000
00001000
00010000
00001000
00010000
00000000
00000100
00000010
00000100
00000010
00000100
00000000
00000010
00000000
00000001
00000000
,
00001000
00000000
00000010
00000000
00000100
00000000
00000001
00000000
00001000
00000100
00001000
00000100
00000010
00000000
00000001
00000000
,
00000100
00000010
00001000
00000010
00000100
00000000
00000010
00000000
00010000
00000000
00001000
00000000
00010000
00000000
00000000
00000000
,
00001000
00100000
00001000
00000000
00100000
00010000
00100000
00000000
00010000
10000000
01000000
10000000
00010000
00000000
00000000
00000000
,
10000000
01000000
10000000
01000000
00010000
00001000
00000100
00000001
00000100
00000001
00000000
00000000
,
00001000
00000010
00000100
00000000
00000010
00000000
00001000
00000010
00000100
00000000
00000001
00000000
00000010
00000000
00000100
00000000
,
00001000
00000000
00000000
00000000
00000001
00000000
00000000
00000000
00000010
00000000
00000000
00000000
00001000
00000000
00000000
00000000
00010000
00000000
00000000
00000000
00100000
00000000
00000000
00000000
10000000
00000000
00000000
00000000
00000000
00000000
00000000
00000000
00000000
00000000
00000000
00000000
00010000
00000000
00000000
10000000
00000000
00000000
00100000
00000000
00000000
10000000
00000000
00000000
,
00010000
00000000
11000000
01010000
,
00011000
00000000
00000000
00000000
00000000
00000000
00000000
00000000
00001010
00000000
00000000
00000000
00000010
00000001
00000010
00000001
,
00001000
00000000
00000001
00000100
00000001
00000000
00000010
00000000
00000100
00001000
00000100
00000000
00001000
00000010
00001000
00000010
,
00000100
00000000
00000001
00001000
00000001
00000000
00000010
00000000
00000001
00000100
00000010
00000000
00001000
00000100
00010000
00000000
,
00001000
00000000
00100000
00001000
00100000
00000000
00010000
00000000
10000000
00000000
00010000
01000000
00010000
00000000
00100000
00000000
,
01000000
00000000
10000000
00100000
10000000
00000000
00010000
00000000
01000000
00000000
00001000
00000000
00010000
00000100
00001000
00000100
,
00010000
00000000
00000010
00001000
00000010
00000000
00000100
00000000
00000010
00000000
00001000
00000000
00000001
00000100
00000001
00000100
,
00000001
00000000
00000000
00000000
00000000
00000000
00001000
00000000
00000000
00000001
00000000
00000000
00000010
00000000
00000000
00000000
00000000
00000000
00000001
00000000
00000000
00000000
00000000
00000000
00001000
00000000
00000000
00000000
00000010
00000000
00000000
00000000
00001000
00000000
00000000
00000000
00000001
00000000
00000000
00000000
00000100
00000000
00000000
00000000
00000010
00000000
00000000
00000000
,
00001000
00000100
00010000
00001000
00100000
00010000
10000000
00010000
01000000
10000000
01000000
00100000
,
20000000
00000000
00000000
00000000
,
00000000
00000000
00000000
30000000
,
20020000
00000000
00000000
00000000
00000000
00000000
00000000
00000000
00000000
00000000
00000000
00000000
00000000
00000000
00000000
00000000
00000000
00000000
00000000
00000000
00000000
00000000
00000000
00000000
00000000
00000000
00000000
00000000
00000000
00000000
00000000
00000000
00000000
00000000
00000000
00000000
00000000
00000000
00000000
00000000
00000000
00000000
00000000
00000000
00000000
00000000
00000000
00000000
30030000
00000000
00000000
00000000
00000000
00000000
00000000
00000000
00000000
00000000
00000000
00001000
00000000
00000000
00000000
00000000
,
00000000
00000000
00000000
00000000
00000000
00000000
00000000
00000000
00000000
00000000
00000000
00000000
00000000
00000000
00000000
00000000
00000000
00000000
00000000
00000000
00000000
00000000
00000000
00000000
00000000
00000000
00000000
00000000
00000000
00000000
00000000
00000000
00000000
00000000
00000000
00000000
00000000
00000000
00000000
00000000
00000000
00000000
00000000
00000000
00000000
00000000
00000000
00000000
00000000
00000000
00010000
00000000
00000000
00000000
00000000
00000000
00000000
00000000
00000000
00000000
00000000
00000000
00000000
00000000
00000000
00000000
00000000
00000000
00000000
00000000
00000000
00000000
00000000
00000000
00000000
00000000
00000000
00000000
00000000
00000000
00000000
00000000
00000000
00000000
00000000
00000000
00000000
00000000
00000000
00000000
00000000
00000000
00000000
00000000
00000000
00000000
00000000
00000000
00000000
00000000
00000000
00000000
00000000
00000000
00000000
00000000
00000000
00000000
00000000
00000000
00000000
00000000
00000000
00000000
00000000
00000000
00000000
00000000
00000000
00000000
00000000
00000000
00000000
00000000
00000000
00000000
00000000
00000000
00000000
00000000
00000000
00000000
00000000
00000000
00000000
00000000
00000000
00000000
00000000
00000000
00000000
00000000
00000000
00000000
00000000
00000010
00000000
00000000
00000000
00000000
00000000
00000000
00000000
00000000
00000000
00000000
00000000
00000000
00000000
00000000
00000000
00000000
00000000
00000000
00000000
00000000
00000000
00000000
00000000
00000000
00000000
00000000
00000000
00000000
00000000
00000000
00000000
00000000
00000000
00000000
00000000
00000000
00000000
00000000
00000000
00000000
00000000
00000000
00000000
00000000
00000000
00000000
,
00000000
00000220
00000000
00000000
,
00000000
00000000
00000000
00000000
,
00000000
00000000
00000000
00000000
,
00000000
00000330
00000000
00000000
;
