#TITLE:WHITEOUT;
#ARTIST:かねこちはる;
#ARTISTTRANSLIT:Chiharu Kaneko;
#BANNER:WHITEOUT.png;
#BACKGROUND:WHITEOUT-bg.png;
#CDTITLE:./CDTitles/SDVX IV HEAVENLY HAVEN.png;
#MUSIC:WHITEOUT.ogg;
#SAMPLESTART:20.721;
#SAMPLELENGTH:15;
#BPMS:0=99,34=198,68=99,76=198,108=49.5,116=198,212=49.5,216=198;
#STOPS:33.979167=0.606;
#BGSTAGE:30;

//--------------- dance-single - Fred-104 ----------------
#NOTES:
     dance-single:
     Fred-104:
     Beginner:
     8:
     :
0000
0000
0000
0000
,
0000
0000
0000
0000
,
0000
0000
0000
0000
,
1001
0000
0000
0000
,
0000
0000
0000
0000
,
1000
0001
0000
0100
,
1000
0010
0001
1000
,
0001
0001
1000
1000
0010
0010
0100
0100
,
0001
0010
0100
1000
0000
0000
0000
0000
,
1001
0000
0000
0001
0000
0000
0000
0000
,
1000
0000
0000
0010
0000
0000
1000
0000
,
0100
0000
0010
0000
,
0001
1000
0001
0001
,
0001
0000
0100
0000
,
1000
0000
0100
0000
,
0001
0000
0010
0000
,
1000
0010
0001
0000
,
2000
0000
3002
0000
,
0203
0000
0000
0000
0320
0000
1030
0001
,
1000
1000
0010
0010
,
0100
0100
0001
0001
,
0100
0010
0100
0000
0001
0010
0001
0000
,
1000
0100
1000
0000
0001
0100
0001
0000
,
2002
0000
0000
0000
,
0000
0000
0000
0000
,
3003
0000
0000
0000
,
0000
0000
0000
0000
,
1000
0010
0001
0100
,
1000
0100
0001
0010
,
1000
0001
1000
0100
,
1000
0000
0000
0001
0000
0001
0000
0000
,
0100
0000
0000
0010
0000
0010
0000
0000
,
0100
0000
0001
0000
1000
0100
1000
0000
,
0001
0000
0000
0100
0000
0000
0000
0001
,
0000
1000
0000
0000
0001
0000
0000
1000
,
0000
0010
1000
1000
,
0001
1000
2002
3003
,
1000
1000
0010
0010
,
0100
0100
0001
0001
,
0010
0010
0100
0100
,
1000
1000
0001
0001
,
0100
0010
0100
0000
0001
0000
0010
0000
,
0001
1000
0001
0000
0100
0000
0010
0000
,
1000
0100
1000
0000
0001
0000
0100
0000
,
0001
1000
2002
3003
,
0001
0010
0001
0100
,
0001
0010
0001
1000
,
0010
1000
0100
1000
,
0010
0100
0001
0000
,
1000
1000
0100
0100
,
0010
0010
0001
0001
,
2000
0000
0000
0000
,
0002
0000
0000
0000
,
3003
0000
0000
0000
,
1000
1000
0001
0001
,
1000
0000
0001
0000
1000
0001
1000
0000
,
0001
0001
0100
0100
,
0010
0010
1000
1000
,
0001
0010
0100
1000
,
0001
1000
2002
3003
,
0110
0000
1001
0000
,
0001
0000
0010
0001
,
1001
0000
0110
0000
,
1000
0100
0010
0001
,
1001
0000
0110
0000
,
0001
0000
0000
0010
0000
0000
0001
0000
,
1000
0000
0100
1000
,
0001
0001
1000
1000
,
1001
0000
0110
0000
,
0001
1000
0001
0100
,
0110
0000
1001
0000
,
1000
0000
0010
0000
,
1000
1000
0001
0001
,
1000
0100
1000
0000
0001
0010
0001
0000
,
0000
1001
0001
0100
,
0010
0100
0001
1000
,
0100
0010
0001
1000
,
0002
0000
2003
0000
,
3001
0100
0001
0100
,
0010
1000
0010
1000
,
0100
0010
0001
0100
,
0001
0010
0001
0000
1000
0100
1000
0000
,
2002
0000
0000
0000
,
0000
0000
0000
0000
,
0000
0000
0000
0000
,
0000
0000
0000
0000
,
3003
0000
0000
0000
;

//--------------- dance-single - Fred-104 ----------------
#NOTES:
     dance-single:
     Fred-104:
     Easy:
     12:
     :
0000
0000
0000
0000
,
0000
0000
0000
0000
,
0000
0000
0000
0000
,
0110
0000
0000
0000
,
0000
0000
0000
0000
0000
0000
0000
0000
0002
0000
0000
0003
1001
0000
0000
0000
,
1100
0000
0000
0100
0010
0001
0000
0000
0000
0000
0000
0001
0100
0000
0000
0000
,
0110
0000
0000
0010
1000
0000
0000
0000
0001
0000
0000
0000
0100
0000
0000
0000
,
0001
0010
0001
0100
0010
1000
0100
1000
,
0001
1000
0001
1000
0010
0100
0010
0100
0000
0000
0000
0000
0000
0000
0000
0000
,
0001
0010
0001
0010
0000
0001
0000
0000
,
1000
0100
1000
0100
0000
1000
0010
0000
,
0100
0010
0100
0001
0000
0100
0000
0001
,
0000
0000
0000
0010
0000
0000
0001
0000
0000
0000
0000
0000
1000
0000
0000
0000
0010
0000
0000
0000
1000
0000
0000
0000
,
0200
0320
0032
0203
,
0320
2030
3200
2300
,
3001
0100
0001
0000
1000
0010
1000
0000
,
0002
0000
0000
0000
0203
0000
0000
0000
0310
0000
0000
0010
0000
0000
0010
0000
,
1000
0000
0000
0010
0000
0000
1000
0000
0100
0000
0000
0010
0000
0000
0001
0000
,
1000
1000
0001
0001
1001
0000
0001
1000
,
0001
0000
0001
0000
0100
0010
1000
0000
,
0100
0000
0100
0000
0010
0001
1000
0000
,
0001
0100
0001
0000
1000
0010
1000
0000
,
0001
0010
0001
0000
1000
0100
1000
0000
,
2002
0000
0000
0000
,
0000
0000
0000
0000
,
3003
0000
0000
0000
,
0000
0000
0000
0000
,
2000
3020
0032
0203
,
2300
0000
3200
0000
0302
0000
0013
1000
,
0001
0010
0001
1000
,
0100
0000
0000
1100
0000
0101
0000
1001
,
0000
0000
0000
0011
0000
1010
0000
0011
,
0000
0001
0100
0000
0010
0100
0001
0000
,
0010
0010
0000
0011
0000
0001
1000
0001
,
0000
1001
0000
1000
0010
0100
0000
0110
,
0000
0000
0100
0000
0001
0000
0010
0000
0001
0000
0000
0100
0000
0000
0010
0000
,
0100
0000
0000
0001
0000
0000
1000
0000
2002
0000
0000
0000
3003
0000
0000
0000
,
1000
0100
0001
0000
1000
0000
0010
0000
,
0001
1000
0001
0000
0100
0000
0010
0000
,
0100
0001
0010
0000
0001
0000
1000
0000
,
0001
0010
1000
0000
0001
0100
1000
0000
,
0001
0100
0010
0000
0100
0000
0001
0000
,
1000
0010
0100
0000
0010
0000
1000
0000
,
0001
0010
0001
0010
0100
1000
0100
1000
,
0001
1000
0001
0000
0100
0000
1001
0000
,
1000
0100
1000
0000
0010
0100
0010
0000
,
0100
0001
0100
0000
0001
0010
0001
0000
,
1000
0001
0010
0000
0001
1000
0100
0000
,
1000
0001
0100
0000
0001
1000
0010
0000
,
1000
1000
0010
0010
,
0001
0001
0100
0100
,
1000
0010
1000
0000
0001
0100
0001
0000
,
1000
0100
1000
0100
0010
0001
0010
0001
,
2000
3200
0302
0203
,
1300
0010
0000
1000
0000
0100
0010
0001
,
0000
0100
0000
0001
1000
0001
2000
0000
,
3001
0001
0100
0100
,
1000
1000
0010
0010
,
0001
0100
0001
0000
1000
0010
1000
0000
,
0001
0010
0001
0000
1000
0100
1000
0000
,
1001
0000
0000
0000
0001
0000
1000
0000
0100
0000
0000
1000
0000
0000
0010
0000
,
0100
0000
0001
0010
0001
1000
0001
1000
,
0001
0000
0000
0000
0010
0000
0001
0000
1000
0000
0000
0010
0000
0000
0100
0000
,
0001
0101
1000
1100
,
1001
0000
0000
0000
0001
0000
1000
0000
0010
0000
0000
1000
0000
0000
0100
0000
,
1000
0000
0010
0100
0000
0010
1000
0010
,
0100
0000
0001
1000
0000
0100
0010
0001
,
0000
2002
0000
0000
0000
0000
3003
0000
,
1100
0000
0000
0000
1000
0000
0100
0000
0001
0000
0000
1000
0000
0000
0010
0000
,
0001
0000
1000
0001
0100
0010
0100
0010
,
0100
0000
0000
0000
0001
0000
0010
0000
1000
0000
0000
0001
0000
0000
0100
0000
,
1000
0001
1000
0001
0000
0010
0001
1000
,
0200
0320
0032
2003
,
3001
0100
0001
0000
1000
0010
1000
0000
,
0110
0000
1001
0000
0001
0010
0100
0000
,
0010
0000
0001
0000
1000
0010
0100
0000
,
0010
0000
1000
0000
0100
1000
0001
0000
,
0200
0000
0320
0000
1030
0001
1000
0000
,
0110
0000
1001
0000
0001
0100
0001
0000
,
1000
0010
1000
0000
0001
0010
0100
1000
,
0010
0100
0010
0100
0001
0010
0001
0100
,
0010
1000
0100
1000
0001
0100
0010
0000
,
2002
0000
0000
0000
,
0000
0000
0000
0000
,
0000
0000
0000
0000
,
0000
0000
0000
0000
,
3003
0000
0000
0000
;

//--------------- dance-single - Fred-104 ----------------
#NOTES:
     dance-single:
     Fred-104:
     Medium:
     15:
     :
0000
0000
0000
0000
,
0000
0000
0000
0000
,
0000
0000
0000
0000
,
1010
0000
0000
0000
,
0000
0000
0002
1003
,
1001
0000
0000
0001
0010
0100
0000
0000
0000
0000
0000
1000
0001
0000
0000
0000
,
0101
0000
0000
0001
0010
0000
0000
0000
0001
0000
0100
0000
0010
0000
1000
0000
,
0100
1000
0100
1000
0010
0100
0010
0100
0001
0010
0001
0010
0100
1000
0100
1000
,
0001
0010
0100
1000
0001
0100
0010
1000
0000
0000
0000
0000
0000
0000
0000
0000
,
1000
0001
0010
0100
0000
1000
0010
0100
,
1000
0100
0010
1000
0000
0100
0010
0001
,
1000
0010
0001
0010
0000
0100
0010
1000
,
0001
0000
0000
0010
0000
0000
0100
0000
0000
1000
0000
0000
0002
0000
0000
0000
0203
0000
0000
0000
0320
0000
0000
0000
,
1030
1000
0100
0010
0001
0001
0100
0010
,
0100
0100
0001
1000
0010
0010
0100
0001
,
0010
0000
0100
0000
1000
0000
0010
0000
0100
0001
0100
0000
0001
0010
0001
0000
,
1000
0100
1000
0100
0010
0000
0001
0000
1000
0000
0000
0001
0000
0000
0100
0000
,
0001
0010
0100
1000
0000
0010
0100
0000
0001
0010
0001
1000
0000
0010
1000
0100
,
1000
0000
0000
0000
0000
0000
0000
0000
0000
0100
0000
0000
0000
0000
0000
0000
0000
0000
0100
0000
0000
0000
0000
0000
0001
0000
0000
0000
0000
0000
0000
0000
0000
0010
0000
0000
0000
0000
0000
0000
0000
0000
0010
0000
0000
0000
0000
0000
2000
0000
0000
0000
0000
0000
0000
0000
0000
0000
0000
0000
0000
0000
0000
0000
0000
0000
0000
0000
0000
0000
0000
0000
3001
0000
0000
0000
0100
0000
0000
0000
0001
0000
0000
0000
1000
0000
0000
0000
0010
0000
0000
0000
1000
0000
0000
0000
,
0001
0010
0100
1000
0001
0100
0120
0000
,
1030
0100
0001
0100
0010
0001
2001
0000
,
3001
0010
0100
0010
0001
0010
0100
1000
,
0010
1000
0010
0000
0100
0001
0100
0000
0001
0010
0001
0000
1000
0100
1000
0000
,
2002
0000
0000
0000
,
0000
0000
0000
0000
,
3003
0000
0000
0000
,
0000
0000
0000
2000
,
3001
0000
0000
0010
0000
0100
0000
0000
1000
0000
0000
0001
0000
0100
0000
0010
0100
0000
0000
0010
0000
1000
0000
0100
0010
0000
0001
0010
0000
0001
0000
1000
,
0001
0000
0010
0000
0000
0000
0001
0000
0000
0000
0000
0000
1000
0000
0100
0000
0000
0000
1000
0000
0000
0000
0000
0000
0001
0000
0010
0000
0000
0000
0100
0000
0000
0000
1000
0000
0010
0000
0100
0000
0001
0000
0000
0001
0000
0000
0001
0000
1000
0000
0000
1000
0000
0000
1000
0000
2002
0000
0000
0000
3003
0000
0000
0000
,
1000
0000
0002
0010
0000
1000
0000
0103
,
0010
0000
2000
0010
0000
0001
0000
3100
,
1000
0000
0020
0100
0000
1000
0000
0130
,
0001
1000
0100
0010
0001
0100
0010
1000
,
0100
0110
0000
0011
0000
0001
1000
1010
,
0000
0101
0000
1000
0100
0110
0000
0011
,
0000
0000
0001
0000
0100
0000
0010
1000
0010
0000
0000
0100
0000
0000
0001
0000
,
1000
0000
0000
0100
0000
0000
0010
0000
2002
0000
0000
0000
3003
0000
0000
0000
,
0001
0100
1000
0100
0001
0100
1000
0100
,
0001
0010
1000
0010
0001
0010
0100
1000
,
0001
0010
1000
0010
0001
0010
1000
0010
,
0001
0100
1000
0100
0001
0100
0010
1000
,
0100
0010
0001
0100
0010
1000
0010
0100
,
1000
0100
0010
1000
0100
0010
0001
1000
,
0001
0001
0100
0100
0010
0010
1000
1000
,
0001
0100
0001
0100
0001
0000
0100
0000
0010
0000
1000
0000
1001
0000
0000
0000
,
0001
0010
0100
0010
0001
1000
0010
0001
,
0010
0100
0010
1000
0001
0010
0100
1000
,
0001
0100
0010
0001
0010
0100
0001
1000
,
0001
0100
1000
0100
0010
1000
0100
0000
,
1000
1000
0010
0010
0100
0100
0001
0001
,
0010
0010
0100
0100
1000
1000
0001
0001
,
0100
0010
1000
0010
0100
0001
0010
0100
,
1000
0100
1000
0000
0001
0100
0001
0000
1000
0010
1000
0000
0001
0000
1000
0000
,
0002
0203
2300
3020
,
0031
0100
0010
0001
0010
1000
0001
0100
,
1000
0100
0010
1000
0001
1000
1001
0000
,
0001
0010
0001
0100
0010
0100
0001
1000
,
0100
0010
0001
0100
0010
1000
0100
1000
,
0010
1000
0010
0000
0100
0000
0001
0000
0010
0100
0010
0000
0100
0000
1000
0000
,
0001
0100
0001
0000
1000
0010
1000
0000
0001
1000
0001
1000
0001
0000
0000
0000
,
1001
0000
0000
0000
1000
0000
0010
0100
0010
0000
0000
1000
0000
0000
0100
0010
,
0100
0000
0000
0000
0010
0000
0001
0000
0100
0001
0100
0000
0010
0000
0100
0000
,
0001
0000
0000
0000
0010
0000
0100
1000
0100
0000
0000
1000
0000
0000
0010
0000
,
0100
0000
0001
1000
0001
0000
0000
0000
0010
0000
0001
1000
0001
0000
0000
0000
,
0100
0000
0000
0000
0010
0000
1000
0100
2000
0000
0000
3020
0000
0000
0230
0000
,
0302
0000
1003
0200
0000
0310
1000
0010
,
0002
0000
0013
0200
0000
1300
0010
0100
,
0001
0100
0001
0000
0010
0000
0100
0000
1000
0100
1000
0000
0010
0000
0100
0000
,
0101
0000
0000
0000
0001
0000
0010
0100
0010
0000
0000
0100
0000
0000
1000
0010
,
1000
0000
0000
0000
0010
0000
0100
0000
0001
0010
0001
0000
1000
0000
0001
0000
,
0010
0000
0000
0000
0100
0000
1000
0100
1000
0000
0000
0001
0000
0000
0100
0000
,
0001
0000
0010
0100
0010
0000
0001
0000
0000
0000
0100
0000
0010
0000
0100
0000
,
0001
0100
0001
0000
0010
0000
0100
0000
1000
0100
1000
0000
0010
0000
0100
0000
,
0001
0000
0010
0000
0100
0000
1000
0000
0100
1000
0100
1000
0100
1000
0100
1000
,
0100
1000
0001
0010
0100
0001
0100
0010
,
0001
1000
0001
0100
0010
0001
0010
1000
,
0010
0100
0001
1000
0100
0010
0001
1000
,
0001
0010
0000
0001
0000
1000
0000
0001
0000
0100
0010
0000
1000
0000
0100
0000
,
0110
0000
0001
0100
0010
1000
0010
0100
,
0001
0010
0100
0010
0001
1000
0010
0100
,
0001
1000
0100
0010
0001
1000
0010
0100
,
0001
0000
0010
0000
0100
0000
1000
0000
0001
0000
0100
0000
0001
1000
0001
1000
,
0002
0000
0000
0000
,
0000
0000
0000
0000
,
0000
0000
0000
0000
,
0000
0000
0000
0000
,
0003
0000
0000
0000
;

//--------------- dance-single - Fred-104 ----------------
#NOTES:
     dance-single:
     Fred-104:
     Hard:
     18:
     :
0000
0000
0000
0000
,
0000
0000
0000
0000
,
0000
0000
0000
0000
,
1001
0000
0000
0000
,
0000
0000
0000
0000
0000
0000
0000
0000
0000
0000
0000
0000
0000
0000
0000
0000
0001
1000
0001
1000
0001
1000
0001
1000
0001
0000
0000
0000
0000
0000
0000
0000
,
1001
0000
0000
0000
0000
0000
0001
0100
0010
0000
1000
0000
0000
0000
0000
0000
0000
0000
0000
0000
0000
0000
0001
1000
0010
0000
0000
0000
0000
0000
0000
0000
,
1100
0000
0000
0000
0000
0000
1000
0100
0010
0000
0000
0000
0000
0000
0000
0000
0001
0000
0100
0000
0010
0000
0000
0000
1000
0000
0010
0000
0100
0000
0000
0000
,
0001
0010
0100
1000
0001
0010
0100
1000
0001
0100
0010
1000
0001
0100
0010
1000
,
0001
1000
0001
1000
0001
1000
0001
1000
0010
0100
0010
0100
0010
0100
0010
0100
0000
0000
0000
0000
0000
0000
0000
0000
0000
0000
0000
0000
0000
0000
0000
0000
,
1001
1000
0100
0110
0000
0011
0000
0001
,
0101
0001
0010
0011
0000
0001
0100
0010
,
1010
1000
0100
1100
0000
0101
0000
1100
,
0000
0000
0000
0000
0000
0000
1000
0000
0000
0001
0000
0000
0100
0000
0000
0000
0000
0000
0010
0000
0000
0000
0000
0000
2000
0000
0000
0000
0000
0000
0000
0000
3020
0000
0000
0000
0000
0000
0000
0000
0230
0000
0000
0000
0000
0000
0000
0000
,
0301
0100
0001
0010
0100
1000
0010
0000
1000
0100
0010
0001
0010
0100
1000
0000
,
0001
1000
0100
0000
1000
0010
0100
0000
0010
1000
0001
0000
1000
0100
0010
0000
,
0001
0000
0100
0000
0010
0000
1000
0000
0001
0010
0100
0010
0001
0010
0100
0010
,
0001
0100
0001
0100
0001
0000
1000
0000
1010
0000
0000
0101
0000
0000
1100
0000
,
0001
0010
0100
1000
0000
0010
0100
1000
0100
0010
1000
0100
0000
0010
0001
1000
,
0001
0000
0000
0000
0000
0000
0000
0000
0000
0010
0000
0000
0000
0000
0000
0000
0000
0000
0010
0000
0000
0000
0000
0000
1000
0000
0000
0000
0000
0000
0000
0000
0000
0100
0000
0000
0000
0000
0000
0000
0000
0000
0100
0000
0000
0000
0000
0000
0001
0000
0000
1000
0000
0000
0001
0000
0000
0000
0000
0000
0000
0000
0000
0000
0000
0000
0010
0000
0000
0000
0000
0000
0001
0000
0000
0000
0010
0000
0000
0000
0100
0000
0000
0000
1000
0000
0000
0000
0001
0000
0000
0000
1000
0000
0000
0000
,
0020
1030
0100
1000
0010
0100
0002
0013
,
0200
1300
0010
0100
0002
1003
0001
0010
,
0001
0100
0001
0010
0100
1000
0010
1000
0001
0010
0001
1000
0010
0100
0001
1000
,
0100
0010
0001
1000
0010
1000
0001
0100
0010
1000
0010
0100
0001
1000
0100
1000
,
0002
0000
0000
0000
,
0000
0000
0000
0000
,
0003
0000
0000
0000
,
0000
0000
0000
0000
0000
0000
0000
0000
0000
0000
0000
0000
1000
0001
0100
0010
,
1000
0000
0000
0000
0001
0000
0010
0000
0000
0000
0200
0000
0000
0000
1300
0001
1000
0000
0000
0000
0001
0000
0100
0000
0000
0000
0010
0000
0000
0000
0100
0000
0001
0000
0000
0000
0010
0000
0100
0000
0000
0000
1000
0000
0000
0000
0001
0000
1000
0000
0000
0000
0100
0000
0001
0000
0000
0000
0100
0000
0000
0000
1000
0000
,
0001
0000
0100
0000
0010
0000
0100
0000
0000
0000
0001
0000
0010
0000
0100
0000
0010
0000
0001
0000
0000
0000
1000
0000
0001
0000
0100
0000
0010
0000
1000
0000
0000
0000
0010
0000
0100
0000
0001
0000
1000
0000
0000
1000
0000
0000
1000
0000
0001
0000
0000
0001
0000
0000
0001
0000
2002
0000
0000
0000
3003
0000
0000
0000
,
2001
0010
0100
3001
,
0101
0000
0002
0023
0000
2030
0000
3010
,
1001
0000
0000
0000
1000
0000
0020
0000
0000
0000
0032
0000
0000
0000
0013
0100
,
0001
1000
0010
1000
0100
0010
0001
0010
0100
1000
0010
1000
0001
1000
0100
0000
,
1100
0000
0101
0000
0000
0000
1100
0000
0000
0000
1000
0100
0010
0000
0011
0000
,
0000
0000
1010
0000
0000
0000
0001
1000
0001
0000
1001
0000
0000
0000
0110
0000
,
0000
0000
0000
0000
0000
0000
0000
0000
0001
0000
0000
0000
0000
0000
0000
0000
0200
0300
0000
0000
0000
0000
0000
0000
0200
0300
0000
0000
1000
0000
0000
0000
0001
0000
0000
0000
0010
0000
0000
0000
0100
0000
0000
0000
1000
0000
0000
0000
0010
0000
0000
0000
0100
0000
0000
0000
0001
0000
0000
0000
0000
0000
0000
0000
,
0101
0000
0000
1010
0000
0000
0011
0000
2002
0000
0000
0000
3003
0000
0000
0000
,
1000
0000
0100
0000
0010
0001
1000
0000
0010
0000
0100
0000
0001
1000
0100
0000
,
0010
0000
0001
0000
0100
0001
0010
0000
0001
0000
0100
0000
0010
1000
0001
0000
,
0010
0000
0100
0000
1000
0010
0100
0000
0010
0000
1000
0000
0001
1000
0100
0000
,
1000
0000
0100
0000
0001
0100
1000
0000
0001
0000
0010
0000
1000
0010
0001
0000
,
1000
0000
0001
0000
0100
0001
1000
0000
0010
0000
0100
0000
0001
1000
0100
0000
,
0010
0000
0001
0000
0100
0010
0001
0000
0010
0000
0100
0000
0001
1000
0010
0000
,
1000
0100
0001
1000
0010
0001
1000
0100
,
1000
0100
1000
0100
0010
0001
0010
0001
1000
0010
0100
0001
2000
0000
0000
3000
,
1000
0010
0100
0010
1000
0000
0001
0000
0010
0001
1000
0001
0100
0000
0010
0000
,
0100
0010
1000
0001
0010
0000
0100
0000
1000
0010
0100
0001
0010
0000
0100
0000
,
1000
0001
0100
0001
0010
0000
0100
0000
1000
0100
1000
0010
1000
0000
0001
0000
,
0100
0001
0010
0001
1000
0000
0001
0000
0010
0100
1000
0001
0100
0010
1000
0001
,
1000
0010
0100
1000
0100
0001
0100
0010
,
1000
0001
0010
1000
0010
0001
1000
0001
,
0100
0010
0100
0010
1000
0100
1000
0100
0010
0001
0010
0001
1000
0001
1000
0001
,
0100
0010
1000
0001
0010
0001
0100
0010
1000
0100
1000
0001
0100
0010
0100
0001
,
2000
3020
0032
0203
,
1300
0100
0010
1000
0010
0001
1000
0010
,
0100
0000
1000
0000
0100
0000
0001
0000
1000
0100
0010
0001
2000
0000
0000
0000
,
3001
0100
0010
0100
0001
0100
0010
0000
1000
0100
0010
0100
1000
0100
0010
0000
,
0001
0010
0100
0010
0001
0010
0100
0000
1000
0010
0100
0010
1000
0010
0100
0000
,
0010
0100
0001
0010
0100
1000
0100
0010
0001
0100
0001
1000
0100
1000
0001
0010
,
0001
1000
0010
1000
0100
0010
0001
0100
0010
1000
0100
0010
0100
0000
0000
0000
,
1001
0000
0000
0000
0001
0000
0100
1000
0100
0000
0000
0010
0000
0000
1000
0100
,
0010
0000
0000
0000
0001
0000
1000
0000
0001
0100
0010
0100
0001
0010
0001
1000
,
0010
0000
0000
0000
0001
0000
0010
0100
0001
0000
0000
1000
0000
0000
0100
0000
,
1100
0000
0000
1000
0100
0010
0001
0000
0000
0000
0000
0000
0101
0000
0000
0001
0100
0010
1000
0000
0000
0000
0000
0000
,
1001
0000
0000
0000
0110
0000
0001
0010
0100
0000
1000
0010
0000
0010
0001
0000
,
1000
0000
0001
0000
0100
0000
0020
0000
0000
0000
0031
0010
1000
0000
0001
0000
,
0010
0000
1000
0000
0010
0000
0200
0000
0000
0000
1300
0001
1000
0000
0001
0000
,
1000
0001
0010
0100
1000
0100
0010
0001
0100
0010
1000
0010
0100
0001
0010
0001
,
1000
0000
0000
0000
1001
0000
0001
1000
0010
0000
1000
0100
0000
0100
0001
1000
,
0001
0000
0000
0000
0010
0000
0100
0000
0010
0001
0100
0010
1000
0010
0100
0001
,
1000
0000
0000
0000
0100
0000
1000
0001
0010
0000
0001
0100
0000
0100
1000
0010
,
0100
0000
0001
1000
0100
0000
0020
0000
0000
0000
0031
0000
1000
0000
0001
0000
,
0100
0001
0010
0001
0100
0001
0010
0000
0100
1000
0010
1000
0100
1000
0010
0000
,
1000
0100
0010
0100
1000
0010
1000
0100
1000
0001
0100
0010
1000
0010
0100
0001
,
1000
0000
0000
0000
0000
0000
0000
0000
0200
0300
0000
0000
0000
0000
0000
0000
0200
0300
0000
0000
0000
0000
0000
0000
0001
0000
0000
0000
1000
0000
0000
0000
0001
0000
0000
0000
0000
0000
0000
0000
0020
0030
0000
0000
0000
0000
0000
0000
0020
0030
0000
0000
0000
0000
0000
0000
0100
0000
0000
0000
0001
0000
0000
0000
,
1000
0000
0000
0000
0000
0000
0000
0000
0200
0300
0000
0000
0000
0000
0000
0000
0200
0300
0000
0000
0000
0000
0000
0000
0001
0000
0000
0000
1000
0000
0000
0000
0001
0000
0000
0000
0000
0000
0000
0000
0020
0030
0000
0000
0000
0000
0000
0000
0020
0030
0000
0000
0000
0000
0000
0000
1000
0000
0000
0000
0001
0000
0000
0000
,
0010
0000
0000
0000
0000
0000
0000
0000
0200
0300
0000
0000
0000
0000
0000
0000
0200
0300
0000
0000
0000
0000
0000
0000
0001
0000
0000
0000
0100
0000
0000
0000
0010
0000
0000
0000
0000
0000
0000
0000
1000
0000
0000
0000
0000
0000
0000
0000
0010
0000
0000
0000
0000
0000
0000
0000
0100
0000
0000
0000
0000
0000
0000
0000
,
0001
0010
0000
0010
0000
1000
0000
0001
0000
1000
0010
0100
0001
0000
1000
0001
,
1000
0000
0000
0000
0001
0010
0100
0000
1000
0010
0100
0000
0010
1000
0100
0000
,
1000
0001
0100
0000
0001
0010
0100
0000
0010
0001
1000
0000
0001
1000
0100
0010
,
0001
0100
0010
0100
0001
1000
0100
0010
0100
1000
0001
0100
0010
1000
0010
0100
,
0001
0000
1000
0000
0100
0000
0001
0100
0010
0001
1000
0010
0100
0000
0001
1000
,
0002
0000
0000
0000
,
0000
0000
0000
0000
,
0000
0000
0000
0000
,
0000
0000
0000
0000
,
0003
0000
0000
0000
;

//--------------- dance-single - Fred-104† ----------------
#NOTES:
     dance-single:
     Fred-104†:
     Challenge:
     19:
     :
0000
0000
0000
0000
,
0000
0000
0000
0000
,
0000
0000
0000
0000
,
1000
0000
0000
0000
0000
0000
0000
0000
0001
0000
0000
0000
0000
0010
0000
0000
0000
0000
0000
0000
0000
1000
0000
0000
0000
0000
0000
0000
0001
0000
0000
0000
0000
0000
0000
0000
0000
0000
0000
0000
0000
0000
0000
0000
0000
0000
0000
0000
0000
0000
0000
0000
0000
0000
0000
0000
0000
0000
0000
0000
0000
0000
0000
0000
,
0100
0000
0000
0000
1000
0000
0001
0000
0000
0000
0010
0000
0000
0000
0100
0000
1000
0100
0010
0001
1000
0100
0010
0001
1000
0000
0000
0000
0000
0000
0000
0000
,
0110
0000
0000
0000
0000
0000
0000
0000
0000
0000
0000
0000
0000
0000
0000
0000
0000
0000
1000
0000
0000
0100
0000
0000
0010
0000
0000
0000
0000
0000
0001
0000
0000
0000
0000
0000
0000
0000
0000
0000
0000
0000
0000
0000
0000
0000
0000
0000
0000
0000
0000
0000
0000
0000
0000
0000
0000
0000
0000
0000
0000
0000
0000
0000
0000
0000
0100
0000
0010
0000
0100
0000
0010
0000
0000
0000
0000
0000
0000
0000
0000
0000
0000
0000
0000
0000
0000
0000
0000
0000
0000
0000
0000
0000
0000
0000
,
1001
0000
0000
0000
0000
0000
0000
0000
0000
0000
0000
0000
0000
0000
0000
0000
0000
0000
0001
0000
0000
0100
0000
0000
0010
0000
0000
0000
0000
0000
0000
0000
0000
0000
0000
0000
0000
0000
0000
0000
0000
0000
0000
0000
0000
0000
0000
0000
1000
0000
0000
0000
0100
0000
0000
0000
0010
0000
0000
0000
0001
0000
0000
0000
0010
0000
0000
0000
0100
0000
0000
0000
1000
0000
0000
0000
0010
0000
0000
0000
0100
0000
0000
0000
0001
0000
0000
0000
0100
0000
0000
0000
0010
0000
0000
0000
,
1000
0100
0010
1000
0010
0001
1000
0010
0001
0010
0100
0001
0010
0100
0001
0100
1000
0001
0100
1000
0100
0010
1000
0100
,
0010
0001
1000
0010
0100
0001
1000
0100
0010
0001
0100
0010
1000
0100
0010
0001
0000
0000
0000
0000
0000
0000
0000
0000
0000
0000
0000
0000
0000
0000
0000
0000
,
0001
0000
0100
1000
0200
0000
0010
0000
0000
0000
0301
0000
1000
0000
0100
0000
,
0010
0000
1000
0010
0001
0000
0010
0000
0100
0000
1000
0001
0100
0010
1000
0000
,
0001
0000
0100
1000
0100
0000
0001
0000
1000
0000
0100
0001
0100
0000
1000
0000
,
0001
0000
0000
0000
0000
0000
0100
0000
0000
0010
0000
0000
1000
0000
0000
0001
0000
0000
0010
0000
0000
0100
0000
0000
2000
0000
0000
0000
0000
0000
0000
0000
3002
0000
0000
0000
0000
0000
0000
0000
0203
0000
0000
0000
0000
0000
0000
0000
,
0310
1000
0010
0100
0010
1000
0010
0100
0001
1000
0100
1000
0001
1000
0100
1000
,
0001
0100
0010
1000
0001
0010
0100
1000
0001
1000
0100
0010
0001
1000
0010
0100
,
0001
0000
0001
0000
1000
0000
1000
0000
0100
0010
0001
0010
0100
0010
0001
0010
,
0100
1000
0001
0100
0010
0000
0100
0000
0101
0000
0000
1010
0000
0000
1001
0000
,
1100
0000
1000
0000
0100
0000
0010
0000
0000
0000
1000
0000
0010
0000
0001
0000
1000
0000
0010
0000
0100
0000
1000
0000
0001
0000
0010
0000
1000
0000
0001
0010
,
0100
0000
0000
0000
0000
0000
1000
0000
0000
0100
0000
0000
0000
0000
0000
0100
0000
0000
0001
0000
0000
0000
0000
0000
0110
0000
0000
0000
0000
0000
0001
0000
0000
0100
0000
0000
0000
0000
0000
0100
0000
0000
1000
0000
0000
0000
0000
0000
0001
0000
0000
1000
0000
0000
0010
0000
0000
0000
0000
0000
0000
0000
0000
0000
0000
0000
0010
0000
0000
0000
0000
0000
1000
0000
0000
0000
0100
0000
0000
0000
0100
0000
0000
0000
0001
0000
0000
0000
0010
0000
0000
0000
0010
0000
0000
0000
,
2000
0000
3100
0000
0010
0000
0001
0000
1000
0000
0010
0000
0210
0000
0301
1000
,
0002
0000
0013
0000
0100
0000
1000
0001
2000
0000
3010
0000
0100
0000
0001
0000
,
1000
0100
0010
0001
0010
0100
1000
0010
0100
0001
0010
0100
1000
0001
0100
0010
,
1000
0100
1000
0010
0100
0001
0010
0001
0100
0010
1000
0100
1000
0010
0100
0001
,
0020
0100
0100
0100
,
0100
0000
0000
0000
0100
0000
0000
0000
0100
0000
0000
0000
0130
0000
1000
0001
,
2000
0100
0100
0100
,
0100
0000
0000
0000
0100
0000
0000
0000
3100
0000
0000
0000
0010
0001
0010
0001
,
1000
0000
0000
0000
0001
0000
0010
0000
0000
0000
1000
0000
0000
0000
0010
0001
0010
0000
0000
0000
0001
0000
0100
0000
0000
0000
1000
0000
0000
0000
0100
0000
0001
0000
0000
0000
1000
0000
0100
0000
0000
0000
0001
0000
0000
0000
0100
0010
0100
0000
0000
0000
1000
0000
0001
0000
0000
0000
0001
0000
0100
0000
0001
0000
,
0010
0000
0100
0000
1000
0000
0010
0000
0100
0000
1000
0000
0001
0000
0010
0000
0100
0000
0001
0000
0010
0000
0100
0000
0001
0000
1000
0000
0010
0000
0100
0000
1000
0000
0001
0000
0100
0000
0010
1000
0001
0000
0000
0001
0000
0000
0001
0000
1000
0000
0000
1000
0000
0000
1000
0000
1001
0000
0000
0000
0001
1000
0001
1000
,
0001
0000
1000
0100
0001
0100
1000
0001
,
0102
0000
0000
0000
2003
0000
3200
0000
0301
0000
2000
0000
3010
0000
0002
0003
,
0021
0000
0000
0000
0032
0000
0203
0000
1300
0000
0002
0000
0013
0000
2000
3001
,
0010
0100
1000
0010
0100
0001
0010
0100
1000
0100
0010
0001
0100
0010
1000
0001
,
0011
0000
0000
1001
0000
0000
1001
0000
0000
1010
0000
0000
0000
0000
0000
1000
0100
0010
0001
0000
0000
0011
0000
0000
,
0000
0000
0000
1100
0000
0000
0000
0000
0000
1000
0001
0100
0001
0000
0000
0101
0000
0000
1001
0000
0000
1001
0000
0000
,
0000
0000
0001
0000
0010
0000
1000
0001
0100
1000
0100
0010
0001
1000
0010
0100
,
0001
0000
0000
1000
0000
0000
0001
0000
2002
0000
0000
0000
3003
0000
0000
0000
,
1000
0100
1000
0001
0100
0001
1000
0001
0010
0001
1000
0010
0100
0001
1000
0100
,
0010
0001
1000
0001
0100
0001
1000
0001
0010
0100
1000
0001
0100
0010
1000
0010
,
0100
0001
1000
0100
0010
0100
1000
0001
0100
0010
1000
0010
0100
0001
1000
0100
,
0010
0001
0010
0100
1000
0001
0100
0010
1000
0010
0100
0001
1000
0000
0001
0000
,
1000
0001
0100
0010
1000
0010
0100
0010
1000
0001
0010
0100
0010
0001
0010
0100
,
1000
0001
0100
0010
0100
0001
0100
0010
1000
0001
0010
0100
1000
0001
0100
0010
,
1000
1000
0001
0001
0100
0100
0010
0010
,
1000
0100
0010
0001
0100
0010
1000
0001
0010
0100
1000
0010
0200
0000
0000
0000
,
0301
1000
0100
1000
0001
0100
0010
1000
0001
1000
0010
1000
0001
0010
0100
1000
,
0001
0100
0010
1000
0010
0100
0001
1000
0100
0010
0001
0010
0100
1000
0001
0100
,
0010
1000
0010
0100
0010
1000
0001
0010
0100
0010
0100
1000
0001
0100
0010
1000
,
0001
0100
0010
1000
0010
0100
0010
1000
0001
0010
0100
0010
0001
1000
0010
0100
,
0001
0001
0100
0100
1000
1000
0100
0100
,
0001
0001
0010
0010
0100
0100
1000
1000
,
0001
0100
0010
1000
0100
0010
0001
0100
0010
1000
0001
0010
0100
1000
0001
1000
,
0001
0010
0001
0100
0010
1000
0100
1000
0010
0100
0001
0010
0001
0100
0010
1000
,
0002
0000
0000
0000
0013
0000
0100
0000
0000
0000
1000
0000
0010
0000
1000
0001
2000
0000
0000
0000
3100
0000
0001
0000
0000
0000
1000
0000
0000
0000
0010
0001
0020
0000
0000
0000
0130
0000
1000
0000
0000
0000
0001
0000
0000
0000
1000
0010
0002
0000
0000
0000
1003
0000
0100
0000
0000
0000
0010
0000
1000
0000
0001
0000
,
1000
0100
0010
1000
0001
0100
0010
0001
,
1000
0000
0010
0000
0001
0000
0010
0000
1000
0100
0001
0100
2000
0000
0000
0000
,
3001
0100
0010
1000
0001
0100
0010
1000
0001
0010
0100
1000
0001
0010
0100
1000
,
0001
1000
0100
0010
0001
1000
0100
0010
0001
1000
0010
0100
0001
1000
0010
0100
,
0001
1000
0100
1000
0001
0100
0010
1000
0010
0100
0001
1000
0100
0010
0001
1000
,
0010
1000
0100
0010
0001
1000
0100
1000
0010
0100
0001
1000
0100
0010
0001
1000
,
0001
0000
0000
0000
1100
0000
0001
1000
0100
0000
0001
0100
0000
0010
0001
1000
,
0001
0000
0000
0000
0010
0000
0100
0000
1000
0010
0100
0001
0010
0100
1000
0001
,
0100
0000
0000
0000
0110
0000
1000
0001
0010
0000
1000
0010
0000
0001
1000
0000
,
1001
0000
0000
0001
0100
0010
1000
0000
0000
0000
0000
0000
1001
0000
0000
1000
0100
0010
0001
0000
0000
0000
0000
0000
,
1100
0000
0000
0000
0001
0000
1000
0001
0100
0000
1000
0100
0000
0010
0100
0001
,
1000
0100
0020
0001
0000
0130
1000
0001
,
0100
0010
2000
0100
0000
3001
0100
0010
,
0100
0001
1000
0001
0010
0100
0010
0001
1000
0010
1000
0100
0010
0001
0010
0100
,
1000
0000
0000
0000
1001
0000
0001
0100
1000
0000
0001
0010
0000
1000
0001
0010
,
0100
0000
0000
0000
1000
0000
0001
0000
1000
0010
0001
0010
0100
1000
0100
0001
,
1000
0000
0000
0000
0101
0000
1000
0100
0001
0000
1000
0010
0000
0100
1000
0001
,
0100
0000
0001
1000
0200
0000
0010
0000
0000
0000
1300
0000
0001
0000
0100
0000
,
0010
1000
0100
1000
0010
0100
0001
0010
0001
1000
0010
0100
0010
1000
0001
0010
,
0100
1000
0001
0100
0010
0100
0001
1000
0100
1000
0010
0100
0001
0010
0100
1000
,
0001
0000
0010
0000
1000
0000
0010
0100
1000
0000
0001
0000
0100
0000
0010
0001
,
0010
0000
0100
0000
0001
0000
1000
0100
0010
0100
0001
0000
0100
0000
1000
0001
,
0100
0000
1000
0000
0100
0000
0010
0100
0001
0000
0010
0000
0100
0000
1000
0001
,
0100
1000
0000
1000
0000
1000
0000
1000
0100
0001
1000
0100
0010
0000
0001
1000
,
0001
0000
0000
0000
1000
0100
0010
0001
0010
0100
1000
0001
0100
0010
1000
0010
,
0100
0001
1000
0010
0100
0001
1000
0100
0010
0001
0010
0100
1000
0001
0100
0010
,
1000
0001
0010
0100
0010
0001
1000
0010
0100
0010
1000
0001
0010
0001
1000
0001
,
0010
0000
0000
0100
0000
0000
1000
0000
0000
0010
0000
0000
0100
0000
0000
0001
0000
0000
0010
0000
0000
0100
0000
0000
1000
0000
0000
0100
0000
0000
0010
0000
0000
0001
0000
0000
1000
0000
0010
0000
0100
0000
0001
0000
0100
0000
0010
0000
,
2000
0000
0000
0000
,
0000
0000
0000
0000
,
0000
0000
0000
0000
,
0000
0000
0000
0000
,
3000
0000
0000
0000
;

//--------------- dance-double - Fred-104 ----------------
#NOTES:
     dance-double:
     Fred-104:
     Easy:
     12:
     :
00000000
00000000
00000000
00000000
,
00000000
00000000
00000000
00000000
,
00000000
00000000
00000000
00000000
,
10010000
00000000
00000000
00000000
,
01000000
00000000
00002000
00013000
,
00011000
00000000
00000000
00010000
00001000
00000010
00000000
00000000
00000000
00000000
00000000
00000001
00001000
00000000
00000000
00000000
,
00001100
00000000
00000000
00000100
00000010
00000000
00000000
00000000
00000001
00000000
00000100
00000000
00001000
00000000
00010000
00000000
,
00001000
00100000
01000000
10000000
00010000
01000000
00010000
00100000
,
00001000
00010000
00001000
00010000
00000100
00001000
00000100
00001000
00000000
00000000
00000000
00000000
00000000
00000000
00000000
00000000
,
00000001
00001000
00000001
00001000
00000000
00000100
00000000
00000000
,
00000010
00000001
00000010
00000001
00000000
00000100
00000010
00000000
,
00000010
00010000
00000010
00010000
00000000
00001000
00000000
00010000
,
00000000
00000000
00000000
00001000
00000000
00000000
01000000
00000000
00000000
00000000
00000000
00000000
00010000
00000000
00000000
00000000
10000000
00000000
00000000
00000000
00010000
00000000
00000000
00000000
,
20000000
32000000
03200000
00302000
,
00023000
00230000
20300000
32000000
,
03010000
00001000
00000010
00000001
,
00001000
00000000
00000000
00000000
00000010
00000000
00000000
00000000
00010000
00000000
00000000
00010000
00000000
00000000
00010000
00000000
,
00001000
00000000
00000000
00100000
00000000
00000000
00010000
00000000
10000000
00000000
00000000
00010000
00000000
00000000
01000000
00000000
,
00100000
10000000
01000000
00100000
00110000
00000000
00100000
00001000
,
00010000
00000000
00010000
00000000
00000100
00001000
00000100
00000000
,
00000010
00000000
00000010
00000000
00000001
00001000
00000001
00000000
,
00000200
00000320
00002030
00003200
,
00020300
00032000
00023000
01030000
,
02200000
00000000
00000000
00000000
,
00000000
00000000
00000000
00000000
,
03300000
00000000
00000000
00000000
,
00000000
00000000
00000000
00000000
,
20000000
32000000
03200000
00320000
,
00032000
00003200
00000320
00000032
,
00001003
00000000
00000001
00000100
00000000
00000010
00000000
00000100
,
00000001
00000000
00000010
00000100
00000000
00010000
00000000
00001000
,
00100000
00000000
00010000
10000000
00000000
00010000
00000000
01000000
,
00100000
10000000
00100000
00000000
01000000
00010000
01000000
00000000
,
00001000
00001000
00000000
00011000
00000000
00010000
00000100
00001000
,
00000000
00001001
00000000
00000001
00000100
00000010
00000000
00001010
,
00000000
00000000
00001000
00000000
00000001
00000000
00000010
00000000
00000001
00000000
00000000
00001000
00000000
00000000
00000100
00000000
,
00010000
00000000
00000000
00010000
00000000
00000000
00010000
00000000
00022000
00000000
00000000
00000000
00033000
00000000
00000000
00000000
,
00010000
00001000
00010000
00000000
00001000
00000000
00100000
00000000
,
00010000
10000000
00100000
00000000
01000000
00000000
00010000
00000000
,
01000000
00010000
10000000
00000000
01000000
00000000
00100000
00000000
,
00001000
00010000
00001000
00000000
00010000
00000010
00010000
00000000
,
00000010
00001000
00000100
00000000
00001000
00000000
00000010
00000000
,
00000100
00000001
00000010
00000000
00000001
00000000
00001000
00000000
,
00000001
00000100
00001000
00010000
,
00001000
01000000
00100000
00000000
10000000
00000000
10010000
00000000
,
10000000
01000000
10000000
00000000
00100000
10000000
00100000
00000000
,
01000000
00010000
01000000
00100000
,
01000000
00010000
01000000
00000000
00001000
00010000
00001000
00000000
,
00010000
00001000
00000100
00000001
,
00001000
00000100
00000010
00000001
,
00000100
00001000
00010000
00100000
,
10000000
00010000
10000000
00000000
00100000
01000000
00100000
00000000
,
10000000
01000000
10000000
00000000
00100000
01000000
00010000
00000000
,
00200000
00302000
00023000
00030020
,
00001030
00000100
00000000
00000010
00000000
00000000
00000001
00001000
,
00000000
00000010
00000000
00010000
00001000
00010000
00002000
00000000
,
00013000
00100000
01000000
00010000
,
10000000
00010000
01000000
00100000
,
10000000
01000000
01000000
00000000
00100000
00000000
00001000
00000000
,
00010000
00010000
00001000
00000000
00010000
00000100
00010000
00000000
,
00011000
00000000
00000000
00000000
00001000
00000000
01000000
00000000
00010000
00000000
00000000
00100000
00000000
00000000
00001000
00000000
,
00010000
00000000
00001000
00000010
00000100
00001000
00000100
00000000
,
00000010
00000000
00000000
00000000
00000001
00000000
00001000
00000000
00000010
00000000
00000000
00000100
00000000
00000000
00000010
00000000
,
00001000
00001010
00010000
00011000
,
00101000
00000000
00000000
00000000
00001000
00000000
01000000
00000000
00010000
00000000
00000000
00100000
00000000
00000000
01000000
00000000
,
10000000
00000000
00010000
00100000
00000000
01000000
00100000
00010000
,
01000000
00000000
00001000
00010000
00000000
00000100
00010000
00001000
,
00020000
00032000
02003000
03001000
,
00011000
00000000
00000000
00000000
00010000
00000000
00001000
00000000
00000010
00000000
00000000
00000001
00000000
00000000
00001000
00000000
,
00000100
00000000
00000010
00000001
00000100
00001000
00010000
00000000
,
01000000
00000000
00000000
00000000
00100000
00000000
00010000
00000000
10000000
00000000
00000000
00010000
00000000
00000000
01000000
00000000
,
00100000
10000000
00100000
02000000
00000000
03010000
10000000
00010000
,
00200000
00302000
00023000
00030020
,
00001030
00000100
00001000
00000001
00000100
00001000
00010000
00000000
,
00011000
00000000
00001000
00000000
00100000
00010000
10000000
00000000
,
00100000
00000000
01000000
00000000
00010000
00100000
00001000
00000000
,
00010000
00000000
00000100
00000000
00010000
00000010
00010000
00000000
,
00001000
00000000
00000100
00000000
00000001
00001000
00000100
00000010
,
00000001
00000000
00001001
00000000
00000001
00001000
00000010
00000000
,
00010000
00001000
00010000
00000000
00001000
00100000
00010000
10000000
,
00010000
01000000
00010000
00000000
10000000
00100000
10000000
00000000
,
01000000
00100000
01000000
00100000
00001000
00010000
00000100
00001000
,
00000002
00000000
00000000
00000000
,
00000000
00000000
00000000
00000000
,
00000000
00000000
00000000
00000000
,
00000000
00000000
00000000
00000000
,
00000003
00000000
00000000
00000000
;

//--------------- dance-double - Fred-104 ----------------
#NOTES:
     dance-double:
     Fred-104:
     Medium:
     16:
     :
00000000
00000000
00000000
00000000
,
00000000
00000000
00000000
00000000
,
00000000
00000000
00000000
00000000
,
00011000
00000000
00000000
00000000
,
00000000
00000000
20000000
30010000
,
10010000
00000000
00000000
00000000
00000000
00000000
10000000
01000000
10000000
00000000
00010000
00000000
00000000
00000000
00000000
00000000
00000000
00000000
00000000
00000000
00000000
00000000
00100000
00001000
00100000
00000000
00000000
00000000
00000000
00000000
00000000
00000000
,
00011000
00000000
00000000
00000000
00000000
00000000
00010000
00000010
00010000
00000000
00000000
00000000
00000000
00000000
00000000
00000000
00000010
00000000
00000000
00000000
00001000
00000000
00000000
00000000
00000001
00000000
00000000
00000000
00000010
00000000
00000000
00000000
,
00000001
00000100
00000001
00000010
00000100
00001000
00000010
00010000
00001000
01000000
00010000
01000000
00100000
10000000
00010000
00100000
,
00010000
01000000
00010000
01000000
00010000
01000000
00010000
01000000
00100000
10000000
00100000
10000000
00100000
10000000
00100000
10000000
00000000
00000000
00000000
00000000
00000000
00000000
00000000
00000000
00000000
00000000
00000000
00000000
00000000
00000000
00000000
00000000
,
10000000
01000000
00010000
00001000
00000000
00100000
00001000
00010000
,
01000000
10000000
00100000
01000000
00000000
00100000
00010000
00001000
,
00000100
00000010
00001000
00000001
00000000
00000010
00001000
00000010
,
00000000
00000000
00000000
00000001
00000000
00000000
00000100
00000000
00000000
00001000
00000000
00000000
00020000
00000000
00000000
00000000
00230000
00000000
00000000
00000000
02300000
00000000
00000000
00000000
,
03010000
10000000
01000000
00100000
00010000
01000000
00001000
00010000
,
00001000
00000100
00000010
00001000
00000010
00000100
00000001
00001000
,
00000001
00000010
00001000
00010000
01000000
10000000
00010000
00100000
,
01000000
00000000
00100000
00000000
00001000
00000000
00010000
00000000
00001000
00000000
00000000
00001000
00000000
00000000
00001000
00000000
,
00010000
00001000
00000010
00000001
00000000
00001000
00000100
00000010
00000001
00000100
00001000
00010000
00000000
00100000
10000000
00010000
,
00100000
00000000
00000000
00000000
00000000
00000000
00000000
00000000
00000000
01000000
00000000
00000000
00000000
00000000
00000000
00000000
00000000
00000000
00001000
00000000
00000000
00000000
00000000
00000000
00000100
00000000
00000000
00000000
00000000
00000000
00000000
00000000
00000000
00000010
00000000
00000000
00000000
00000000
00000000
00000000
00000000
00000000
00001000
00000000
00000000
00000000
00000000
00000000
00020000
00000000
00000000
00000000
00000000
00000000
00000000
00000000
00000000
00000000
00000000
00000000
00000000
00000000
00000000
00000000
00000000
00000000
00000000
00000000
00000000
00000000
00000000
00000000
00031000
00000000
00000000
00000000
00100000
00000000
00000000
00000000
00001000
00000000
00000000
00000000
00010000
00000000
00000000
00000000
00000010
00000000
00000000
00000000
00010000
00000000
00000000
00000000
,
00001000
00010000
01000000
00100000
00010000
10000000
10020000
00000000
,
10030000
01000000
00010000
00001000
00010000
00100000
20100000
00000000
,
30010000
10000000
01000000
00010000
00001000
00100000
00001000
00010000
,
00100000
00000000
10000000
00000000
01000000
00000000
00010000
00000000
00001000
00000000
00000010
00000000
00000100
00001000
00000100
00001000
,
00000002
00000000
00000000
00000000
,
00000000
00000000
00000000
00000000
,
00000003
00000000
00000000
00000000
,
00000000
00000000
00000000
00000000
00000000
00000000
00000000
00000000
00000000
00000000
00000000
00000000
00001000
00000010
00001000
00000000
,
00000001
00000000
00000010
00000100
00000000
00010000
00000000
00000000
00001000
00000000
00100000
00010000
00000000
10000000
00000000
00100000
01000000
00000000
00010000
10000000
00000000
01000000
00000000
00010000
00001000
00000000
00010000
00100000
00000000
10000000
00000000
00010000
,
10000000
00000000
01000000
00000000
00000000
00000000
00010000
00000000
00000000
00000000
00000000
00000000
00001000
00000000
00000010
00000000
00000000
00000000
00000001
00000000
00000000
00000000
00001000
00000000
00000001
00000000
00000010
00000000
00000000
00000000
00000100
00000000
00000000
00000000
00000010
00000000
00000001
00000000
00000100
00000000
00001000
00000000
00000000
00010000
00000000
00000000
00001000
00000000
00100000
00000000
00000000
01000000
00000000
00000000
10000000
00000000
20020000
00000000
00000000
00000000
30030000
00000000
00000000
00000000
,
10000000
00010000
01000000
00200000
00000000
00310000
00001000
00000100
,
00000010
00001000
00010000
02000000
00000000
03100000
10000000
00010000
,
10000000
00000000
01000000
00000000
00010000
00000000
00002000
00000000
00000000
00000000
00003010
00000000
00000100
00000000
00001000
00000001
,
00001000
00000000
00000001
00000100
00000001
00000000
00001000
00000010
00001000
00000000
00000100
00000000
00010000
00001000
00010000
00000000
,
00011000
00011000
00000000
00101000
00000000
00010000
00011000
00010010
,
00000000
00011000
00000000
00010000
00011000
00010100
00000000
01001000
,
00000000
00000000
00001000
00000000
00100000
00000000
00010000
00000000
01000000
00000000
00000000
00001000
00000000
00000000
00010000
00000000
,
00000010
00000000
00000000
00001000
00000000
00000000
00000100
00000000
00000220
00000000
00000000
00000000
00000330
00000000
00000000
00000000
,
00001000
00000010
00010000
00001000
00000010
00000100
00001000
00010000
,
00100000
01000000
00010000
00001000
00100000
00010000
01000000
00000000
,
00000100
00010000
00001000
00010000
00100000
01000000
00010000
00100000
,
00010000
00001000
00000100
00000010
00001000
00010000
00001000
00000000
,
01000000
00010000
00000100
00000010
00010000
00001000
00010000
00001000
,
00000010
00000100
00010000
00001000
00100000
01000000
00010000
00000000
,
00001000
00010000
00001000
01000000
00010000
00100000
00001000
00010000
,
00001000
00010000
00001000
00010000
00002000
00000000
00000000
00000000
00023000
00000000
00000000
00000000
00030020
00000000
00000000
00000000
,
00001030
00000100
00000001
00000100
00001000
00000100
00000010
00000001
,
00001000
00000001
00000010
00001000
00010000
00001000
00000010
00000001
,
00001000
00000001
00000100
00000010
00000100
00001000
00010000
00100000
,
01000000
00010000
00100000
01000000
10000000
00100000
00010000
00100000
,
10000000
10000000
01000000
01000000
00100000
00100000
00001000
00001000
,
00010000
00010000
00000100
00000100
00000010
00000010
00000001
00000001
,
00001000
00000001
00001000
00000000
00000010
00000000
00000100
00000000
00000001
00000100
00000001
00000000
00001000
00000000
00000100
00000000
,
00010000
00001000
00010000
00000000
00000010
00001000
00000010
00000000
00010000
00001000
00010000
00000000
00001000
00100000
00001000
00000000
,
00200000
00320000
20030000
32000000
,
13000000
01000000
00010000
00001000
00000100
00000001
00001000
00000100
,
00000010
00000000
00000001
00000000
00000100
00000000
00000010
00000000
00001000
00000001
00001000
00000001
00002000
00000000
00000000
00000000
,
00003001
00000100
00000001
00000010
00000100
00001000
00000100
00010000
,
00001000
00010000
00000010
00010000
00001000
00100000
00010000
10000000
,
00100000
10000000
01000000
00010000
00001000
00010000
00000100
00000010
,
00000001
00001000
00000001
00000100
00001000
00010000
00100000
10000000
,
10010000
00000000
00000000
00000000
00010000
00000000
01000000
00100000
01000000
00000000
00000000
00010000
00000000
00000000
10000000
01000000
,
10000000
00000000
00000000
00000000
01000000
00000000
00100000
00000000
00001000
00010000
00001000
00000000
00010000
00000100
00010000
00000000
,
00000100
00000000
00000000
00000000
00001000
00000000
00000100
00000010
00000100
00000000
00000000
00000010
00000000
00000000
00000001
00000000
,
00001000
00000000
00000001
00000100
00000001
00000000
00000000
00000000
00001000
00000000
00000001
00000010
00000001
00000000
00000000
00000000
,
00000110
00000000
00000000
00000000
00000001
00000000
00001000
00000010
00001000
00000000
00000000
00000100
00000000
00000000
00010000
00000000
,
00002000
00000000
00013000
00200000
00000000
01300000
00010000
10000000
,
00020000
00000000
01030000
00200000
00000000
00310000
00100000
10000000
,
00010000
00000000
10000000
00000000
01000000
00000000
00100000
00000000
00010000
01000000
00010000
00000000
00100000
00001000
00010000
00000000
,
00011000
00000000
00000000
00000000
00010000
00000000
00000010
00001000
00000010
00000000
00000000
00000100
00000000
00000000
00000001
00001000
,
00000001
00000000
00000000
00000000
00000010
00000000
00000100
00000000
00001000
00000100
00001000
00000000
00000100
00010000
00000100
00000000
,
00010100
00000000
00000000
00000000
00010000
00000000
00000010
00001000
00000010
00000000
00000000
00010000
00000000
00000000
00001000
00000000
,
00100000
00000000
00010000
10000000
00010000
00000000
00200000
00000000
00000000
00000000
01300000
00000000
10000000
00000000
01000000
00000000
,
00100000
00010000
00100000
00000000
00001000
00000000
01000000
00000000
00001000
00010000
00001000
00000000
00010000
00000000
00000100
00000000
,
00001000
00000100
00001000
00000000
00000001
00000100
00000001
00000000
00000100
00000010
00000100
00000010
00000100
00000010
00000100
00000010
,
00000100
00000001
00001000
00000001
00000010
00000100
00010000
00001000
,
01000000
00100000
00010000
00001000
00100000
00010000
00000010
00001000
,
00010000
00001000
00000100
00000001
00001000
00000100
00000010
00000001
,
00001000
00000010
00000000
00000100
00000000
00000010
00000000
00010000
00000000
00000100
00001000
00000000
00000100
00000000
00010000
00000000
,
00011000
00000000
00001000
00010000
00100000
10000000
00010000
01000000
,
00100000
10000000
01000000
00010000
01000000
00100000
00010000
10000000
,
00100000
01000000
00001000
00010000
00000100
00000010
00000001
00000100
,
00000010
00000000
00000100
00000000
00001000
00000000
00010000
00000000
00100000
00000000
01000000
00000000
00010000
10000000
00010000
10000000
,
02000000
00000000
00000000
00000000
,
00000000
00000000
00000000
00000000
,
00000000
00000000
00000000
00000000
,
00000000
00000000
00000000
00000000
,
03000000
00000000
00000000
00000000
;

//--------------- dance-double - Fred-104 ----------------
#NOTES:
     dance-double:
     Fred-104:
     Hard:
     18:
     :
00000000
00000000
00000000
00000000
,
00000000
00000000
00000000
00000000
,
00000000
00000000
00000000
00000000
,
00011000
00000000
00000000
00000000
,
00000000
00000000
00000000
00000000
00000000
00000000
00000000
00000000
00002000
00000000
00000000
00003000
00001001
00000000
00000000
00000000
,
00001100
00000000
00000000
00000000
00000000
00000000
00000010
00001000
00000100
00000000
00010000
00000000
00000000
00000000
00000000
00000000
00000000
00000000
00000000
00000000
00000000
00000000
00001000
00010000
00001000
00000000
00000000
00000000
00000000
00000000
00000000
00000000
,
00011000
00000000
00000000
00000000
00000000
00000000
00100000
00010000
10000000
00000000
00000000
00000000
00000000
00000000
00000000
00000000
00010000
00000000
00000000
00000000
01000000
00000000
00000000
00000000
00100000
00000000
00000000
00000000
10000000
00000000
00000000
00000000
,
00100000
10000000
01000000
00100000
00010000
00100000
00001000
00010000
00000100
00001000
00000100
00000010
00000001
00001000
00000001
00000100
,
00000001
00000010
00000001
00000010
00000001
00000010
00000001
00000010
00000100
00001000
00000100
00001000
00000100
00001000
00000100
00001000
00000000
00000000
00000000
00000000
00000000
00000000
00000000
00000000
00000000
00000000
00000000
00000000
00000000
00000000
00000000
00000000
,
00011000
00010000
00000100
00001100
00000000
00001001
00000000
00000000
,
00000011
00000001
00001000
00001100
00000000
00000100
00010000
00001000
,
00010000
00100000
01000000
01010000
00000000
10010000
00000000
11000000
,
00000000
00000000
00000000
00010000
00000000
00000000
10000000
00000000
00000000
01000000
00000000
00000000
00200000
00000000
00300000
00000000
00200000
00000000
00300000
00000000
00200000
00000000
00300000
00000000
,
00001000
00010000
00001000
00000000
00010000
00000100
00001000
00000000
00000010
00001000
00000010
00000000
00000100
00000001
00000010
00000000
,
00000001
00001000
00000001
00000000
00000100
00000010
00001000
00000000
00000100
00010000
00000100
00000000
00010000
00001000
01000000
00000000
,
00010000
00000000
00100000
00000000
00001000
00000000
00010000
00000000
00000010
00010000
00001000
00010000
00000010
00010000
00001000
00010000
,
00000010
00001000
00000100
00000010
00000001
00000000
00000100
00000000
00000101
00000000
00000000
00001010
00000000
00000000
00000011
00000000
,
00000001
00000100
00001000
00010000
00000000
00100000
01000000
00010000
00100000
00010000
10000000
00100000
00000000
10000000
01000000
00100000
,
00001000
00000000
00000000
00000000
00000000
00000000
00000000
00000000
00000000
00010000
00000000
00000000
00000000
00000000
00000000
00000000
00000000
00000000
00001000
00000000
00000000
00000000
00000000
00000000
00000010
00000000
00000000
00000000
00000000
00000000
00000000
00000000
00000000
00000001
00000000
00000000
00000000
00000000
00000000
00000000
00000000
00000000
00001000
00000000
00000000
00000000
00000000
00000000
00000001
00000000
00000000
00000010
00000000
00000000
00000001
00000000
00000000
00000000
00000000
00000000
00000000
00000000
00000000
00000000
00000000
00000000
00001000
00000000
00000000
00000000
00000000
00000000
00000001
00000000
00000000
00000000
00000100
00000000
00000000
00000000
00001000
00000000
00000000
00000000
00010000
00000000
00000000
00000000
00100000
00000000
00000000
00000000
01000000
00000000
00000000
00000000
,
00010000
10000000
00010000
00100000
01000000
00100000
00010000
00010000
,
10000000
01000000
00010000
00001000
00000010
00000001
00001000
00001000
,
00000001
00000100
00000001
00000100
00000010
00001000
00000010
00000000
00001000
00000100
00001000
00000100
00010000
00001000
00010000
00000000
,
00001000
00100000
00010000
00100000
01000000
10000000
00010000
01000000
00100000
10000000
00100000
01000000
00010000
00100000
00001000
00000000
,
00022000
00000000
00000000
00000000
,
00000000
00000000
00000000
00000000
,
00033000
00000000
00000000
00000000
,
00000000
00000000
00000000
00000000
00000000
00000000
00000000
00000000
00000000
00000000
00000000
00000000
00010000
00000010
00001000
00000100
,
00010000
00000000
00001000
00010000
00000000
01100000
00000000
00000000
00100000
00000000
00010000
10000000
00000000
00100000
00000000
01000000
00010000
00000000
00100000
00001000
00000000
00010000
00000000
00001000
00000010
00000000
00000001
00001000
00000000
00000001
00000010
00000100
,
00000010
00000000
00000001
00000000
00000000
00000000
00001000
00000000
00000000
00000000
00000001
00000000
00000100
00000000
00000010
00000000
00000000
00000000
00001000
00000000
00000000
00000000
00000100
00000000
00000010
00000000
00000001
00000000
00000000
00000000
00000100
00000000
00000000
00000000
00001000
00000000
00010000
00000000
00100000
00000000
10000000
00000000
00000000
01000000
00000000
00000000
00010000
00000000
00001000
00000000
00000000
00000010
00000000
00000000
00000001
00000000
00002002
00000000
00000000
00000000
00003003
00000000
00000000
00000000
,
00000001
00000010
00000100
00010000
00001000
00000100
00000001
00001000
,
00000001
00000000
00000100
00000020
00000000
00000032
00000000
00000023
,
00001030
00000000
00000000
00000000
00000010
00000000
00020000
00000000
00000000
00000000
00032000
00000000
00000000
00000000
00103000
00001000
,
00010000
00000010
00001000
00000010
00010000
00001000
00100000
00010000
01000000
00001000
00010000
00000100
00001000
00000100
00010000
00000000
,
00011000
00000000
00001010
00000000
00000000
00000000
00000011
00000000
00000000
00000000
00000010
00000001
00000100
00000000
00000110
00000000
,
00000000
00000000
00001100
00000000
00000000
00000000
00010000
00001000
01000000
00000000
01100000
00000000
00000000
00000000
10010000
00000000
,
00000000
00000000
00010000
00000000
01000000
00000000
10000000
01000000
00010000
00000000
00010000
00100000
00000000
01000000
00100000
00000000
,
00110000
00000000
00000000
10100000
00000000
00000000
01010000
00000000
00022000
00000000
00000000
00000000
00033000
00000000
00000000
00000000
,
00010000
00001000
00000010
00000100
00001000
00010000
00100000
01000000
,
00010000
00001000
00000010
00000100
00010000
00001000
00011000
00000000
,
00000010
00000100
00001000
00010000
00100000
01000000
00001000
00100000
,
00010000
01000000
00001000
00010000
00000010
00010000
00011000
00000000
,
00010000
00001000
00010000
00100000
01000000
00010000
10000000
01000000
,
00100000
01000000
00010000
00001000
00000010
00000100
00001000
00000001
,
00000100
00000010
00000100
00001000
00010000
00100000
01000000
00010000
,
10000000
00100000
10000000
01000000
00100000
00010000
00100000
00001000
00010000
00000000
00001000
00000000
00011000
00000000
00000000
00000000
,
00010000
00001000
00010000
00000000
00000100
00001000
00000010
00000000
00000100
00000001
00000010
00000000
00000001
00001000
00000010
00000000
,
00001000
00000001
00000100
00001000
00010000
00100000
01000000
00010000
,
10000000
00010000
00100000
00000000
00010000
10000000
00100000
00000000
01000000
00100000
01000000
00000000
00010000
10000000
00100000
00000000
,
10000000
01000000
00010000
00001000
00000010
00000100
00001000
00000001
,
00000100
00000100
00000010
00000010
00001000
00001000
00000100
00000100
,
00010000
00010000
00001000
00001000
00100000
00100000
00010000
00010000
,
10000000
00100000
10000000
00100000
01000000
00010000
01000000
00010000
00100000
00001000
00100000
00001000
00010000
00000100
00010000
00000100
,
00001000
00000010
00000100
00000001
00000010
00000001
00001000
00000010
00001000
00000100
00010000
00000100
00001000
00000001
00000010
00000001
,
00000200
00000320
00020030
00032000
,
00103000
00001000
00010000
00001000
00000010
00000100
00001000
00010000
,
00100000
00000000
01000000
00000000
00010000
00000000
00001000
00000000
00010000
00001000
00010000
00001000
00020000
00000000
00000000
00000000
,
00031000
00010000
00000010
00000000
00001000
00000010
00000100
00000000
00000010
00001000
00000100
00000000
00000010
00000001
00001000
00000000
,
00000001
00000100
00001000
00000000
00010000
00001000
00100000
00000000
01000000
10000000
00010000
00000000
01000000
00001000
00010000
00000000
,
00001000
00100000
00010000
10000000
00010000
00100000
01000000
00000000
00100000
00010000
10000000
01000000
00100000
00001000
00010000
00000000
,
00001000
00000010
00000100
00001000
00000001
00000010
00000100
00010000
00001000
00000100
00000001
00001000
00000001
00000000
00000000
00000000
,
00001001
00000000
00000000
00000000
00000110
00000000
00000010
00001000
00000001
00000000
00000000
00000100
00000000
00000000
00001000
00010000
,
00001000
00000000
00000000
00000000
00010000
00000000
00100000
00000000
01000000
00010000
10000000
00010000
10000000
01000000
00100000
01000000
,
00100000
00000000
00000000
00000000
01100000
00000000
01000000
10000000
00010000
00000000
00000000
10000000
00000000
00000000
01000000
00000000
,
01100000
00000000
00100000
00001000
00010000
00000000
00000000
00000000
00011000
00000000
00010000
00000010
00001000
00000000
00000000
00000000
,
00000110
00000000
00000000
00000000
00001001
00000000
00001000
00000100
00000001
00000000
00001000
00000010
00000000
00000001
00001000
00000000
,
00000001
00000010
00000100
00020000
00000000
00031000
00100000
01000000
,
10000000
00100000
00010000
00002000
00000000
00003010
00000001
00001000
,
00000001
00000010
00000100
00000010
00000001
00001000
00000010
00010000
00001000
00100000
00001000
00010000
00000100
00001000
00000010
00010000
,
00001000
00000000
00000000
00000000
00011000
00000000
00010000
00001000
00000010
00000000
00000000
00000100
00000000
00000000
00010000
00001000
,
00010000
00000000
00000000
00000000
00001000
00000000
00100000
00000000
00010000
01000000
00001000
00010000
00000100
00001000
00000100
00000010
,
00000100
00000000
00000000
00000000
00001010
00000000
00001000
00000100
00000001
00000000
00000000
00000100
00000000
00000000
00001000
00000000
,
00000001
00000000
00000010
00000100
00000010
00000000
00000002
00000000
00000000
00000000
00000103
00000000
00001000
00000000
00010000
00000000
,
00100000
01000000
00010000
00000000
10000000
00010000
00100000
00000000
00010000
10000000
01000000
00000000
00100000
00010000
01000000
00000000
,
00010000
01000000
00010000
01000000
00001000
00010000
00001000
00010000
00000100
00001000
00000100
00001000
00000001
00000100
00000010
00001000
,
00000001
00000000
00000000
00000000
00000000
00000000
00000000
00000000
00000020
00000030
00000000
00000000
00000000
00000000
00000000
00000000
00000020
00000030
00000000
00000000
00000000
00000000
00000000
00000000
00001000
00000000
00000000
00000000
00000001
00000000
00000000
00000000
00001000
00000000
00000000
00000000
00000000
00000000
00000000
00000000
00000200
00000300
00000000
00000000
00000000
00000000
00000000
00000000
00000200
00000300
00000000
00000000
00000000
00000000
00000000
00000000
00000001
00000000
00000000
00000000
00001000
00000000
00000000
00000000
,
00000010
00000000
00000000
00000000
00000000
00000000
00000000
00000000
00002000
00003000
00000000
00000000
00000000
00000000
00000000
00000000
00002000
00003000
00000000
00000000
00000000
00000000
00000000
00000000
00100000
00000000
00000000
00000000
00010000
00000000
00000000
00000000
00100000
00000000
00000000
00000000
00000000
00000000
00000000
00000000
02000000
03000000
00000000
00000000
00000000
00000000
00000000
00000000
02000000
03000000
00000000
00000000
00000000
00000000
00000000
00000000
00100000
00000000
00000000
00000000
10000000
00000000
00000000
00000000
,
01000000
00000000
00000000
00000000
00000000
00000000
00000000
00000000
00020000
00030000
00000000
00000000
00000000
00000000
00000000
00000000
00020000
00030000
00000000
00000000
00000000
00000000
00000000
00000000
00000010
00000000
00000000
00000000
00000100
00000000
00000000
00000000
00001000
00000000
00000000
00000000
00000000
00000000
00000000
00000000
00000001
00000000
00000000
00000000
00000000
00000000
00000000
00000000
00001000
00000000
00000000
00000000
00000000
00000000
00000000
00000000
00000001
00000000
00000000
00000000
00000000
00000000
00000000
00000000
,
00000100
00000001
00000000
00000010
00000000
00000001
00000000
00001000
00000001
00000010
00000100
00000000
00000010
00000000
00000001
00000100
,
00001000
00000000
00010000
00100000
01000000
00010000
10000000
00100000
,
01000000
00000000
00001000
00000000
00100000
00000000
00010000
00000000
01000000
00000000
00001000
00000000
00010000
00000100
00010000
00000100
,
00001000
00000010
00000100
00000001
00001000
00000010
00001000
00000100
00010000
00001000
00010000
00000100
00001000
00000010
00001000
00000001
,
00000100
00000000
00000001
00000000
00000010
00000000
00000001
00000100
00000010
00001000
00000001
00000010
00000100
00000000
00010000
00001000
,
00020000
00000000
00000000
00000000
,
00000000
00000000
00000000
00000000
,
00000000
00000000
00000000
00000000
,
00000000
00000000
00000000
00000000
,
00030000
00000000
00000000
00000000
;

//--------------- dance-double - Fred-104† ----------------
#NOTES:
     dance-double:
     Fred-104†:
     Challenge:
     19:
     :
00000000
00000000
00000000
00000000
,
00000000
00000000
00000000
00000000
,
00000000
00000000
00000000
00000000
,
00010000
00000000
00000000
00000000
00000000
00000000
00000000
00000000
00001000
00000000
00000000
00000000
00000000
00010000
00000000
00000000
00000000
00000000
00000000
00000000
00000000
00000100
00000000
00000000
00000000
00000000
00000000
00000000
00000010
00000000
00000000
00000000
00000000
00000000
00000000
00000000
00000000
00000000
00000000
00000000
00000000
00000000
00000000
00000000
00000000
00000000
00000000
00000000
00000000
00000000
00000000
00000000
00000000
00000000
00000000
00000000
00000000
00000000
00000000
00000000
00000000
00000000
00000000
00000000
,
00000001
00000000
00000000
00000000
00000100
00000000
00001000
00000000
00000000
00000000
00010000
00000000
00000000
00000000
00100000
00000000
01000000
00010000
01000000
00010000
01000000
00010000
01000000
00010000
01000000
00000000
00000000
00000000
00000000
00000000
00000000
00000000
,
10010000
00000000
00000000
00000000
00000000
00000000
00000000
00000000
00000000
00000000
00000000
00000000
00000000
00000000
00000000
00000000
00000000
00000000
10000000
00000000
00000000
01000000
00000000
00000000
00100000
00000000
00000000
00000000
00000000
00000000
00001000
00000000
00000000
00000000
00000000
00000000
00000000
00000000
00000000
00000000
00000000
00000000
00000000
00000000
00000000
00000000
00000000
00000000
00000000
00000000
00000000
00000000
00000000
00000000
00000000
00000000
00000000
00000000
00000000
00000000
00000000
00000000
00000000
00000000
00000000
00000000
00010000
00000000
00001000
00000000
00010000
00000000
00001000
00000000
00000000
00000000
00000000
00000000
00000000
00000000
00000000
00000000
00000000
00000000
00000000
00000000
00000000
00000000
00000000
00000000
00000000
00000000
00000000
00000000
00000000
00000000
,
00000110
00000000
00000000
00000000
00000000
00000000
00001000
00000001
00000100
00000000
00000000
00000000
00000000
00000000
00000000
00000000
00000001
00000000
00000010
00000000
00000100
00000000
00001000
00000000
00010000
00000000
00100000
00000000
01000000
00000000
10000000
00000000
,
00010000
01000000
00100000
10000000
00010000
00100000
01000000
00100000
00001000
00010000
00000100
00000010
00000100
00001000
00000001
00000100
00000010
00001000
00000100
00000010
00001000
00010000
01000000
00100000
,
00010000
00100000
01000000
10000000
00010000
01000000
00001000
00010000
00000100
00001000
00000001
00000100
00000010
00010000
00001000
01000000
00000000
00000000
00000000
00000000
00000000
00000000
00000000
00000000
00000000
00000000
00000000
00000000
00000000
00000000
00000000
00000000
,
00000001
00000000
00000100
00000010
00000200
00000000
00001000
00000000
00000000
00000000
00000301
00000000
00000010
00000000
00000100
00000000
,
00010000
00000000
00001000
01000000
00001000
00000000
01000000
00000000
00100000
00000000
01000000
00010000
10000000
00000000
01000000
00000000
,
00100000
00000000
00010000
10000000
00100000
00000000
00010000
00000000
00001000
00000000
00000100
00000010
00001000
00000000
00000100
00000000
,
00000010
00000000
00000000
00000000
00000000
00000000
00000001
00000000
00000000
00000010
00000000
00000000
00000100
00000000
00000000
00001000
00000000
00000000
00000100
00000000
00000000
00000000
00000000
00000000
00020000
00000000
00000000
00000000
00000000
00000000
00000000
00000000
00032000
00000000
00000000
00000000
00000000
00000000
00000000
00000000
00023000
00000000
00000000
00000000
00000000
00000000
00000000
00000000
,
00031000
00100000
00010000
00100000
00001000
00100000
00010000
00000000
10000000
00100000
01000000
00100000
10000000
00100000
01000000
00000000
,
00010000
10000000
01000000
00100000
00001000
00010000
00001000
00000000
00010000
00000100
00001000
00000100
00000010
00000001
00001000
00000000
,
00000001
00000000
00000100
00000000
00001000
00000000
00010000
00000000
00100000
01000000
00010000
00100000
01000000
10000000
00100000
00010000
,
00001000
00000100
00000001
00001000
00000100
00000000
00000010
00000000
00000011
00000000
00000000
00001010
00000000
00000000
00000101
00000000
,
00001001
00000000
00000001
00000000
00000010
00000000
00001000
00000000
00000000
00000000
00010000
00000000
01000000
00000000
00100000
00000000
00010000
00000000
10000000
00000000
00010000
00000000
01000000
00000000
00000000
00000000
00100000
00000000
00010000
00000000
00001000
00010000
,
00001000
00000000
00000000
00000000
00000000
00000000
00010000
00000000
00000000
00001000
00000000
00000000
00000000
00000000
00000000
00000100
00000000
00000000
00000001
00000000
00000000
00000000
00000000
00000000
00000010
00000000
00000000
00000000
00000000
00000000
00000100
00000000
00000000
00001000
00000000
00000000
00000000
00000000
00000000
00000100
00000000
00000000
00010000
00000000
00000000
00000000
00000000
00000000
00001000
00000000
00000000
00100000
00000000
00000000
00001000
00000000
00000000
00000000
00000000
00000000
00000000
00000000
00000000
00000000
00000000
00000000
01000000
00000000
00000000
00000000
00000000
00000000
00010000
00000000
00000000
00000000
00100000
00000000
00000000
00000000
01000000
00000000
00000000
00000000
10000000
00000000
00000000
00000000
01000000
00000000
00000000
00000000
00100000
00000000
00000000
00000000
,
00020000
10030000
00100000
00001000
00000010
00010000
00002000
00003100
,
00000002
00000013
00010000
00100000
02000000
13000000
00010000
01000000
,
00100000
10000000
00010000
00100000
00001000
00010000
00000010
00001000
00000010
00010000
00001000
00010000
00000100
00001000
00000100
00000010
,
00000001
00001000
00000100
00010000
00001000
01000000
00010000
01000000
00100000
10000000
01000000
00100000
00001000
00010000
00001000
00000000
,
00022000
00000000
00000000
00000000
,
00000000
00000000
00000000
00000000
,
00033000
00000000
00000000
00000000
,
00000000
00000000
00000000
00000000
00000000
00000000
00000000
00000000
00000000
00000000
00000000
00000000
00010000
00000010
00001000
00000100
,
00010000
00000000
00000000
00000000
00001000
00000000
00010000
00000000
00000000
00000000
00100000
00000000
00000000
00000000
10000000
01000000
10000000
00000000
00000000
00000000
01000000
00000000
00010000
00000000
00000000
00000000
00001000
00000000
00000000
00000000
00010000
00000000
00001000
00000000
00000000
00000000
00000100
00000000
00001000
00000000
00000000
00000000
00010000
00000000
00000000
00000000
00001000
01000000
00001000
00000000
00000000
00000000
00010000
00000000
00001000
00000000
00000000
00000000
00000010
00000000
00000001
00000000
00001000
00000000
,
00000001
00000000
00000100
00000000
00000010
00000000
00000100
00000000
00001000
00000000
00010000
00000000
00100000
00000000
10000000
00000000
00010000
00000000
00100000
00000000
10000000
00000000
00100000
00000000
01000000
00000000
10000000
00000000
00100000
00000000
00010000
00000000
00001000
00000000
00000100
00000000
00000010
00000000
00001000
00000001
00001000
00000000
00000000
00000001
00000000
00000000
00010000
00000000
00001000
00000000
00000000
10000000
00000000
00000000
00001000
00000000
00011000
00000000
00000000
00000000
00001000
00010000
00001000
00010000
,
00001000
00000000
00000000
00000000
00010000
00000000
00100000
00000000
10000000
00000000
00010000
00000000
00100000
00000000
01000000
10000000
,
00020000
00000000
00000000
00000000
02030000
00000000
03200000
00000000
00310000
00000000
00002000
00000000
00003100
00000000
00000010
00001000
,
00000002
00000000
00000000
00000000
00000023
00000000
00000230
00000000
00001300
00000000
00000002
00000000
00000103
00000000
00001000
00010000
,
00001000
01000000
00001000
00010000
00000010
00001000
00000100
00010000
00001000
00100000
01000000
10000000
00010000
01000000
00100000
00000000
,
01100000
00000000
00000000
01000000
00000000
00000000
00010000
00000000
00000000
10010000
00000000
00000000
00000000
00000000
00000000
10000000
00010000
01000000
00010000
00000000
00000000
01000000
00000000
00000000
,
00001000
00000000
00000000
01001000
00000000
00000000
00000000
00000000
00000000
00001000
00010000
00001000
00010000
00000000
00000000
00000010
00000000
00000000
00001000
00000000
00000000
00001001
00000000
00000000
,
00000000
00000000
00000001
00000000
00001000
00000000
00000100
00000010
00000001
00001000
00000010
00000100
00000001
00000010
00000100
00010000
,
00001000
00000000
00000000
00010010
00000000
00000000
00101000
00000000
00022000
00000000
00000000
00000000
00033000
00000000
00000000
00000000
,
00001000
00010000
00001000
01000000
00010000
10000000
01000000
00000000
00100000
01000000
10000000
00010000
01000000
00001000
00010000
00000000
,
00001000
00000000
00000000
00000100
00000000
00000000
00000010
00000000
00000000
00000100
00000000
00000000
00000001
00000000
00000000
00001000
00000000
00000000
00000100
00000000
00000000
00000000
00000000
00000000
00000010
00000000
00000000
00000000
00000001
00000000
00000000
00000000
00000100
00000000
00000000
00000000
00001000
00000000
00000000
00000000
00010000
00000000
00000000
00000000
00100000
00000000
00000000
00000000
,
10000000
01000000
00100000
00010000
00100000
00001000
00010000
00000000
00000010
00001000
00000001
00001000
00000100
00010000
00001000
00000000
,
01000000
00010000
00100000
01000000
10000000
00100000
01000000
00000000
00010000
00100000
00001000
00010000
00000010
00001000
00000001
00000000
,
00000010
00000001
00001000
00000010
00000100
00000001
00001000
00000000
00000100
00010000
00001000
00010000
00100000
01000000
00010000
00000000
,
10000000
01000000
00100000
00010000
00100000
00001000
00010000
00000000
00000010
00001000
00000100
00000010
00000001
00000100
00000010
00000000
,
00001000
00000100
00000010
00001000
00010000
01000000
00100000
00010000
,
01000000
00001000
00010000
00000010
00001000
00000010
00010000
00001000
00010000
00100000
01000000
00010000
20000000
00000000
00000000
00000000
,
30010000
10000000
01000000
10000000
00010000
01000000
00001000
00010000
00000100
00001000
00000100
00000010
00000001
00001000
00000010
00001000
,
00000001
00000010
00000100
00001000
00000100
00010000
00001000
00100000
00010000
10000000
00010000
01000000
00100000
10000000
00100000
01000000
,
00010000
10000000
01000000
00100000
00010000
00100000
00001000
00010000
00001000
01000000
00010000
01000000
00001000
00010000
00000100
00001000
,
00000100
00000010
00000001
00001000
00000010
00010000
00001000
00100000
00010000
10000000
00100000
01000000
00001000
00010000
00000010
00001000
,
00000001
00000010
00000100
00010000
00001000
00100000
01000000
10000000
,
00100000
00010000
00001000
00000100
00000001
00001000
00000100
00000010
,
00000001
00000010
00000100
00001000
00000100
00010000
00001000
01000000
00010000
01000000
00001000
00010000
00001000
00100000
00010000
10000000
,
00100000
01000000
00010000
10000000
01000000
00100000
00001000
00010000
00000100
00001000
00000001
00000100
00000010
00001000
00000010
00000100
,
00000002
00000000
00000000
00000000
00001003
00000000
00000100
00000000
00000000
00000000
00000001
00000000
00000000
00000000
00000100
00001000
00000200
00000000
00000000
00000000
00000310
00000000
00000001
00000000
00000000
00000000
00000100
00000000
00000000
00000000
00001000
00000000
00020000
00000000
00000000
00000000
00130000
00000000
10000000
00000000
00000000
00000000
00010000
00000000
00000000
00000000
00100000
10000000
00200000
00000000
00000000
00000000
01300000
00000000
10000000
00000000
00000000
00000000
00100000
00000000
00000000
00000000
00010000
00000000
,
00001000
00100000
00010000
00001000
00000100
00000010
00000001
00001000
,
00000010
00000000
00000100
00000000
00001000
00000000
00010000
00000000
00100000
10000000
00100000
10000000
02000000
00000000
00000000
00000000
,
13000000
01000000
10000000
01000000
00100000
00010000
00100000
00001000
00010000
00001000
00010000
00001000
00000010
00000100
00000010
00000001
,
00001000
00000010
00000100
00000010
00001000
00000001
00000010
00000100
00001000
00000100
00000010
00000001
00001000
00000010
00010000
00001000
,
00100000
00001000
00010000
00001000
01000000
00001000
00010000
00001000
00100000
00001000
00010000
00000010
00001000
00000001
00001000
00000001
,
00000100
00000001
00001000
00000001
00000010
00000100
00001000
00000100
00010000
00001000
00100000
00010000
00100000
01000000
10000000
00010000
,
01000000
00000000
00000000
00000000
01100000
00000000
10000000
00100000
00010000
00000000
00001000
00000100
00000000
00000001
00001000
00000100
,
00000010
00000000
00000000
00000000
00000001
00000000
00001000
00000000
00000001
00000010
00000100
00001000
00000010
00000100
00001000
00010000
,
00001000
00000000
00000000
00000000
01000000
00000000
00001000
00100000
00010000
00000000
00100000
10000000
00000000
00100000
01000000
00000000
,
10000000
01000000
00010000
00001000
00000010
00000000
00000000
00000000
00000001
00000100
00001000
00010000
00100000
00000000
00000000
00000000
,
10010000
00000000
00000000
00000000
10000000
00100000
00010000
00100000
10000000
00000000
00010000
00100000
00000000
10000000
00100000
00000000
,
00001000
00000010
00000200
00001000
00000000
00000310
00000001
00001000
,
00000010
00000100
00001000
00010000
10000000
01000000
00100000
00010000
,
00001000
00010000
00001000
00100000
00010000
00100000
00001000
00010000
00001000
00000100
00000010
00001000
00000100
00000010
00000001
00001000
,
00000010
00000000
00000000
00000000
00001001
00000000
00000001
00000100
00001000
00000000
00010000
00100000
00000000
01000000
00010000
01000000
,
00010000
00000000
00000000
00000000
10000000
00000000
01000000
00000000
00100000
00010000
00100000
00001000
00010000
00001000
00000100
00000010
,
00001000
00000000
00000000
00000000
00000001
00000000
00000010
00000100
00010000
00000000
00001000
00100000
00000000
00010000
00100000
01000000
,
10000000
00000000
00010000
01000000
00200000
00000000
10000000
00000000
00000000
00000000
01300000
00000000
00010000
00000000
10000000
00000000
,
01000000
00100000
00010000
00000000
00100000
00001000
00010000
00000000
00000100
00001000
00000001
00000000
00000100
00000001
00001000
00000000
,
00000001
00000010
00000100
00001000
00000010
00000100
00001000
00010000
00000100
00001000
00010000
00100000
00001000
00010000
00100000
10000000
,
01000000
00000000
00100000
00000000
00001000
00000000
00010000
00001000
00000010
00000000
00000001
00000000
00000010
00000000
00000100
00001000
,
00000001
00000000
00000100
00000000
00001000
00000000
00010000
00100000
10000000
00010000
00100000
00000000
01000000
00000000
00100000
00001000
,
00010000
00000000
00100000
00000000
10000000
00000000
00010000
00100000
01000000
00000000
10000000
00000000
00010000
00000000
10000000
00010000
,
00100000
01000000
00000000
00010000
00000000
00001000
00000000
00000100
00000010
00001000
00000100
00000010
00000001
00000000
00000100
00000010
,
00000100
00000000
00000000
00000000
00000001
00000010
00000100
00000000
00001000
00000100
00010000
00000000
00001000
00100000
00010000
00000000
,
01000000
00010000
00100000
01000000
10000000
00100000
01000000
00000000
00010000
00100000
00001000
00010000
00000100
00001000
00000001
00000000
,
00000100
00000001
00001000
00000100
00010000
00001000
00100000
00001000
00010000
00000010
00010000
00001000
00100000
00010000
10000000
00100000
,
01000000
00010000
10000000
01000000
00100000
00001000
00010000
00000100
00000010
00000001
00001000
00000010
00000100
00001000
00010000
00001000
,
02000000
00000000
00000000
00000000
,
00000000
00000000
00000000
00000000
,
00000000
00000000
00000000
00000000
,
00000000
00000000
00000000
00000000
,
03000000
00000000
00000000
00000000
;
