#TITLE:Voyager;
#ARTIST:lapix;
#BANNER:Voyager.png;
#BACKGROUND:Voyager-bg.png;
#CDTITLE:./CDTitles/NOSTALGIA Op.2.png;
#MUSIC:Voyager.ogg;
#SAMPLESTART:79.448;
#SAMPLELENGTH:15;
#BPMS:0=145;
#TIMESIGNATURES:0=4=4,4=3=4,16=4=4,272=3=4,284=4=4;
#BGSTAGE:15;

//--------------- dance-single - Fred-104 ----------------
#NOTES:
     dance-single:
     Fred-104:
     Beginner:
     2:
     :
0000
0000
0000
0000
,
0000
0000
0000
0000
,
0000
0000
0000
0000
,
0000
0000
0000
0000
,
1000
0000
0000
0000
,
0000
0000
0000
0000
,
0001
0000
0000
0000
,
0000
0000
0000
0000
,
1000
0000
0000
0000
,
0001
0000
0000
0000
,
1000
0000
1000
0000
,
0001
0000
0001
0000
,
1001
0000
0000
0000
,
0001
0000
0000
0000
,
0010
0000
0000
0000
,
0001
0000
1000
0000
,
0100
0000
0000
0000
,
1000
0000
0000
0000
,
0001
0000
0000
0000
,
1000
0000
0000
0000
,
0001
0000
0000
0000
,
1000
0000
0000
0000
,
0001
0000
0001
0000
,
1000
0000
1000
0000
,
0001
0000
0000
0000
,
1000
0000
0010
0000
,
2000
3000
0002
0003
,
1000
0000
0001
0000
,
1000
0000
0100
0000
,
1000
0000
0001
0000
,
0200
0300
0020
0030
,
0200
0300
0001
0000
,
1000
0000
0000
0000
,
0001
0000
0000
0000
,
0100
0000
0000
0000
,
0001
0000
1000
0000
,
0001
0000
0010
0000
,
0001
0000
1000
0000
,
0100
0000
1000
0000
,
0001
0000
1000
0000
,
1001
0000
0000
0000
,
0000
0000
0000
0000
,
0000
0000
0000
0000
,
0000
0000
0000
0000
,
0001
0000
1000
0000
,
0001
0000
1000
0000
,
0010
0000
0100
0000
,
0001
0001
0001
0000
,
1000
0000
0000
0000
,
0010
0000
0000
0000
,
1000
0000
0000
0000
,
0001
0000
0000
0000
,
1000
0000
0100
0000
,
1000
0000
0000
0000
,
0001
0000
1000
0000
,
0001
0000
1000
0000
,
0001
0000
0100
0000
,
0001
0000
0000
0000
,
0010
0000
0100
0000
,
0010
0000
0001
0000
,
1000
0000
0100
0000
,
0010
0000
0001
0000
,
1000
0000
1000
0000
,
0001
0000
0001
0000
,
1001
0000
0000
0000
,
0001
0000
0000
0000
,
1000
0000
0000
0000
,
0010
0000
0000
0000
,
1000
0000
0000
0001
,
0000
0000
1000
0000
,
0000
0001
0001
0001
,
2002
0000
0000
0000
,
0000
0000
0000
0000
,
3003
0000
0000
0000
;

//--------------- dance-single - Fred-104 ----------------
#NOTES:
     dance-single:
     Fred-104:
     Easy:
     5:
     :
0000
0000
0000
0000
,
0000
0000
0000
0000
,
0000
0000
0000
0000
,
0000
0000
0000
0000
,
1000
1000
0010
0000
,
0100
0001
1000
0000
,
0001
0001
0010
0000
,
0001
1000
0001
1000
,
0100
0100
1000
0000
,
0010
1000
0001
0001
,
1001
0000
0110
0000
,
1001
0000
0110
0000
,
1001
0000
0001
0000
,
0010
0000
0001
0000
,
1000
0000
0010
0000
,
0100
0000
0001
1000
,
0001
0000
0010
0000
,
0001
1000
0010
0000
,
1000
0000
0100
0000
,
1000
1000
0001
0000
,
1000
0000
0001
0000
,
0010
0010
0100
0000
,
0010
0000
0001
0000
,
1000
1000
0001
0000
,
1000
0000
0010
0000
,
1000
0100
0010
0010
,
0010
0000
0001
0000
,
1000
0000
0001
0001
,
0001
0000
0100
0000
,
0010
0010
0010
1000
,
0001
0000
1000
0000
,
0100
0000
0010
0001
,
2000
0100
3100
0000
,
0020
0001
0031
0000
,
2000
0010
3010
0000
,
0100
0001
1000
1000
,
0001
0000
0010
0001
,
1000
1000
0010
1000
,
0100
0000
0010
0000
,
0001
0001
1000
1000
,
1001
0000
0000
0000
,
0000
0000
0000
0000
,
0000
0000
0000
0000
,
0000
0000
0000
0000
,
0001
0000
0100
0000
,
1000
0000
0010
0000
,
0001
0001
1000
1000
,
0001
1000
2002
3003
,
0001
0100
1000
0000
,
1000
0100
0001
0000
,
1000
0010
0100
0010
,
1000
0000
0001
0000
,
1000
0010
0001
0000
,
0001
0010
1000
0000
,
0001
0000
1000
0000
,
0001
0000
1000
0000
,
1000
0100
0001
0000
,
0001
0100
1000
0000
,
0001
0000
0100
0100
,
0100
0001
0001
0000
,
0001
0010
1000
0000
,
1000
0010
0001
0000
,
1000
0000
0001
0000
,
0100
0000
0010
0000
,
1001
0000
1000
0000
,
0010
1000
0100
0000
,
1000
0000
0001
0000
,
0010
0001
1000
0001
,
1000
0000
0000
0100
0000
0000
0010
0000
,
0000
0001
0000
0000
1000
0000
0000
0010
,
0000
0000
0100
0000
0000
0001
0000
0000
,
2002
0000
0000
0000
,
0000
0000
0000
0000
,
3003
0000
0000
0000
;

//--------------- dance-single - Fred-104 ----------------
#NOTES:
     dance-single:
     Fred-104:
     Medium:
     11:
     :
0000
0000
0000
0000
,
0000
0000
0000
0000
,
0000
0000
0000
0000
,
0000
0000
0000
0000
,
0001
0100
0001
0010
0001
0000
0100
0010
,
1000
0000
0000
0001
1000
0001
1000
0000
0000
1010
0000
0000
,
1000
0000
0000
0000
0000
0000
0100
0000
0000
1000
0000
0000
0001
0000
0100
0000
0001
0000
0010
0000
0000
0000
0000
0000
,
0001
0000
0001
1000
0001
1000
0001
0000
0000
1001
0000
0000
,
0010
0001
1000
0001
0100
0000
0010
1000
,
0200
0000
0000
1300
0100
1000
0100
0010
0100
0010
0000
0000
,
0001
0000
0000
0101
0000
0000
0001
0000
1000
0000
0000
1100
0000
0000
1000
0000
,
0001
0000
0000
0100
0000
0000
0010
0000
1000
0000
0000
0001
0000
0000
1000
0000
,
1001
0000
1000
0100
1000
0001
0100
0010
,
0100
0000
0001
0010
0100
0010
0001
1000
,
0001
0000
0100
0001
0100
0001
0100
0010
,
0100
0001
0100
0010
1000
0100
1000
0000
,
1001
0000
1000
0100
0010
0001
1000
0100
,
0010
0000
0000
0001
0000
0000
0010
0000
0100
0000
0000
1000
0000
0000
0010
0000
,
0100
0000
0001
0010
0001
1000
0010
0100
,
0001
0000
0000
0000
1000
0000
0000
1100
0000
0000
0000
0000
1001
0000
0000
0000
,
1000
0000
0010
1000
0100
0010
0001
1000
,
0001
0000
0000
0100
0000
0000
1000
0000
0001
0000
0000
0010
0000
0000
1000
0000
,
0001
0000
0000
0100
0000
0000
0010
0000
0100
0000
0001
0000
1000
0000
0100
0000
,
1000
0000
0010
0000
0100
0000
0000
0100
0000
0000
0001
0000
1000
0000
0000
0000
,
1001
0000
0100
1000
0001
0100
0001
0010
,
0100
0010
0001
1000
0010
0100
0010
0000
,
1000
0000
0000
1100
0000
0000
1000
0000
0001
0000
0000
0011
0000
0000
0001
0000
,
1000
0001
1000
0001
1001
0000
0110
0000
,
1001
0000
1000
0010
1000
0100
0010
0100
,
1000
0001
0010
0001
0100
0010
0100
0000
,
0101
0000
0000
0001
0000
0000
1000
0000
1100
0000
0000
1000
0000
0000
0001
0000
,
2002
0000
0000
3003
,
1000
0000
0000
0100
0000
0000
1000
0000
0001
0000
0000
0010
0000
0000
0100
0000
,
0010
0000
0000
0001
0000
0000
1000
0000
0001
0000
0000
0100
0000
0000
0010
0000
,
0100
0000
0000
0001
0000
0000
1000
0000
0100
0000
0000
1000
0000
0000
0010
0000
,
0100
0010
1000
0010
1000
0001
1000
0000
,
1001
0000
0000
0001
0000
0000
0100
0000
0010
0000
0000
0010
0000
0000
1000
0000
,
0100
0000
0000
0100
0000
0000
1000
0000
0000
0001
0000
0000
0010
0000
0010
0000
,
0000
0001
0000
0000
0100
0000
0010
0000
1000
0000
0000
0001
0000
0000
1000
0000
,
0001
0100
0010
0100
0001
0000
1000
0000
,
1002
0000
0203
0000
,
0320
0000
0000
0000
,
2030
0000
3002
0000
,
0203
0000
0320
0000
,
1030
0000
0000
0100
0000
0000
0010
0000
0001
0000
0000
1000
0000
0000
0010
0000
,
0100
0000
0000
0001
0000
0000
1000
0000
0100
0000
1000
0000
0001
0000
0000
0000
,
1000
0100
1000
0100
0000
0000
0010
0001
0010
0001
0000
0000
,
1000
0001
1000
0001
0000
0000
0110
0000
0000
1001
0000
0000
,
1000
1000
0010
1000
0100
0000
1000
0001
,
0100
0000
0000
0000
0000
0000
0001
0000
0100
0000
0001
0000
0010
0000
0000
0000
0000
0000
0001
0000
0000
1000
0000
0000
,
0001
0000
0000
1000
0000
0000
0100
1000
0100
1000
0000
0000
,
0010
0000
1000
0001
1000
0001
1000
0000
0000
1001
0000
0000
,
0001
0100
0001
1000
0010
0000
0100
0010
,
2000
0000
0000
3001
1000
0001
1000
0010
1000
0100
0000
0000
,
1000
0000
0000
1010
0000
0000
1000
0000
0001
0000
0000
0101
0000
0000
0001
0000
,
1000
0000
0000
0001
0000
0000
0100
0000
0010
0000
0000
1000
0000
0000
0001
0000
,
1000
0100
0010
0001
1000
0000
0010
1000
,
0100
0000
0000
1000
0010
1000
0001
0000
0000
1001
0000
0000
,
0001
0000
0000
0000
0000
0000
0100
0000
0000
0001
0000
0000
0010
0000
0001
0000
0010
0000
0001
0000
0000
0000
0000
0000
,
0100
0000
0010
1000
0010
1000
0100
0000
0000
1001
0000
0000
,
1000
0100
0010
0100
1000
0000
0001
0100
,
0001
0000
0000
1000
0010
1000
0010
0100
0001
0100
0000
0000
,
1000
0000
0000
1001
0000
0000
0010
0000
1000
0000
0000
1001
0000
0000
0100
0000
,
1000
0000
0000
0010
0000
0000
0100
0000
0001
0000
0000
0011
0000
0000
1000
0000
,
0001
0000
0100
0010
0100
0001
0100
0010
,
1000
0000
0001
0010
0100
1000
0010
1000
,
0100
0000
1000
0001
0100
0001
1000
0100
,
1000
0100
0001
0000
1000
0010
0001
0000
,
1000
0100
0000
0010
0001
0000
1000
0010
,
0000
0100
0001
0000
1000
0001
0000
0100
,
0010
0000
1000
0100
1000
0001
0100
0010
,
0200
0000
0000
0000
,
0000
0000
0000
0000
,
0300
0000
0000
0000
;

//--------------- dance-single - Fred-104 ----------------
#NOTES:
     dance-single:
     Fred-104:
     Hard:
     15:
     :
0000
0000
0000
0000
,
0000
0000
0000
0000
,
0000
0000
0000
0000
,
0000
0000
0000
0000
,
0001
0100
0010
0000
1000
0000
0001
1000
0001
0000
0000
0000
1000
0010
1000
0000
,
0001
0000
0000
0000
0000
0000
0000
0000
0000
0000
0000
0000
0010
0000
0000
0000
0001
0000
0000
0000
1000
0000
0000
0000
0100
0000
0000
0000
0000
0000
0000
0000
0000
1000
0000
0000
0010
0000
0000
0100
0000
0000
0001
0000
0000
0000
0000
0000
,
1000
0000
0000
0000
0000
0000
0000
0000
0000
0000
0000
0000
0001
0000
0000
1000
0000
0000
0100
0000
0000
0000
0000
0000
1000
0000
0000
0000
0010
0000
0000
0000
0100
0000
0000
0000
0001
0000
0000
0000
1000
0000
0000
0000
0100
0000
0000
0000
,
0010
0000
0000
0000
0001
1000
0001
0000
0100
0000
0010
0000
1000
0000
0000
0000
0000
0000
1001
0000
0000
0000
0000
0000
,
0001
0010
0100
1000
0100
0010
0001
1000
0001
0000
1000
0000
0010
1000
0001
0000
,
2000
0000
0000
3001
0100
0010
1000
0100
0010
0001
1000
0001
,
1000
0000
0000
1100
0000
0000
0010
0000
0001
0000
0000
0101
0000
0000
0010
0000
,
1000
0010
0000
0110
0000
0100
0001
0000
0011
0000
0000
1010
0000
0000
0101
0000
,
1001
0000
0000
0001
0010
0001
0010
0001
1000
0100
1000
0100
0010
0001
1000
0100
,
0010
0000
0000
0000
0001
0100
0001
0100
0010
1000
0010
1000
0001
0100
0010
1000
,
0001
0000
0000
1000
0001
1000
0001
1000
0100
0010
0100
0010
0001
1000
0100
0010
,
0001
1000
0001
0000
0100
0000
0001
0100
0010
0100
0001
0000
0010
0000
0001
0000
,
1001
0000
0000
0000
0001
1000
0001
1000
0000
0000
0001
1000
0100
0010
0001
1000
,
0001
0010
0000
0100
0000
0000
1000
0010
1000
0001
0000
1000
0000
0000
0001
1000
,
0100
0000
0000
0000
1000
0010
1000
0010
0000
0000
0100
0001
0100
0001
0010
0001
,
1000
0000
0000
0000
0001
0000
1000
0100
0000
0000
0010
0000
0001
0000
0100
0010
,
0100
0000
0001
0000
1000
0100
0010
0001
0000
0000
1000
0100
1000
0001
1000
0100
,
1000
0010
0000
0100
0000
0000
0001
0100
0001
0100
0000
1000
0000
0000
0100
0010
,
1000
0000
0000
0010
1000
0001
0100
0001
0100
0000
0000
0001
0010
0001
0010
0001
,
1000
0000
0010
0000
0100
0000
0001
0100
0000
0000
0001
1000
0001
0000
1000
0000
,
0100
0000
1000
0010
1000
0100
1000
0100
0010
0001
1000
0001
0010
0100
0010
0000
,
0001
0100
0001
0100
0010
1000
0010
1000
0100
0010
0001
1000
0010
0000
0000
0000
,
1000
0000
0000
1010
0000
0000
0100
0000
0001
0000
0000
0011
0000
0000
0100
0000
,
1000
0000
1000
0000
0001
1000
0001
1000
0001
0000
0000
0000
0100
0010
0100
0000
,
0001
0000
0010
0001
1000
0100
1000
0100
0010
0100
0010
0100
1000
0000
0001
0000
,
0100
0001
0100
0001
1000
0001
1000
0001
0010
0100
1000
0001
0100
0010
1000
0000
,
1100
0000
0000
0010
0000
0000
0001
0000
0101
0000
0000
0010
0000
0000
1000
0000
,
2002
0000
0000
0000
0000
0000
3003
0000
0001
1000
0001
1000
0001
0000
0000
0000
,
1000
0100
0010
0001
0100
0010
0001
0010
,
0100
1000
0100
0010
1000
0001
0100
0010
,
1000
0100
0001
0100
1000
0010
1000
0001
,
0100
0000
0001
0100
0001
0010
0001
0010
0100
1000
0100
1000
0001
0000
1000
0000
,
0001
0000
0000
0010
0000
0000
0100
0000
1000
0010
0100
0000
0010
0000
1000
0000
,
0001
0010
0000
0010
0100
0000
0100
1000
0000
1000
0001
0000
0100
0010
0100
0010
,
0000
1000
0000
0001
0100
0000
0001
0000
0010
0000
0100
1000
0000
1000
0001
0000
,
1000
0000
0010
0000
0100
0001
0000
0001
0000
0000
1000
0000
0100
0000
0010
0001
,
2000
0000
3020
0000
,
0230
0000
0300
0000
,
0002
0000
0023
0000
,
2030
0000
3200
0302
,
1003
0000
0000
0100
0000
0000
0100
0000
0001
0000
0000
0010
0000
0000
0010
0000
,
1000
0000
0000
0001
0000
0000
0100
0000
0010
0000
1000
0000
0001
0000
0000
0000
,
1000
0100
0010
0001
0000
0000
1000
0010
0100
0001
0000
0000
,
1000
0100
0010
0001
0010
0100
1000
0000
0000
1001
0000
0000
,
0001
0100
0010
1000
0010
0100
0001
1000
0001
0000
0000
0000
1000
0010
0100
0001
,
1000
0000
0000
0000
0000
0000
0000
0000
0000
0001
0000
0000
0010
0000
0000
0000
0100
0000
0000
0000
0010
0000
0000
0000
0001
0000
0000
0000
0000
0000
0000
0000
0000
0100
0000
0000
0001
0000
0000
0010
0000
0000
0001
0000
0000
1000
0000
0000
,
0010
0000
0000
0000
0000
0000
0000
0000
0000
0000
0000
0000
1000
0000
0000
0100
0000
0000
0010
0000
0000
0001
0000
0000
1000
0000
0000
0000
0001
0000
0000
0000
0100
0000
0000
0000
0001
0000
0000
0000
1000
0000
0000
0000
0010
0000
0000
0000
,
1000
0000
0000
0000
0001
0100
0001
0000
0010
0000
0100
0000
0010
0000
0000
0001
0000
0000
1001
0000
0000
0000
0000
0000
,
1000
0010
1000
0001
0100
0001
1000
0100
1000
0000
0000
0000
0001
0100
0010
1000
,
0002
0000
0000
1003
0001
0010
0100
0010
0001
0100
0010
1000
,
0001
0000
0000
0101
0000
0000
0010
0000
1000
0000
0000
1100
0000
0000
0010
0000
,
0001
0010
0000
0110
0000
0100
1000
0000
0001
1000
0000
0010
0000
1000
0001
0000
,
1000
0100
0010
0001
1000
0100
0010
0001
1000
0000
0001
0000
0010
0001
1000
0001
,
0100
0000
0000
0000
0000
0000
0000
0000
0001
0000
0010
0000
0001
0000
0000
0000
0100
0000
0000
0000
0010
0000
0000
0000
1000
0000
0000
0000
0000
0000
0000
0000
0000
0000
0000
0000
0001
0000
0000
1000
0000
0000
0001
0000
0000
1000
0000
0000
,
0100
0000
0000
0000
0000
0000
0000
0000
0000
0010
0000
0000
0001
0000
0000
1000
0000
0000
0100
0000
0000
0010
0000
0000
0001
0000
0000
0000
0100
0000
0000
0000
0010
0000
0000
0000
1000
0000
0000
0000
0010
0000
0000
0000
0100
0000
0000
0000
,
0001
0000
0000
0000
1000
0100
1000
0000
0001
0000
0100
0000
0010
0000
0000
1000
0000
0000
1001
0000
0000
0000
0000
0000
,
0001
0100
0001
0100
0010
0100
0010
0100
0001
0000
0000
0000
1000
0100
1000
0100
,
1000
0000
0000
0000
0000
0000
0000
0000
0000
0001
0000
0000
1000
0000
0000
0000
0010
0000
0000
0000
1000
0000
0000
0000
0001
0000
0000
0000
0100
0000
0000
0000
0010
0000
0000
0000
0100
0000
0000
0000
0001
0000
0000
0000
1000
0000
0000
0000
,
0001
0000
0000
0011
0000
0000
0100
0000
1000
0000
0000
1010
0000
0000
0100
0000
,
0001
0100
0000
0110
0000
0010
1000
0000
1100
0000
0000
0011
0000
0000
1010
0000
,
1001
0000
0000
0001
0010
0000
0100
0000
1000
0000
0000
0010
0100
0000
0010
0000
,
1000
0000
0000
0100
0010
0000
0001
0000
1000
0000
0000
0001
0100
0000
0010
1000
,
0001
0000
0000
0010
0100
0000
0010
0000
0001
0000
1000
0001
0100
0000
0010
0000
,
1000
0100
1000
0000
0001
0100
0001
0000
1000
0010
1000
0000
0001
0010
0001
1000
,
0001
0000
0000
0000
0000
0000
0000
0000
0200
0300
0000
0000
0000
0000
0000
0000
0200
0300
0000
0000
0000
0000
0000
0000
1000
0000
0000
0000
0000
0000
0000
0000
0200
0300
0000
0000
0000
0000
0000
0000
0200
0300
0000
0000
0000
0000
0000
0000
0001
0000
0000
0000
0000
0000
0000
0000
0020
0030
0000
0000
0000
0000
0000
0000
,
0020
0030
0000
0000
0000
0000
0000
0000
1000
0000
0000
0000
0000
0000
0000
0000
0020
0030
0000
0000
0000
0000
0000
0000
0020
0030
0000
0000
0000
0000
0000
0000
0001
0000
0000
0000
0000
0000
0000
0000
0200
0300
0000
0000
0000
0000
0000
0000
0200
0300
0000
0000
0000
0000
0000
0000
1000
0000
0000
0000
0000
0000
0000
0000
,
0020
0030
0000
0000
0000
0000
0000
0000
0020
0030
0000
0000
0000
0000
0000
0000
0001
0000
0000
0000
0010
0000
0000
0000
0001
0000
0000
0000
0010
0000
0000
0000
0100
0000
0000
0000
1000
0000
0000
0000
0100
0000
0000
0000
1000
0000
0000
0000
0001
0000
0000
0000
0100
0000
0000
0000
0010
0000
0000
0000
1000
0000
0000
0000
,
0002
0000
0000
0000
,
0000
0000
0000
0000
,
0003
0000
0000
0000
;

//--------------- dance-single - Fred-104† ----------------
#NOTES:
     dance-single:
     Fred-104†:
     Challenge:
     17:
     :
0000
0000
0000
0000
,
0000
0000
0000
0000
,
0000
0000
0000
0000
,
0000
0000
0000
0000
,
1000
0000
0000
0100
0000
0000
0010
0000
0000
0001
0000
0000
0010
0000
0000
0100
0000
0000
1000
0000
0001
0000
1000
0000
0010
0000
0000
0000
0000
0000
0000
0000
0000
0000
0000
0000
0100
0000
0000
0001
0000
0000
0100
0000
0000
0001
0000
0000
,
0100
0000
0000
0000
0000
0000
0000
0000
0001
0000
1000
0000
0001
0000
0000
0000
0001
0000
0000
0000
1000
0000
0000
0000
1001
0000
0000
0000
0000
0000
0000
0000
0000
0000
0000
0000
0001
0000
0000
0010
0000
0000
0100
0000
0000
1000
0000
0000
,
0001
0000
0000
0000
0000
0000
0000
0000
0000
0000
0000
0000
0100
0000
0000
0010
0000
0000
1000
0000
0000
0001
0000
0000
0010
0000
0000
0000
0100
0000
0000
0000
1000
0000
0000
0000
0010
0000
0000
0000
0100
0000
0000
0000
0001
0000
0000
0000
,
1000
0000
0000
0000
0000
0000
0000
0000
0001
0000
0100
0000
0001
0000
0000
0000
0010
0000
0000
0000
0100
0000
0000
0000
1000
0000
0000
0000
1000
0000
0000
0000
1000
0000
0000
0000
0001
0000
0000
0100
0000
0000
0010
0000
0000
1000
0000
0000
,
0001
0000
0000
1000
0000
0000
0100
0000
0000
1000
0000
0000
0001
0000
0000
0010
0000
0000
0001
0000
1000
0000
0001
0000
0100
0000
0000
0000
0000
0000
0000
0000
0000
0000
0000
0000
0010
0000
0000
1000
0000
0000
0001
0000
0000
0010
0000
0000
,
0100
0000
0000
1000
0100
0001
1000
0010
0001
1000
0100
0010
,
0002
0013
0100
2000
3010
0100
0002
1003
0002
0103
0010
2000
3100
0010
0002
1003
,
0001
0001
0000
0110
0000
1000
1000
0000
0011
0000
0000
1010
0000
0000
0101
0000
,
1002
0000
0000
0000
1003
0100
0010
0001
1000
0010
0100
0001
0100
0010
1000
0001
,
0020
0000
0000
0000
0031
0100
0001
1000
0100
0010
0001
1000
0010
0100
0001
0100
,
0020
0000
0000
0000
1030
0001
0010
0100
1000
0001
0100
0010
1000
0001
1000
0001
,
0010
1000
0010
0000
0100
0000
1000
0001
0100
1000
0100
0000
0010
1000
0001
0010
,
0100
0000
0000
0000
1000
0001
0100
0001
0000
0000
1000
0100
0010
0001
0100
0010
,
1000
0100
0000
0001
0000
0100
1000
0001
1000
0010
0000
0001
0000
0010
1000
0001
,
1000
0000
0000
0000
0001
0010
0100
1000
0000
0001
0100
0010
1000
0100
0010
0001
,
1000
0000
0000
0000
0001
0000
0001
0100
1000
0000
0100
0000
0010
1000
0010
1000
,
0001
0000
1000
0000
0100
0010
0001
0100
0000
0010
1000
0100
1000
0010
0100
0001
,
1000
0100
0001
0100
0000
0000
1000
0001
1000
0010
0001
0010
0000
0000
1000
0001
,
1000
0000
0000
0100
0010
0001
1000
0001
0100
0000
0100
0010
1000
0100
0010
0001
,
1000
0000
0000
0000
0000
0000
0001
0000
0000
0000
0000
0000
0100
0000
0000
0000
0000
0000
0010
0000
0000
0100
0000
0000
0000
0000
0000
0000
0000
0000
0001
0000
1000
0000
0001
0000
1000
0000
0000
0000
0000
0000
0001
0000
0000
0000
0000
0000
,
1000
0100
0010
0001
1000
0010
0100
0010
1000
0001
0010
0100
0010
0001
1000
0001
,
0100
0010
1000
0010
0100
0001
1000
0100
1000
0010
0100
0001
1000
0000
0000
0000
,
0002
0013
0100
2000
3010
0100
0002
1003
0002
0103
0010
2000
3100
0010
0002
1003
,
0001
0100
0010
1000
0100
0010
0001
1000
0010
0100
0010
0100
0001
1000
0001
0000
,
1000
0010
0100
0010
1000
0001
0010
0100
1000
0100
0010
0100
1000
0001
0100
0010
,
1000
0001
0010
0100
0010
0001
1000
0010
1000
0001
0100
0001
1000
0100
1000
0000
,
0002
0103
0010
2000
3100
0010
0002
1003
0002
0013
0100
2000
3010
0100
0002
1003
,
0002
0000
0000
0000
0000
0000
0000
0000
1003
0100
0010
0001
1000
0100
0010
0001
,
2000
0000
0000
0010
0000
0000
3001
0000
0000
1000
0000
0000
0200
0000
0000
0010
0000
0000
1300
0000
0000
0001
0100
0001
,
0100
0000
0001
0000
0100
0000
0001
0000
0100
0000
0001
0000
1000
0000
0001
0000
1000
0000
0001
0000
1000
0000
0001
0000
1000
0000
0000
0000
0000
0000
0100
0000
0000
0010
0000
0000
0001
0000
0000
0000
0000
0000
1000
0000
0000
0000
0000
0000
,
0002
0100
1003
0100
0020
0100
0031
1000
,
0100
0010
0001
1000
0010
0100
0001
1000
0100
0010
0001
1000
0010
0100
0010
1000
,
0001
0000
0000
0000
0000
0000
0000
0000
0010
0000
0000
0000
0100
0000
0000
0000
1000
0000
0000
0000
0000
0000
0000
0000
0001
0000
0000
0000
1000
0000
0000
0000
0010
0000
0000
0000
1000
0000
0000
0000
0001
0000
0000
0000
0000
0000
0000
0000
0200
0300
0000
0000
0000
0000
0000
0000
0200
0300
0000
0000
0000
0000
0000
0000
,
1000
0010
0000
0001
0010
0000
0100
1000
0000
0100
0001
1000
0100
0010
0001
1000
,
0000
0000
0000
0000
0010
0000
0000
0000
0100
0000
0000
0000
0001
0000
0000
0000
1000
0000
0000
0000
0000
0000
0000
0000
0010
0000
0000
0000
0000
0000
0000
0000
1000
0000
0000
0000
0000
0000
0000
0000
0001
0000
0000
0000
0200
0300
0000
0000
0000
0000
0000
0000
0200
0300
0000
0000
1000
0000
0000
0000
0000
0000
0000
0000
,
0001
0000
0000
0000
0000
0000
0000
0000
0000
0000
0000
0000
0000
0000
0000
0000
0000
0000
0000
0000
0000
0000
0000
0000
1000
0000
0000
0000
0000
0000
0000
0000
0000
0000
0000
0000
0000
0000
0000
0000
0000
0000
0000
0000
0000
0000
0000
0000
0001
0000
0000
0000
0000
0000
0000
0000
0000
0000
0000
0000
0020
0000
0000
0030
0000
0000
0000
0000
0000
0000
0000
0000
0000
0000
0000
0000
0000
0000
0000
0000
0000
0000
0000
0000
0020
0000
0000
0030
0000
0000
0000
0000
0000
0000
0000
0000
1000
0000
0000
0000
0000
0000
0000
0000
0000
0000
0000
0000
0000
0000
0000
0000
0000
0000
0000
0000
0000
0000
0000
0000
0100
0000
0000
0000
0000
0000
0000
0000
0000
0000
0000
0000
0010
0000
0000
0000
0000
0000
0000
0000
0000
0000
0000
0000
0001
0000
0000
0000
0000
0000
0000
0000
0000
0000
0000
0000
0000
0000
0000
0000
0000
0000
0000
0000
0000
0000
0000
0000
1000
0000
0000
0000
0000
0000
0000
0000
0001
0000
0000
0000
0000
0000
0000
0000
1000
0000
0000
0000
0000
0000
0000
0000
,
0002
0000
0023
0000
,
0230
2300
3002
0000
,
2003
0000
3020
0000
,
0230
0000
0000
0000
0000
0000
0302
0000
0000
0000
0000
0000
2003
0000
0000
0000
0000
0000
3001
0000
0001
1000
0000
0000
,
1001
0000
0110
0000
,
1001
0110
1001
0110
,
0001
0001
0001
0001
0000
0000
1000
1000
1000
1000
0000
0000
,
0010
0010
0010
0100
0100
0100
2002
0000
0000
3003
0000
0000
,
1000
0000
0000
0100
0000
0000
0010
0000
0000
0001
0000
0000
1000
0000
0000
0010
0000
0000
0100
0000
0001
0000
0100
0000
0010
0000
0000
0000
0000
0000
0100
0000
0000
0000
0000
0000
0001
0000
0000
1000
0000
0000
0100
0000
0000
1000
0000
0000
,
0001
0000
0000
0000
0000
0000
0000
0000
1000
0000
0001
0000
1000
0000
0000
0000
1000
0000
0000
0000
0001
0000
0000
0000
1001
0000
0000
0000
0000
0000
0000
0000
0000
0000
0000
0000
0001
0000
0000
1000
0000
0000
0100
0000
0000
1000
0000
0000
,
0001
0000
0000
0000
0000
0000
0000
0000
0000
0000
0000
0000
0000
0000
0000
0000
0000
0000
0000
0000
0000
0000
0000
0000
0000
0000
0000
0000
0000
0000
0000
0000
0000
0000
0000
0000
0000
0000
0000
0000
0000
0000
0000
0000
0000
0000
0000
0000
0100
0000
0000
0000
0000
0000
0000
0000
0000
0000
0000
0000
0001
0000
0000
0000
0000
0000
0000
0000
0000
0000
0000
0000
1000
0000
0000
0000
0000
0000
0000
0000
0000
0000
0000
0000
0001
0000
0000
0000
0000
0000
0000
0000
0000
0000
0000
0000
0020
0000
0000
0030
0000
0000
0000
0000
0000
0000
0000
0000
0000
0000
0000
0000
0020
0000
0000
0030
0000
0000
0000
0000
0000
0000
0000
0000
0000
0000
0000
0000
1000
0000
0000
0000
0000
0000
0000
0000
0000
0000
0000
0000
0000
0000
0000
0000
0200
0000
0000
0300
0000
0000
0000
0000
0000
0000
0000
0000
0000
0000
0000
0000
0200
0000
0000
0300
0000
0000
0000
0000
0000
0000
0000
0000
0000
0000
0000
0000
0001
0000
0000
0000
0000
0000
0000
0000
0000
0000
0000
0000
0000
0000
0000
0000
,
1000
0000
0000
0000
0000
0000
0000
0000
0100
0000
0010
0000
0100
0000
0000
0000
0100
0000
0000
0000
0100
0000
0000
0000
0010
0000
0000
0001
0000
0000
0010
0000
0000
0001
0000
0000
1001
0000
0000
0000
0000
0000
1000
0000
0000
0000
0000
0000
,
0001
0000
0000
0100
0000
0000
0010
0000
0000
1000
0000
0000
0010
0000
0000
0100
0000
0000
0001
0000
1000
0000
0001
0000
0010
0000
0000
0000
0000
0000
0100
0000
0000
0000
0000
0000
1000
0000
0000
0001
0000
0000
0100
0000
0000
0001
0000
0000
,
1000
0000
0000
0001
0100
1000
0001
0010
0100
0001
0010
0100
,
2000
3100
0010
0002
0103
0010
2000
3001
0020
0130
1000
0020
0130
0001
0020
0130
,
1000
0010
0000
0011
0000
0010
0100
0000
0001
0010
0000
1010
0000
0010
0100
0000
,
1000
0000
0000
0001
0000
0000
0100
0000
0000
0001
0000
0000
1000
0000
0000
0100
0000
0000
0010
0000
0001
0000
1000
0000
0010
0000
0000
0000
0000
0000
0100
0000
0000
0000
0000
0000
0001
0000
0000
1000
0000
0000
0100
0000
0000
1000
0000
0000
,
0001
0000
0000
0000
0000
0000
0000
0000
0100
0000
0010
0000
0100
0000
0000
0000
0100
0000
0000
0000
0100
0000
0000
0000
0110
0000
0000
0000
0000
0000
0000
0000
0000
0000
0000
0000
0001
0000
0000
1000
0000
0000
0100
0000
0000
0010
0000
0000
,
0001
0000
0000
0000
0000
0000
0100
0000
0000
0010
0000
0000
1000
0000
0000
0001
0000
0000
0010
0000
0000
0100
0000
0000
0010
0000
0000
0000
0010
0000
0000
0000
0010
0000
0000
0000
0100
0000
0000
0000
0100
0000
0000
0000
0100
0000
0000
0000
,
1100
0000
0000
0000
0001
0100
0001
0000
0001
0000
0001
0000
1000
0000
1000
0000
1000
0000
1001
0000
0000
0000
0000
0000
,
0001
0010
0100
1000
0010
0100
0001
0010
0100
0000
0000
0000
1000
0001
0100
0001
,
1000
0000
0000
0001
0010
1000
0001
0100
1000
0001
0010
0100
,
2000
3001
0100
0002
1003
0100
0020
0031
0200
0310
1000
0200
0310
0001
2000
3010
,
0100
0100
0000
0110
0000
0010
0010
0000
1010
0000
0000
0101
0000
0000
1100
0000
,
2001
0000
0000
0000
3001
0010
0100
1000
0100
0010
0001
1000
0010
0100
0010
1000
,
0002
0000
0000
0000
1003
0001
0100
0001
1000
0100
0010
0001
0010
0100
1000
0001
,
0200
0000
0000
0000
0310
1000
0010
0100
0010
1000
0001
0010
0100
0010
0001
1000
,
0001
0010
0100
1000
0001
0100
0010
1000
0001
1000
0100
0010
0001
1000
0010
1000
,
0001
0010
1000
0001
0100
1000
0001
0100
,
1000
0001
0010
1000
0001
0010
1000
0001
,
0100
0000
1000
0000
0001
0010
0001
0100
0010
1000
0100
1000
0010
0100
0001
0010
,
0002
0000
0000
0000
,
0000
0000
0000
0000
,
0003
0000
0000
0000
;

//--------------- dance-double - Fred-104 ----------------
#NOTES:
     dance-double:
     Fred-104:
     Easy:
     5:
     :
00000000
00000000
00000000
00000000
,
00000000
00000000
00000000
00000000
,
00000000
00000000
00000000
00000000
,
00000000
00000000
00000000
00000000
,
00010000
00010000
10000000
00000000
,
00010000
01000000
00100000
00000000
,
01000000
00100000
10000000
00000000
,
01000000
00010000
01000000
00010000
,
00001000
00010000
00001000
00000000
,
00000100
00000010
00001000
00000001
,
00001001
00000000
00000110
00000000
,
00011000
00000000
01100000
00000000
,
10010000
00000000
10000000
00000000
,
00010000
00000000
10000000
00000000
,
01000000
00000000
00010000
00000000
,
00001000
00000000
00010000
00001000
,
00010000
00000000
00001000
00000000
,
00000100
00000001
00000010
00000000
,
00001000
00000000
00010000
00000000
,
00001000
00010000
00100000
00000000
,
10000000
00000000
00010000
00000000
,
10000000
10000000
00100000
00000000
,
10000000
00000000
01000000
00000000
,
00100000
00100000
01000000
00000000
,
10000000
00000000
00010000
00000000
,
01000000
00001000
00010000
00010000
,
00010000
00000000
00001000
00000000
,
00100000
00000000
00001000
00001000
,
00001000
00000000
00010000
00000000
,
00000010
00000010
00000010
00001000
,
00000001
00000000
00000100
00000000
,
00000010
00000000
00001000
00000100
,
00020000
00001000
00031000
00000000
,
00002000
00010000
00013000
00000000
,
02000000
00100000
03100000
00000000
,
00010000
10000000
00010000
01000000
,
00001000
00000000
00010000
00000100
,
00001000
00000010
00010000
00001000
,
00010000
00000000
00001000
00000000
,
00100000
00100000
00001000
00001000
,
00011000
00000000
00000000
00000000
,
00000000
00000000
00000000
00000000
,
00000000
00000000
00000000
00000000
,
00000000
00000000
00000000
00000000
,
00001000
00000000
00000100
00000000
,
00000001
00000000
00000010
00000000
,
00001000
00001000
00010000
00010000
,
00001000
00010000
00022000
00033000
,
00001000
00010000
00100000
00000000
,
00010000
00001000
00000010
00000000
,
00001000
00010000
00001000
01000000
,
00100000
00000000
01000000
00000000
,
00010000
01000000
10000000
00000000
,
00010000
00010000
10000000
00000000
,
00010000
00000000
01000000
00000000
,
00100000
00000000
01000000
00000000
,
00010000
00001000
00000100
00000000
,
00001000
00010000
00100000
00000000
,
00001000
00000000
00010000
00010000
,
00010000
00001000
00001000
00000000
,
00010000
00001000
00000010
00000000
,
00001000
00010000
01000000
00000000
,
00010000
00000000
00001000
00000000
,
00010000
00000000
00000100
00000000
,
00011000
00000000
00000010
00000000
,
00001000
00000010
00001000
00000000
,
00000001
00000000
00001000
00000000
,
00000001
00000100
00000001
00001000
,
00000001
00000000
00000000
00000010
00000000
00000000
00000100
00000000
,
00000000
00001000
00000000
00000000
00010000
00000000
00000000
00100000
,
00000000
00000000
01000000
00000000
00000000
10000000
00000000
00000000
,
20020000
00000000
00000000
00000000
,
00000000
00000000
00000000
00000000
,
30030000
00000000
00000000
00000000
;

//--------------- dance-double - Fred-104 ----------------
#NOTES:
     dance-double:
     Fred-104:
     Medium:
     11:
     :
00000000
00000000
00000000
00000000
,
00000000
00000000
00000000
00000000
,
00000000
00000000
00000000
00000000
,
00000000
00000000
00000000
00000000
,
00001000
00000001
00000010
00000001
00000100
00000000
00000001
00000010
,
00001000
00000000
00000000
00010000
00001000
00010000
00001000
00000000
00000000
00011000
00000000
00000000
,
00010000
00000000
00000000
00000000
00000000
00000000
00100000
00000000
00000000
01000000
00000000
00000000
00010000
00000000
10000000
00000000
00100000
00000000
10000000
00000000
00000000
00000000
00000000
00000000
,
01000000
00000000
01000000
00100000
00010000
00100000
00001000
00000000
00000000
00011000
00000000
00000000
,
00100000
00001000
00010000
00001000
00000010
00000000
00000100
00001000
,
00000002
00000000
00000000
00000103
00000001
00000100
00000010
00001000
00000010
00001000
00000000
00000000
,
00000001
00000000
00000000
00000011
00000000
00000000
00000100
00000000
00010000
00000000
00000000
00011000
00000000
00000000
00001000
00000000
,
01000000
00000000
00000000
00001000
00000000
00000000
00010000
00000000
00001000
00000000
00000000
00000010
00000000
00000000
00000100
00000000
,
00001100
00000000
00001000
00000010
00000100
00000001
00001000
00000010
,
00000100
00000000
00000010
00010000
00001000
00000010
00000100
00010000
,
00001000
00000000
00100000
01000000
00010000
00001000
00100000
00001000
,
00010000
01000000
00100000
00010000
10000000
00010000
10000000
00000000
,
11000000
00000000
10000000
00100000
10000000
00100000
00010000
00100000
,
00010000
00000000
00000000
00001000
00000000
00000000
00010000
00000000
00001000
00000000
00000000
00000010
00000000
00000000
00000100
00000000
,
00001000
00000000
00000001
00000010
00000001
00001000
00000010
00010000
,
00001000
00000000
00000000
00000000
00010000
00000000
00000000
00011000
00000000
00000000
00000000
00000000
01100000
00000000
00000000
00000000
,
10000000
00000000
00010000
00100000
01000000
00100000
00010000
01000000
,
00001000
00000000
00000000
00010000
00000000
00000000
00100000
00000000
00010000
00000000
00000000
00001000
00000000
00000000
01000000
00000000
,
00001000
00000000
00000000
00010000
00000000
00000000
00000100
00000000
00001000
00000000
00000100
00000000
00000010
00000000
00000001
00000000
,
00000100
00000000
00001000
00000000
00010000
00000000
00000000
00100000
00000000
00000000
10000000
00000000
00010000
00000000
00000000
00000000
,
01100000
00000000
01000000
00010000
00100000
00010000
01000000
00001000
,
00010000
00001000
00100000
00001000
00000010
00000100
00001000
00000000
,
00000010
00000000
00000000
00001010
00000000
00000000
00000100
00000000
00010000
00000000
00000000
00011000
00000000
00000000
00010000
00000000
,
00000010
00001000
00000100
00010000
00011000
00000000
01100000
00000000
,
10010000
00000000
10000000
01000000
00100000
00001000
00010000
00100000
,
10000000
01000000
00100000
00001000
00010000
00100000
10000000
00000000
,
10010000
00000000
00000000
10000000
00000000
00000000
01000000
00000000
01100000
00000000
00000000
00001000
00000000
00000000
00010000
00000000
,
00022000
00000000
00000000
00033000
,
00010000
00000000
00000000
00001000
00000000
00000000
00000010
00000000
00000100
00000000
00000000
00001000
00000000
00000000
00000001
00000000
,
00000100
00000000
00000000
00000001
00000000
00000000
00000010
00000000
00000100
00000000
00000000
00000010
00000000
00000000
00001000
00000000
,
00010000
00000000
00000000
00100000
00000000
00000000
01000000
00000000
00010000
00000000
00000000
10000000
00000000
00000000
00010000
00000000
,
10000000
01000000
00100000
00001000
00010000
00001000
01000000
00000000
,
10010000
00000000
00000000
10000000
00000000
00000000
01000000
00000000
00010000
00000000
00000000
00001000
00000000
00000000
00010000
00000000
,
00001000
00000000
00000000
00000010
00000000
00000000
00000001
00000000
00000000
00001000
00000000
00000000
00000001
00000000
00000010
00000000
,
00000000
00000100
00000000
00000000
00000010
00000000
00000001
00000000
00001000
00000000
00000000
00000010
00000000
00000000
00001000
00000000
,
00000100
00010000
00000100
00010000
00001000
00000000
00010000
00000000
,
00021000
00000000
00032000
00000000
,
00203000
00000000
00000000
00000000
,
00320000
00000000
02030000
00000000
,
03200000
00000000
20300000
00000000
,
30010000
00000000
00000000
01000000
00000000
00000000
00100000
00000000
10000000
00000000
00000000
00100000
00000000
00000000
00010000
00000000
,
00001000
00000000
00000000
00000010
00000000
00000000
00000001
00000000
00001000
00000000
00000001
00000000
00000100
00000000
00000000
00000000
,
00000001
00000010
00000001
00000010
00000000
00000000
00000100
00001000
00000100
00001000
00000000
00000000
,
00010000
00001000
00010000
00001000
00000000
00000000
00101000
00000000
00000000
00011000
00000000
00000000
,
00001000
00100000
00010000
01000000
00001000
00000000
00010000
00000100
,
00001000
00000000
00000000
00000000
00000000
00000000
00000010
00000000
00001000
00000000
00000010
00000000
00001000
00000000
00000000
00000000
00000000
00000000
00000100
00000000
00000000
00010000
00000000
00000000
,
00001000
00000000
00000000
00010000
00000000
00000000
01000000
00100000
01000000
00100000
00000000
00000000
,
00010000
00000000
10000000
01000000
10000000
01000000
00100000
00000000
00000000
00110000
00000000
00000000
,
01000000
00001000
00010000
00001000
00000100
00000000
00000010
00001000
,
00000002
00000000
00000000
00000103
00000001
00000100
00000001
00000100
00000010
00000100
00000000
00000000
,
00000001
00000000
00000000
00000100
00000000
00000000
00001000
00000000
00010000
00000000
00000000
00100000
00000000
00000000
10000000
00000000
,
00010000
00000000
00000000
01000000
00000000
00000000
00100000
00000000
10000000
00000000
00000000
01000000
00000000
00000000
00100000
00000000
,
00001000
00100000
00001000
00010000
00000010
00000000
00001000
00000100
,
00010000
00000000
00000000
00001000
00010000
00001000
00100000
00000000
00000000
01100000
00000000
00000000
,
01000000
00000000
00000000
00000000
00000000
00000000
00100000
00000000
00000000
00010000
00000000
00000000
10000000
00000000
00100000
00000000
01000000
00000000
00010000
00000000
00000000
00000000
00000000
00000000
,
00100000
00000000
00001000
00010000
00001000
01000000
00001000
00000000
00000000
00011000
00000000
00000000
,
00100000
00001000
00010000
00001000
00000010
00000000
00000100
00001000
,
00000001
00000000
00000000
00000100
00000001
00000100
00000010
00001000
00000010
00000100
00000000
00000000
,
00000001
00000000
00000000
00000011
00000000
00000000
00000100
00000000
00010000
00000000
00000000
00011000
00000000
00000000
00001000
00000000
,
00100000
00000000
00000000
00010000
00000000
00000000
10000000
00000000
00100000
00000000
00000000
10100000
00000000
00000000
00010000
00000000
,
10000000
00000000
00010000
01000000
10000000
01000000
00010000
10000000
,
00100000
00000000
00010000
00001000
00000010
00000100
00001000
00000001
,
00000100
00000000
00000001
00000010
00000100
00010000
00001000
00000100
,
00000001
00000010
00000001
00000100
00000010
00001000
00000001
00000000
,
00000001
00000100
00000000
00000010
00001000
00000000
00000100
00010000
,
00000000
00001000
00100000
00000000
00010000
01000000
00000000
00100000
,
10000000
00000000
00010000
00100000
01000000
10000000
00100000
00010000
,
00002000
00000000
00000000
00000000
,
00000000
00000000
00000000
00000000
,
00003000
00000000
00000000
00000000
;

//--------------- dance-double - Fred-104 ----------------
#NOTES:
     dance-double:
     Fred-104:
     Hard:
     15:
     :
00000000
00000000
00000000
00000000
,
00000000
00000000
00000000
00000000
,
00000000
00000000
00000000
00000000
,
00000000
00000000
00000000
00000000
,
00010000
00001000
00010000
00000000
00000010
00000000
00010000
00001000
00010000
00000000
00000000
00000000
00001000
00100000
00001000
00000000
,
00100000
00000000
00000000
00000000
00000000
00000000
00000000
00000000
00000000
00000000
00000000
00000000
00010000
00000000
00000000
00000000
10000000
00000000
00000000
00000000
00010000
00000000
00000000
00000000
01000000
00000000
00000000
00000000
00000000
00000000
00000000
00000000
00000000
00010000
00000000
00000000
10000000
00000000
00000000
01000000
00000000
00000000
00100000
00000000
00000000
00000000
00000000
00000000
,
00001000
00000000
00000000
00000000
00000000
00000000
00000000
00000000
00000000
00000000
00000000
00000000
00010000
00000000
00000000
00001000
00000000
00000000
00000010
00000000
00000000
00000000
00000000
00000000
00000100
00000000
00000000
00000000
00001000
00000000
00000000
00000000
00010000
00000000
00000000
00000000
00100000
00000000
00000000
00000000
01000000
00000000
00000000
00000000
00010000
00000000
00000000
00000000
,
00001000
00000000
00000000
00000000
00010000
00001000
00010000
00000000
00000100
00000000
00001000
00000000
00000100
00000000
00000000
00000000
00000000
00000000
00001001
00000000
00000000
00000000
00000000
00000000
,
00000001
00000010
00000001
00000010
00000100
00000000
00001000
00000010
00001000
00000000
00000001
00000000
00000100
00000010
00001000
00000000
,
00000200
00000000
00000000
00001300
00000001
00000010
00001000
00010000
00001000
00010000
00100000
01000000
,
00010000
00000000
00000000
10010000
00000000
00000000
01000000
00000000
00100000
00000000
00000000
00101000
00000000
00000000
00001000
00000000
,
00010000
00000100
00000000
00001000
00000000
00000001
00000100
00000000
00000110
00000000
00000000
00001010
00000000
00000000
00001001
00000000
,
00000101
00000000
00000000
00000001
00000010
00000100
00000010
00000000
00000001
00000100
00000001
00000000
00001000
00000010
00001000
00000100
,
00010000
00000000
00000000
00000000
00001000
00010000
00001000
00000000
00100000
00010000
10000000
00000000
00010000
10000000
01000000
00100000
,
00010000
00000000
00000000
00100000
01000000
00100000
00010000
00000000
01000000
00001000
00010000
00000000
00001000
00000010
00000100
00000000
,
00001000
00000001
00000100
00000000
00000001
00000000
00000100
00000001
00001000
00000001
00000010
00000000
00000100
00000000
00010000
00000000
,
00011000
00000000
00000000
00000000
00001000
00010000
00001000
00010000
00000000
00000000
01000000
00100000
00010000
01000000
00010000
00000000
,
00100000
01000000
00000000
10000000
00000000
00000000
00010000
10000000
01000000
00100000
00000000
00010000
00000000
00000000
01000000
00001000
,
00010000
00000000
00000000
00000000
00001000
00010000
00001000
00010000
00000000
00000000
00000100
00000010
00000001
00001000
00000001
00000100
,
00000001
00000000
00000000
00000000
00000010
00000000
00000100
00001000
00000000
00000000
00000100
00000000
00010000
00000000
00001000
00010000
,
00001000
00000000
00100000
00000000
00010000
10000000
00010000
10000000
00000000
00100000
01000000
00010000
10000000
01000000
00100000
00000000
,
00010000
00100000
00000000
00001000
00000000
00000000
00010000
00000100
00001000
00000100
00000000
00000010
00000000
00000000
00000001
00001000
,
00000010
00000000
00000000
00001000
00000001
00000100
00000001
00000100
00000010
00000000
00000000
00001000
00000100
00010000
00001000
00010000
,
00001000
00000000
00010000
00000000
01000000
00000000
00100000
00010000
00000000
00000000
01000000
00001000
00010000
00000000
00001000
00000000
,
00000100
00000000
00000010
00001000
00000001
00001000
00000001
00001000
00000001
00000010
00000100
00000010
00000100
00000010
00000001
00000000
,
00000100
00000010
00000100
00000000
00000010
00001000
00000010
00000000
00010000
00001000
00100000
00010000
10000000
00000000
00000000
00000000
,
01000000
00000000
00000000
00010000
00000000
00000000
00001000
00000000
00000010
00000000
00000000
00000001
00000000
00000000
00001000
00000000
,
00000001
00000000
00000100
00000000
00001000
00010000
00001000
00010000
00001000
00000000
00000000
00000000
00011000
00000000
00000000
00000000
,
00001000
00000000
00010000
01000000
00100000
00010000
00100000
00000000
00010000
10000000
00010000
01000000
00100000
10000000
00100000
00000000
,
10000000
01000000
10000000
00000000
00010000
01000000
00010000
00000000
00100000
00001000
00010000
00000010
00010000
00001000
00010000
00000000
,
00011000
00000000
00000000
00010000
00000000
00000000
00000100
00000000
00000110
00000000
00000000
00000001
00000000
00000000
00000100
00000000
,
00000202
00000000
00000000
00000000
00000000
00000000
00000303
00000000
00001000
00000001
00001000
00000001
00001000
00000000
00000000
00000000
,
00000001
00000010
00000100
00010000
00001000
00000010
00000100
00001000
,
00000001
00000010
00001000
00010000
00100000
01000000
00010000
10000000
,
01000000
00100000
01000000
00010000
00001000
00000010
00000100
00001000
,
00000001
00000000
00001000
00000001
00000010
00000100
00000010
00000100
00001000
00000100
00010000
00001000
00010000
00000000
00001000
00000000
,
00010000
00000000
00000000
00001000
00000000
00000000
00000010
00000000
00000100
00001000
00000001
00000000
00001000
00000000
00000100
00000000
,
00000010
00000001
00000000
00001000
00000010
00000000
00010000
00001000
00000000
01000000
00001000
00000000
00100000
00010000
00100000
00010000
,
00000000
01000000
00000000
00010000
00100000
00000000
00001000
00000000
00010000
00000000
00000010
00001000
00000000
00000100
00010000
00000000
,
00001000
00000000
00010000
00000000
01000000
00100000
00000000
00100000
00000000
00000000
00010000
00000000
10000000
00000000
00010000
00000000
,
02000000
00000000
03200000
00000000
,
20300000
00000000
30000000
00000000
,
02000000
00000000
03200000
00000000
,
00302000
00000000
00023000
00030200
,
00001300
00000000
00000000
00000010
00000000
00000000
00000100
00000000
00000001
00000000
00000000
00000010
00000000
00000000
00000001
00000000
,
00000100
00000000
00000000
00000001
00000000
00000000
00000010
00000000
00000100
00000000
00010000
00000000
00001000
00000000
00000000
00000000
,
00010000
00001000
00000010
00000100
00000000
00000000
00010000
00001000
00100000
01000000
00000000
00000000
,
10000000
01000000
00010000
00001000
00000010
00000001
00001000
00000000
00000000
00001001
00000000
00000000
,
00000001
00000100
00000001
00000100
00000010
00001000
00000010
00001000
00000001
00000000
00000000
00000000
00000100
00000010
00000100
00000000
,
00000001
00000000
00000000
00000000
00000000
00000000
00000000
00000000
00000000
00001000
00000000
00000000
00000001
00000000
00000000
00000000
00000100
00000000
00000000
00000000
00001000
00000000
00000000
00000000
00010000
00000000
00000000
00000000
00000000
00000000
00000000
00000000
00000000
00001000
00000000
00000000
00010000
00000000
00000000
01000000
00000000
00000000
00100000
00000000
00000000
00010000
00000000
00000000
,
00100000
00000000
00000000
00000000
00000000
00000000
00000000
00000000
00000000
00010000
00000000
00000000
10000000
00000000
00000000
00010000
00000000
00000000
00100000
00000000
00000000
00000000
00000000
00000000
00001000
00000000
00000000
00000000
01000000
00000000
00000000
00000000
00001000
00000000
00000000
00000000
00010000
00000000
00000000
00000000
00000010
00000000
00000000
00000000
00010000
00000000
00000000
00000000
,
00001000
00000000
00000000
00000000
00100000
00010000
00100000
00000000
01000000
00000000
10000000
00000000
00010000
00000000
00000000
10000000
00000000
00000000
10010000
00000000
00000000
00000000
00000000
00000000
,
10000000
01000000
10000000
01000000
00100000
00010000
01000000
00010000
01000000
00000000
00000000
00000000
00001000
00010000
00001000
00000000
,
00020000
00000000
00000000
00030010
00010000
00001000
00010000
01000000
00100000
00010000
01000000
00001000
,
00010000
00000000
00000000
00011000
00000000
00000000
00000100
00000000
00000010
00000000
00000000
00000011
00000000
00000000
00000001
00000000
,
00001000
00000001
00000000
00000100
00000000
00000010
00001000
00000000
00000100
00010000
00000000
00001000
00000000
00010000
01000000
00000000
,
10000000
00010000
10000000
00010000
00100000
01000000
00100000
00010000
01000000
00000000
00100000
00000000
10000000
00010000
00100000
00000000
,
00010000
00000000
00000000
00000000
00000000
00000000
00000000
00000000
01000000
00000000
00001000
00000000
01000000
00000000
00000000
00000000
00001000
00000000
00000000
00000000
00010000
00000000
00000000
00000000
00001000
00000000
00000000
00000000
00000000
00000000
00000000
00000000
00000000
00000000
00000000
00000000
00000100
00000000
00000000
00000010
00000000
00000000
00000100
00000000
00000000
00000010
00000000
00000000
,
00001000
00000000
00000000
00000000
00000000
00000000
00000000
00000000
00000000
00000001
00000000
00000000
00000010
00000000
00000000
00000001
00000000
00000000
00000100
00000000
00000000
00000001
00000000
00000000
00001000
00000000
00000000
00000000
00000100
00000000
00000000
00000000
00000010
00000000
00000000
00000000
00000001
00000000
00000000
00000000
00001000
00000000
00000000
00000000
00000100
00000000
00000000
00000000
,
00001000
00000000
00000000
00000000
00000010
00010000
00000010
00000000
00010000
00000000
00001000
00000000
01000000
00000000
00010000
00000000
10000000
00000000
00100000
00000000
00000000
00000000
00000000
00000000
,
10000000
01000000
10000000
01000000
00100000
01000000
00100000
01000000
10000000
00000000
00000000
00000000
00010000
10000000
00010000
10000000
,
00010000
00000000
00000000
00000000
00000000
00000000
00000000
00000000
00000000
10000000
00000000
00000000
01000000
00000000
00000000
00000000
00100000
00000000
00000000
00000000
01000000
00000000
00000000
00000000
00010000
00000000
00000000
00000000
00001000
00000000
00000000
00000000
00000010
00000000
00000000
00000000
00000100
00000000
00000000
00000000
00001000
00000000
00000000
00000000
00000001
00000000
00000000
00000000
,
00000100
00000000
00000000
00000110
00000000
00000000
00000010
00000000
00001000
00000000
00000000
00001100
00000000
00000000
00000100
00000000
,
00010000
00001000
00000000
01000000
00000000
00010000
00100000
00000000
00101000
00000000
00000000
00011000
00000000
00000000
00010010
00000000
,
00001010
00000000
00000000
00001000
00000100
00000000
00000010
00000000
00000001
00000000
00000000
00001000
00000001
00000000
00000100
00000000
,
00000010
00000000
00000000
00001000
00000100
00000000
00010000
00000000
00001000
00000000
00000000
00010000
01000000
00000000
00100000
00010000
,
10000000
00000000
00000000
00100000
01000000
00000000
00100000
00000000
10000000
00000000
01000000
00100000
00010000
00000000
01000000
00000000
,
00001000
00010000
00001000
00000000
00010000
00000010
00010000
00000000
00000010
00001000
00000010
00000000
00001000
00000100
00010000
00000000
,
00001000
00000000
00000000
00000000
00000000
00000000
00000000
00000000
00020000
00030000
00000000
00000000
00000000
00000000
00000000
00000000
00020000
00030000
00000000
00000000
00000000
00000000
00000000
00000000
01000000
00000000
00000000
00000000
00000000
00000000
00000000
00000000
00002000
00003000
00000000
00000000
00000000
00000000
00000000
00000000
00002000
00003000
00000000
00000000
00000000
00000000
00000000
00000000
00000100
00000000
00000000
00000000
00000000
00000000
00000000
00000000
00020000
00030000
00000000
00000000
00000000
00000000
00000000
00000000
,
00020000
00030000
00000000
00000000
00000000
00000000
00000000
00000000
01000000
00000000
00000000
00000000
00000000
00000000
00000000
00000000
00002000
00003000
00000000
00000000
00000000
00000000
00000000
00000000
00002000
00003000
00000000
00000000
00000000
00000000
00000000
00000000
00000100
00000000
00000000
00000000
00000000
00000000
00000000
00000000
00020000
00030000
00000000
00000000
00000000
00000000
00000000
00000000
00020000
00030000
00000000
00000000
00000000
00000000
00000000
00000000
01000000
00000000
00000000
00000000
00000000
00000000
00000000
00000000
,
00002000
00003000
00000000
00000000
00000000
00000000
00000000
00000000
00002000
00003000
00000000
00000000
00000000
00000000
00000000
00000000
00000010
00000000
00000000
00000000
00000100
00000000
00000000
00000000
00000001
00000000
00000000
00000000
00000100
00000000
00000000
00000000
00000010
00000000
00000000
00000000
00001000
00000000
00000000
00000000
00000010
00000000
00000000
00000000
00001000
00000000
00000000
00000000
00000100
00000000
00000000
00000000
00000010
00000000
00000000
00000000
00000001
00000000
00000000
00000000
00000000
00000000
00000000
00000000
,
00002002
00000000
00000000
00000000
,
00000000
00000000
00000000
00000000
,
00003003
00000000
00000000
00000000
;

//--------------- dance-double - Fred-104† ----------------
#NOTES:
     dance-double:
     Fred-104†:
     Challenge:
     17:
     :
00000000
00000000
00000000
00000000
,
00000000
00000000
00000000
00000000
,
00000000
00000000
00000000
00000000
,
00000000
00000000
00000000
00000000
,
10000000
01000000
10000000
00010000
01000000
00001000
00010000
00000100
00000010
00000000
00000000
00000000
00000001
00001000
00000010
00001000
,
00000001
00000000
00000000
00000000
00000000
00000000
00000000
00000000
00000010
00000000
00000100
00000000
00000010
00000000
00000000
00000000
00000010
00000000
00000000
00000000
00000010
00000000
00000000
00000000
00000011
00000000
00000000
00000000
00000000
00000000
00000000
00000000
00000000
00000000
00000000
00000000
00000001
00000000
00000000
00001000
00000000
00000000
00000010
00000000
00000000
00001000
00000000
00000000
,
00000001
00000000
00000000
00000000
00000000
00000000
00000000
00000000
00000000
00000000
00000000
00000000
00000010
00000000
00000000
00000100
00000000
00000000
00001000
00000000
00000000
00000100
00000000
00000000
00010000
00000000
00000000
00000000
00001000
00000000
00000000
00000000
00010000
00000000
00000000
00000000
00100000
00000000
00000000
00000000
10000000
00000000
00000000
00000000
01000000
00000000
00000000
00000000
,
00100000
00000000
00000000
00000000
00000000
00000000
00000000
00000000
00001000
00000000
00010000
00000000
00001000
00000000
00000000
00000000
00010000
00000000
00000000
00000000
00000100
00000000
00000000
00000000
00001000
00000000
00000000
00000000
00001000
00000000
00000000
00000000
00001000
00000000
00000000
00000000
00000001
00000000
00000000
00000100
00000000
00000000
00000010
00000000
00000000
00001000
00000000
00000000
,
00000001
00000010
00000100
00001000
00000001
00000100
00001000
00010000
00001000
00000000
00000000
00000000
01000000
00010000
10000000
00010000
,
00100000
00000000
00000000
00010000
10000000
01000000
00010000
00001000
00000100
00000001
00001000
00000100
,
00000020
00000031
00001000
00000020
00000130
00000010
00020000
00031000
00200000
00310000
10000000
00200000
01300000
00001000
00020000
00030100
,
00000010
00000010
00000000
00000011
00000000
00000001
00000001
00000000
00000101
00000000
00000000
00001100
00000000
00000000
00011000
00000000
,
00021000
00000000
00000000
00000000
00031000
00100000
00010000
00100000
00001000
00010000
00000010
00001000
00000010
00010000
00001000
01000000
,
00002000
00000000
00000000
00000000
00013000
00000100
00001000
00000100
00010000
00001000
01000000
00010000
01000000
00001000
00010000
00000010
,
00020000
00000000
00000000
00000000
00031000
00010000
00001000
00100000
00010000
10000000
00100000
01000000
00010000
10000000
01000000
00100000
,
00001000
00010000
00001000
00000000
00000100
00000000
00000001
00001000
00000100
00000010
00000001
00000000
00001000
00000000
00000001
00000100
,
00000010
00000000
00000000
00000000
00000100
00001000
00010000
00100000
00000000
00000000
01000000
00010000
00100000
01000000
10000000
00010000
,
10000000
00100000
00000000
00010000
00000000
00001000
00010000
00000100
00000010
00000001
00000000
00001000
00000000
00000010
00001000
00000001
,
00001000
00000000
00000000
00000000
00000010
00010000
00001000
00010000
00000000
00000000
00100000
01000000
00010000
00100000
01000000
00100000
,
00001000
00000000
00010000
00000000
00001000
00000000
00000100
00000001
00000000
00000000
00001000
00000000
00000100
00000010
00000100
00000010
,
00000100
00000000
00001000
00000000
00000001
00000010
00000100
00001000
00000000
00000010
00000100
00001000
00010000
00100000
01000000
00010000
,
00100000
01000000
10000000
00010000
00000000
00000000
10000000
00100000
00010000
00001000
00010000
00000010
00000000
00000000
00001000
00000001
,
00000010
00000000
00000000
00000100
00001000
00000010
00010000
00001000
00010000
00000000
00001000
00100000
00010000
00100000
00001000
00010000
,
00001000
00000000
00000000
00000000
00000000
00000000
00000100
00000000
00000000
00000000
00000000
00000000
00000001
00000000
00000000
00000000
00000000
00000000
00001000
00000000
00000000
00000100
00000000
00000000
00000000
00000000
00000000
00000000
00000000
00000000
00000010
00000000
00000100
00000000
00000010
00000000
00000100
00000000
00000000
00000000
00000000
00000000
00010000
00000000
00000000
00000000
00000000
00000000
,
00001000
00100000
00010000
00100000
00001000
00100000
00010000
00100000
00001000
00010000
00000010
00001000
00000001
00000010
00000100
00001000
,
00000100
00010000
00001000
01000000
00010000
10000000
01000000
00100000
00010000
00100000
01000000
10000000
00010000
00000000
00000000
00000000
,
20000000
31000000
10000000
00020000
01030000
00001000
00020000
00030100
00002000
00003001
00000010
00000002
00001003
00000010
00020000
00031000
,
00100000
00010000
10000000
00100000
01000000
00100000
00010000
00001000
00000100
00000010
00001000
00000100
00000010
00000001
00001000
00000000
,
00000001
00000010
00000100
00001000
00000001
00000100
00000001
00001000
00000100
00010000
00001000
00100000
00010000
10000000
00100000
10000000
,
00010000
01000000
00100000
00010000
00001000
00010000
00000100
00001000
00000100
00010000
00001000
01000000
00010000
10000000
00010000
00000000
,
20000000
30100000
10000000
00020000
00130000
00001000
00020000
00030100
00000020
00000031
00001000
00000020
00010030
00001000
02000000
03001000
,
00020000
00000000
00000000
00000000
00000000
00000000
00000000
00000000
00031000
00010000
00001000
00010000
00001000
00001000
00001000
00000000
,
00010000
00000000
00000000
00000100
00000000
00000000
00000001
00000000
00000000
00000100
00000000
00000000
00000010
00000000
00000000
00000001
00000000
00000000
00001000
00000000
00000000
00000100
00010000
00000100
,
00010000
00000000
00000100
00000000
00010000
00000000
00001000
00000000
00000000
00000000
00000000
00000000
00010000
00000000
00001000
00000000
00010000
00000000
00001000
00000000
00010000
00000000
00001000
00000000
00010000
00000000
00000000
00000000
00000000
00000000
00001000
00000000
00000000
01000000
00000000
00000000
00010000
00000000
00000000
00000000
00000000
00000000
10000000
00000000
00000000
00000000
00000000
00000000
,
01000000
00001000
00000100
00010000
00001000
00010000
00100000
01000000
,
00010000
10000000
00100000
10000000
00010000
10000000
01000000
00100000
00010000
00100000
00001000
00010000
00000010
00001000
00000001
00000000
,
00001000
00000000
00000000
00000000
00000000
00000000
00000000
00000000
00000010
00000000
00000000
00000000
00000100
00000000
00000000
00000000
00001000
00000000
00000000
00000000
00000000
00000000
00000000
00000000
00010000
00000000
00000000
00000000
00001000
00000000
00000000
00000000
01000000
00000000
00000000
00000000
00001000
00000000
00000000
00000000
00010000
00000000
00000000
00000000
00000000
00000000
00000000
00000000
00000200
00000300
00000000
00000000
00000000
00000000
00000000
00000000
00000200
00000300
00000000
00000000
00000000
00000000
00000000
00000000
,
00000001
00000010
00000000
00000100
00010000
00000000
00001000
00100000
00000000
01000000
10000000
00010000
01000000
00100000
10000000
01000000
,
00000000
01000000
00000000
01000000
00100000
00000000
00001000
00000000
00010000
00000000
00001000
00000100
00000000
00000001
00001000
00000000
,
00000100
00000000
00000000
00000000
00000000
00000000
00000010
00000000
00000000
00000000
00000000
00000000
00000001
00000000
00000000
00000010
00000000
00000000
00000000
00000000
00000000
00001000
00000000
00000000
00000000
00000000
00000000
00000000
00000000
00000000
00010000
00000000
00000000
00000000
00000000
00000000
00001000
00000000
00000000
00000000
00000000
00000000
00010000
00000000
00001000
00000000
00010000
00000000
,
00002000
00000000
00023000
00000000
,
00230000
20300000
32000000
00000000
,
03020000
00000000
00032000
00000000
,
00003020
00000000
00000000
00000000
00000000
00000000
00000032
00000000
00000000
00000000
00000000
00000000
00002003
00000000
00000000
00000000
00000000
00000000
00003001
00000000
00000001
00001000
00000000
00000000
,
00001001
00000000
00011000
00000000
,
10010000
00011000
00001001
00000110
,
00000001
00000100
00000010
00000110
00000000
00000000
00010000
00001000
01000000
01001000
00000000
00000000
,
00010000
00100000
00001000
00010000
00000010
00000100
00002020
00000000
00000000
00003030
00000000
00000000
,
00010000
00001000
01000000
00010000
10000000
01000000
00100000
00001000
00010000
00000000
00010000
00000000
00001000
00010000
00000010
00010000
,
00001000
00000000
00000000
00000000
00000000
00000000
00000000
00000000
00010000
00000000
00000100
00000000
00010000
00000000
00000000
00000000
00010000
00000000
00000000
00000000
00001000
00000000
00000000
00000000
00011000
00000000
00000000
00000000
00000000
00000000
00000000
00000000
00000000
00000000
00000000
00000000
00010000
00000000
00000000
00001000
00000000
00000000
00000100
00000000
00000000
00000001
00000000
00000000
,
00001000
00000000
00000000
00000000
00000000
00000000
00000000
00000000
00000000
00000000
00000000
00000000
00000100
00000000
00000000
00000010
00000000
00000000
00000001
00000000
00000000
00001000
00000000
00000000
00000010
00000000
00000000
00000000
00000100
00000000
00000000
00000000
00001000
00000000
00000000
00000000
00010000
00000000
00000000
00000000
00100000
00000000
00000000
00000000
01000000
00000000
00000000
00000000
,
00010000
00000000
00000000
00000000
00000000
00000000
00000000
00000000
00100000
00000000
01000000
00000000
00100000
00000000
00000000
00000000
00100000
00000000
00000000
00000000
00100000
00000000
00000000
00000000
00010000
00000000
00000000
10000000
00000000
00000000
00010000
00000000
00000000
10000000
00000000
00000000
10010000
00000000
00000000
00000000
00000000
00000000
10000000
00000000
00000000
00000000
00000000
00000000
,
01000000
00100000
00010000
00100000
00001000
00010000
00000010
00010000
00001000
00000000
00000010
00000000
00000100
00001000
00000001
00001000
,
00000100
00000000
00000000
00001000
00000001
00000100
00001000
00010000
01000000
10000000
00010000
01000000
,
00200000
10300000
01000000
00200000
00310000
00100000
00002000
00013000
00000200
00001300
00000010
00000200
00000301
00000010
00000200
00010300
,
00001000
01000000
00000000
01010000
00000000
10000000
01000000
00000000
00100000
00001000
00000000
00011000
00000000
00010000
00001000
00000000
,
00010000
00001000
00000100
00000010
00001000
00000100
00000010
00000001
00001000
00000000
00000001
00000000
00000100
00000010
00000100
00001000
,
00010000
00000000
00000000
00000000
00000000
00000000
00000000
00000000
00001000
00000000
01000000
00000000
00001000
00000000
00000000
00000000
00001000
00000000
00000000
00000000
00001000
00000000
00000000
00000000
00011000
00000000
00000000
00000000
00000000
00000000
00000000
00000000
00000000
00000000
00000000
00000000
00001000
00000000
00000000
00010000
00000000
00000000
00100000
00000000
00000000
10000000
00000000
00000000
,
00010000
00000000
00000000
00000000
00000000
00000000
00100000
00000000
00000000
01000000
00000000
00000000
10000000
00000000
00000000
00010000
00000000
00000000
01000000
00000000
00000000
00010000
00000000
00000000
10000000
00000000
00000000
00000000
10000000
00000000
00000000
00000000
10000000
00000000
00000000
00000000
01000000
00000000
00000000
00000000
01000000
00000000
00000000
00000000
01000000
00000000
00000000
00000000
,
01100000
00000000
00000000
00000000
00001000
00010000
00001000
00000000
00001000
00000000
00001000
00000000
00010000
00000000
00010000
00000000
00010000
00000000
00011000
00000000
00000000
00000000
00000000
00000000
,
00010000
00000100
00001000
00000001
00000100
00000010
00001000
00000100
00010000
00000000
00000000
00000000
00001000
00010000
00001000
00010000
,
00001000
00000000
00000000
00010000
00001000
00000010
00000001
00001000
00000100
00000010
00000001
00001000
,
00000020
00000130
00000001
00000020
00000130
00001000
00000200
00010300
00002000
01003000
00010000
00200000
01300000
10000000
00020000
01030000
,
00100000
00100000
00000000
10010000
00000000
01000000
01000000
00000000
10100000
00000000
00000000
00110000
00000000
00000000
00101000
00000000
,
00012000
00000000
00000000
00000000
00013000
00001000
00010000
00000100
00001000
00000001
00000100
00000010
00001000
00000010
00000100
00000001
,
00002000
00000000
00000000
00000000
00003001
00000010
00000100
00001000
00000100
00010000
00001000
01000000
00010000
10000000
01000000
00100000
,
00020000
00000000
00000000
00000000
00130000
00001000
00010000
00001000
00000100
00000010
00001000
00000100
00000010
00000001
00001000
00000010
,
00000100
00000001
00000100
00000001
00001000
00000100
00001000
00000100
00010000
00001000
00010000
00001000
01000000
00010000
01000000
00010000
,
10000000
00100000
00010000
00001000
00000100
00000001
00000001
00000010
,
00001000
00010000
01000000
10000000
10000000
01000000
00010000
00001000
,
00000010
00000000
00000001
00000000
00000001
00000010
00000100
00001000
00000100
00010000
00001000
00100000
00010000
00100000
01000000
10000000
,
00020000
00000000
00000000
00000000
,
00000000
00000000
00000000
00000000
,
00030000
00000000
00000000
00000000
;
