#VERSION:0.83;
#TITLE:Vermilion;
#ARTIST:Remo-con;
#GENRE:HARD HOUSE;
#BANNER:Vermilion.png;
#BACKGROUND:Vermilion-bg.png;
#CDTITLE:./CDTitles/jb saucer.png;
#MUSIC:Vermilion.ogg;
#SAMPLESTART:71.959;
#SAMPLELENGTH:15;
#DISPLAYBPM:143;
#BPMS:0=143.5,4=143,171=286,171.25=143,171.375=71.5,171.5=143,199.5=214.5,199.75=143,199.916667=71.5,200=286,200.25=143,200.375=71.5,200.5=214.5,200.75=143,200.916667=71.5,201=143,202=286,203.125=143,203.1875=71.5,203.25=143,203.5=286,203.75=143,203.875=71.5,204=143;
#STOPS:202=0.052,202.25=0.053,202.5=0.052,202.75=0.053;
#STAGE:17;

//--------------- dance-single - Fred-104 ----------------
#NOTEDATA:;
#STEPSTYPE:dance-single;
#DESCRIPTION:Fred-104;
#DIFFICULTY:Beginner;
#METER:3;
#CREDIT:Fred-104;
#NOTES:
0000
0000
0000
0000
,
0000
0000
0000
0000
,
0000
0000
0000
0000
,
0000
0000
0000
0000
,
0000
0000
0000
0000
,
1000
0000
0000
0000
,
0001
0000
0000
0000
,
1000
0000
0000
0000
,
0001
0000
0100
0000
,
0010
0000
0000
0000
,
0100
0000
0000
0000
,
0010
0000
0000
0000
,
1000
0000
0001
0000
,
1000
1000
1000
0000
,
0001
0001
0001
0000
,
0100
0100
0100
0000
,
0010
0010
0010
0000
,
1000
1000
1000
0000
,
0001
0001
0001
0000
,
1000
0000
0001
0000
,
1000
0000
1000
0001
,
2000
0000
0000
0000
,
0000
0000
0000
3000
,
0002
0000
0000
0000
,
0000
0000
0000
0003
,
0200
0000
0000
0000
,
0000
0000
0000
0300
,
0020
0000
0000
0000
,
0000
0000
0000
0030
,
1000
0000
0010
0000
,
1000
0000
1000
0000
,
0002
0000
1003
0000
,
2000
0000
3001
0000
,
0001
0000
0010
0000
,
0001
0000
1000
0000
,
0001
0000
0001
0000
,
2000
0000
0000
3000
,
0002
0000
0000
0003
,
2002
0000
0000
3003
,
1000
0000
0010
0000
,
1000
0000
0001
0000
,
1000
0000
0001
0000
,
0200
0000
0000
0300
,
0020
0000
0000
0030
,
2000
0000
0000
3000
,
0002
0000
0000
0003
,
0200
0000
0000
0300
,
0001
0001
0001
0000
,
1000
1000
1000
0000
,
0010
0010
0010
0000
,
0200
0000
0000
0300
,
0100
0100
0010
0000
,
1000
1000
1000
0000
,
0001
0001
0001
0000
,
2000
0000
0000
3000
,
2002
0000
0000
0000
,
0000
0000
0000
3003
0000
0000
0000
0000
;

//--------------- dance-single - Fred-104 ----------------
#NOTEDATA:;
#STEPSTYPE:dance-single;
#DESCRIPTION:Fred-104;
#DIFFICULTY:Easy;
#METER:8;
#CREDIT:Fred-104;
#NOTES:
0000
0000
0000
0000
,
0000
0000
0000
0000
,
0000
0000
0000
0000
,
1000
0000
0000
1000
0000
0000
0001
0000
0000
0001
0000
0000
0100
0000
0000
0000
,
0010
1000
2002
3003
,
0001
0001
0100
0010
,
0100
0100
0001
0010
,
0100
1000
0010
0010
,
1000
0000
0010
0000
1000
0001
1000
0000
,
0001
0001
0100
0010
,
0100
0001
0010
0100
,
0100
1000
0010
0100
,
0001
1000
0001
0000
0100
0010
0100
0000
,
0001
0001
0100
0001
,
0100
0010
0100
0010
,
1000
1000
0010
0001
,
0001
0000
0100
0000
1000
0001
1000
0000
,
0001
0100
0001
0000
0100
0000
0000
0000
,
1000
0100
1000
0000
0100
0000
0000
0000
,
0001
0010
0001
0000
1000
0010
1000
0000
,
0001
0100
0001
0000
1000
0100
1000
0000
,
1002
0000
0000
0000
,
0203
0000
0000
0000
,
0320
0000
0000
0000
,
2030
0000
0000
0000
,
3200
0000
0000
0000
,
0320
0000
0000
0000
,
0032
0000
0000
0000
,
0203
0000
0320
0000
,
1030
0100
1000
0010
,
0100
0000
0001
0000
0010
0100
0010
0000
,
0001
0001
0100
0010
,
1000
0000
1000
0000
0100
0010
0001
0000
,
1000
0000
0010
0000
1000
0010
0100
0000
,
0010
0000
1000
0000
0001
0100
0010
0000
,
0100
0000
0001
0000
0010
0100
1000
0000
,
0001
0000
0000
0001
0000
0000
1000
0000
0000
1000
0000
0000
0001
0000
0000
0000
,
0100
0000
0000
0100
0000
0000
0010
0000
0000
0010
0000
0000
0100
0000
0000
0000
,
0002
0000
0000
0023
0000
0000
0230
0000
0000
2300
0000
0000
3001
0000
0000
0000
,
1000
0100
0010
0011
,
0001
0000
0100
0000
0010
0100
0010
0000
,
1000
0010
1000
1100
,
0001
0100
0001
0000
1000
0010
2000
0000
,
3001
0000
0010
0000
0100
0000
1000
0010
,
0100
0000
0010
0000
1000
0000
0001
0100
,
0001
0000
0100
0000
1000
0000
0100
0001
,
0100
0000
0001
0000
1000
0001
1000
0001
,
1000
0000
0010
0000
1000
0100
1000
0000
,
0001
0000
0100
0000
0010
0100
0010
0000
,
0100
0000
0001
0000
1000
0010
0100
0000
,
0002
2003
3002
2003
,
3010
0000
0100
0000
0010
1000
0100
0000
,
0010
0000
0100
0000
0010
0001
0100
0000
,
0001
0100
0001
1000
0001
0100
0010
0000
,
1000
0000
0000
0010
0000
0000
0100
0000
0000
0001
0000
0000
1000
0000
0000
0000
,
0001
0000
1000
0000
0001
0000
0100
0200
,
0000
0000
0000
0300
0000
0000
0000
0000
;

//--------------- dance-single - Fred-104 ----------------
#NOTEDATA:;
#STEPSTYPE:dance-single;
#DESCRIPTION:Fred-104;
#DIFFICULTY:Medium;
#METER:13;
#CREDIT:Fred-104;
#NOTES:
0000
0000
0000
0000
,
0000
0000
0000
0000
,
0000
0000
0000
0000
,
2000
0000
0000
3200
0000
0000
0320
0000
0000
0032
0000
0000
0203
0000
0320
0000
,
1030
0010
0001
1000
0100
0001
0000
0000
,
1000
0100
0000
1000
0100
0000
0010
0000
0001
0000
0100
0010
0100
0000
0001
0000
,
0010
0100
0000
1000
0010
0000
0100
0000
0001
0000
0100
0010
0100
0000
0001
0000
,
1000
0100
0000
0010
0100
0000
1000
0000
0001
0000
0010
0001
0010
0000
0001
0000
,
1000
0000
1000
0000
0001
0000
0001
0000
0100
0010
0100
0010
2000
0000
3002
0000
,
1003
0100
0000
0010
0001
0000
1000
0000
0001
0100
0001
0100
0010
0000
0100
0000
,
0001
0010
0000
0100
0010
0000
0001
0000
0100
0010
0100
0010
1000
0000
0010
0000
,
1000
0010
0000
0100
0001
0000
1000
0000
0001
0100
0001
0100
0010
0000
1000
0000
,
0001
0000
0001
0000
1000
0000
1000
0000
0001
1000
0001
1000
0002
0000
0000
0003
,
0001
0010
0110
0100
1000
0010
0101
0000
,
0001
1000
1100
0010
0001
0100
0110
0000
,
0001
0010
0011
0100
1000
0010
1010
0000
,
0001
0010
0011
0001
1000
0100
1100
0000
,
1000
0100
0010
0001
1000
0010
0000
0010
,
1000
0001
0100
0010
1000
0100
0000
0100
,
1000
0000
0001
0000
0100
0000
0001
0010
0001
0000
0010
0000
0100
0000
1000
0010
,
1000
0001
0100
0010
1000
0001
0100
0000
,
0102
0000
0000
0000
,
0023
0000
0000
0000
,
0230
0000
0000
0000
,
2300
0000
0000
0000
,
3002
0000
0203
0000
,
0320
0000
0000
0000
,
2030
0000
3200
0000
,
0320
0000
0032
2003
,
3001
0100
0010
0100
0001
0100
0010
0100
,
0001
0010
0100
1000
0010
0100
0010
1000
,
0001
0000
0010
0000
0100
0000
1000
0000
0000
0010
0000
0000
0100
0000
0000
0000
,
0001
0000
0010
0000
1000
0000
0010
0000
0000
0001
0000
0000
0100
0000
0000
0000
,
0010
1000
0100
1000
0010
1000
0100
0100
,
0010
0001
1000
0001
0100
0001
0010
0010
,
0001
0100
0010
0100
0001
1000
0100
0100
,
1000
0000
0000
0100
0010
0000
0001
0000
0000
0100
0010
0000
1000
0000
0001
0100
,
0001
0000
0000
0010
0100
0000
1000
0000
0000
0010
0100
0000
0001
0000
1000
0001
,
2000
0000
0000
3020
0000
0000
0230
0000
0000
0302
0000
0000
0013
0000
0001
0000
,
0101
0000
0000
0000
0011
0000
0000
0000
0101
0000
0000
0001
0100
0000
0010
0000
,
1010
0000
1000
0100
0010
0001
0100
0010
,
1010
0000
0000
0000
0101
0000
0000
0000
1010
0000
0000
0001
0100
0000
0010
0000
,
1000
0010
1000
0000
0001
0100
0001
0000
1000
0001
1000
0001
2000
0000
3002
0000
,
0103
0010
1000
0010
0100
1000
0100
0001
,
1000
0100
0010
1000
0010
0001
0100
0010
,
1000
0001
0010
0001
0100
0010
1000
0001
,
1000
0001
0100
0000
0001
1000
0100
0000
2000
0000
3020
0000
0230
0000
0302
0000
,
1003
0001
0000
0100
0001
0000
0010
0000
0100
1000
0100
1000
0100
0000
1000
0000
,
0010
0100
0000
0010
1000
0000
0010
0000
0100
0001
0100
0001
0100
0000
0010
0000
,
1000
0100
0000
0010
0001
0000
1000
0000
0001
0100
0001
0100
0020
0000
2030
0000
,
3002
0023
0230
2300
3002
0203
0320
2030
,
3001
0010
0000
0100
0010
0000
0001
0000
0100
0010
0100
0010
1000
0000
0010
0000
,
1000
0100
0000
0010
0001
0000
1000
0000
0001
0100
0001
0100
0001
0000
0010
0000
,
0100
1000
0000
0001
0100
0000
0010
0000
0100
0010
0100
0010
0100
0000
0001
0000
,
2000
0000
0000
3020
0000
0000
0032
0000
0000
2003
0000
0000
3200
0000
0302
0000
,
1003
0100
0010
0001
0100
0010
1000
2200
,
0000
0000
0000
3300
0000
0000
0000
0000
;

//--------------- dance-single - Fred-104 ----------------
#NOTEDATA:;
#STEPSTYPE:dance-single;
#DESCRIPTION:Fred-104;
#DIFFICULTY:Hard;
#METER:17;
#CREDIT:Fred-104;
#NOTES:
0000
0000
0000
0000
,
0000
0000
0000
0000
,
0000
0000
0000
0000
,
2200
3300
0000
2020
3030
0000
0220
0330
0000
0202
0303
0000
0011
0000
0001
0000
,
1000
0010
0100
1000
0100
0001
0000
0000
,
1000
0100
1000
0010
0100
0001
0100
0001
0010
0001
1000
0001
0200
0000
0320
0000
,
1030
0100
0010
0001
0100
0010
0100
0001
0010
0001
1000
0010
0200
0000
0302
0000
,
0013
0001
1000
0001
0100
0001
1000
0001
0100
0010
1000
0100
0020
0000
0032
0000
,
1003
0100
0010
0001
0100
0010
0001
0010
1000
0001
0100
0010
2000
0000
3020
0000
,
0130
0001
0010
0001
0100
0001
0010
0001
0100
0010
1000
0010
0200
0000
0302
0000
,
1003
0010
0100
0010
1000
0010
0100
0010
1000
0100
0010
0001
0200
0000
0320
0000
,
0130
0001
1000
0001
0100
0001
1000
0001
0010
0001
0100
0001
0020
0000
0032
0000
,
1003
0100
0001
0000
0001
0100
1000
0000
1000
0100
0001
0100
2000
0000
0000
0000
,
3001
0100
0010
0001
0010
1000
0001
0010
0100
0001
0100
1000
0001
0000
0001
0000
,
1000
0100
0010
1000
0010
0001
1000
0010
0100
1000
0100
0001
1000
0000
1000
0000
,
0001
0100
1000
0100
0010
1000
0100
0010
0001
0100
0010
1000
0001
0000
0001
0000
,
1000
0100
0001
0100
0010
0001
0100
0010
1000
0100
0010
0001
1000
0000
1000
0000
,
1100
1001
1010
1001
1100
0220
0330
0101
,
0011
1001
0101
1001
0011
0220
0330
1010
,
1100
0000
0110
0000
0001
0000
0100
0010
1010
0000
0110
0000
0001
0000
0010
0100
,
1100
0000
0000
0110
0000
0000
0011
0000
0000
1001
0000
0000
0001
0100
0010
1000
0000
0000
0100
0010
0001
1000
0000
0000
,
2001
0000
0000
0000
,
3020
0000
0000
0000
,
0230
0000
0000
0000
,
0302
0000
0000
0000
0000
0000
0023
0230
,
2300
0000
0000
0000
,
3020
0000
0032
0203
,
2300
3020
0230
0000
,
0302
0000
0000
0000
2003
0000
3002
0203
,
0301
0010
0100
1000
0001
0010
0100
1000
0001
0010
0100
1000
0001
0000
1000
0000
,
0001
0100
0010
1000
0001
0100
0010
1000
0001
0100
0010
1000
0001
0000
0001
0000
,
1000
0000
0100
0010
1000
0000
0010
0001
0000
1000
0001
0000
0100
0000
0010
0000
,
1000
0000
0010
0100
1000
0000
0100
0001
0000
1000
0001
0000
0100
0000
0010
0000
,
1000
0001
0010
0100
1000
0001
0010
0100
1000
0001
0010
0100
1000
0000
1000
0000
,
0001
1000
0010
0100
0001
1000
0010
0100
0001
1000
0010
0100
0001
0000
0001
0000
,
0100
0010
1000
0001
0100
0010
1000
0001
0100
0010
1000
0001
0100
0000
0100
0000
,
0001
0010
0100
0001
1000
0010
0100
1000
0001
0100
0010
0001
1000
0100
0010
1000
,
0001
0100
1000
0001
0010
1000
0001
0100
1000
0001
0010
1000
0001
0100
0010
1000
,
0002
0000
0000
0203
0000
0000
2300
0000
0000
3020
0000
0000
0032
0000
1003
0000
,
1100
0000
0000
0000
0110
0000
0000
0000
1100
0000
0000
0001
0100
0000
0010
0000
,
1010
0000
0000
0010
1000
0100
0000
0001
0000
0100
0000
1000
0001
0100
0010
1000
,
1100
0000
0000
0000
1010
0000
0000
0000
1100
0000
0000
0100
0010
0000
0001
0000
,
1000
0100
0010
0001
1000
0100
0010
0001
1000
0010
0100
0001
2000
0000
3002
0000
,
1003
0010
1000
0010
0100
1000
0100
0001
0000
1000
0000
0010
0100
0000
0001
0000
,
0001
0010
0001
0010
0100
0001
0100
1000
0000
0001
0000
0100
0010
0000
1000
0000
,
1000
0100
1000
0100
0010
1000
0010
0001
0000
0100
0000
0010
1000
0000
0001
0000
,
0001
0100
0001
0100
0010
0001
0010
1000
0002
0000
0203
0000
0320
0000
2030
0000
,
3001
0010
0100
0001
0100
0010
0001
0010
0100
0001
0100
0010
0001
0000
0001
0000
,
1000
0010
0100
1000
0100
0010
1000
0010
0100
1000
0100
0010
1000
0000
1000
0000
,
0001
0100
0010
0001
0010
0100
0001
0100
0010
0001
0010
0100
0001
0000
0002
0000
,
2003
0000
0000
0000
0000
0000
0000
0000
3020
0000
0000
0000
0000
0000
0000
0000
0130
0000
0000
0000
0001
0000
0000
0000
0010
0000
0000
0000
0100
0000
0000
0000
2000
3000
0000
0000
0200
0300
0000
0000
0002
0003
0000
0000
0200
0300
0000
0000
2000
0000
0000
0000
0000
0000
0000
0000
3002
0000
0000
0000
0000
0000
0000
0000
,
1003
0000
0100
1000
0001
0000
0100
0000
0010
0000
0100
0000
0001
0000
0010
0000
0100
0000
1000
0010
0100
0000
0010
0000
2000
0000
0000
0000
3002
0000
0000
0000
,
0103
0000
0001
0100
0010
0000
0100
0000
0001
0000
0010
0000
0100
0000
1000
0000
0010
0000
1000
0010
0100
0000
0010
0000
2000
0000
0000
0000
3002
0000
0000
0000
,
1003
0000
0100
0010
0001
0000
0100
0000
0010
0000
1000
0000
0001
0000
0010
0000
0100
0000
0010
0001
1000
0000
0001
0000
0200
0000
0000
0000
0320
0000
0000
0000
,
2030
0000
3100
0002
0000
1003
0020
0000
0031
2000
0000
3100
0002
0003
2000
3000
,
1100
0011
1010
0101
0110
1001
0110
2002
,
0000
0000
0000
3003
0000
0000
0000
0000
;

//--------------- dance-double - Fred-104 ----------------
#NOTEDATA:;
#STEPSTYPE:dance-double;
#DESCRIPTION:Fred-104;
#DIFFICULTY:Easy;
#METER:8;
#CREDIT:Fred-104;
#NOTES:
00000000
00000000
00000000
00000000
,
00000000
00000000
00000000
00000000
,
00000000
00000000
00000000
00000000
,
00001000
00000000
00000000
00001000
00000000
00000000
00010000
00000000
00000000
00010000
00000000
00000000
00001000
00000000
00000000
00000000
,
00010000
00001000
00022000
00033000
,
00001000
01000000
00100000
10000000
,
01000000
00010000
00001000
00100000
,
01000000
10000000
00100000
01000000
,
00001000
00000000
00010000
00000000
00001000
00010000
00001000
00000000
,
00100000
00001000
00010000
00001000
,
00000010
00010000
00001000
00010000
,
01000000
00010000
00001000
00010000
,
00000100
00001000
00000100
00000000
00000010
00000100
00000010
00000000
,
00000002
00000000
00000103
00000010
,
00020000
00000000
00031000
00100000
,
00002000
00000000
00103000
00010000
,
02000000
00000000
00000000
00000000
03100000
10000000
00100000
00000000
,
10000000
01000000
10000000
00000000
00100000
00000000
00000000
00000000
,
01000000
00010000
01000000
00000000
00001000
00000000
00000000
00000000
,
00100000
00010000
00100000
00000000
00001000
00010000
00001000
00000000
,
00010000
00000010
00010000
00000000
00000010
00001000
00000010
00000000
,
00021000
00000000
00000000
00000000
,
00032000
00000000
00000000
00000000
,
00203000
00000000
00000000
00000000
,
00320000
00000000
00000000
00000000
,
20030000
00000000
00000000
00000000
,
32000000
00000000
00000000
00000000
,
03200000
00000000
00000000
00000000
,
00302000
00000000
00023000
00000000
,
00031000
01000000
00001000
00100000
,
00001000
00000000
01000000
00000000
00001000
00010000
00001000
00000000
,
00100000
00001000
00010000
00000100
,
00001000
00000000
00000001
00000000
00000100
00000010
00000100
00000000
,
00000001
00000010
00001000
00010000
,
00000100
00000010
00000001
00001000
,
00000010
00000000
00010000
00000000
00001000
00010000
00001000
00000000
,
00010000
00000000
00000000
00010000
00000000
00000000
00001000
00000000
00000000
00001000
00000000
00000000
00010000
00000000
00000000
00000000
,
00100000
00000000
00000000
00100000
00000000
00000000
01000000
00000000
00000000
01000000
00000000
00000000
00100000
00000000
00000000
00000000
,
20000000
00000000
00000000
30200000
00000000
00000000
02300000
00000000
00000000
03020000
00000000
00000000
10030000
00000000
00000000
00000000
,
00100000
10000000
01000000
01100000
,
00001000
00000000
00010000
00000000
00001000
00010000
00001000
00000000
,
00010000
00000010
00001000
00001100
,
00000001
00000010
00001000
00020000
,
00130000
00000000
10000000
00000000
00010000
00000000
01000000
00100000
,
01000000
00000000
00010000
00000000
10000000
00000000
01000000
00100000
,
01000000
00000000
00100000
00000000
00001000
00000000
00010000
00001000
,
00010000
00000000
00000100
00000000
00001000
00000100
00001000
00000100
,
00001000
00000000
00000010
00000000
00000100
00000001
00000100
00000000
,
00000001
00000000
00000010
00000000
00001000
00010000
00001000
00000000
,
00010000
00000000
00100000
00000000
10000000
00010000
10000000
00000000
,
02000000
03200000
00302000
00023000
,
00030100
00000000
00000010
00000000
00000001
00000100
00000010
00000000
,
00001000
00000000
00000100
00000000
00000010
00000001
00000100
00000000
,
00001000
00010000
00001000
00010000
00001000
00010000
00001000
00000000
,
00010000
00000000
00000000
00100000
00000000
00000000
01000000
00000000
00000000
10000000
00000000
00000000
00010000
00000000
00000000
00000000
,
01000000
00000000
00001000
00000000
00010000
00000000
00000010
00002000
,
00000000
00000000
00000000
00003000
00000000
00000000
00000000
00000000
;

//--------------- dance-double - Fred-104 ----------------
#NOTEDATA:;
#STEPSTYPE:dance-double;
#DESCRIPTION:Fred-104;
#DIFFICULTY:Medium;
#METER:13;
#CREDIT:Fred-104;
#NOTES:
00000000
00000000
00000000
00000000
,
00000000
00000000
00000000
00000000
,
00000000
00000000
00000000
00000000
,
00000002
00000000
00000000
00000203
00000000
00000000
00000320
00000000
00000000
00002030
00000000
00000000
00003002
00000000
00000023
00000000
,
00001030
00010000
00100000
00010000
00001000
00010000
00000000
00000000
,
01000000
00000000
01100000
00000000
10000000
01000000
00100000
00000000
,
00001000
00000000
00011000
00000000
01000000
00001000
00010000
00000000
,
00000100
00000000
00001010
00000000
00000010
00001000
00000001
00000000
,
00001000
00000100
00000010
00000001
00000100
00000010
00001000
00000000
,
00000001
00000000
00000101
00000000
00000010
00010000
00001000
00000000
,
00010000
00000000
00010100
00000000
00001000
01000000
00010000
00000000
,
00100000
00000000
00110000
00000000
01000000
00100000
10000000
00000000
,
00010000
10000000
01000000
00100000
00001000
00010000
00002000
00000000
,
00013000
00000000
00000100
00000000
00001000
00000000
00000010
00000000
00000100
00000001
00000100
00000001
00000100
00000000
00000010
00000000
,
00001000
00000000
00000001
00000000
00000010
00000000
00000100
00000000
00000010
00000001
00000010
00000001
00000010
00000000
00000001
00000000
,
00000100
00000000
00001000
00000000
00010000
00000000
01000000
00000000
10000000
00010000
10000000
00010000
10000000
00000000
00100000
00000000
,
01000000
00000000
00100000
00000000
10000000
00000000
01000000
00000000
00100000
00010000
00100000
00010000
00100000
00000000
00001000
00000000
,
01000000
00001000
00010000
00001000
00000100
00000010
00000000
00000001
,
00000010
00010000
00001000
00010000
00100000
01000000
00000000
10000000
,
00010000
00000000
01000000
00000000
00100000
00000000
10000000
01000000
10000000
00000000
01000000
00000000
00100000
00000000
00001000
00010000
,
00001000
00000000
00010000
00000000
00001000
00000000
01000000
00000000
00010000
00100000
00010000
00000000
10000000
00100000
10000000
00000000
,
20010000
00000000
00000000
00000000
,
32000000
00000000
00000000
00000000
,
03200000
00000000
00000000
00000000
,
00302000
00000000
00023000
00000000
,
00030020
00000000
00000000
00000000
,
00000230
00000000
00000000
00000000
,
00000302
00000000
00000023
00000000
,
00000230
00000000
00020300
00032000
,
00103000
00000000
00001000
00010000
00001000
00000000
00100000
00000000
00010000
00000000
01000000
00100000
01000000
00000000
00010000
00000000
,
10000000
00000000
01000000
00100000
01000000
00000000
00100000
00000000
00001000
00000000
00010000
00000100
00010000
00000000
00000100
00000000
,
00001000
00000000
00000010
00000000
00000100
00000000
00000002
00000000
00000000
00000023
00000000
00000000
00000230
00000000
00000000
00000000
,
00000310
00000000
00000001
00000000
00001000
00000000
00000020
00000000
00000000
00020030
00000000
00000000
00031000
00000000
00010000
00000000
,
00001000
00000000
00100000
00010000
00100000
00000000
00010000
00000000
10000000
00000000
00100000
01000000
00100000
00000000
10000000
00000000
,
01000000
00000000
00100000
00010000
00100000
00000000
00001000
00000000
01000000
00000000
00001000
00010000
00001000
00000000
00010000
00000000
,
00000100
00000000
00001000
00000010
00001000
00000000
00000010
00000000
00000100
00000000
00000001
00000010
00000001
00000000
00001000
00000000
,
00000001
00000000
00000000
00000010
00000100
00000000
00000010
00000000
00000000
00000001
00000010
00000000
00000100
00000000
00010000
00001000
,
00010000
00000000
00000000
00001000
00100000
00000000
00010000
00000000
00000000
01000000
00100000
00000000
10000000
00000000
00010000
01000000
,
00020000
00000000
00000000
00230000
00000000
00000000
00302000
00000000
00000000
00023000
00000000
00000000
00030010
00000000
00001000
00000000
,
00001100
00000000
00000000
00000000
00000110
00000000
00000000
00000000
00001100
00000000
00000000
00000010
00000100
00000000
00000001
00000000
,
00000010
00000000
00000001
00000100
00001000
00010000
01000000
10000000
,
10010000
00000000
00000000
00000000
01100000
00000000
00000000
00000000
10010000
00000000
00000000
00100000
01000000
00000000
00100000
00000000
,
10000000
01000000
10000000
00000000
00100000
01000000
00100000
00000000
01000000
00001000
01000000
00001000
00020000
00000000
00030200
00000000
,
00001300
00000000
00000010
00000000
00000100
00000000
00000010
00000000
00001000
00000000
00000100
00000000
00000010
00000001
00000010
00000000
,
00000001
00000000
00000100
00000000
00000010
00000000
00001000
00000000
00000001
00000000
00000010
00000000
00000100
00001000
00000100
00000000
,
00010000
00000000
00000010
00000000
00001000
00000000
00000100
00000000
00010000
00000000
00001000
00000000
01000000
00100000
01000000
00000000
,
00010000
00000000
00100000
00000000
01000000
10000000
01000000
10000000
02000000
00000000
23000000
00000000
30020000
00000000
02030000
00000000
,
03100000
10000000
00000000
00100000
10000000
00000000
01000000
00000000
00100000
00000000
00010000
00100000
00010000
00000000
01000000
00000000
,
00001000
00010000
00000000
00001000
00010000
00000000
00000100
00000000
00001000
00000000
00000001
00000100
00000001
00000000
00000010
00000000
,
00000100
00000010
00000000
00000100
00000010
00000000
00000001
00000000
00001000
00000000
00000001
00000100
00000001
00000000
00000200
00000000
,
00000320
00002030
00023000
00230000
20300000
30020000
02030000
03200000
,
10300000
00100000
00000000
01000000
00100000
00000000
10000000
00000000
01000000
00100000
01000000
00100000
01000000
00000000
00100000
00000000
,
00001000
00010000
00000000
00001000
00010000
00000000
00000100
00000000
00001000
00000010
00001000
00000010
00001000
00000000
00000100
00000000
,
00010000
00001000
00000000
00010000
00001000
00000000
01000000
00000000
00010000
00100000
00010000
00100000
00010000
00000000
01000000
00000000
,
00002000
00000000
00000000
00023000
00000000
00000000
00030200
00000000
00000000
00002300
00000000
00000000
00003020
00000000
00000230
00000000
,
00000301
00000100
00000010
00010000
00001000
00000100
00010000
00022000
,
00000000
00000000
00000000
00033000
00000000
00000000
00000000
00000000
;

//--------------- dance-double - Fred-104 ----------------
#NOTEDATA:;
#STEPSTYPE:dance-double;
#DESCRIPTION:Fred-104;
#DIFFICULTY:Hard;
#METER:17;
#CREDIT:Fred-104;
#NOTES:
00000000
00000000
00000000
00000000
,
00000000
00000000
00000000
00000000
,
00000000
00000000
00000000
00000000
,
00022000
00033000
00000000
02010000
03000000
00000000
22000000
33000000
00000000
02020000
03030000
00000000
00011000
00000000
00001000
00000000
,
00000001
00000010
00001000
00010000
01000000
10000000
00000000
00000000
,
00010000
00100000
01000000
10000000
00010000
00100000
01000000
10000000
00010000
01000000
00100000
10000000
00020000
00000000
02030000
00000000
,
03100000
10000000
00010000
01000000
00100000
10000000
00010000
01000000
00100000
10000000
01000000
00100000
00002000
00000000
00023000
00000000
,
00030010
00001000
00000100
00010000
00000010
00001000
00000100
00010000
00000010
00001000
00000010
00000100
00000002
00000000
00002003
00000000
,
00003001
00000100
00000001
00000100
00000010
00000001
00000010
00000001
00000010
00001000
00000010
00001000
00000002
00000000
00000203
00000000
,
00000301
00000010
00000100
00001000
00000100
00000010
00000001
00001000
00000010
00010000
00001000
00010000
00000020
00000000
00002030
00000000
,
00003100
00010000
00001000
00010000
01000000
00100000
01000000
00010000
00100000
00001000
00010000
00000010
00002000
00000000
00003200
00000000
,
00010300
00000010
00001000
00000010
00000100
00000010
00001000
00000100
00010000
00001000
01000000
00010000
00200000
00000000
00302000
00000000
,
00013000
00001000
00000010
00000000
00001000
00010000
00100000
00000000
00001000
00010000
00001000
00010000
00002000
00000000
00000000
00000000
,
00103000
00001000
00010000
00000100
00001000
00000100
00000010
00000001
00000100
00001000
00010000
01000000
10000000
00000000
00010000
00000000
,
01000000
00100000
10000000
00010000
00100000
01000000
00100000
00010000
10000000
00100000
00010000
00001000
00000010
00000000
00000001
00000000
,
00001000
00000001
00000100
00000001
00000010
00000001
00001000
00000010
00000100
00001000
00010000
00100000
01000000
00000000
00001000
00000000
,
00010000
00000100
00001000
00000010
00010000
00001000
00100000
00010000
01000000
00001000
00010000
00000100
00010000
00000000
00001000
00000000
,
00011000
00010000
00000100
00001000
00001010
00001001
00000000
00000001
,
00000101
00000100
00001000
00010000
00011000
00110000
00000000
00100000
,
20010000
00000000
31000000
00000000
10020000
00000000
01030000
00100000
20100000
00000000
31000000
00000000
00120000
00000000
01030000
00001000
,
00012000
00000000
00103000
00000000
00012000
00000000
00003010
00000000
00001000
00000100
00000010
00000000
00000001
00000100
00000010
00000000
,
00002010
00000000
00000000
00000000
,
00003002
00000000
00000203
00000000
,
00002300
00000000
00000000
00000000
,
00023000
00000000
00000000
00000000
02030000
00000000
03200000
20300000
,
32000000
00000000
03200000
00000000
,
00302000
00000000
00023000
00030200
,
00002300
00003002
00000203
00000320
,
00020030
00000000
00002000
00033000
,
00010000
00000010
00001000
00000100
00010000
00000010
00001000
00000100
00010000
00000010
00001000
00000100
00010000
00000000
00000000
00000000
,
00001000
01000000
00010000
00100000
00001000
01000000
00010000
00100000
00001000
01000000
00010000
00100000
00001000
00000000
00000000
00000000
,
01000000
00000000
00001000
00010000
00001000
00000000
00000200
00000000
00000000
00000320
00000000
00000000
00000130
00000000
00000000
00000000
,
00000010
00000000
00010000
00001000
00010000
00000000
00200000
00000000
00000000
02300000
00000000
00000000
03100000
00000000
00001000
00000000
,
00010000
00000100
00001000
00000010
00010000
00000100
00001000
00000010
00010000
00000100
00001000
00000010
00010000
00000000
00001000
00000000
,
01000000
00010000
00100000
00001000
01000000
00010000
00100000
00001000
01000000
00010000
00100000
00001000
01000000
00000000
00001000
00000000
,
00010000
00000100
00001000
00000010
00010000
00000100
00001000
00000010
00010000
00000100
00001000
00000010
00010000
00000000
00000100
00000000
,
00001000
00000100
00001000
00000001
00000100
00000001
00001000
00000010
00001000
00000001
00000010
00000001
00001000
00000010
00010000
00001000
,
00100000
00010000
10000000
00100000
10000000
00010000
01000000
00010000
10000000
01000000
00100000
00010000
10000000
00000000
01000000
00000000
,
00200000
00000000
00000000
00302000
00000000
00000000
00003020
00000000
00000000
00000032
00000000
00000000
00002003
00000000
00003010
00000000
,
00000110
00000000
00000000
00000000
00011000
00000000
00000000
00000000
01100000
00000000
00000000
00010000
01000000
00000000
00100000
00000000
,
10100000
00000000
00000000
10000000
01000000
00100000
00000000
00001000
00000000
00010000
00000000
01000000
10000000
00100000
01000000
00000000
,
01100000
00000000
00000000
00000000
11000000
00000000
00000000
00000000
01100000
00000000
00000000
01000000
00001000
00000000
00010000
00000000
,
00000100
00001000
00000100
00000010
00000001
00000100
00000010
00000100
00000001
00001000
00000010
00000100
00000002
00000000
00000203
00000000
,
00000310
00001000
00000010
00001000
00000001
00000010
00000100
00000010
00000000
00000001
00000000
00000100
00001000
00000000
00010000
00000000
,
00001000
00010000
00001000
00010000
01000000
00010000
01000000
00010000
00000000
01000000
00000000
10000000
00010000
00000000
01000000
00000000
,
00100000
10000000
00100000
10000000
00010000
10000000
01000000
00100000
00000000
00001000
00000000
00010000
00000010
00000000
00001000
00000000
,
00000100
00000010
00000001
00000010
00000100
00000010
00000001
00000010
00000200
00000000
00000320
00000000
00020030
00000000
00032000
00000000
,
00103000
00001000
00010000
00001000
01000000
00001000
00010000
00001000
00000100
00000010
00000100
00010000
00001000
00000000
00001000
00000000
,
00010000
00000100
00001000
00000010
00000100
00000010
00001000
00010000
00001000
00100000
01000000
00100000
00010000
00000000
00010000
00000000
,
00001000
00100000
00001000
00010000
00000010
00001000
00000100
00010000
00001000
00010000
01000000
00001000
00010000
00000000
00020000
00000000
,
00032000
00000000
00000000
00000000
00000000
00000000
00000000
00000000
00003020
00000000
00000000
00000000
00000000
00000000
00000000
00000000
00000130
00000000
00000000
00000000
00000001
00000000
00000000
00000000
00000010
00000000
00000000
00000000
00000100
00000000
00000000
00000000
00002000
00003000
00000000
00000000
00000200
00000300
00000000
00000000
00000002
00000003
00000000
00000000
00000200
00000300
00000000
00000000
00002000
00000000
00000000
00000000
00000000
00000000
00000000
00000000
00003002
00000000
00000000
00000000
00000000
00000000
00000000
00000000
,
00000103
00000001
00001000
00000010
00010000
00001000
00100000
00010000
10000000
00100000
01000000
00010000
20000000
00000000
30200000
00000000
,
01300000
00010000
00100000
00010000
10000000
00100000
01000000
00001000
00010000
00000100
00001000
00000100
00000020
00000000
00000032
00000000
,
00001003
00000001
00000100
00000010
00010000
00001000
00100000
00010000
10000000
00100000
01000000
00010000
20000000
00000000
30200000
00000000
,
20300000
00000000
31000000
00200000
00000000
00301000
00020000
00000000
00030100
00000020
00000000
00000031
00002000
00000000
00003020
00000030
,
00000110
00000101
00001100
00011000
01010000
11000000
10100000
20020000
,
00000000
00000000
00000000
30030000
00000000
00000000
00000000
00000000
;
