#VERSION:0.83;
#TITLE:Velvet Sentiment;
#ARTIST:seiya-murai;
#BANNER:Velvet Sentiment.png;
#BACKGROUND:Velvet Sentiment-bg.png;
#CDTITLE:./CDTitles/RB colette -All Seasons-.png;
#MUSIC:Velvet Sentiment.ogg;
#SAMPLESTART:8.778;
#SAMPLELENGTH:15;
#BPMS:0=160;
#BGSTAGE:29;

//--------------- dance-single - Fred-104 ----------------
#NOTEDATA:;
#STEPSTYPE:dance-single;
#DESCRIPTION:Fred-104;
#DIFFICULTY:Beginner;
#METER:3;
#CREDIT:Fred-104;
#NOTES:
0000
0000
0000
0000
,
0000
0000
0000
0000
,
0000
0000
0000
0000
,
0000
0000
0000
0000
,
0000
0000
0000
0000
,
0000
0000
0000
0000
,
1000
0000
0000
0000
,
0001
0000
0000
0000
,
1000
0000
0000
0000
,
0010
0000
0000
0000
,
1000
0000
0000
0000
,
0001
0000
0000
0000
,
1000
0000
0000
0000
,
2002
0000
3003
0000
,
0001
0000
0000
0000
,
1000
0000
0000
0000
,
0001
0000
0000
0000
,
1000
0000
0000
0000
,
0010
0000
0000
0000
,
0100
0000
0000
0000
,
0010
0000
0000
0000
,
2000
0000
3000
0000
,
0002
0000
0003
0000
,
2000
0000
3000
0000
,
0001
0000
0000
0000
,
1001
0000
0000
0000
,
0000
0000
0000
0000
,
1000
0000
0000
0000
,
0001
0000
0000
0000
,
1000
0000
0000
0000
,
0010
0000
0000
0000
,
0100
0000
0000
0000
,
0100
0000
0000
0000
,
0100
0000
0000
0000
,
1001
0000
0000
0000
,
0001
0000
0000
0000
,
1000
0000
0000
0000
,
0010
0000
0000
0000
,
1000
0000
0000
0000
,
0001
0000
0000
0000
,
1000
0000
0000
0000
,
0001
0000
0000
0000
,
2002
0000
0000
0000
,
3003
0000
0000
0000
,
1000
0000
0000
0000
,
1000
0000
0000
0000
,
0001
0000
0000
0000
,
1000
0000
0000
0000
,
1000
0000
0000
0000
,
0001
0000
0000
0000
,
1000
0000
0000
0000
,
0010
0000
0000
0000
,
1000
0000
0000
0000
,
0010
0000
0000
0000
,
0100
0000
0000
0000
,
0100
0000
0000
0000
,
0010
0000
0000
0000
,
1000
0000
0000
0000
,
0001
0000
0000
0000
,
1000
0000
0000
0000
,
0001
0000
0001
0000
,
1000
0000
1000
0000
,
0001
0000
0001
0000
,
1000
0000
1000
0000
,
2002
0000
0000
0000
,
0000
0000
3003
0000
,
1001
0000
0000
0000
,
1001
0000
0000
0000
,
1000
0000
0000
0001
,
0000
0000
1000
0000
,
0001
0000
0000
1001
;

//--------------- dance-single - Fred-104 ----------------
#NOTEDATA:;
#STEPSTYPE:dance-single;
#DESCRIPTION:Fred-104;
#DIFFICULTY:Easy;
#METER:5;
#CREDIT:Fred-104;
#NOTES:
0000
0000
0000
0000
,
0000
0000
0000
0000
,
0000
0000
0000
0000
,
0000
0000
0000
0000
,
0000
0000
0000
0000
,
0000
0000
0000
0000
,
1000
0000
0010
0000
,
1000
1000
0100
1000
,
0002
0000
0000
2003
0000
0000
3020
0000
,
0230
0000
0000
0302
0000
0000
0000
0000
,
0013
0000
0001
0000
,
1000
1000
0010
0100
,
0001
1000
0001
0001
,
2002
0000
0000
3003
,
1000
0000
0010
0000
,
0100
0100
0010
1000
,
0001
0000
1000
0000
,
0010
0000
1000
0000
,
0001
0000
1000
0000
,
0010
0010
1000
0001
,
1000
0000
0001
1000
,
0001
0000
0000
1000
0000
0000
0001
0000
,
1000
0000
0000
0001
0000
0000
1000
0000
,
0010
0000
0000
0100
0000
0000
0010
0000
,
1000
1000
0100
0100
,
0010
0001
1000
1001
,
0000
0000
0000
0000
,
0020
0000
0000
0000
,
2030
0000
0000
3001
,
0002
0000
0000
0203
0000
0000
0320
0000
,
2030
0000
3002
0000
,
1003
0000
0010
0000
,
0001
0000
0100
0000
,
1001
0000
0000
0000
,
1001
0000
0000
0000
,
1000
0000
0000
0010
0000
0000
1000
0000
,
0001
0000
0000
0010
0000
0000
0100
0000
,
1000
0000
0000
0001
0000
0000
0100
0000
,
0010
0000
0100
0010
,
2000
0000
3200
0000
,
0320
0000
0032
1003
,
1000
0001
0001
1000
,
2002
0000
0000
0000
,
3003
0000
0000
0000
,
0001
0000
0010
0000
,
0001
0001
0100
0001
,
2000
0000
0000
3002
0000
0000
0023
0000
,
0230
0000
0000
2300
0000
0000
0000
0000
,
3010
0000
1000
0000
,
0001
0001
0010
0100
,
1000
0001
1000
1000
,
2002
0000
0000
3003
,
0001
0000
0010
0000
,
0100
0100
0010
0001
,
1000
0000
0001
0000
,
0010
0000
0001
0000
,
1000
0000
0001
0000
,
0010
0010
0001
1000
,
0001
0000
1000
0001
,
1000
0000
0000
0001
0000
0000
1000
0000
,
0001
0001
0010
0010
,
1000
1000
0010
0010
,
0001
0001
0100
0100
,
1000
1000
0100
0100
,
0002
0000
2003
0000
,
3020
0000
0230
0300
,
2002
0000
0000
3003
,
0220
0000
0000
0330
,
1000
0000
0000
1000
0000
0000
0001
0000
,
0000
0001
0000
0000
0100
0000
0100
0000
,
0010
0000
0000
0010
0000
0000
0100
0100
;

//--------------- dance-single - Fred-104 ----------------
#NOTEDATA:;
#STEPSTYPE:dance-single;
#DESCRIPTION:Fred-104;
#DIFFICULTY:Medium;
#METER:9;
#CREDIT:Fred-104;
#NOTES:
0000
0000
0000
0000
,
0000
0000
0000
0000
,
0000
0000
0000
0000
,
0000
0000
0000
0000
,
0000
0000
0000
0000
,
0000
0000
0000
0000
,
1000
0010
1000
0000
0001
0000
0010
0000
,
0100
0000
0010
0000
0001
1000
0001
1000
,
0002
0000
0000
2003
0000
0000
3020
0000
,
2030
0000
0000
3200
0000
0000
0320
0000
,
0031
0100
0001
1000
,
0010
0100
0100
0010
,
1000
0000
0000
0001
0000
0000
0100
0000
0000
0010
0000
0000
1000
0000
0000
0000
,
0001
0000
0000
1000
0000
0000
0001
0000
0000
0000
1000
0000
1001
0000
0000
0000
,
0010
0010
0001
1000
,
0010
0000
1000
0000
0001
0010
0001
1000
,
0100
0000
0000
0100
0000
0000
0010
0000
0001
0000
0000
0000
1000
0000
0000
0000
,
0001
0000
0000
0001
0000
0000
1000
0000
0010
0000
0000
0000
0100
0000
0000
0000
,
0010
1000
0100
0100
,
1000
0010
1000
0000
0001
1000
0010
0100
,
0001
0000
1000
0100
1000
0100
1000
0000
,
0001
0000
0000
0100
0000
0000
0010
0000
0000
0000
1000
0000
0100
0000
0000
0000
,
1000
0000
0000
0100
0000
0000
0010
0000
0000
0000
0001
0000
0100
0000
0000
0000
,
0010
0000
0000
0100
0000
0000
0010
0000
0000
0000
1000
0000
0001
0000
0000
0000
,
2000
3200
0320
0032
,
1003
0000
0001
0000
0100
0000
0010
0110
,
0000
0000
0000
0000
,
0200
0000
0000
0000
0000
0000
0301
1000
,
0020
0000
0000
0130
,
0020
0000
0000
2030
0000
0000
3002
0000
,
2003
0000
0000
3001
0200
0000
0300
0000
,
0001
0000
0001
0000
0001
0000
1000
0000
1000
0000
1000
0000
,
0010
0000
0100
0000
0010
0000
1000
0000
0000
0001
0000
0000
,
2002
0000
0000
3003
,
0220
0000
0000
0330
,
1000
0000
0010
1000
0000
0001
1000
0100
,
1000
0000
0010
0100
0000
0010
1000
0001
,
0010
0000
0100
0010
0000
0001
1000
0010
,
0100
0000
0010
1001
,
0001
0000
0001
0000
0010
0000
0100
0000
0100
0000
1000
0000
,
0010
0000
0100
0000
0010
0000
1000
0000
0000
0001
0000
0000
,
1000
0010
1000
0000
0001
0010
0001
0000
,
2002
0000
0000
0000
,
3003
0000
0000
0000
,
0001
0010
0001
0000
1000
0000
0010
0000
,
0100
0000
0010
0000
1000
0001
1000
0001
,
2000
0000
0000
3002
0000
0000
0023
0000
,
0032
0000
0000
0203
0000
0000
0320
0000
,
1030
0100
1000
0001
,
0010
0100
0100
0010
,
0001
0000
0000
1000
0000
0000
0100
0000
0000
0010
0000
0000
0001
0000
0000
0000
,
1000
0000
0000
0001
0000
0000
1000
0000
0000
0000
0001
0000
1001
0000
0000
0000
,
0010
0010
1000
0001
,
0010
0000
0001
0000
1000
0010
1000
0001
,
0100
0000
0000
0100
0000
0000
0010
0000
1000
0000
0000
0000
0001
0000
0000
0000
,
1000
0000
0000
1000
0000
0000
0001
0000
0010
0000
0000
0000
0100
0000
0000
0000
,
0010
0001
0100
0100
,
0001
0010
0001
0000
1000
0001
0010
0100
,
1000
0000
0001
0100
0001
0100
0001
0000
,
1000
0000
0000
0100
0000
0010
0000
0010
0000
0001
0000
0000
1000
0000
0000
0000
,
0002
0013
2000
3010
,
0001
0020
1030
0020
,
0032
0103
2000
3100
,
0001
0200
1300
0200
,
0301
0000
0010
0000
0100
0000
1000
0000
0010
0000
0100
0000
,
0001
0000
1000
0000
0100
0000
0010
0000
0001
0000
1000
0000
,
2002
0000
0000
3003
,
0220
0000
0000
0330
,
1000
0000
0001
1000
0000
0010
0100
0000
,
0010
1000
0000
0001
0100
0010
1000
0000
,
0001
0000
0000
0100
0000
0000
0010
1001
;

//--------------- dance-single - Fred-104 ----------------
#NOTEDATA:;
#STEPSTYPE:dance-single;
#DESCRIPTION:Fred-104;
#DIFFICULTY:Hard;
#METER:13;
#CREDIT:Fred-104;
#NOTES:
0000
0000
0000
0000
,
0000
0000
0000
0000
,
0000
0000
0000
0000
,
0000
0000
0000
0000
,
0000
0000
0000
0000
,
0000
0000
0000
0000
0000
0000
0000
0000
0000
0000
0000
0000
0000
0000
1000
0010
,
1000
0010
0100
0010
1000
0001
1000
0100
,
1000
0000
0010
0000
0100
0000
0010
0000
1000
0000
0001
0000
0100
0001
1000
0001
,
0100
0000
0001
1000
0000
0100
0010
0000
,
0001
0000
0000
0000
1000
0000
0010
0000
0100
0000
0000
0000
0001
0000
1000
0100
,
1000
0010
0100
0010
1000
0010
0100
0001
,
1000
0000
0001
0000
0010
0000
0100
0000
1000
0000
1000
0000
0001
0010
0001
0010
,
0100
0000
0000
1000
0000
0000
0001
0000
0000
0100
0000
0000
0110
0000
0000
0000
,
0001
1000
0000
0001
0000
0001
1000
0000
0000
0000
0100
0000
0010
0000
0001
1000
,
0001
0100
0001
0010
0001
1000
0001
0100
,
0010
0000
1000
0000
0001
0000
0100
0000
0010
0000
1000
0000
0001
0010
0001
0010
,
0100
0000
0000
0100
0000
0000
1000
0000
0001
0000
0000
0001
0000
0000
0100
0000
,
0010
0000
0000
0100
0000
0000
0010
0000
1001
0000
0000
0000
1000
0000
0001
1000
,
0001
0010
0100
0010
0001
0100
0010
1000
,
0010
0000
0100
0000
0010
0000
1000
0000
0001
1000
0100
1000
0001
0000
1000
0000
,
0010
0000
0000
0100
0000
0000
0010
0000
0100
0010
0100
0010
0100
0000
0000
0000
,
0001
1000
0000
0010
0000
0010
0100
0000
0000
0000
0001
0000
0101
0000
0000
0000
,
0001
0000
0000
0010
0000
0000
0100
0000
0000
1000
0001
0100
0010
0100
0001
0000
,
1000
0000
0000
0010
0000
0000
0100
0000
0000
0001
0010
0100
1000
0001
0100
0000
,
0002
0023
2030
3200
,
0301
0000
0100
0000
0001
0000
1000
0000
0010
0000
1000
0000
0001
0000
0010
0000
0100
0000
1000
0000
0000
1001
0000
0000
,
0000
0000
0000
0000
,
0002
0000
0000
0000
0000
0000
0103
0010
,
2000
0000
0000
0000
0000
0000
0000
0000
0000
3001
0100
0010
,
2000
0000
0000
3200
0000
0000
0320
0000
,
0032
0000
0000
0000
1003
0000
0010
0100
0020
0000
0000
0000
1030
0000
0000
0000
,
0001
0000
0011
0000
1010
0000
1000
0000
1010
0000
0011
0000
,
0001
0000
0010
0000
0100
0000
1100
0000
0000
0101
0000
0000
,
2002
0000
0000
3003
,
0220
0000
0000
0330
,
1000
0000
0001
0010
0001
0000
0200
0000
0000
0000
0310
0000
1000
0010
0100
0010
,
1000
0000
0000
0010
0000
0000
0100
0000
0000
1000
0000
0000
0100
0000
0000
0010
0000
0000
1000
0000
0001
0000
0100
0000
,
0001
0100
0100
0010
0100
0100
0101
0000
,
0001
0000
1000
0100
0010
0000
0011
0000
,
0001
0000
0101
0000
1100
0000
1000
0000
1100
0000
0101
0000
,
0001
0000
0100
0000
0010
0000
1010
0000
0000
0011
0000
0000
,
1000
0000
0010
0000
0100
0000
0010
0000
1000
0000
0001
0000
0010
0000
0100
1000
,
0002
0000
2000
0000
,
3003
0000
0000
0000
0000
0000
0000
0000
0000
0000
0000
0000
0000
0000
0010
1000
,
0001
0010
0001
1000
0010
0100
0010
1000
,
0100
0000
0001
0000
0100
0000
1000
0000
0010
0000
0100
0000
0001
0010
0100
0010
,
0002
0100
0103
2000
0100
3100
1001
0000
,
0001
0000
0100
0000
0010
0000
0100
0000
0000
0000
0100
0000
0001
0000
1000
0010
,
1000
0100
0100
0010
0001
1000
1000
0010
,
0100
0000
0010
0000
1000
0000
0100
0000
0010
0000
0010
0000
0001
1000
0001
1000
,
0100
0000
0000
0010
0000
0000
0001
0000
0000
1000
0000
0000
1001
0000
0000
0000
,
0010
0100
0000
0010
0000
0010
1000
0000
0000
0000
0001
0000
0100
0000
0001
1000
,
0100
1000
0010
0100
0001
0010
1000
0010
,
0001
0000
0010
0000
0100
0000
1000
0000
0010
0000
0100
0000
0001
1000
0010
1000
,
0001
0000
0000
0010
0000
0000
0010
0000
0100
0000
0000
1000
0000
0000
1000
0000
,
0010
0000
0000
0100
0000
0000
0010
0000
1001
0000
0000
0000
0001
0000
0010
0001
,
1000
0010
0100
0010
1000
0010
0001
0010
,
1000
0000
0010
0000
0100
0000
0010
0000
1000
0100
1000
0100
0010
0001
0010
0000
,
0001
0000
0000
0000
0100
0000
0001
0000
1000
0100
1000
0100
0010
0000
0000
0000
,
0001
0100
0000
0100
0000
0010
0000
0010
0000
1000
0000
1000
0010
0000
0100
0000
,
0102
0013
2100
3010
,
0201
0310
1200
0310
,
2001
3100
1002
0103
,
2001
3010
1002
0013
,
1000
0000
1010
0000
0011
0000
0001
0000
0011
0000
1010
0000
,
1000
0000
1100
0000
0101
0000
0001
0000
0101
0000
1100
0000
,
2002
0000
0000
0000
3003
0000
0001
1000
0001
1000
0001
1000
0001
0000
0000
0000
,
0220
0000
0000
0000
0330
0000
0010
0100
0010
0100
0010
0100
0010
0000
0000
0000
,
1000
0000
0000
0000
0000
0000
0000
0000
0200
0300
0000
0000
0000
0000
0000
0000
0200
0300
0000
0000
0000
0000
0000
0000
0010
0000
0000
0000
0000
0000
0000
0000
0200
0300
0000
0000
0000
0000
0000
0000
0200
0300
0000
0000
0000
0000
0000
0000
0001
0000
0000
0000
0000
0000
0000
0000
0200
0300
0000
0000
0000
0000
0000
0000
,
0200
0300
0000
0000
0000
0000
0000
0000
0010
0000
0000
0000
0000
0000
0000
0000
0200
0300
0000
0000
0000
0000
0000
0000
0200
0300
0000
0000
0000
0000
0000
0000
1000
0000
0000
0000
0000
0000
0000
0000
0001
0000
0000
0000
0000
0000
0000
0000
1001
0000
0000
0000
0000
0000
0000
0000
0000
0000
0000
0000
0000
0000
0000
0000
,
1000
0000
0000
0000
0000
0000
0000
0000
0020
0030
0000
0000
0000
0000
0000
0000
0020
0030
0000
0000
0000
0000
0000
0000
0001
0000
0000
0000
0000
0000
0000
0000
0020
0030
0000
0000
0000
0000
0000
0000
0020
0030
0000
0000
0000
0000
0000
0000
1000
0000
0000
0000
0000
0000
0000
0000
1001
0000
0000
0000
0000
0000
0000
0000
;

//--------------- dance-single - Fred-104 ----------------
#NOTEDATA:;
#STEPSTYPE:dance-single;
#DESCRIPTION:Fred-104;
#DIFFICULTY:Challenge;
#METER:16;
#CREDIT:Fred-104;
#NOTES:
0000
0000
0000
0000
,
0000
0000
0000
0000
,
0000
0000
0000
0000
,
0000
0000
0000
0000
,
0000
0000
0000
0000
,
0000
0000
0000
0000
0000
0000
0000
0000
0000
0000
0000
0000
0000
0000
1000
0010
,
0100
0000
0001
0010
0001
0000
0100
0000
0010
1000
0010
0000
1000
0100
1000
0010
,
1000
0000
0001
1000
0001
0000
0100
0000
0010
0100
0010
0000
1000
0010
0100
0001
,
1000
0000
0001
0010
0100
0000
1000
0000
0001
0100
0010
0000
1000
0100
0010
0000
,
0001
0000
1000
0010
0100
0000
0001
0000
1000
0001
1000
0000
0001
1000
0100
1000
,
0001
0000
1000
0010
0100
0000
0001
0000
1000
0010
0100
0000
0001
0100
0001
0010
,
0001
0000
0100
0010
1000
0000
0100
0000
0010
0100
1000
0000
0001
0100
0010
1000
,
0001
0000
0000
0101
0000
0000
0110
0000
0000
1010
0000
0000
1001
0000
0000
0000
,
1000
0100
0000
0010
0000
0001
0100
0000
0000
0010
0100
0010
1000
0000
0001
0100
,
0001
0000
1000
0100
0010
0000
0001
0000
1000
0010
1000
0000
0001
0010
0100
1000
,
0001
0000
0100
0010
1000
0000
0001
0000
0010
0100
0010
0000
0001
0100
0010
1000
,
0001
0000
1000
0100
0000
1000
0100
0000
0010
0000
0001
0100
0000
0010
1000
0000
,
0001
0000
1000
0100
0000
0010
0001
0000
1001
0000
0000
0000
0001
1000
0001
1000
,
0001
0000
0100
0010
1000
0000
0010
0000
0100
0001
1000
0000
0001
0010
0100
0010
,
0001
0000
1000
0010
0100
0000
0001
0000
1000
0100
1000
0100
0010
0001
0010
0001
,
1000
0000
0000
0010
0000
0000
1000
0010
0100
0010
0100
0001
1000
0000
0000
0000
,
0001
0010
0000
0100
0000
0010
0001
0000
0000
0000
1000
0000
1001
0000
0000
0000
,
0011
0000
0000
1001
0000
0000
1010
0000
0000
0010
1000
0001
0010
0100
0010
0001
,
1000
0000
0000
1100
0000
0000
1001
0000
0000
0001
0010
0001
1000
0010
0100
0001
,
2000
3200
0302
0023
,
1030
0000
0100
0000
0010
0000
1000
0000
0010
0000
0001
0000
1000
0000
0010
0000
0001
0000
0010
0000
0000
0110
0000
0000
,
0000
0000
0100
0000
0001
0000
1000
0100
0000
0001
0000
0100
0010
0001
0000
1000
,
0002
0000
0000
0000
0000
0000
0000
0000
0000
0000
0000
0000
1003
0000
0010
0100
,
0002
0000
0000
0000
0000
0000
0000
0000
0000
1003
0100
0010
,
0200
0000
0000
2300
0000
0000
3002
0000
,
2003
0000
0000
0000
3001
0000
0100
0010
0200
0000
0000
0000
0301
0000
0000
0000
,
1010
0000
0011
0000
1100
0000
0101
0000
1100
0000
0101
0000
,
1010
0000
0110
0000
1001
0000
0002
0000
0000
2003
0000
0000
,
3200
0000
0000
0000
,
0020
0000
0000
0330
,
0001
0000
0100
0010
0100
0000
0002
0000
0000
0000
1003
0000
0001
0010
0100
0010
,
0001
0000
0000
0000
0000
0000
1000
0000
0000
0010
0000
0000
0100
0000
0000
0000
0000
0000
0002
0000
0000
0000
0000
0000
0000
0000
0000
0000
0000
0000
1003
0000
0000
0000
0000
0000
0001
0000
0000
0000
0100
0000
0000
0000
0100
0000
0000
0000
,
1000
0000
0100
0010
0100
0000
2000
0000
0000
0000
3001
0100
0010
0000
1000
0000
,
0001
0100
1000
0100
0010
0000
0110
0000
,
1100
0000
0101
0000
1010
0000
0011
0000
1010
0000
0101
0000
,
1100
0000
0110
0000
1001
0000
0002
0000
0000
2003
0000
0000
,
3001
0000
1000
0000
0010
0000
0100
0000
0001
0000
0010
0000
0001
0100
0010
1000
,
0002
0000
2000
3003
,
1001
0000
0001
0000
1000
0100
0000
0010
0001
0000
1000
0010
0000
0100
0001
0010
,
0100
0000
1000
0010
1000
0000
0100
0000
0010
0001
0010
0000
0001
0100
0001
0010
,
0001
0000
1000
0001
1000
0000
0100
0000
0010
0100
0010
0000
0001
0010
0100
1000
,
0001
0000
1000
0010
0100
0000
0001
0000
1000
0100
0010
0000
0001
0100
0010
0000
,
1000
0000
0001
0010
0100
0000
1000
0000
0001
1000
0001
0000
1000
0001
0100
0001
,
1000
0000
0001
0010
0100
0000
1000
0000
0001
0010
0100
0000
1000
0100
1000
0010
,
1000
0000
0100
0010
0001
0000
0100
0000
0010
0100
0001
0000
1000
0100
0010
0001
,
1000
0000
0000
1100
0000
0000
0110
0000
0000
0011
0000
0000
1001
0000
0000
0000
,
0001
0100
0000
0010
0000
1000
0100
0000
0000
0010
0100
0010
0001
0000
1000
0100
,
1000
0000
0001
0100
0010
0000
1000
0000
0001
0010
0001
0000
1000
0010
0100
0001
,
1000
0000
0100
0010
0001
0000
1000
0000
0010
0100
0010
0000
1000
0100
0010
0001
,
1000
0000
0001
0100
0000
0001
0100
0000
0010
0000
1000
0100
0000
0010
0001
0000
,
1000
0000
0001
0100
0000
0010
1000
0000
1001
0000
0000
0000
1000
0001
1000
0001
,
1000
0000
0100
0010
0001
0000
0010
0000
0100
1000
0001
0000
1000
0010
0100
0010
,
1000
0000
0001
0010
0100
0000
1000
0000
0001
0100
0001
0100
0010
1000
0010
1000
,
0001
0000
0000
0010
0000
0000
0001
0010
0100
0010
0100
1000
0001
0000
0000
0000
,
0001
0100
0000
0010
0000
1000
0000
1100
0000
0100
0000
0010
0001
0000
1000
0000
,
1100
0000
0000
0100
0010
0000
0000
0000
0101
0000
0000
0100
0010
0000
0000
0000
,
1100
0000
0000
0100
0010
0000
0000
0000
0101
0000
0000
0100
0010
0000
0000
0000
,
1010
0000
0000
0100
0001
0000
0010
0000
0011
0000
0000
0100
1000
0000
0010
0000
,
1010
0000
0000
0100
0001
0000
0010
0000
0011
0000
0000
0100
1000
0000
0010
0000
,
1010
0000
0011
0000
1010
0000
1100
0000
0101
0000
1100
0000
,
0011
0000
1010
0000
0011
0000
0101
0000
1100
0000
0101
0000
,
2002
0000
0000
0000
3003
0000
0001
1000
0001
0010
0100
1000
0001
0100
0000
0000
,
0220
0000
0000
0000
0330
0000
1000
0010
0100
0001
0010
0100
1000
0001
0000
0000
,
0002
0000
0013
0100
0010
0000
2000
0000
3010
0100
0010
0000
0002
0000
0103
0010
,
0100
0000
2000
0000
3100
0010
0100
0000
0001
0000
1000
0000
1001
0000
0000
0000
,
2000
0000
3100
0001
0100
0000
2000
0000
3010
0001
0010
0000
1000
0000
1001
0000
;

//--------------- dance-double - Fred-104 ----------------
#NOTEDATA:;
#STEPSTYPE:dance-double;
#DESCRIPTION:Fred-104;
#DIFFICULTY:Easy;
#METER:6;
#CREDIT:Fred-104;
#NOTES:
00000000
00000000
00000000
00000000
,
00000000
00000000
00000000
00000000
,
00000000
00000000
00000000
00000000
,
00000000
00000000
00000000
00000000
,
00000000
00000000
00000000
00000000
,
00000000
00000000
00000000
00000000
,
00000001
00001000
00000001
00001000
,
00000100
00010000
00000100
00010000
,
00002000
00000000
00000000
02003000
00000000
00000000
03002000
00000000
,
00023000
00000000
00000000
00032000
00000000
00000000
00003010
00000000
,
00000100
00001000
00000010
00000100
,
00000001
00000010
00000100
00010000
,
00001000
00010000
01000000
00100000
,
20020000
00000000
00000000
30030000
,
10000000
00100000
10000000
01000000
,
10000000
00100000
01000000
00001000
,
00010000
00000000
00000000
00000010
00000000
00000000
00001000
00000000
,
00000001
00000000
00000000
00000010
00000000
00000000
00000100
00000000
,
00001000
00000001
00000010
00000100
,
00000010
00000100
00010000
00001000
,
01000000
00100000
01000000
10010000
,
00020000
00000000
20030000
00000000
,
32000000
00000000
03020000
00000000
,
00032000
00000000
00003020
00000000
,
00000130
00001000
00000001
00000100
,
00000010
00001000
00000100
00010100
,
00000000
00000000
00000000
00000000
,
00002000
00000000
00000000
00000000
,
00023000
00000000
00000000
00000000
,
00032000
00000000
00000000
00203000
00000000
00000000
00302000
00000000
,
00023000
00000000
00032000
00003000
,
00000100
00000000
00000001
00000000
,
00001000
00000000
00000001
00000010
,
00002000
00000000
00000000
00000000
,
00020000
00000000
00000000
00033000
,
00001000
00000000
00000000
01000000
00000000
00000000
00001000
00000000
,
00010000
00000000
00000000
00001000
00000000
00000000
00100000
00000000
,
00001000
00000000
00000000
00010000
00000000
00000000
00000010
00000000
,
00001000
00000001
00000100
00000010
,
00000100
00000000
00000001
00000000
,
00001000
00000000
00000100
00010000
,
00001000
00000000
00010000
00000000
,
00022000
00000000
00033000
00000000
,
00000000
00000000
00000000
00000000
,
10000000
01000000
00100000
00001000
,
00010000
00000010
00001000
00000001
,
00000020
00000000
00000000
00000230
00000000
00000000
00002300
00000000
,
00023000
00000000
00000000
00230000
00000000
00000000
01300000
00000000
,
10000000
00010000
01000000
00100000
,
10000000
00100000
00010000
00001000
,
00010000
00000100
00000010
00000001
,
00002002
00000000
00000000
00003003
,
00000001
00000010
00000001
00001000
,
00000010
00000010
00000100
00000001
,
00000100
00000000
00000000
00000010
00000000
00000000
00010000
00000000
,
00001000
00000000
00000000
01000000
00000000
00000000
00001000
00000000
,
00010000
00001000
00100000
01000000
,
00010000
00001000
00100000
00001000
,
00010000
00000010
00001000
00000110
,
00000002
00000000
00000000
00000003
,
00000001
00000001
00000010
00000010
,
00001000
00001000
00010000
00010000
,
01000000
01000000
00100000
00100000
,
00010000
00010000
10000000
10000000
,
02000000
00000000
03200000
00000000
,
00302000
00000000
00023000
00030000
,
00022000
00000000
00000000
00033000
,
00000220
00000000
00000000
00000330
,
00000001
00000000
00000000
00000010
00000000
00000000
00001000
00000000
,
00000000
00010000
00000000
00000000
01000000
00000000
00100000
00000000
,
00010000
00000000
00000000
10000000
00000000
00000000
01000000
01000000
;

//--------------- dance-double - Fred-104 ----------------
#NOTEDATA:;
#STEPSTYPE:dance-double;
#DESCRIPTION:Fred-104;
#DIFFICULTY:Medium;
#METER:10;
#CREDIT:Fred-104;
#NOTES:
00000000
00000000
00000000
00000000
,
00000000
00000000
00000000
00000000
,
00000000
00000000
00000000
00000000
,
00000000
00000000
00000000
00000000
,
00000000
00000000
00000000
00000000
,
00000000
00000000
00000000
00000000
,
00001000
00010000
00001000
01000000
00010000
00100000
00010000
00000000
,
10000000
01000000
00100000
01000000
10000000
00010000
10000000
00000000
,
01000000
00000000
00000000
00010000
00000000
00000000
00001000
00000000
,
00000010
00000000
00000000
00000100
00000000
00000000
00001000
00000001
,
00000010
00000001
00001000
00000001
00000100
00000010
00000100
00000000
,
00000001
00000100
00000010
00000100
00001000
00010000
00100000
00000000
,
01000000
00000000
00000000
00010000
00000000
00000000
10000000
00000000
00000000
00010000
00000000
00000000
10010000
00000000
00000000
00000000
,
10000000
00000000
00000000
00100000
00000000
00000000
00010000
00000000
00000000
00000000
00001000
00000000
00011000
00000000
00000000
00000000
,
00010000
00001000
00000010
00000100
00001000
00000001
00001000
00000000
,
00000010
00000100
00000001
00001000
00000100
00000010
00000100
00000000
,
00001000
00000000
00000000
00000001
00000000
00000000
00000010
00000000
00000100
00000000
00000000
00010000
00000000
00000000
00001000
00000000
,
01000000
00000000
00000000
00010000
00000000
00000000
00100000
00000000
01000000
00000000
00000000
00000000
10000000
00000000
00000000
00000000
,
00010000
00100000
01000000
00100000
00010000
10000000
00100000
00000000
,
01000000
00001000
00010000
00001000
00000100
00000010
00001000
00000000
,
00000001
00000000
00000010
00000100
00000010
00000001
00001000
00000000
,
00000001
00000000
00000000
00000100
00000000
00000000
00000010
00000000
00000000
00000000
00001000
00000000
00001100
00000000
00000000
00000000
,
00000100
00000000
00000000
00010000
00000000
00000000
00001000
00000000
00000000
00000000
01000000
00000000
01010000
00000000
00000000
00000000
,
00010000
00000000
00000000
10000000
00000000
00000000
00100000
00000000
00000000
00000000
01000000
00000000
00100000
00000000
10000000
00000000
,
02000000
03020000
00032000
00003020
,
00000031
00000000
00000100
00000000
00001000
00000000
00010000
00011000
,
00000000
00000000
00000000
00000000
,
02000000
00000000
00000000
00000000
00000000
00000000
03100000
10000000
,
00020000
00000000
00000000
01030000
,
00002000
00000000
00000000
00023000
00000000
00000000
00030020
00000000
,
00002030
00000000
00000000
00000001
00000002
00000000
00003003
00000000
,
00000001
00000000
00000010
00000000
00001000
00000000
00010000
00000000
01000000
00000000
10000000
00000000
,
00010000
00000000
10000000
00000000
00100000
00000000
01000000
00000000
00000000
00010000
00000000
00000000
,
20000000
00000000
00000000
00000000
,
00020000
00000000
00000000
30030000
,
10000000
00000000
01000000
00100000
00000000
00001000
00010000
00000100
,
00010000
00000000
00000010
00001000
00000000
00000001
00000010
00000100
,
00000010
00000000
00000001
00000100
00000000
00001000
00010000
00000000
,
00001000
00000000
00010000
01000000
00100000
00000000
10010000
00000000
,
00010000
00000000
10000000
00000000
01000000
00000000
00010000
00000000
00001000
00000000
00000010
00000000
,
00000001
00000000
00001000
00000000
00000010
00000000
00000100
00000000
00000000
00000001
00000000
00000000
,
00001000
00000100
00000010
00000000
00000001
00000100
00000010
00000000
,
00000220
00000000
00000000
00000000
,
00000330
00000000
00000000
00000000
,
00010000
00001000
00000100
00000010
00001000
00000001
00001000
00000000
,
00000001
00000010
00000100
00000010
00000001
00001000
00000001
00000000
,
00000100
00000000
00000000
00001000
00000000
00000000
00010000
00000000
,
00100000
00000000
00000000
01000000
00000000
00000000
00010000
10000000
,
01000000
10000000
00010000
10000000
01000000
00100000
01000000
00000000
,
00100000
00001000
00010000
00001000
00000010
00000100
00001000
00000000
,
00000001
00000000
00000000
00000100
00000000
00000000
00000010
00000000
00000000
00001000
00000000
00000000
00001001
00000000
00000000
00000000
,
00000001
00000000
00000000
00000010
00000000
00000000
00001000
00000000
00000000
00000000
00010000
00000000
00011000
00000000
00000000
00000000
,
00001000
00010000
00100000
01000000
00001000
00010000
01000000
00000000
,
10000000
00010000
00100000
01000000
00100000
00010000
01000000
00000000
,
00100000
00000000
00000000
10000000
00000000
00000000
01000000
00000000
00100000
00000000
00000000
00001000
00000000
00000000
00010000
00000000
,
00000010
00000000
00000000
00001000
00000000
00000000
00000001
00000000
00000010
00000000
00000000
00000000
00000100
00000000
00000000
00000000
,
00001000
00000010
00000100
00000010
00001000
00000001
00000010
00000000
,
00001000
00010000
00001000
01000000
00100000
10000000
00010000
00000000
,
10000000
00000000
01000000
00100000
00010000
10000000
00100000
00000000
,
01000000
00000000
00000000
00010000
00000000
00100000
00000000
00001000
00000000
00010000
00000000
00000000
00010000
00000000
00000100
00000000
,
00001000
00000001
00001000
00000010
,
00010000
00001000
01000000
00100000
,
10010000
10000000
10100000
00100000
,
00101000
00001000
00011000
00000010
,
00001000
00000000
00000010
00000000
00000010
00000000
00000001
00000000
00000100
00000000
00000100
00000000
,
00010000
00000000
00001000
00000000
00001000
00000000
00000010
00000000
00010000
00000000
00001000
00000000
,
00022000
00000000
00000000
00033000
,
02200000
00000000
00000000
03300000
,
10000000
00000000
00000000
01000000
00000000
00000000
00010000
00000000
,
00000000
00001000
00000000
00000000
00000010
00000001
00001000
00000000
,
00000001
00000000
00000000
00001000
00000000
00000010
00010000
00001000
;

//--------------- dance-double - Fred-104 ----------------
#NOTEDATA:;
#STEPSTYPE:dance-double;
#DESCRIPTION:Fred-104;
#DIFFICULTY:Hard;
#METER:14;
#CREDIT:Fred-104;
#NOTES:
00000000
00000000
00000000
00000000
,
00000000
00000000
00000000
00000000
,
00000000
00000000
00000000
00000000
,
00000000
00000000
00000000
00000000
,
00000000
00000000
00000000
00000000
,
00000000
00000000
00000000
00000000
00000000
00000000
00000000
00000000
00000000
00000000
00000000
00000000
00000000
00000000
00000100
00000010
,
00000100
00000010
00001000
00010000
01000000
00100000
00001000
00000010
,
00000100
00000000
00010000
00000000
00001000
00000000
01000000
00000000
00010000
00000000
00000100
00000000
00000010
00000100
00000010
00000100
,
00000010
00000100
00001000
00100000
01000000
00010000
00001000
00000100
,
00000010
00000000
00001000
00000000
00000100
00000000
00010000
00000000
01000000
00000000
00100000
00000000
00010000
00000000
00100000
01000000
,
10000000
00100000
00010000
00001000
00010000
00100000
00010000
00001000
,
00000010
00000000
00000001
00000000
00000010
00000000
00001000
00000000
00000010
00000000
00000001
00000000
00000100
00000010
00000100
00000010
,
00000100
00000000
00000000
00000110
00000000
00000000
00001100
00000000
00000000
00011000
00000000
00000000
00101000
00000000
00000000
00000000
,
00001000
00010000
00000000
01000000
00000000
00100000
00010000
00000000
00000000
00000000
10000000
00000000
00100000
00000000
10000000
01000000
,
10000000
01000000
00010000
00001000
00010000
01000000
00010000
00001000
,
00000100
00000000
00001000
00000000
00010000
00000000
00001000
00000000
00000100
00000000
00000001
00000000
00001000
00000100
00000010
00000001
,
00001000
00000000
00000000
00000001
00000000
00000000
00000010
00000000
00001000
00000000
00000000
00010000
00000000
00000000
01000000
00000000
,
10000000
00000000
00000000
00010000
00000000
00000000
01000000
00000000
01100000
00000000
00000000
00000000
10000000
00000000
01000000
00100000
,
01000000
10000000
00100000
00010000
00001000
00010000
00100000
00010000
,
00001000
00000000
00000010
00000000
00000001
00000000
00001000
00000000
00000100
00000010
00000001
00001000
00000010
00000100
00000001
00000000
,
00001000
00000000
00000000
00000001
00000000
00000000
00000100
00000000
00000010
00001000
00000100
00010000
00000100
00000000
00000000
00000000
,
00010000
00001000
00000000
01000000
00000000
01000000
00010000
00000000
00000000
00000000
01000000
00000000
01100000
00000000
00000000
00000000
,
10100000
00000000
00000000
01010000
00000000
00000000
10100000
00000000
00000000
00010000
00000000
00000000
01000000
00000000
00000000
00000000
,
00011000
00000000
00000000
00001100
00000000
00000000
00011000
00000000
00000000
00000010
00000000
00000000
00000100
00000000
00000000
00000000
,
00000002
00002003
00023000
00230000
,
01300000
00000000
00100000
00000000
00010000
00000000
01000000
00000000
00100000
00000000
00010000
00000000
00100000
00000000
01000000
00000000
00010000
00000000
10000000
00000000
00000000
10010000
00000000
00000000
,
00000000
00000000
00000000
00000000
,
00002000
00000000
00000000
00000000
00000000
00000000
00013000
00001000
,
00000020
00000000
00000000
00000000
00000000
00000000
00000000
00000000
00000000
00000031
00001000
00000100
,
00000020
00000000
00000000
00000032
00000000
00000000
00000203
00000000
,
00002300
00000000
00000000
00000000
00000000
00000000
00013000
00002000
00020000
00000000
00000000
00000000
00033000
00000000
00000000
00000000
,
00010000
00000000
10000000
00000000
01000000
00000000
00010000
00000000
00001000
00000000
00000010
00000000
,
00000001
00000000
00000100
00000000
00001000
00000000
00010000
00000000
00000000
00001000
00000000
00000000
,
00022000
00000000
00000000
00033000
,
02002000
00000000
00000000
03003000
,
00010000
00000000
00001000
00000000
00000010
00000000
00000100
00000000
00001000
00000000
00000001
00000000
00000100
00000010
00000100
00000010
,
00000100
00000000
00000000
00000001
00000000
00000000
00000100
00000000
00000000
00000010
00000000
00000000
00000100
00000000
00000000
00000001
00000000
00000000
00001000
00000000
00000100
00000000
00000010
00000000
,
00000001
00000100
00001000
00010000
00100000
01000000
00010000
00000000
,
10010000
00000000
10000000
01000000
00010000
00000000
00001000
00000000
,
00010000
00000000
00001000
00000000
00000010
00000000
00000001
00000000
00000100
00000000
00001000
00000000
,
00010000
00000000
01000000
00000000
10000000
00000000
00100000
00000000
00000000
00010000
00000000
00000000
,
00001000
00000000
00010000
00000000
00100000
00000000
10000000
00000000
00010000
00000000
00100000
00000000
01000000
00000000
00100000
00010000
,
20000000
00000000
00020000
00000000
,
30030000
00000000
00000000
00000000
00000000
00000000
00000000
00000000
00000000
00000000
00000000
00000000
00000000
00000000
01000000
00100000
,
01000000
00100000
00010000
00001000
00000100
00000010
00010000
00100000
,
01000000
00000000
00001000
00000000
00010000
00000000
00000100
00000000
00001000
00000000
01000000
00000000
00100000
01000000
00100000
01000000
,
00100000
01000000
00010000
00000010
00000100
00001000
00010000
01000000
,
00100000
00000000
00010000
00000000
01000000
00000000
00001000
00000000
00000100
00000000
00000010
00000000
00001000
00000000
00000001
00001000
,
00000001
00000010
00001000
00010000
00001000
00000010
00001000
00010000
,
00100000
00000000
10000000
00000000
00100000
00000000
00010000
00000000
00100000
00000000
10000000
00000000
00010000
00100000
01000000
00100000
,
00010000
00000000
00000000
01100000
00000000
00000000
01010000
00000000
00000000
00011000
00000000
00000000
00010010
00000000
00000000
00000000
,
00000100
00000010
00000000
00001000
00000000
00000001
00000010
00000000
00000000
00000000
00000100
00000000
00001000
00000000
00000001
00000100
,
00000001
00000100
00001000
00000100
00000001
00000100
00001000
00010000
,
00001000
00000000
00010000
00000000
01000000
00000000
10000000
00000000
00010000
00000000
00100000
00000000
01000000
00100000
01000000
10000000
,
00010000
00000000
00000000
10000000
00000000
00000000
00100000
00000000
00010000
00000000
00000000
00001000
00000000
00000000
00000100
00000000
,
00000010
00000000
00000000
00001000
00000000
00000000
00000100
00000000
00000110
00000000
00000000
00000000
00000001
00000000
00000100
00000010
,
00000100
00000001
00000010
00001000
00010000
00001000
00010000
00100000
,
01000000
00000000
00010000
00000000
10000000
00000000
00010000
00000000
01000000
00100000
01000000
00100000
01000000
00100000
01000000
00000000
,
00010000
00000000
00000000
10000000
00000000
00000000
00100000
00000000
01000000
00100000
10000000
00100000
01000000
00000000
00000000
00000000
,
00010000
10000000
00000000
01000000
00000000
00100000
00000000
00100000
00000000
00001000
00000000
00010000
00000010
00000000
00000100
00000000
,
00000021
00000130
00001020
00000130
,
00021000
00130000
00012000
00003010
,
00102000
00013000
00020010
00031000
,
00010200
00010300
02001000
03001000
,
00010000
00000000
00011000
00000000
00010010
00000000
00001000
00000000
00011000
00000000
01001000
00000000
,
00010000
00000000
00011000
00000000
00010100
00000000
00001000
00000000
00011000
00000000
00101000
00000000
,
00022000
00000000
00000000
00000000
00033000
00000000
00001000
00010000
00001000
01000000
00001000
00010000
00001000
00000000
00000000
00000000
,
00022000
00000000
00000000
00000000
00033000
00000000
00010000
00001000
00010000
00000010
00010000
00001000
00010000
00000000
00000000
00000000
,
00001000
00000000
00000000
00000000
00000000
00000000
00000000
00000000
00020000
00030000
00000000
00000000
00000000
00000000
00000000
00000000
00020000
00030000
00000000
00000000
00000000
00000000
00000000
00000000
00100000
00000000
00000000
00000000
00000000
00000000
00000000
00000000
00020000
00030000
00000000
00000000
00000000
00000000
00000000
00000000
00020000
00030000
00000000
00000000
00000000
00000000
00000000
00000000
00001000
00000000
00000000
00000000
00000000
00000000
00000000
00000000
00020000
00030000
00000000
00000000
00000000
00000000
00000000
00000000
,
00020000
00030000
00000000
00000000
00000000
00000000
00000000
00000000
01000000
00000000
00000000
00000000
00000000
00000000
00000000
00000000
00020000
00030000
00000000
00000000
00000000
00000000
00000000
00000000
00020000
00030000
00000000
00000000
00000000
00000000
00000000
00000000
00001000
00000000
00000000
00000000
00000000
00000000
00000000
00000000
00010000
00000000
00000000
00000000
00000000
00000000
00000000
00000000
00011000
00000000
00000000
00000000
00000000
00000000
00000000
00000000
00000000
00000000
00000000
00000000
00000000
00000000
00000000
00000000
,
00000100
00000000
00000000
00000000
00000000
00000000
00000000
00000000
00000020
00000030
00000000
00000000
00000000
00000000
00000000
00000000
00000020
00000030
00000000
00000000
00000000
00000000
00000000
00000000
00001000
00000000
00000000
00000000
00000000
00000000
00000000
00000000
00000200
00000300
00000000
00000000
00000000
00000000
00000000
00000000
00000200
00000300
00000000
00000000
00000000
00000000
00000000
00000000
00000001
00000000
00000000
00000000
00000000
00000000
00000000
00000000
00001001
00000000
00000000
00000000
00000000
00000000
00000000
00000000
;

//--------------- dance-double - Fred-104 ----------------
#NOTEDATA:;
#STEPSTYPE:dance-double;
#DESCRIPTION:Fred-104;
#DIFFICULTY:Challenge;
#METER:16;
#CREDIT:Fred-104;
#NOTES:
00000000
00000000
00000000
00000000
,
00000000
00000000
00000000
00000000
,
00000000
00000000
00000000
00000000
,
00000000
00000000
00000000
00000000
,
00000000
00000000
00000000
00000000
,
00000000
00000000
00000000
00000000
00000000
00000000
00000000
00000000
00000000
00000000
00000000
00000000
00000000
00000000
00001000
00010000
,
00001000
00000000
00100000
00010000
10000000
00000000
01000000
00000000
10000000
00100000
01000000
00000000
00010000
00100000
00001000
00010000
,
00001000
00000000
00010000
00000010
00010000
00000000
00001000
00000000
00000100
00000010
00001000
00000000
00000001
00000010
00000100
00001000
,
00000010
00000000
00000100
00000001
00000100
00000000
00000010
00000000
00010000
00001000
00010000
00000000
01000000
00000000
00100000
00000000
,
00010000
00000000
10000000
00010000
10000000
00000000
00100000
00000000
02100000
00000000
00000000
00000000
03010000
10000000
01000000
10000000
,
00010000
00000000
01000000
00100000
10000000
00000000
00100000
00000000
01000000
00001000
00010000
00000000
00001000
00000100
00000010
00001000
,
00000001
00000000
00001000
00000001
00000010
00000000
00000001
00000000
00000100
00000010
00001000
00000000
00000001
00000010
00000100
00000010
,
00000001
00000000
00000000
00000101
00000000
00000000
00001100
00000000
00000000
00011000
00000000
00000000
01010000
00000000
00000000
00000000
,
10000000
00100000
00000000
01000000
00000000
00100000
10000000
00000000
00000000
00010000
10000000
01000000
00100000
00000000
00001000
00010000
,
00001000
00000000
00000010
00000100
00001000
00000000
00000001
00000000
00000010
00000100
00000010
00000000
00000001
00001000
00000010
00000100
,
00000001
00000000
00000100
00001000
00000100
00000000
00000001
00000000
00000010
00000001
00000100
00000000
00000010
00001000
00000100
00010000
,
00001000
00000000
00100000
00010000
00000000
10000000
00010000
00000000
01000000
00000000
00100000
10000000
00000000
01000000
00100000
00000000
,
00001000
00000000
00010000
00000010
00000000
00001000
00000001
00000000
00001001
00000000
00000000
00000000
00000001
00000100
00000010
00000100
,
00000001
00000000
00000010
00000100
00000010
00000000
00000001
00000000
00000100
00000010
00000100
00000000
00000001
00000010
00000100
00010000
,
00001000
00000000
00100000
00010000
10000000
00000000
00010000
00000000
01000000
00100000
01000000
00010000
00100000
01000000
10000000
00010000
,
10000000
00000000
00000000
00100000
00000000
00000000
00010000
00000000
00001000
00010000
00000010
00010000
00001000
00000000
00000000
00000000
,
00000010
00000010
00000000
00000100
00000000
00000001
00001000
00000000
00000000
00000000
00000010
00000000
00000110
00000000
00000000
00000000
,
00001010
00000000
00000000
00011000
00000000
00000000
00110000
00000000
00000000
00010000
01000000
00100000
10000000
00010000
00100000
01000000
,
10000000
00000000
00000000
10100000
00000000
00000000
00110000
00000000
00000000
00001000
00010000
00000010
00001000
00000001
00001000
00000010
,
00000200
00000320
00020030
00032000
,
00013000
00000000
00001000
00000000
00000010
00000000
00000001
00000000
00000100
00000000
00001000
00000000
00010000
00000000
00100000
00000000
10000000
00000000
00010000
00000000
00000000
10010000
00000000
00000000
,
00000000
00000000
10000000
00000000
01000000
00000000
00100000
00001000
00000000
00010000
00000000
00100000
10000000
00010000
00000000
01000000
,
00200000
00000000
00000000
00000000
00000000
00000000
00000000
00000000
00000000
00000000
00000000
00000000
10300000
00000000
01000000
00010000
,
00002000
00000000
00000000
00000000
00000000
00000000
00000000
00000000
00000000
00003010
00000001
00001000
,
00000200
00000000
00000000
00000320
00000000
00000000
00000032
00000000
,
00000203
00000000
00000000
00000000
00001300
00000000
00010000
00001000
02000000
00000000
00000000
00000000
03100000
00000000
00000000
00000000
,
10100000
00000000
11000000
00000000
01010000
00000000
00011000
00000000
00001100
00000000
00000101
00000000
,
00000011
00000000
00000101
00000000
00001001
00000000
00000020
00000000
00000000
00020030
00000000
00000000
,
00002000
00000000
00000000
00033000
,
20020000
00000000
00000000
30030000
,
00010000
00000000
10000000
00010000
10000000
00000000
02000000
00000000
00000000
00000000
03010000
00000000
00001000
00010000
00000100
00010000
,
00001000
00000000
00000000
00000000
00000000
00000000
00000100
00000000
00000000
00000010
00000000
00000000
00000100
00000000
00000000
00000000
00000000
00000000
00000002
00000000
00000000
00000000
00000000
00000000
00000000
00000000
00000000
00000000
00000000
00000000
00001003
00000000
00000000
00000000
00000000
00000000
00000100
00000000
00000000
00000000
00000010
00000000
00000000
00000000
00000001
00000000
00000000
00000000
,
00001000
00000000
00000010
00010000
00001000
00000000
00020000
00000000
00000000
00000000
00130000
01000000
00010000
00000000
10000000
00000000
,
01000000
00010000
00001000
00000010
00000100
00000000
00001001
00000000
,
00001010
00000000
00000011
00000000
00001010
00000000
00011000
00000000
01010000
00000000
11000000
00000000
,
10100000
00000000
01010000
00000000
01100000
00000000
10010000
00000000
00000000
01100000
00000000
00000000
,
00010000
00000000
01000000
00000000
00100000
00000000
00010000
00000000
00001000
00000000
00010000
00000000
00100000
01000000
00010000
10000000
,
02000000
00000000
00200000
03300000
,
10010000
00000000
10000000
00000000
00010000
00100000
00000000
00001000
00010000
00000000
00000010
00000100
00000000
00000001
00001000
00000001
,
00000010
00000000
00000100
00001000
00000001
00000000
00000100
00000000
00000001
00000010
00000100
00000000
00001000
00000010
00010000
00001000
,
00010000
00000000
00001000
00100000
00001000
00000000
01000000
00000000
00010000
00100000
00010000
00000000
10000000
00100000
01000000
00010000
,
10000000
00000000
01000000
00100000
01000000
00000000
00010000
00000000
00001000
00000010
00000100
00000000
00001000
00000000
00000001
00000000
,
00000100
00000000
00000001
00001000
00000001
00000000
00000010
00000000
00000210
00000000
00000000
00000000
00001300
00000001
00000100
00000001
,
00001000
00000000
00000100
00000010
00000001
00000000
00000010
00000000
00000100
00010000
00001000
00000000
01000000
00010000
00100000
01000000
,
00100000
00000000
00010000
10000000
00100000
00000000
10000000
00000000
01000000
00100000
00010000
00000000
10000000
00100000
01000000
00100000
,
10000000
00000000
00000000
11000000
00000000
00000000
01010000
00000000
00000000
00011000
00000000
00000000
00001100
00000000
00000000
00000000
,
00000001
00000100
00000000
00000010
00000000
00000100
00000001
00000000
00000000
00001000
00000001
00000010
00000100
00000000
00010000
00001000
,
00010000
00000000
00100000
01000000
00010000
00000000
00100000
00000000
01000000
10000000
00010000
00000000
01000000
00100000
10000000
00100000
,
01000000
00000000
00010000
00100000
01000000
00000000
00100000
00000000
00010000
10000000
01000000
00000000
00100000
00010000
01000000
00001000
,
00010000
00000000
00001000
00010000
00000000
00000010
00001000
00000000
00000001
00000000
00000010
00000100
00000000
00000010
00000001
00000000
,
00001000
00000000
00000010
00010000
00000000
00001000
00100000
00000000
00110000
00000000
00000000
00000000
10000000
00100000
01000000
00100000
,
10000000
00000000
01000000
00100000
01000000
00000000
10000000
00000000
00010000
01000000
00010000
00000000
10000000
00100000
01000000
00001000
,
00010000
00000000
00000010
00001000
00000100
00000000
00000010
00000000
00000001
00001000
00000010
00000100
00000010
00001000
00000100
00000010
,
00000001
00000000
00000000
00000010
00000000
00000000
00001000
00000000
00010000
00001000
01000000
00001000
00010000
00000000
00000000
00000000
,
01000000
00100000
00000000
01100000
00000000
00110000
00000000
00001000
00000000
00010000
00000000
00000010
00001000
00000000
00001000
00000000
,
00000001
00000000
00000001
00000100
00001000
00000000
00000000
00000000
00010000
00000000
00010000
01000000
10000000
00000000
00000000
00000000
,
10000000
00000000
10000000
00100000
00010000
00000000
00000000
00000000
00001000
00000000
00001000
00000010
00000001
00000000
00000000
00000000
,
00000001
00000100
00000010
00000000
00000100
00000000
00001000
00000000
00010000
00100000
01000000
00000000
00100000
00000000
10000000
00000000
,
01000000
00010000
00001000
00000000
00000010
00000000
00000001
00000000
00001000
00000001
00000010
00000000
00000100
00000000
00010000
00000000
,
00011000
00000000
00110000
00000000
10100000
00000000
11000000
00000000
01010000
00000000
00011000
00000000
,
00001010
00000000
00000011
00000000
00000101
00000000
00001100
00000000
00011000
00000000
01010000
00000000
,
20020000
00000000
00000000
00000000
30030000
00000000
10000000
01000000
00100000
00001000
00010000
00000010
00001000
00000010
00000000
00000000
,
00000220
00000000
00000000
00000000
00000330
00000000
00001000
00000010
00000100
00000001
00001000
00000100
00000010
00000100
00000000
00000000
,
00002000
00000000
00003001
00000100
00001000
00000000
00020000
00000000
00130000
10000000
00010000
00000000
20000000
00000000
31000000
00010000
,
00001000
00000000
00000020
00000000
00000031
00001000
00000010
00000000
00010000
00000000
00001000
00000000
00011000
00000000
00000000
00000000
,
00020000
00000000
00031000
00000010
00001000
00000000
00020000
00000000
00031000
00000100
00001000
00000000
00010000
00000000
00011000
00000000
;
