#VERSION:0.83;
#TITLE:Vanity shadow;
#ARTIST:偽りのAssassin;
#ARTISTTRANSLIT:Itsuwari no Assassin;
#BANNER:Vanity shadow.png;
#BACKGROUND:Vanity shadow-bg.png;
#CDTITLE:./CDTitles/RB colette -Autumn-.png;
#MUSIC:Vanity shadow.ogg;
#SAMPLESTART:45.65;
#SAMPLELENGTH:15;
#BPMS:0=184;
#TIMESIGNATURES:0=4=4,20=7=4,76=4=4,140=7=4,168=4=4,200=7=4,242=3=4,254=5=4,264=7=4,313=4=4;
#BGSTAGE:14;

//--------------- dance-single - Fred-104 ----------------
#NOTEDATA:;
#STEPSTYPE:dance-single;
#DESCRIPTION:Fred-104;
#DIFFICULTY:Beginner;
#METER:3;
#CREDIT:Fred-104;
#NOTES:
0000
0000
0000
0000
,
0000
0000
0000
0000
,
0000
0000
0000
0000
,
0000
0000
0000
0000
,
0000
0000
0000
0000
,
1000
0000
0000
1000
,
0000
0000
1000
0100
,
0000
0000
0100
0000
,
0000
0100
0010
0000
,
0000
0010
0000
0000
,
0010
0001
0000
0000
,
0001
0000
0000
0001
,
1000
0000
1000
0000
,
1000
0000
1000
0001
,
0000
0001
0000
0001
,
0000
0001
0100
0000
,
0100
0000
0100
0000
,
0100
0010
0000
0010
,
0000
0010
0000
0010
,
0100
0000
0000
0000
,
0001
0000
1000
0000
,
0001
0000
0000
0000
,
1000
0000
0010
0000
,
0001
0000
0000
0000
,
0100
0000
1000
0000
,
0001
0000
0000
0000
,
1000
0000
0001
0000
,
1000
0000
0000
0000
,
0010
0000
0001
0000
,
0100
0000
0000
0000
,
0010
0000
0100
0000
,
1000
0000
0000
0000
,
0001
0000
1000
0000
,
0002
0000
0000
0000
,
0000
0000
0003
0000
,
1000
0000
0000
0001
,
0000
1000
0000
0100
,
0000
0000
0010
0000
,
0001
0000
0001
0000
,
0000
1000
0000
0001
,
0000
1000
0000
0000
,
0001
0000
1000
0000
,
0200
0000
0000
0000
,
0000
0000
0000
0000
,
0300
0000
0000
0000
,
0000
0000
0000
0000
,
0020
0000
0000
0000
,
0000
0000
0000
0000
,
0030
0000
0000
0000
,
0000
0000
0000
0000
,
0002
0000
0000
0000
,
0000
0003
0000
2000
,
0000
0000
0000
0000
,
3000
0000
0002
0000
,
0000
0000
0000
0003
,
0000
2000
0000
0000
,
0000
0000
3000
0000
,
0002
0000
0000
0000
,
0000
0003
0000
2000
,
0000
0000
0000
0000
,
3000
0000
0001
0000
,
0000
1000
0000
0000
,
0001
0000
0000
1001
,
0000
0000
0000
0000
,
0000
0000
0000
0000
,
0000
0000
0000
0000
,
1000
0000
0000
1000
,
0000
0000
1000
0001
,
0000
0000
0001
0000
,
0000
0001
0100
0000
,
0000
0100
0000
0000
,
0100
0001
0000
0000
,
0001
0000
0000
0001
,
1000
0000
0000
1000
,
0000
0000
1000
0001
,
0000
0000
0001
0000
,
0000
0001
0010
0000
,
0000
0010
0000
0000
,
0010
0100
0000
0100
,
0000
0010
0000
0000
,
0000
1001
0000
0000
;

//--------------- dance-single - Fred-104 ----------------
#NOTEDATA:;
#STEPSTYPE:dance-single;
#DESCRIPTION:Fred-104;
#DIFFICULTY:Easy;
#METER:9;
#CREDIT:Fred-104;
#NOTES:
0000
0000
0000
0000
,
0000
0000
0000
0000
,
0000
0000
0000
0000
,
0000
0000
0000
0000
,
0000
0000
0000
0000
,
0001
0000
0000
0001
0000
0000
0001
0000
,
0000
0001
0000
0000
0001
0000
1000
0000
,
0000
1000
0000
0000
1000
0000
0000
1000
,
0000
0000
1000
0000
0010
0000
0000
0010
,
0000
0000
0010
0000
0000
0010
0000
0000
,
0010
0000
0100
0000
0000
0100
0000
0000
,
0100
0000
0000
0100
0000
0000
0100
0000
,
0001
0000
0000
1000
0000
0000
0001
0000
,
0000
0010
0000
0000
0100
0000
1000
0000
,
0000
0001
0000
0000
0100
0000
0000
0010
,
0000
0000
1000
0000
0100
0000
0000
0010
,
0000
0000
0001
0000
0000
0100
0000
0000
,
0010
0000
1000
0000
0000
0001
0000
0000
,
0010
0000
0000
0100
0000
0000
1000
0000
,
0001
0000
1000
0000
0001
0000
0100
0100
,
0000
0010
0000
0010
0000
0010
0100
0000
,
0001
0000
1000
0000
0001
0000
1000
1000
,
0000
0100
0000
0100
0000
0010
0010
0000
,
0001
0000
1000
0000
0001
0000
0100
0100
,
0000
0010
0000
1000
0000
0010
0100
0000
,
0001
0000
1000
0000
0001
0000
0010
0010
,
0000
0100
0000
1000
0000
0010
0010
0000
,
0100
0000
0001
0000
0101
0000
0000
1000
,
0000
1000
0000
0100
1000
0100
1000
0000
,
0001
0000
0100
0000
0110
0000
0000
0010
,
0000
1000
0000
0010
1000
0010
1000
0000
,
0100
0000
0100
0000
0110
0000
0000
0010
,
0000
0001
0000
1000
0001
1000
0001
0000
,
2000
0000
0000
3200
0000
0000
0302
0000
,
0000
0023
0000
0000
2030
0000
3000
0000
,
0001
0000
0000
0011
0000
0001
0000
1001
,
0000
1000
0000
0010
1000
0000
0010
0000
,
0000
0110
0000
0100
0000
1001
0000
0001
,
0000
1000
0001
0000
0010
0000
0000
0110
,
0000
0100
0000
1100
0000
0001
0000
1000
,
0001
0000
1000
0000
0000
0001
0000
1000
,
0000
0001
0000
0100
0010
0100
0010
0000
,
1000
0001
0010
0000
,
0100
0010
0001
0000
,
1000
0000
0001
0000
,
1000
0010
0001
0100
,
1000
0001
0100
0000
,
0010
0100
0001
1000
,
0001
0000
1000
0001
,
1000
0100
0001
0010
,
1000
0000
0000
0100
0000
0000
0010
0000
,
0000
0001
0000
0000
0100
0001
0100
0000
,
0000
0010
0000
0000
1000
0000
0000
0001
,
0000
0010
0100
0000
1000
0000
0000
0001
,
0000
0000
1000
0000
0000
0010
0000
0000
,
0100
0010
0100
0000
0000
0001
0000
0000
,
0010
0000
0000
0100
0000
1000
0100
0000
,
1000
0000
0000
0001
0000
0000
0100
0000
,
0000
0010
0000
0000
0100
0001
0100
0000
,
0000
0010
0000
0000
1000
0000
0000
0001
,
0000
0010
0100
0000
2000
0000
0000
0000
,
0000
3002
0000
0000
,
2003
0000
0000
0002
,
0000
0000
3003
0000
,
0000
0000
0000
0000
,
0000
0000
0000
0000
,
1000
0000
0000
1010
0000
1000
0000
1001
,
0000
0001
0000
0010
0001
0000
0010
0000
,
0000
0110
0000
0100
0000
1001
0000
1000
,
0000
0001
1000
0000
0010
0000
0000
0110
,
0000
0100
0000
0101
0000
1000
0000
0001
,
1000
0000
0001
0000
0000
1000
0000
0001
,
0000
1000
0000
0100
0010
0100
0010
0000
,
0001
0000
0000
0101
0000
0001
0000
1001
,
0000
1000
0000
0100
1000
0000
0100
0000
,
0000
0110
0000
0010
0000
1001
0000
0001
,
0000
1000
0001
0000
0100
0000
0000
0110
,
0000
0010
0000
1010
0000
0001
0000
1000
,
0001
0000
1000
0000
0000
0001
0000
1000
,
0000
0001
0000
0010
0100
0010
0100
0000
,
0000
1001
0000
0000
;

//--------------- dance-single - Fred-104 ----------------
#NOTEDATA:;
#STEPSTYPE:dance-single;
#DESCRIPTION:Fred-104;
#DIFFICULTY:Medium;
#METER:11;
#CREDIT:Fred-104;
#NOTES:
0000
0000
0000
0000
,
0000
0000
0000
0000
,
0000
0000
0000
0000
,
0000
0000
0000
0000
,
0000
0000
0000
0000
,
1100
0000
0000
0110
0000
0000
0011
0000
,
0000
1001
0000
0000
0001
1000
1010
0000
,
0000
0101
0000
0000
1100
0000
0000
0011
,
0000
0001
1000
0001
1001
0000
0000
0110
,
0000
0000
1010
0000
0000
0101
0000
0000
,
1000
0001
1001
0000
0000
1010
0000
0000
,
0101
0000
0000
1100
0000
0001
1000
0010
,
0100
0000
0001
0010
0000
0100
1000
0000
,
0001
0100
0000
0010
1000
0100
0010
0000
,
0001
1000
0000
0010
1000
0000
0100
1000
,
0100
0010
0001
1000
0010
0000
0100
0001
,
0000
1000
0001
0000
0010
0100
0000
1000
,
0001
0100
0010
0000
1000
0100
0000
0010
,
0001
0000
1000
0010
0100
0001
1000
0100
,
0010
0000
0011
0000
1001
0000
1000
0100
,
0000
0110
0000
0011
0000
0001
1000
0000
,
1010
0000
0101
0000
1100
0000
0001
0100
,
0000
0110
0000
1010
0000
1000
0100
0000
,
0110
0000
0011
0000
1001
0000
0001
1000
,
0000
1010
0000
0101
0000
1000
0100
0000
,
0110
0000
1001
0000
0110
0000
0001
0100
,
0000
1100
0000
0101
0000
1000
0001
0000
,
1100
0000
0101
0000
1100
0000
0001
0100
,
0000
0010
1000
0010
0000
0100
0001
0000
,
1100
0000
0011
0000
1100
0000
1000
0010
,
0000
0100
0001
0010
0000
0100
0010
0000
,
0011
0000
1010
0000
0101
0000
1000
0100
,
0000
0010
0001
0100
0000
0010
1000
0000
,
0001
0010
0000
0100
1000
0000
0010
0100
,
0000
0010
1000
0100
0010
0001
1000
0000
,
0001
0100
0001
0100
0000
0010
1000
0001
,
0000
1000
0100
0010
0100
1000
0100
1000
,
0001
1000
0000
0010
1000
0100
0000
0010
,
0001
1000
0001
0000
0100
0001
0100
0001
,
0000
0010
0001
0100
0000
0010
1000
0100
,
1000
0001
0010
0100
1000
0001
0000
0110
,
0000
1001
0000
1000
0100
0010
0001
0000
,
1000
0100
1000
0100
0010
0000
0001
0000
,
1000
0010
0100
0000
0010
1000
0001
0000
,
0010
0000
0000
0000
0000
0000
0000
0000
0100
0000
0000
0100
0000
0000
0100
0000
,
1000
0100
0001
0010
,
1000
0001
1000
0001
0010
0000
0100
0000
,
1000
0010
0100
0000
0010
1000
0001
0000
,
0010
0000
0000
0000
0000
0000
0000
0000
0100
0000
0000
0100
0000
0000
0100
0000
,
0010
0001
1000
0010
,
1010
0000
0000
0101
0000
0000
1100
0000
,
0000
0011
0000
0000
1000
0100
0110
0000
,
0000
0011
0000
0000
1010
0000
0000
0101
,
0000
0001
1000
0001
1001
0000
0000
0110
,
0000
0000
1001
0000
0000
1010
0000
0000
,
0001
0010
0110
0000
0000
1100
0000
0000
,
0101
0000
0000
1100
0000
1000
0010
0100
,
0001
0000
0010
0100
0000
1000
0010
0000
,
0100
0001
0000
1000
0100
0010
0001
0000
,
1000
0010
0000
0100
0010
0000
1000
0001
,
0010
0100
1000
0001
0200
0000
0000
0000
,
0000
0320
0000
0000
,
0230
0000
0000
0020
,
0000
0000
0330
0000
,
0000
0000
0000
0000
,
0000
0000
0000
0000
,
0001
0100
0001
0010
0000
0100
1000
0001
,
0000
0100
0010
1000
0010
0000
0100
0001
,
0100
0001
0000
1000
0100
0010
0000
0100
,
0010
0100
1000
0000
0010
1000
0010
0100
,
0000
0010
1000
0001
0000
1000
0100
0010
,
0100
0000
0010
0000
0001
0010
0000
0110
,
0000
1100
0000
0001
1000
0001
0100
0000
,
0010
1000
0010
1000
0000
0100
0010
0001
,
0000
1000
0010
0100
0010
0000
1000
0001
,
1000
0001
0000
0010
0100
1000
0000
0001
,
0100
0010
1000
0000
0010
0100
0001
1000
,
0000
0100
0010
0100
0000
0010
0001
1000
,
0001
0000
0100
0010
0100
0001
0000
1000
,
0000
0100
0000
0010
0001
1000
0010
0000
,
0100
1001
0000
0000
;

//--------------- dance-single - Fred-104 ----------------
#NOTEDATA:;
#STEPSTYPE:dance-single;
#DESCRIPTION:Fred-104;
#DIFFICULTY:Hard;
#METER:15;
#CREDIT:Fred-104;
#NOTES:
0000
0000
0000
0000
,
0000
0000
0000
0000
,
0000
0000
0000
0000
,
0000
0000
0000
0000
,
0000
0000
0000
0000
,
1100
0000
0000
0101
0000
0000
1010
0000
,
0000
0011
0000
0000
1000
0100
0110
0000
,
0000
0011
0000
0000
1010
0000
0000
0101
,
0000
1000
0100
0100
0110
0000
0000
0011
,
0000
0000
1010
0000
0000
0101
0000
0000
,
1000
0001
0101
0000
0000
1010
0000
0000
,
0011
0000
0000
1100
0000
0001
0100
0001
,
1000
0100
0100
0010
0100
0100
1000
0010
,
0010
0100
0010
0010
1000
0001
1000
0010
,
0010
0001
0010
0010
1000
0100
0100
0001
,
0100
0100
1000
0001
1000
0100
0001
1000
,
0010
0001
1000
0010
0001
1000
0100
0010
,
1000
0001
1000
0100
0001
1000
0010
0100
,
0010
0001
0100
0010
0001
1000
0100
0001
,
1001
0000
1100
0000
0101
0000
1000
0010
,
0100
1000
0001
0010
0100
0001
1000
0100
,
0110
0000
1100
0000
1001
0000
0001
0100
,
1000
0001
0010
0100
0001
1000
0100
0010
,
0011
0000
1010
0000
0101
0000
1000
0001
,
0010
0100
0010
1000
0001
0100
0010
0001
,
1001
0000
1010
0000
0101
0000
1000
0010
,
0001
1000
0100
0010
1000
0100
0010
0001
,
0200
0000
1000
0000
0010
0000
0301
1000
,
0100
0001
0100
1000
0100
0010
0001
1000
,
0002
0000
0010
0000
1000
0000
0103
0010
,
1000
0100
0010
1000
0001
0100
1000
0001
,
0200
0000
0010
0000
1000
0000
0301
1000
,
0100
0001
1000
0010
0100
1000
0100
1000
,
0002
0100
0103
0020
1000
1030
0002
0010
,
0013
0200
1000
1300
0010
0100
0001
0000
,
1100
0100
0010
0011
0000
0001
0100
0110
,
0000
1000
0010
0001
0010
1000
1001
0001
,
0010
0110
0000
1000
0001
0101
0000
1000
,
0100
0001
0100
1000
1010
0010
0100
0101
,
0000
1000
0100
0110
0000
0001
1000
0010
,
0100
0001
1001
1000
0100
1100
0000
0101
,
0000
0000
1010
0000
0000
0000
0001
1000
0001
0000
0010
0000
0100
0000
1000
0000
,
0001
0100
1000
0100
0001
0000
0010
0000
,
0100
1000
0001
0100
1000
0100
0001
1000
,
0100
0000
0000
0000
0000
0000
0000
0000
0010
0000
0000
0010
0000
0000
0010
0000
,
0001
1000
0010
0100
,
0001
1000
0010
0001
0010
0000
0100
0000
,
0001
1000
0100
0001
0100
0010
0001
0100
,
0010
0000
0000
0000
0000
0000
0000
0000
0100
0000
0000
0100
0000
0000
0100
0000
,
0001
0010
0100
1000
,
0001
0000
0100
0001
0100
0000
0010
0000
0100
0001
0100
0000
0010
0000
0100
0001
,
0100
0000
0010
0000
0100
0001
0100
0000
0010
0000
1000
0001
1000
0000
0100
0010
,
0100
0000
1000
0000
0001
0100
0001
0000
1000
0000
0100
0010
0100
0000
1000
0000
,
0001
0100
0001
0000
1000
0000
0001
0010
0001
0000
1000
0001
1000
0000
0100
0000
,
1000
0001
1000
0000
0010
0000
1000
0001
1000
0000
0100
0000
1000
0001
1000
0000
,
0010
0000
1000
0001
1000
0000
0001
0010
0001
0000
1000
0000
0001
0100
0001
0000
,
1000
0000
0001
0010
0001
0000
1000
0000
0001
0100
0001
0000
1000
0000
0001
0010
,
0001
0000
1000
0010
0100
0000
0001
0000
1000
0100
0010
0000
0001
0000
1000
0010
,
0100
0000
0001
0000
1000
0100
0010
0000
0001
0000
1000
0010
0100
0000
0001
0010
,
0100
0000
1000
0000
0001
0100
0010
0000
1000
0000
0001
0010
0100
0000
1000
0000
,
0001
0100
0010
0000
1000
0000
0001
0010
0200
0000
0000
0000
0000
0000
0000
0000
,
0000
2300
0000
0000
,
3002
0000
0000
2000
,
0000
0000
0000
0000
0000
0000
0000
0000
0000
0000
0000
0000
0000
0000
0000
0000
0000
0000
0000
0000
0000
0000
0000
0000
0000
0000
0000
0000
0000
0000
0000
0000
0000
0000
0000
0000
0000
0000
0000
0000
0000
0000
0000
0000
0000
0000
0000
0000
3003
0000
0000
0000
0000
0000
0000
0000
0000
0000
0000
0000
0000
0000
0000
0000
0000
0000
0000
0000
0000
0000
0000
0000
0000
0000
0000
0000
0000
0000
0000
0000
0000
0000
0000
0000
0000
0000
0000
0000
0000
0000
0000
0000
0000
0000
0000
0000
0000
0000
0000
0000
0000
0000
0000
0000
0000
0000
0000
0100
0000
0000
0000
0000
0000
0000
0000
0000
0000
0000
0000
0000
0000
0000
0000
0000
0000
0000
0000
0000
0000
0000
0000
0000
0000
0000
0000
0000
0000
0000
0000
0000
0000
0000
0000
0000
0000
0000
0000
0000
0000
0000
0100
0000
0000
0000
0000
0000
0000
0000
0000
0000
0000
0000
0000
0000
0000
0000
0000
0000
0000
0000
0000
0000
0000
0000
0000
0000
0000
0000
0000
0000
0000
0000
0000
0000
0000
0000
0000
0000
0100
0000
0000
0000
,
0000
0000
0000
0000
0000
0000
0000
0000
0000
0000
0000
0000
0000
0000
0000
0000
0000
0000
0000
0000
0000
0100
0000
0000
0000
0000
0000
0000
0000
0000
0000
0000
0000
0000
0000
0000
0000
0000
0000
0000
0000
0000
0000
0000
0000
0000
0000
0000
0000
0000
0000
0000
0000
0000
0000
0000
0000
0000
0000
0000
0000
0100
0000
0000
0000
0000
0000
0000
0000
0000
0000
0000
0000
0000
0000
0000
0000
0000
0000
0000
0000
0000
0000
0000
0000
0100
0000
0000
0000
0000
0000
0000
0000
0000
0000
0000
0000
0000
0000
0000
0000
0000
0000
0000
0000
0000
0000
0000
0000
0000
0000
0000
0000
0000
0000
0000
0000
0000
0000
0000
0000
0000
0000
0000
0000
0000
0000
0000
0000
0000
0000
0000
0000
0000
0000
0000
0000
0000
0000
0000
0000
0000
0000
0000
0000
0000
0000
0000
0000
0000
0000
0000
0000
0000
0000
0000
0210
0300
0000
0000
0000
0000
0000
0000
0000
0000
0000
0000
0000
0000
0000
0000
0000
0000
0000
0000
0000
0000
0000
0000
0120
0030
0000
0000
0000
0000
0000
0000
0000
0000
0000
0000
,
0000
0000
0000
0000
0000
0000
0000
0000
0000
0000
0000
0000
0210
0300
0000
0000
0000
0000
0000
0000
0000
0000
0000
0000
0000
0000
0000
0000
0000
0000
0000
0000
0000
0000
0000
0000
0000
0000
0000
0000
0000
0000
0000
0000
0000
0000
0000
0000
0000
0000
0000
0000
0000
0000
0000
0000
0000
0000
0000
0000
0000
0000
0000
0000
0000
0000
0000
0000
0000
0000
0000
0000
0000
0000
0000
0000
0000
0000
0000
0000
0000
0000
0000
0000
0000
0000
0000
0000
0000
0000
0000
0000
0000
0000
0000
0000
0000
0000
0000
0000
0000
0000
0000
0000
0000
0000
0000
0000
0000
0000
0000
0000
0000
0000
0000
0000
0000
0000
0000
0000
0000
0000
0000
0000
0000
0000
0000
0000
0000
0000
0000
0000
0000
0000
0000
0000
0000
0000
0000
0000
0000
0000
0000
0000
0000
0000
0000
0000
0000
0000
0000
0000
0000
0000
0000
0000
0000
0000
0000
0000
0000
0000
0000
0000
0000
0000
0000
0000
0000
0000
0000
0000
0000
0000
0000
0000
0000
0000
0000
0000
0000
0000
0000
0000
0000
0000
0000
0000
0000
0000
0000
0000
,
1001
1000
0100
0110
0000
0011
0001
0101
,
0000
1010
1000
0001
1000
0100
0110
0010
,
0001
0101
0000
1001
1000
1100
0000
0110
,
0010
0001
1000
0001
0101
0100
0010
0110
,
0000
1010
1000
1100
0000
0110
0010
0001
,
1000
0001
0101
0100
0010
1010
0000
0101
,
0000
0000
1100
0000
0000
0000
0001
0010
0001
0010
0100
1000
0001
1000
0001
0000
,
1001
1000
0010
1010
0000
1100
0100
0110
,
0000
0000
0011
0000
1000
0000
0001
0100
0010
0000
0100
0000
0110
0000
0100
0000
,
0001
0011
0000
0101
0001
1001
0000
1100
,
0001
0000
0100
0010
1000
0000
0001
0000
1010
0000
1000
0000
0001
0000
1100
0000
,
0000
1010
0010
0110
0000
0101
1000
0100
,
0010
0000
0001
0000
1000
0100
1000
0000
0001
0100
0001
0000
0010
0000
0100
1000
,
0001
0000
0100
0001
1000
0000
0100
0010
0001
1000
0001
0000
0200
0000
0000
0000
,
0000
0300
1001
0000
0000
0000
0000
0000
;

//--------------- dance-double - Fred-104 ----------------
#NOTEDATA:;
#STEPSTYPE:dance-double;
#DESCRIPTION:Fred-104;
#DIFFICULTY:Easy;
#METER:9;
#CREDIT:Fred-104;
#NOTES:
00000000
00000000
00000000
00000000
,
00000000
00000000
00000000
00000000
,
00000000
00000000
00000000
00000000
,
00000000
00000000
00000000
00000000
,
00000000
00000000
00000000
00000000
,
10000000
00000000
00000000
00010000
00000000
00000000
10000000
00000000
,
00000000
01000000
00000000
00000000
00100000
00000000
00001000
00000000
,
00000000
00010000
00000000
00000000
00001000
00000000
00000000
00010000
,
00000000
00000000
00000010
00000000
00001000
00000000
00000000
00000001
,
00000000
00000000
00001000
00000000
00000000
00000001
00000000
00000000
,
00000010
00000000
00000100
00000000
00000000
00010000
00000000
00000000
,
00000100
00000000
00000000
00010000
00000000
00000000
00001000
00000000
,
01000000
00000000
00000000
00010000
00000000
00000000
10000000
00000000
,
00000000
00100000
00000000
00000000
00010000
00000000
00001000
00000000
,
00000000
00010000
00000000
00000000
00000100
00000000
00000000
00000010
,
00000000
00000000
00000001
00000000
00001000
00000000
00000000
00000001
,
00000000
00000000
00001000
00000000
00000000
00000010
00000000
00000000
,
00010000
00000000
00001000
00000000
00000000
01000000
00000000
00000000
,
00010000
00000000
00000000
10000000
00000000
00000000
01000000
00000000
,
00100000
00000000
00010000
00000000
00100000
00000000
00001000
00001000
,
00000000
00010000
00000000
00010000
00000000
00010000
00000010
00000000
,
00001000
00000000
00000010
00000000
00000100
00000000
00000010
00000010
,
00000000
00001000
00000000
00001000
00000000
00000001
00000001
00000000
,
00000010
00000000
00000100
00000000
00010000
00000000
00001000
00001000
,
00000000
01000000
00000000
00001000
00000000
01000000
00010000
00000000
,
01000000
00000000
00001000
00000000
00010000
00000000
00001000
00001000
,
00000000
00100000
00000000
00001000
00000000
00100000
00100000
00000000
,
00010000
00000000
10000000
00000000
11000000
00000000
00000000
00100000
,
00000000
00100000
00000000
00001000
00010000
00001000
00010000
00000000
,
00000100
00000000
00001000
00000000
00001001
00000000
00000000
00000001
,
00000000
00000001
00000000
00000100
00001000
00000100
00001000
00000000
,
00010000
00000000
00001000
00000000
00011000
00000000
00000000
00001000
,
00000000
00010000
00000000
00000100
00001000
00000100
00001000
00000000
,
00000002
00000000
00000000
00000203
00000000
00000000
00002300
00000000
,
00000000
00023000
00000000
00000000
00032000
00000000
00003000
00000000
,
00010000
00000000
00000000
00011000
00000000
00001000
00000000
00011000
,
00000000
00001000
00000000
01000000
00010000
00000000
10000000
00000000
,
00000000
11000000
00000000
01000000
00000000
01100000
00000000
00100000
,
00000000
00001000
00010000
00000000
00001000
00000000
00000000
00011000
,
00000000
00010000
00000000
00010010
00000000
00000010
00000000
00001000
,
00000001
00000000
00000100
00000000
00000000
00000010
00000000
00010000
,
00000000
00001000
00000000
00100000
00001000
00100000
00001000
00000000
,
00010000
00100000
10000000
00000000
,
01000000
00100000
00001000
00000000
,
00010000
00000000
00001000
00000000
,
00010000
00001000
00000100
00000001
,
00001000
00000100
00000010
00000000
,
00000001
00000100
00001000
00010000
,
00001000
00000000
00010000
00100000
,
01000000
00010000
10000000
01000000
,
00100000
00000000
00000000
00100000
00000000
00000000
00100000
00000000
,
00000000
00100000
00000000
00000000
00001000
00010000
00001000
00000000
,
00000000
00001000
00000000
00000000
00001000
00000000
00000000
00001000
,
00000000
00010000
00000010
00000000
00001000
00000000
00000000
00001000
,
00000000
00000000
00001000
00000000
00000000
00001000
00000000
00000000
,
00000001
00000010
00000100
00000000
00000000
00000100
00000000
00000000
,
00000100
00000000
00000000
00000100
00000000
00010000
00001000
00000000
,
01000000
00000000
00000000
00010000
00000000
00000000
01000000
00000000
,
00000000
00010000
00000000
00000000
10000000
01000000
00100000
00000000
,
00000000
00001000
00000000
00000000
00010000
00000000
00000000
00000010
,
00000000
00010000
00001000
00000000
00020000
00000000
00000000
00000000
,
00000000
00032000
00000000
00000000
,
00023000
00000000
00000000
00002000
,
00000000
00000000
00033000
00000000
,
00000000
00000000
00000000
00000000
,
00000000
00000000
00000000
00000000
,
10000000
00000000
00000000
01100000
00000000
00100000
00000000
00110000
,
00000000
00001000
00000000
00010000
00001000
00000000
00010000
00000000
,
00000000
00010010
00000000
00000010
00000000
00001010
00000000
00001000
,
00000000
00000100
00000010
00000000
00000001
00000000
00000000
00000101
,
00000000
00000001
00000000
00001001
00000000
00000001
00000000
00001000
,
00000010
00000000
00010000
00000000
00000000
00001000
00000000
01000000
,
00000000
00001000
00000000
01000000
00001000
01000000
00001000
00000000
,
00010000
00000000
00000000
00011000
00000000
00001000
00000000
01001000
,
00000000
01000000
00000000
00010000
00100000
00000000
01000000
00000000
,
00000000
11000000
00000000
10000000
00000000
10100000
00000000
10000000
,
00000000
10000000
01000000
00000000
00100000
00000000
00000000
00101000
,
00000000
00001000
00000000
00011000
00000000
00010000
00000000
00000010
,
00010000
00000000
00001000
00000000
00000000
00010000
00000000
00001000
,
00000000
00000100
00000000
00000001
00000010
00000001
00000010
00000000
,
00000000
00001001
00000000
00000000
;

//--------------- dance-double - Fred-104 ----------------
#NOTEDATA:;
#STEPSTYPE:dance-double;
#DESCRIPTION:Fred-104;
#DIFFICULTY:Medium;
#METER:11;
#CREDIT:Fred-104;
#NOTES:
00000000
00000000
00000000
00000000
,
00000000
00000000
00000000
00000000
,
00000000
00000000
00000000
00000000
,
00000000
00000000
00000000
00000000
,
00000000
00000000
00000000
00000000
,
00000011
00000000
00000000
00001100
00000000
00000000
00000101
00000000
,
00000000
00001010
00000000
00000000
00000010
00010000
00011000
00000000
,
00000000
00101000
00000000
00000000
00010010
00000000
00000000
01001000
,
00000000
00001000
01000000
00010000
10010000
00000000
00000000
11000000
,
00000000
00000000
01100000
00000000
00000000
00101000
00000000
00000000
,
00001000
00010000
00010010
00000000
00000000
00001010
00000000
00000000
,
00000101
00000000
00000000
00001100
00000000
00001000
00000100
00000010
,
00000001
00000000
00000100
00000010
00000000
00000100
00001000
00000000
,
00010000
00100000
00000000
01000000
00100000
10000000
00010000
00000000
,
01000000
10000000
00000000
01000000
00010000
00000000
10000000
01000000
,
00010000
00001000
00000100
00000010
00001000
00000000
00000001
00000010
,
00000000
00000100
00000010
00000000
00001000
00010000
00000000
01000000
,
00100000
00010000
10000000
00000000
00100000
01000000
00000000
10000000
,
01000000
00000000
00010000
10000000
01000000
00100000
00001000
00000000
,
00011000
00000000
00010010
00000000
00011000
00000000
00010000
00000100
,
00000000
00001100
00000000
00000101
00000000
00000010
00000100
00000000
,
00000011
00000000
00001010
00000000
00000101
00000000
00000001
00000010
,
00000000
00001010
00000000
00011000
00000000
00100000
10000000
00000000
,
01010000
00000000
11000000
00000000
00110000
00000000
10000000
01000000
,
00000000
01100000
00000000
00101000
00000000
00001000
00010000
00000000
,
00010100
00000000
01001000
00000000
00011000
00000000
00010000
00001000
,
00000000
00011000
00000000
00010010
00000000
00000010
00000100
00000000
,
00000110
00000000
00001001
00000000
00000110
00000000
00000001
00000100
,
00001000
00010000
00100000
01000000
00000000
00100000
10000000
00000000
,
10100000
00000000
01010000
00000000
11000000
00000000
10000000
00100000
,
01000000
00100000
00010000
00001000
00000000
00010000
00000010
00000000
,
00001010
00000000
00000101
00000000
00001100
00000000
00000001
00001000
,
00000100
00000010
00001000
00010000
00000000
01000000
00100000
00000000
,
00010000
00100000
00000000
10000000
00100000
00000000
00010000
01000000
,
00000000
00001000
00010000
00000000
00001000
00000000
00011000
00000000
,
00010000
00001000
00010000
00001000
00000000
00000010
00000100
00000010
,
00000000
00000001
00000100
00001000
00010000
00000000
00001000
00010000
,
00001000
00010000
00000000
01000000
00100000
00010000
00000000
10000000
,
01000000
00100000
00001000
00000000
00010000
00001000
00010000
00001000
,
00000000
00100000
00001000
00010000
00000000
00001000
00000010
00000001
,
00001000
00000000
00000010
00000100
00001000
00010000
00000000
00100000
,
01000000
00010000
00000000
00100000
01000000
10000000
00010000
00000000
,
10000000
01000000
10000000
01000000
00100000
00000000
00001000
00000000
,
00010000
00000010
00001000
00000000
00000010
00010000
00001000
00000000
,
00010000
00000000
00000000
00000000
00000000
00000000
00000000
00000000
00001000
00000000
00000000
00001000
00000000
00000000
00001000
00000000
,
00010000
00001000
00000100
00000001
,
00000010
00000100
00000010
00000001
00000100
00000000
00001000
00000000
,
00010000
00001000
00010000
00000000
00100000
01000000
00010000
00000000
,
10000000
00000000
00000000
00000000
00000000
00000000
00000000
00000000
01000000
00000000
00000000
01000000
00000000
00000000
01000000
00000000
,
00100000
00001000
00010000
00001000
,
00010000
00000000
00001000
00010000
00000000
00000010
00001000
00000000
,
00000001
00001000
00000000
00000100
00000010
00000001
00001000
00000000
,
00000010
00000100
00000000
00001000
00010000
00000000
00100000
01000000
,
00000000
00100000
10000000
00010000
10000000
00000000
01000000
00100000
,
00000000
00001000
00010000
00000000
00000100
00000010
00000000
00000001
,
00001000
00000010
00001000
00000000
00000100
00000010
00000000
00000100
,
00010000
00000000
00001000
01000000
00000000
00010000
01000000
00100000
,
10000000
00000000
00010000
00100000
00000000
10000000
00100000
00000000
,
00001000
00010000
00000000
00001000
00010000
00000010
00001000
00000000
,
00000100
00000010
00000000
00000001
00000100
00000000
00001000
00010000
,
01000000
00100000
00010000
10000000
02000000
00000000
00000000
00000000
,
00000000
03020000
00000000
00000000
,
00032000
00000000
00000000
00020000
,
00000000
00000000
00033000
00000000
,
00000000
00000000
00000000
00000000
,
00000000
00000000
00000000
00000000
,
00001000
00100000
00001000
00100000
00000000
00010000
00100000
01000000
,
00000000
10000000
00100000
01000000
00100000
10000000
01000000
00100000
,
00010000
00100000
00000000
00001000
00010000
00000010
00000000
00010000
,
00001000
00000100
00000001
00000000
00001000
00000100
00000010
00000100
,
00000000
00001000
00000010
00000100
00000000
00001000
00010000
00100000
,
01000000
00010000
00100000
01000000
10000000
00100000
00000000
00010000
,
00001000
00010000
00000000
00001000
00010000
00000010
00001000
00000000
,
00000001
00000010
00000100
00001000
00000000
00000100
00010000
00001000
,
00000000
00010000
00001000
00010000
00000100
00000010
00000100
00001000
,
00000010
00000100
00000000
00001000
00010000
00100000
00000000
10000000
,
00010000
00100000
01000000
00000000
10000000
01000000
00010000
01000000
,
00000000
10000000
00100000
00010000
00000000
00001000
00000100
00000001
,
00000010
00001000
00000010
00000001
00000100
00001000
00000000
00010000
,
00100000
10000000
00000000
01000000
00100000
00001000
00010000
00000000
,
00001000
00011000
00000000
00000000
;

//--------------- dance-double - Fred-104 ----------------
#NOTEDATA:;
#STEPSTYPE:dance-double;
#DESCRIPTION:Fred-104;
#DIFFICULTY:Hard;
#METER:15;
#CREDIT:Fred-104;
#NOTES:
00000000
00000000
00000000
00000000
,
00000000
00000000
00000000
00000000
,
00000000
00000000
00000000
00000000
,
00000000
00000000
00000000
00000000
,
00000000
00000000
00000000
00000000
,
00011000
00000000
00000000
00010010
00000000
00000000
00101000
00000000
,
00000000
00010100
00000000
00000000
00001000
01000000
01010000
00000000
,
00000000
10100000
00000000
00000000
11000000
00000000
00000000
00110000
,
00000000
00100000
00001000
00010000
00011000
00000000
00000000
00010010
,
00000000
00000000
00001001
00000000
00000000
00001100
00000000
00000000
,
00000010
00000001
00000101
00000000
00000000
00001100
00000000
00000000
,
00010100
00000000
00000000
00011000
00000000
00001000
00010000
00001000
,
00100000
00001000
00001000
00000010
00010000
00010000
00100000
00001000
,
00001000
00000010
00010000
00010000
00100000
00001000
01000000
00010000
,
00010000
00000100
00001000
00001000
01000000
00010000
00010000
00000100
,
00001000
00001000
01000000
00001000
00100000
00010000
00010000
00000010
,
00001000
00001000
01000000
00010000
00010000
00000100
00001000
00001000
,
00100000
00010000
00100000
00001000
00001000
00000100
00010000
00010000
,
01000000
00001000
00001000
00000010
00010000
00010000
00100000
00001000
,
00011000
00000000
00010010
00000000
00011000
00000000
00010000
00001000
,
00000010
00000100
00000010
00000001
00001000
00000001
00000100
00001000
,
00011000
00000000
00110000
00000000
10100000
00000000
00010000
00100000
,
10000000
00100000
01000000
10000000
00100000
00010000
00001000
00010000
,
00010010
00000000
00101000
00000000
00010100
00000000
00010000
00000100
,
00001000
00000100
00000010
00000001
00001000
00000010
00010000
00001000
,
00101000
00000000
01010000
00000000
10010000
00000000
00010000
00100000
,
01000000
00010000
10000000
00100000
00010000
01000000
00100000
00010000
,
00002000
00000000
00010000
00000000
00000010
00000000
00013000
00000100
,
00000010
00000001
00001000
00000010
00000100
00001000
00010000
00100000
,
02000000
00000000
00100000
00000000
10000000
00000000
03010000
00100000
,
01000000
00010000
00001000
00010000
00100000
00010000
00001000
00000100
,
00000002
00000000
00000100
00000000
00001000
00000000
00000013
00000100
,
00010000
00001000
00000010
00000100
00001000
00000010
00000100
00001000
,
00010000
00000100
00000100
00000001
00000010
00000010
00010000
00000010
,
00000010
00000001
00000100
00000100
00010000
00001000
01000000
00000000
,
01010000
00010000
10000000
11000000
00000000
00100000
00001000
00011000
,
00000000
00010000
00001000
00000100
00000001
00000010
00000110
00000100
,
00001000
00001010
00000000
00000001
00000100
00000110
00000000
00000001
,
00000010
00001000
00010000
00001000
01001000
01000000
00001000
00011000
,
00000000
00010000
00000010
00010010
00000000
00010000
00001000
00000010
,
00000001
00000100
00000110
00000010
00010000
00011000
00000000
01001000
,
00000000
00000000
01010000
00000000
00000000
00000000
10000000
01000000
10000000
00000000
00010000
00000000
01000000
00000000
00100000
00000000
,
10000000
01000000
00010000
00001000
00000010
00000000
00000001
00000000
,
00001000
00000010
00000100
00001000
00010000
00100000
01000000
00100000
,
10000000
00000000
00000000
00000000
00000000
00000000
00000000
00000000
00010000
00000000
00000000
01000000
00000000
00000000
00001000
00000000
,
00010000
00001000
00000100
00000001
,
00001000
00000001
00000010
00001000
00010000
00000000
00001000
00000000
,
00010000
00100000
01000000
10000000
00010000
00001000
00010000
00000010
,
00001000
00000000
00000000
00000000
00000000
00000000
00000000
00000000
00000001
00000000
00000000
00001000
00000000
00000000
00000100
00000000
,
00000010
00000001
00000100
00001000
,
00010000
00000000
00001000
01000000
00001000
00000000
00010000
00000000
00001000
00100000
00001000
00000000
00010000
00000000
00001000
01000000
,
00001000
00000000
00010000
00000000
00001000
00100000
00001000
00000000
00010000
00000000
00010000
00000000
00001000
00000000
00100000
00010000
,
00100000
00000000
00001000
00000000
01000000
00010000
01000000
00000000
00001000
00000000
00100000
00010000
00100000
00000000
00001000
00000000
,
01000000
00010000
01000000
00000000
00001000
00000000
00001000
00000000
00010000
00000000
00000010
00001000
00000010
00000000
00010000
00000000
,
00000100
00001000
00000100
00000000
00010000
00000000
00000010
00001000
00000010
00000000
00010000
00000000
00000100
00001000
00000100
00000000
,
00010000
00000000
00010000
00000000
00000100
00000000
00001000
00000001
00001000
00000000
00000010
00000000
00001000
00000001
00001000
00000000
,
00000100
00000000
00001000
00000001
00001000
00000000
00000010
00000000
00001000
00000001
00001000
00000000
00000001
00000000
00000100
00000000
,
00001000
00000000
00010000
00001000
00010000
00000000
01000000
00000000
10000000
00010000
10000000
00000000
00100000
00000000
00010000
00001000
,
00010000
00000000
00001000
00000000
00000100
00000001
00000100
00000000
00000001
00000000
00000010
00000000
00000001
00000000
00001000
00000010
,
00001000
00000000
00000100
00000000
00010000
00001000
00010000
00000000
00001000
00000000
01000000
00010000
01000000
00000000
00100000
00000000
,
10000000
01000000
10000000
00000000
00100000
00000000
00010000
00000000
00002000
00000000
00000000
00000000
00000000
00000000
00000000
00000000
,
00000000
00023000
00000000
00000000
,
00230000
00000000
00000000
20000000
,
00000000
00000000
00000000
00000000
00000000
00000000
00000000
00000000
00000000
00000000
00000000
00000000
00000000
00000000
00000000
00000000
00000000
00000000
00000000
00000000
00000000
00000000
00000000
00000000
00000000
00000000
00000000
00000000
00000000
00000000
00000000
00000000
00000000
00000000
00000000
00000000
00000000
00000000
00000000
00000000
00000000
00000000
00000000
00000000
00000000
00000000
00000000
00000000
30300000
00000000
00000000
00000000
00000000
00000000
00000000
00000000
00000000
00000000
00000000
00000000
00000000
00000000
00000000
00000000
00000000
00000000
00000000
00000000
00000000
00000000
00000000
00000000
00000000
00000000
00000000
00000000
00000000
00000000
00000000
00000000
00000000
00000000
00000000
00000000
00000000
00000000
00000000
00000000
00000000
00000000
00000000
00000000
00000000
00000000
00000000
00000000
00000000
00000000
00000000
00000000
00000000
00000000
00000000
00000000
00000000
00000000
00000000
10000000
00000000
00000000
00000000
00000000
00000000
00000000
00000000
00000000
00000000
00000000
00000000
00000000
00000000
00000000
00000000
00000000
00000000
00000000
00000000
00000000
00000000
00000000
00000000
00000000
00000000
00000000
00000000
00000000
00000000
00000000
00000000
00000000
00000000
00000000
00000000
00000000
00000000
00000000
00000000
00000000
00000000
00000000
01000000
00000000
00000000
00000000
00000000
00000000
00000000
00000000
00000000
00000000
00000000
00000000
00000000
00000000
00000000
00000000
00000000
00000000
00000000
00000000
00000000
00000000
00000000
00000000
00000000
00000000
00000000
00000000
00000000
00000000
00000000
00000000
00000000
00000000
00000000
00000000
00000000
00000000
00010000
00000000
00000000
00000000
,
00000000
00000000
00000000
00000000
00000000
00000000
00000000
00000000
00000000
00000000
00000000
00000000
00000000
00000000
00000000
00000000
00000000
00000000
00000000
00000000
00000000
00001000
00000000
00000000
00000000
00000000
00000000
00000000
00000000
00000000
00000000
00000000
00000000
00000000
00000000
00000000
00000000
00000000
00000000
00000000
00000000
00000000
00000000
00000000
00000000
00000000
00000000
00000000
00000000
00000000
00000000
00000000
00000000
00000000
00000000
00000000
00000000
00000000
00000000
00000000
00000000
00000010
00000000
00000000
00000000
00000000
00000000
00000000
00000000
00000000
00000000
00000000
00000000
00000000
00000000
00000000
00000000
00000000
00000000
00000000
00000000
00000000
00000000
00000000
00000000
00000001
00000000
00000000
00000000
00000000
00000000
00000000
00000000
00000000
00000000
00000000
00000000
00000000
00000000
00000000
00000000
00000000
00000000
00000000
00000000
00000000
00000000
00000000
00000000
00000000
00000000
00000000
00000000
00000000
00000000
00000000
00000000
00000000
00000000
00000000
00000000
00000000
00000000
00000000
00000000
00000000
00000000
00000000
00000000
00000000
00000000
00000000
00000000
00000000
00000000
00000000
00000000
00000000
00000000
00000000
00000000
00000000
00000000
00000000
00000000
00000000
00000000
00000000
00000000
00000000
00000000
00000000
00000000
00000000
00000000
00000000
00001002
00000003
00000000
00000000
00000000
00000000
00000000
00000000
00000000
00000000
00000000
00000000
00000000
00000000
00000000
00000000
00000000
00000000
00000000
00000000
00000000
00000000
00000000
00000000
00002001
00003000
00000000
00000000
00000000
00000000
00000000
00000000
00000000
00000000
00000000
00000000
,
00000000
00000000
00000000
00000000
00000000
00000000
00000000
00000000
00000000
00000000
00000000
00000000
00001002
00000003
00000000
00000000
00000000
00000000
00000000
00000000
00000000
00000000
00000000
00000000
00000000
00000000
00000000
00000000
00000000
00000000
00000000
00000000
00000000
00000000
00000000
00000000
00000000
00000000
00000000
00000000
00000000
00000000
00000000
00000000
00000000
00000000
00000000
00000000
00000000
00000000
00000000
00000000
00000000
00000000
00000000
00000000
00000000
00000000
00000000
00000000
00000000
00000000
00000000
00000000
00000000
00000000
00000000
00000000
00000000
00000000
00000000
00000000
00000000
00000000
00000000
00000000
00000000
00000000
00000000
00000000
00000000
00000000
00000000
00000000
00000000
00000000
00000000
00000000
00000000
00000000
00000000
00000000
00000000
00000000
00000000
00000000
00000000
00000000
00000000
00000000
00000000
00000000
00000000
00000000
00000000
00000000
00000000
00000000
00000000
00000000
00000000
00000000
00000000
00000000
00000000
00000000
00000000
00000000
00000000
00000000
00000000
00000000
00000000
00000000
00000000
00000000
00000000
00000000
00000000
00000000
00000000
00000000
00000000
00000000
00000000
00000000
00000000
00000000
00000000
00000000
00000000
00000000
00000000
00000000
00000000
00000000
00000000
00000000
00000000
00000000
00000000
00000000
00000000
00000000
00000000
00000000
00000000
00000000
00000000
00000000
00000000
00000000
00000000
00000000
00000000
00000000
00000000
00000000
00000000
00000000
00000000
00000000
00000000
00000000
00000000
00000000
00000000
00000000
00000000
00000000
00000000
00000000
00000000
00000000
00000000
00000000
00000000
00000000
00000000
00000000
00000000
00000000
,
00000011
00000001
00001000
00001010
00000000
00000010
00010000
00011000
,
00000000
00001000
00010000
00100000
10000000
01000000
01100000
00100000
,
00001000
00011000
00000000
00010000
00001000
00001100
00000000
00000100
,
00000001
00000010
00000100
00010000
00011000
00001000
00100000
00110000
,
00000000
00010000
10000000
10100000
00000000
10000000
00100000
00010000
,
00001000
00010000
00010100
00000100
00001000
00001001
00000000
00000110
,
00000000
00000000
00001001
00000000
00000000
00000000
00000001
00000010
00000001
00000010
00000100
00001000
00000100
00010000
00001000
00000000
,
00011000
00010000
00000010
00001010
00000000
00000001
00000100
00001100
,
00000000
00001000
00010000
00100000
10000000
01000000
01100000
00100000
,
00001000
00011000
00000000
00010000
00000100
00001100
00000000
00000100
,
00000010
00000001
00000100
00000010
00001010
00001000
00000001
00000011
,
00000000
00000100
00001000
00001100
00000000
00000001
00000100
00001000
,
00010000
00000000
00100000
00000000
10000000
01000000
10000000
00000000
00100000
01000000
00100000
00000000
10000000
00000000
01000000
00000000
,
00010000
00001000
00000010
00000001
00000100
00001000
00020000
00000000
,
00000000
00030000
10010000
00000000
00000000
00000000
00000000
00000000
;
