#TITLE:Vairocana;
#ARTIST:五条式改;
#ARTISTTRANSLIT:Gojoushiki Kai;
#GENRE:CYBER GAGAKU;
#BANNER:Vairocana.png;
#BACKGROUND:Vairocana-bg.png;
#CDTITLE:./CDTitles/pnm 12 Iroha.png;
#MUSIC:Vairocana.ogg;
#SAMPLESTART:28.949;
#SAMPLELENGTH:15;
#BPMS:0=145,70=290,166=250,172=270,178=290;
#TIMESIGNATURES:0=4=4,64=6=4,70=4=4,106=6=4,202=4=4,210=6=4,216=4=4,224=6=4,230=4=4,238=6=4,244=4=4,252=6=4,258=4=4,434=6=4,440=4=4;
#BGSTAGE:3;

//--------------- dance-single - Fred-104 ----------------
#NOTES:
     dance-single:
     Fred-104:
     Beginner:
     6:
     :
0000
0000
0000
0000
,
0000
0000
0000
0000
,
0000
0000
0000
0000
,
0000
0000
0000
0000
,
0000
0000
0000
0000
,
2000
0000
0000
0000
,
0000
0000
3000
0000
,
0002
0000
0000
0003
,
2000
0000
0000
3000
,
0002
0000
0000
0003
,
0020
0000
0000
0030
,
0200
0000
0000
0300
,
2000
3000
0002
0003
,
2000
3000
0020
0030
,
0002
0003
0200
0300
,
2000
3000
0002
0003
,
1000
0100
0010
0001
,
0001
1000
0001
0000
,
0000
0000
0001
0000
,
0000
0000
0100
0000
,
0010
0000
0100
0000
,
0000
0000
0001
0000
,
0000
0000
1000
0000
,
0100
0000
1000
0000
,
1000
0000
0001
0000
,
0000
0000
1000
0000
,
0000
0000
0010
0000
,
1000
0000
1000
0000
,
0002
0000
0000
0000
,
0000
0003
1000
0000
,
1000
0000
1000
0000
,
2000
0000
0000
0000
,
0000
3000
0001
0000
,
0001
0000
0001
0000
,
0002
0000
0000
0000
,
0000
0003
1000
0000
,
0000
0100
0000
0000
,
0001
0000
0000
0001
,
0000
0000
0001
0000
,
0000
0100
0000
0000
,
1000
0000
0000
1000
,
0000
0000
0002
0000
,
0000
0000
0000
0003
,
2000
0000
0000
0000
,
0000
3000
0001
0000
,
0010
0000
1000
0000
,
2000
0000
0000
0000
,
0000
3000
1000
0000
,
0010
0000
0001
0000
,
0002
0000
0000
0000
,
0000
0003
1000
0000
,
1000
0000
1000
0000
,
1000
0000
0001
0000
,
1000
0000
0010
0000
,
0100
0000
0100
0000
,
0100
0000
0100
0000
,
0001
0000
1000
0000
,
0100
0000
0010
0000
,
0010
0000
0010
0000
,
0010
0000
0001
0000
,
1000
0000
0010
0000
,
1000
0000
1000
0000
,
1000
0000
1000
0000
,
0001
0000
0001
0000
,
0001
0000
1001
0000
,
0000
0000
0000
0000
,
0000
0000
0000
0000
,
0000
0000
0000
0000
,
0000
0000
0000
0000
,
0000
0000
0000
0000
,
0000
0000
0000
0000
,
0000
0000
0000
0000
,
0000
0000
1000
0000
,
0000
0010
0000
0000
,
0001
0000
0001
0000
,
0000
0100
0000
0000
,
1000
0000
0001
0000
,
0001
0000
1000
0000
,
1000
0000
0010
0000
,
0100
0000
0002
0000
,
0000
0003
1000
0000
,
0000
1000
0000
0000
,
1000
0000
0010
0000
,
0010
0000
0100
0000
,
0100
0000
0001
0000
,
1000
0000
0001
0000
,
0000
0000
0010
0000
,
0000
0010
0000
0000
,
0010
0000
0100
0000
,
1000
0000
0001
0000
,
0000
0001
0000
0000
,
0100
0000
1000
0000
,
0000
1000
0000
0000
,
0010
0000
0001
0000
,
0000
0001
0000
0000
,
1000
0000
1000
0000
,
0000
0100
0000
0000
,
0010
0000
0001
0000
,
0000
1000
0000
0000
,
0001
0000
0001
0000
,
0000
0000
1000
0000
,
0000
0000
0010
0000
,
0010
0000
0100
0000
,
0000
0000
0001
0000
,
0000
0000
1000
0000
,
1000
0000
0100
0000
,
0000
0000
0100
0000
,
0000
0000
0010
0000
,
0010
0000
0001
0000
,
0001
0000
0001
0000
,
2002
0000
0000
0000
,
0000
0000
0000
0000
,
3003
0000
0000
0000
;

//--------------- dance-single - Fred-104 ----------------
#NOTES:
     dance-single:
     Fred-104:
     Easy:
     11:
     :
0000
0000
0000
0000
,
0000
0000
0000
0000
,
0000
0000
0000
0000
,
0000
0000
0000
0000
,
0000
0000
0000
0000
,
2000
0000
0000
0000
,
0000
0000
3100
0010
,
0002
0000
0000
0000
,
0203
0000
0000
0300
,
0220
0000
0000
0330
,
2002
0000
0000
3003
,
0220
0000
0000
0330
,
1000
1000
0000
0000
0001
0001
0000
0000
,
1000
1000
0000
0000
0100
0100
0000
0000
,
0010
0010
0000
0000
0001
0001
0000
0000
,
0100
0100
0000
0000
0010
0010
0000
0000
,
0100
0100
0000
0010
0100
0100
0000
0001
,
1000
0100
0010
0001
1000
0000
0000
0000
,
0010
0000
1000
0000
,
0100
0000
0010
0000
,
0001
0000
0100
0000
,
0010
0000
0100
0000
,
0001
0000
0010
0000
,
0100
1000
0100
0000
,
1000
0000
0001
1000
,
0001
0000
0100
0010
,
0100
0000
0001
0000
,
1000
0000
0100
0000
,
0020
0000
0032
0000
,
2003
0000
3001
0000
,
0100
0000
0010
0000
,
0220
0000
0000
0000
,
0330
0000
1000
0000
,
0100
0000
0010
0000
,
0022
0000
0000
0000
,
0033
0000
1000
0100
,
1000
0001
0100
0001
,
1000
0010
1000
0001
,
0000
1001
0000
0000
0001
0000
0010
0000
,
0001
1000
0010
1000
,
0001
0100
0001
1000
,
0000
1001
0000
0000
0100
0000
0000
0000
,
0100
0000
0100
0000
,
0100
0000
0100
0000
,
0110
0000
0001
0010
,
0001
0010
0100
1000
,
0001
2000
0000
0000
,
0000
3000
1000
0010
,
1000
0100
0010
0001
,
1000
0002
0000
0000
,
0000
0003
1001
0000
,
0110
0000
1001
0000
,
1000
1000
0100
1000
,
0001
0100
0010
0000
,
0110
0000
1001
0000
,
0110
0000
1000
1000
,
0001
0100
0010
1000
,
0100
0000
1100
0000
,
0011
0000
1001
0000
,
0001
1000
0001
0010
,
0010
0100
1000
0000
,
1010
0000
0101
0000
,
1100
0000
0001
1000
,
0001
0010
0100
1000
,
0001
0000
1001
0000
,
0000
0000
0000
0000
,
1000
0000
0001
0000
,
0000
0000
0000
0000
,
0001
0000
1000
0000
,
0000
0000
0000
0000
,
0000
0000
0002
0000
,
0000
0000
2000
0000
,
0000
0000
3003
0000
0001
0000
0000
0001
,
0000
0000
0001
0000
0000
0001
0000
0000
,
0001
0000
0000
0000
1000
0000
0000
1000
,
0000
0000
1000
0000
0000
1000
0000
0000
,
1000
0000
0001
0100
,
1000
0000
0001
0010
,
1000
0000
0100
0010
,
0001
0100
0010
1000
,
0001
0000
1000
0000
,
0100
0000
0010
0000
,
0001
1000
0010
1000
,
0010
0000
0100
0001
,
0100
0000
0001
1000
,
0010
1000
0001
0010
,
0100
1000
0001
0000
,
0100
0000
0010
0000
,
0100
0001
1000
0100
,
0010
0000
0000
0000
0001
0000
0000
1000
,
0000
0000
0010
0000
0000
1000
0000
0000
,
0001
0000
0000
0000
1000
0000
0000
0001
,
0000
0000
0010
0000
0000
0001
0000
0000
,
1000
0000
0000
0000
0001
0000
0000
1000
,
0000
0000
0100
0000
0000
1000
0000
0000
,
0001
0000
0000
0000
1000
0000
0000
0001
,
0000
0000
0100
0000
0000
0001
0000
0000
,
1000
0000
0000
0000
0001
0000
0000
0010
,
0000
0000
0100
0000
0000
1000
0000
0000
,
0001
0000
1000
0100
,
1000
0000
0100
0010
,
0001
0000
0010
0001
,
1000
0000
0010
1000
,
0001
0000
0010
0100
,
1000
0000
0001
1000
,
0010
0000
0100
0001
,
1000
0000
0100
0010
,
0001
0000
1000
0001
,
1000
0000
0001
0000
,
0010
0000
0100
0000
,
2002
0000
0000
0000
,
0000
0000
0000
0000
,
3003
0000
0000
0000
;

//--------------- dance-single - Fred-104 ----------------
#NOTES:
     dance-single:
     Fred-104:
     Medium:
     13:
     :
0000
0000
0000
0000
,
0000
0000
0000
0000
,
0000
0000
0000
0000
,
0000
0000
0000
0000
,
0000
0000
0000
0000
,
0002
0000
0000
0000
,
0000
0000
0000
0000
0013
0100
1000
0000
,
2200
0000
0000
3300
,
0202
0000
0000
0303
,
0220
0000
0000
0330
,
2002
0000
0000
3003
,
2020
0000
0000
3030
,
0001
0001
0000
0000
1000
1000
0000
0000
,
0010
0010
0100
0000
0001
0001
1000
0000
,
0100
0100
0010
0000
0001
0001
1000
0010
,
0100
0100
0001
0000
0010
0010
0100
1000
,
0001
0100
0000
1000
0100
0001
0000
1000
,
0100
0001
0100
1000
0001
0100
0000
0001
,
0100
0001
1000
0100
,
0010
0001
1000
0010
,
1000
0001
0010
0100
,
0010
0001
1000
0010
,
1000
0001
1000
0100
,
0010
0001
0010
0000
0001
0000
1000
0000
,
0010
0100
0010
1000
,
0100
0010
0001
0100
,
0010
1000
0001
0010
,
1000
0001
0100
1000
,
0002
0203
2300
3002
,
0023
0000
2030
0000
3100
0010
0000
0010
,
0000
0010
0001
0000
1000
0000
0001
0000
,
0202
0000
0000
0000
,
0000
0000
0303
0000
0001
1000
0000
1000
,
0000
1000
0010
0000
1000
0000
0100
0000
,
0220
0000
0000
0000
,
0000
0330
0001
0100
,
1000
0100
0001
1000
,
0100
0001
0100
1000
,
0000
1001
0000
0000
0001
0000
0010
0000
,
1000
0010
0001
1000
,
0010
0001
0010
1000
,
0000
1001
0000
0000
1002
0000
0000
0000
,
1000
0000
1003
0000
,
2001
0000
0001
0000
,
3001
0000
1000
0100
,
0001
1000
0010
0001
,
0010
0100
0010
0000
0100
0000
1000
0000
,
0001
0000
1000
0001
,
0100
1000
0001
0010
,
1000
0001
1000
0000
0100
0000
0010
0000
,
0001
0000
0000
0000
1001
0000
0000
1000
,
0010
0000
0000
0010
0100
0000
0001
0000
,
1000
0100
0000
0100
0010
0000
0001
0000
,
1000
1000
0001
0001
,
1001
0000
0000
1000
0010
0000
0000
0010
,
1000
0000
0001
0000
0010
0100
0000
0100
,
0010
0001
0100
0100
,
0010
0000
0010
0000
0110
0000
0000
0100
,
0001
0000
0000
0001
1000
0000
0010
0000
,
1000
0001
0000
0001
0010
0000
0100
0000
,
1000
1000
0001
0001
,
1001
0000
0000
0001
0100
0000
0000
0100
,
0010
0100
0001
1000
,
0100
0010
0001
0100
,
0010
0000
1001
0000
,
0000
0000
0000
0000
,
1000
0000
0100
0000
,
0000
0000
0000
0000
,
0001
0000
0010
0000
,
0000
0000
0000
0000
,
0000
0000
2000
0000
,
0000
0000
0002
0000
,
0000
0000
3003
0000
1000
0100
0000
1000
,
0100
0000
0010
0001
0000
0001
0000
0001
,
1000
0000
0000
0000
0001
0100
0000
0001
,
0100
0000
0010
1000
0000
1000
0000
1000
,
0001
0000
1000
0100
,
0001
0100
1000
0010
,
0001
0010
1000
0100
,
0010
0000
0001
0000
1000
0010
1000
0000
,
0001
0010
0001
0000
1000
0000
0000
0100
,
0000
0000
0001
0000
0000
0100
0000
0000
,
1000
0001
0100
0010
,
1000
0001
0010
0100
,
1000
0010
0100
0001
,
1000
0100
0001
0100
,
1000
0001
1000
0000
0001
0000
0000
0100
,
0000
0000
1000
0000
0000
0100
0000
0000
,
0001
1000
0010
0100
,
0010
0000
1000
0000
0001
0010
0000
0001
,
0010
0000
0100
1000
0000
0100
1000
0000
,
0002
0000
0003
0000
1000
0010
0000
1000
,
0010
0000
0100
0001
0000
0100
0001
0000
,
2000
0000
3000
0000
0001
0100
0000
0001
,
0100
0000
0010
1000
0000
0010
1000
0000
,
0002
0000
0003
0000
1000
0100
0000
1000
,
0100
0000
0010
0001
0000
0010
0001
0000
,
2000
0000
3000
0000
0001
0100
0000
0010
,
1000
0000
0001
0010
0000
0100
1000
0000
,
0001
1000
0001
0000
1000
0100
1000
0000
,
0010
0100
0010
0100
,
0001
0000
1000
0000
0001
0100
0001
0000
,
0010
0000
0100
0000
1000
0100
1000
0000
,
0001
0000
0100
0000
0010
1000
0010
0000
,
1000
0000
0001
0000
0100
0010
0100
0000
,
0010
1000
0010
0000
1000
0001
1000
0000
,
0001
0010
0100
0001
,
0100
0000
1000
0000
0001
0100
0001
0000
,
1000
0100
1000
0000
0001
0010
0001
0000
,
1000
0010
1000
0000
0001
1000
0001
0000
,
2002
0000
0000
0000
,
0000
0000
0000
0000
,
3003
0000
0000
0000
;

//--------------- dance-single - Fred-104 ----------------
#NOTES:
     dance-single:
     Fred-104:
     Hard:
     16:
     :
0000
0000
0000
0000
,
0000
0000
0000
0000
,
0000
0000
0000
0000
,
0000
0000
0000
0000
,
0000
0000
0000
0000
,
0002
0000
0000
0000
,
0000
0000
0000
0000
1003
0001
0100
0010
,
0200
0000
0000
0000
0000
0000
0000
0000
0000
0000
0000
0000
0000
0000
0301
1000
,
0002
0000
0000
0000
0000
0000
0000
0003
,
2002
0000
0000
0000
0000
0000
0000
0000
0000
0000
0000
0000
3003
0000
1000
0100
,
0020
0000
0000
0000
0000
0000
0000
0000
0000
0031
1000
0010
,
0200
0000
0000
0000
0000
1300
0100
0001
,
0101
0100
0010
1000
1100
0100
0010
0001
,
1001
1000
0001
0100
0110
0010
1000
0001
,
0011
0000
0010
0000
0100
0000
1000
0000
1010
0000
0010
0000
0100
0001
0100
0001
,
0100
0000
0101
0000
0001
0000
0010
0000
0100
0000
1100
0000
1000
0000
0001
0100
,
0010
0000
0110
0000
0000
1000
0010
1000
0010
0000
0110
0000
0000
0001
1000
0100
,
1000
0000
0010
0100
0010
0100
0001
0000
1000
0000
0010
0000
1000
0000
0001
0000
,
0010
0000
0100
0010
0001
1000
0001
0000
,
0100
0001
0100
0000
0010
1000
0001
1000
,
0010
1000
0001
0000
0010
0100
1000
0000
,
0010
1000
0100
0000
0010
0001
1000
0000
,
0010
1000
0001
0010
0100
0000
1000
0001
,
0100
0001
1000
0000
0001
0010
0100
0010
,
0100
1000
0001
0000
0100
0010
1000
0010
,
0100
0001
1000
0000
0100
0010
0001
1000
,
0010
1000
0001
0010
0100
0010
0001
1000
,
0010
0100
0010
1000
0001
0010
0100
0000
,
2000
3200
0302
2003
,
3020
0000
0032
0000
1003
0010
1000
0010
,
0100
0010
0100
0010
1000
0001
0010
0100
,
1000
0002
0000
0000
0000
0000
0000
0000
,
0000
0000
0003
0000
0100
0010
0100
0010
,
0100
0001
1000
0001
0010
0100
1000
0001
,
0100
0020
0000
0000
0000
0000
0000
0000
,
0000
0000
0030
0000
1000
0010
1000
0010
,
1000
0000
0001
0010
0001
0010
0001
0000
,
1000
0100
1000
0100
1000
0000
0001
0100
,
0000
0110
0000
0000
0001
0100
0001
0100
,
0001
0000
1000
0100
1000
0100
1000
0000
,
0001
0010
0001
0010
0001
0000
1000
0010
,
0000
0110
0000
0000
0001
0100
0000
0100
,
0001
0000
1000
0000
0100
0000
0010
0100
,
0010
0100
0000
0100
0010
0001
1000
0100
,
1000
0010
1000
0000
0001
0100
0001
1000
,
0100
1000
0001
0100
0010
1000
0001
0010
,
0200
1000
0000
1300
0001
0000
0100
0000
,
0001
0000
1000
0000
0100
0010
0001
1000
,
0010
1000
0001
0010
0100
0010
0001
1000
,
0020
0100
0000
0130
0001
0000
1000
0000
,
0100
0000
0010
0000
0011
0000
0001
0100
,
0001
0000
1000
0100
1000
0000
0001
0000
,
0100
0010
0000
0010
0100
0000
0001
0000
,
1000
0100
0110
0010
,
1001
0000
1000
0100
1000
0000
0001
0100
,
0001
0000
1000
0000
0100
0010
0000
0010
,
0001
1000
0010
0100
,
0101
0000
0001
0000
1001
0000
0001
0010
,
0001
0000
0100
0010
0100
0000
0001
0000
,
1000
0100
0000
0100
0010
0000
0100
0000
,
1000
0001
0101
0100
,
0110
0000
1000
0001
1000
0000
0001
0100
,
0001
0000
1000
0000
0100
0010
0001
0000
,
1000
0010
1000
0001
0010
0100
1000
0001
,
0100
0010
0100
0000
0001
0000
0000
0000
,
0000
0000
0000
0000
,
1000
0000
0100
0000
,
0000
0000
0000
0000
,
0001
0000
0100
0000
,
0000
0000
0000
0000
,
0000
0000
2000
0000
,
0000
0000
0002
0000
,
0000
0000
3003
0000
1000
0100
0000
0100
,
0010
0000
0010
0001
0000
0001
0000
1000
,
0001
0000
0100
0001
1000
0010
0000
0010
,
0100
0000
0100
0001
0000
0001
0000
1000
,
0001
0000
1000
0100
0010
0100
1000
0100
,
0010
0001
0010
0000
0001
1000
0010
1000
,
0001
0100
0001
0000
1000
0001
0010
0001
,
1000
0001
0010
0001
1000
0010
0100
0001
,
1000
0010
1000
0000
0001
0010
0001
0010
,
0000
0000
1000
0010
1000
0010
0000
0000
,
0001
0010
0100
1000
0001
0100
0001
0100
,
0010
0100
0001
0000
1000
0100
1000
0100
,
0010
0100
1000
0100
1000
0001
0100
0001
,
0100
0010
1000
0001
1000
0100
0010
0001
,
0100
0010
2000
0000
3001
0100
0001
0100
,
0000
0000
1000
0100
1000
0100
0000
0000
,
0001
1000
0010
0100
0001
1000
0100
1000
,
0001
0100
0010
0000
1000
0010
0000
0001
,
0010
0000
1000
0010
0000
0001
0010
0000
,
1000
0000
0001
1000
0001
0010
0000
1000
,
0010
0000
0001
0010
0000
1000
0010
0000
,
0001
0000
1000
0001
1000
0100
0000
0001
,
0100
0000
1000
0100
0000
0001
0100
0000
,
1000
0000
0001
1000
0001
0100
0000
1000
,
0100
0000
0001
0100
0000
1000
0100
0000
,
0001
0000
1000
0001
1000
0100
0000
0001
,
0100
0000
0010
1000
0000
0010
0001
0000
,
1000
0001
1000
0000
0001
0010
0001
0010
,
0100
1000
0100
1000
0001
0100
0010
1000
,
0010
0100
0001
1000
0100
0010
0001
0010
,
0100
1000
0001
0100
0001
1000
0100
1000
,
0001
0100
0010
0100
0001
0010
0100
1000
,
0001
1000
0010
0100
0010
1000
0100
0010
,
0100
0010
0001
0000
1000
0100
1000
0010
,
0100
0001
1000
0100
0010
0100
1000
0001
,
0100
0001
1000
0001
0010
0100
1000
0001
,
0100
0010
1000
0001
1000
0100
0010
0001
,
0100
0010
1000
0001
0010
0100
1000
0001
,
0200
0000
0000
0000
,
0000
0000
0000
0000
,
0300
0000
0000
0000
;

//--------------- dance-single - Fred-104 writes an 18.999 ----------------
#NOTES:
     dance-single:
     Fred-104 writes an 18.999:
     Challenge:
     18:
     :
0000
0000
0000
0000
,
0000
0000
0000
0000
,
0000
0000
0000
0000
,
0000
0000
0000
0000
,
0000
0000
0000
0000
0000
0000
0100
0001
,
2000
0000
0000
0000
,
0000
0000
0000
0000
3100
0010
0001
1000
,
0020
0000
0000
0000
0000
0000
0000
0000
0000
0000
0000
0000
0000
0000
0130
0001
,
0020
0000
0000
0000
0000
0000
0000
0030
,
2002
0000
0000
0000
0000
0000
0000
0000
0000
0000
3003
0000
0000
0000
0010
1000
,
0002
0000
0000
0000
0000
0000
0000
0000
0000
1003
0100
0001
,
0200
0000
0000
0000
0000
0310
0001
1000
,
1010
1000
0001
0010
0110
0100
1000
0001
,
0101
0010
1000
0100
1100
0010
0001
0100
,
0011
0000
0100
0000
0001
0000
1000
0000
1010
0000
0100
0000
1000
0001
0100
0010
,
0110
0000
0001
0000
1000
0000
0100
0000
0110
0000
0001
0000
1000
0000
0010
1000
,
0001
0000
1001
0000
0000
1000
0100
1000
0001
0000
0011
0000
0000
0100
0001
1000
,
0001
0010
0100
1000
0010
0100
0001
0010
0100
0000
1000
0000
0001
0000
1000
0000
,
0010
0100
0010
1000
0001
0010
0100
0010
,
0001
1000
0010
1000
0001
1000
0100
0010
,
0100
0010
0001
1000
0010
1000
0001
1000
,
0001
0010
0100
1000
0010
1000
0100
0010
,
0001
1000
0010
0100
0010
1000
0100
0010
,
0001
1000
0100
0010
0001
1000
0010
1000
,
0001
0010
0100
1000
0010
0100
0001
0100
,
0010
1000
0100
1000
0001
0100
0001
0010
,
0100
1000
0001
0100
0010
1000
0010
0100
,
0001
1000
0100
0010
0001
0100
0010
1000
,
0001
0010
0001
0010
0100
1000
0001
0100
0001
0100
0010
1000
,
0001
0000
0010
0000
0100
0000
1000
0000
0100
0000
0010
0000
0001
0000
0000
1000
0000
0000
0100
0000
0000
1000
0000
0000
,
0100
0001
1000
0010
1000
0010
0001
1000
,
0001
0011
0000
0110
0000
1100
0000
1010
,
0000
1001
0000
1000
0001
0010
0001
0010
,
1000
0001
0100
0001
0100
1000
0010
0100
,
0001
0101
0000
0110
0000
1010
0000
1100
,
0000
1001
0000
0001
1000
0100
0100
0010
,
0100
0100
1000
0010
0010
0100
0010
0010
,
1000
0100
0100
0001
0100
0100
1000
0001
,
1000
1001
0000
0000
0001
0100
0100
0010
,
0100
0100
0001
0010
0010
0100
0010
0010
,
0001
0100
0100
1000
0100
0100
0001
1000
,
0001
0001
0010
0100
2000
0010
0000
0010
,
0010
0000
3010
0000
1001
0000
0001
1000
,
0001
0000
0100
0000
0000
0000
0100
0000
0010
1000
0010
1000
0010
0000
0100
0000
,
0001
1000
0001
1000
0100
0000
0010
0000
0001
0000
0100
0000
0010
0000
0001
0000
,
0010
0100
0001
0010
0100
0001
0100
0010
,
0001
0010
0001
1000
0010
1000
0100
1000
,
0010
1000
0001
0000
1000
0100
0010
1000
,
0010
0100
1000
0010
0100
1000
0100
0010
,
1000
0010
1000
0001
0010
0001
0100
0001
,
0010
0001
1000
0000
1100
1000
0001
0100
,
0110
0010
1000
0001
0011
0010
0100
1000
,
0001
0100
0000
0100
0001
0010
0100
1000
,
0010
0100
1000
0100
0101
0000
1001
0000
,
0101
0100
0010
1000
1010
0010
1000
0001
,
0011
0010
0100
1000
0001
0100
0000
0100
,
0010
1000
0100
1000
0010
0100
0001
1000
,
1100
0000
0011
0000
1001
1000
0100
0010
,
0011
0001
1000
0010
0110
0100
0001
1000
,
0100
0010
0000
0010
0001
1000
0010
1000
,
0100
0010
0001
0100
0110
0000
1001
0000
,
1100
1000
0001
0100
0110
0010
0100
0001
,
1001
1000
0100
0010
0001
1000
0010
1000
,
0001
0010
0100
0010
0100
1000
0001
0100
0010
1000
0010
0100
,
0001
1000
0100
0010
0001
1000
0001
0000
0000
0000
0000
0000
,
0000
0000
0000
0000
,
0100
0000
1000
0000
,
0000
0000
0000
0000
,
0010
0000
0011
0000
,
0000
0000
0000
0000
,
0000
0000
0000
0000
0000
0000
1000
0100
0010
0001
0010
0100
,
1000
0001
1000
0002
0000
0000
1003
0010
0100
0001
0100
0010
,
1000
0000
0001
0000
1000
0000
0002
0000
0000
0000
0000
0000
1003
0000
0000
0010
0000
0000
0000
0000
0000
0001
0000
0000
,
0010
0000
1000
0100
0000
0001
0000
0100
,
1000
0000
0001
1000
0001
0100
0000
1000
,
0100
0000
0001
0010
0000
1000
0000
0010
,
0001
0000
1000
0001
1000
0100
0010
0001
,
1000
0010
0100
0001
0010
1000
0001
0100
,
1000
0100
0020
0000
0031
1000
0010
0100
,
0010
0000
0000
1000
0000
0000
0100
0000
0000
1000
0000
0000
0001
0000
0100
0000
0001
0000
0100
0000
0010
0000
1000
0000
,
0001
1000
0100
0010
0001
0100
0010
0100
,
2000
0000
3001
0010
0100
0010
2000
0000
,
3001
0010
0100
1000
0001
0100
0010
1000
,
0100
0010
0100
1000
0100
0010
1000
0001
,
0100
1000
0001
0100
1000
0100
1000
0100
,
0010
1000
0001
0001
1000
0100
0001
1000
,
0010
0001
2000
0000
3001
0010
0100
0010
,
2000
0000
3001
0100
0010
0100
2000
0000
,
3001
1000
0100
0010
0001
0100
0010
0001
,
1000
0100
0001
1000
0001
0101
0000
1000
,
1100
0000
0001
0011
0000
1000
1010
0000
,
1001
1000
0001
0100
0010
1010
0000
0010
,
0011
0000
0010
1010
0000
0010
0110
0000
,
0101
0001
0010
0100
1000
1100
0000
0001
,
0101
0000
1000
1100
0000
0001
0101
0000
,
1001
1000
0001
0010
0100
1100
0000
0100
,
0101
0000
0100
1100
0000
0100
0110
0000
,
0011
0001
1000
0010
0110
0100
0001
1000
,
0100
0010
0011
0001
1000
0010
0100
0001
,
1001
1000
1001
0000
1000
0100
1000
0010
,
0100
0001
1000
0100
0010
0100
0001
1000
,
0010
0001
1000
0010
0100
0001
0010
0001
,
0100
0010
1000
0001
1000
0010
0100
1000
,
0100
0010
0001
0010
1000
0001
0010
0100
,
0001
0100
0010
1000
0010
0100
0001
0100
,
1000
0000
0000
0001
0000
0000
0100
0000
0000
0001
0000
0000
1000
0000
0100
0000
0010
0000
0001
0000
0010
0000
0100
0000
,
1000
0000
0000
0010
0000
0000
0100
0000
0000
0001
0000
0000
1000
0000
0100
0000
1000
0000
0001
0000
0100
0000
0001
0000
,
0010
0000
0000
0100
0000
0000
0010
0000
0000
0001
0000
0000
0100
0000
0001
0000
1000
0000
0100
0000
1000
0000
0001
0000
,
0100
0010
1000
0001
0100
0001
1000
0100
0010
0001
1000
0100
,
1000
0001
0100
0010
0100
0001
1000
0100
0010
0001
1000
0001
,
0200
0000
0000
0000
,
0000
0000
0000
0000
,
0300
0000
0000
0000
;

//--------------- dance-double - Fred-104 ----------------
#NOTES:
     dance-double:
     Fred-104:
     Easy:
     12:
     :
00000000
00000000
00000000
00000000
,
00000000
00000000
00000000
00000000
,
00000000
00000000
00000000
00000000
,
00000000
00000000
00000000
00000000
,
00000000
00000000
00000000
00000000
,
00000002
00000000
00000000
00000000
,
00000000
00000000
00000103
00001000
,
00020000
00000000
00000000
00000000
,
00002000
00000000
00000000
00033000
,
02200000
00000000
00000000
03300000
,
20020000
00000000
00000000
30030000
,
02200000
00000000
00000000
03300000
,
10000000
01000000
00010000
00001000
,
00010000
00010000
00010000
00000000
00001000
00001000
00001000
00000000
,
00000010
00000010
00000010
00000000
00000001
00000001
00000001
00000000
,
00000100
00000100
00000100
00000000
00001000
00001000
00001000
00000000
,
00010000
00010000
00000000
00001000
01000000
01000000
00000000
00100000
,
10000000
01000000
00010000
00000000
00001000
00000000
00000000
00010000
,
00000000
00000000
00000100
00000000
00000000
00001000
00000000
00000000
,
00000100
00000010
00000001
00001000
,
00000010
00001000
00000001
00000010
,
00000100
00000000
00010000
00001000
,
01000000
00010000
01000000
00010000
,
01000000
00010000
10000000
01000000
,
00100000
00000000
00010000
00100000
,
00001000
00000000
00010000
00001000
,
00000010
00000000
00000001
00001000
,
00000001
00000010
00000100
00010000
,
00002000
00000000
00023000
00000000
,
00230000
00000000
10300000
01000000
,
10000000
01000000
00100000
00000000
,
00022000
00000000
00000000
00000000
,
00000000
00033000
00010000
00001000
,
00000100
00000001
00000010
00000000
,
00002002
00000000
00000000
00000000
,
00000000
00003003
00000001
00000001
,
00000000
00000100
00000100
00000000
,
00001000
00001000
00000000
00010000
,
00000000
00011000
00000000
00000000
00001000
00000000
00001000
00000000
,
00000000
00010000
00010000
00000000
,
00100000
00100000
00000000
10000000
,
00000000
10010000
00000000
00000000
20000000
00000000
00000000
00000000
,
32000000
00000000
03200000
00000000
,
00301000
00000000
00001000
00000000
,
00010000
00000000
00001000
00010000
,
00000100
00000010
00000001
00000100
,
00001000
00020000
00000000
00000000
,
00000000
00030000
00001000
00010000
,
00100000
10000000
01000000
00100000
,
00001000
00020000
00000000
00000000
,
00000000
00030000
00011000
00000000
,
00010010
00000000
00011000
00000000
,
00010000
00000100
00001000
00000100
,
00000010
00000001
00001000
00000000
,
00001001
00000000
00000110
00000000
,
00001001
00000000
00000001
00001000
,
00000010
00001000
00000010
00010000
,
00001000
00000000
00011000
00000000
,
01100000
00000000
10010000
00000000
,
00010000
00100000
01000000
10000000
,
00100000
01000000
00010000
00000000
,
11000000
00000000
01010000
00000000
,
11000000
00000000
00010000
10000000
,
01000000
00010000
00001000
00010000
,
00100000
10000000
10010000
00000000
,
00000000
00000000
00000000
00000000
,
10000000
00000000
01000000
00000000
,
00000000
00000000
00000000
00000000
,
00100000
00000000
00001000
00000000
,
00000000
00000000
00000000
00000000
,
00000000
00000000
02000000
00000000
,
00000000
00000000
00200000
00000000
,
00000000
00000000
03300000
00000000
01000000
00000000
00000000
01000000
,
00000000
00000000
01000000
00000000
00000000
01000000
00000000
00000000
,
00010000
00000000
10000000
00000000
01000000
00000000
00000000
01000000
,
00000000
00000000
00100000
00000000
00000000
00100000
00000000
00000000
,
00001000
00010000
00001000
00000100
,
00000010
00001000
00000100
00000010
,
00000001
00001000
00000010
00000100
,
00001000
00010000
00001000
00001000
,
00011000
00000000
00000000
00000000
00010000
00000000
00000000
00010000
,
00000000
00000000
00010000
00000000
00000000
00010000
00000000
00000000
,
00010000
00001000
00000100
00000010
,
00000100
00000001
00001000
00000100
,
00000010
00001000
00010000
00100000
,
01000000
00100000
01000000
00010000
,
10000000
00000000
00000000
00000000
01000000
00000000
00000000
00100000
,
00000000
00000000
00001000
00000000
00000000
00010000
00000000
00000000
,
00001000
00010000
00000100
00010000
,
00001000
00000000
01000000
00000000
00010000
00000000
00000000
00100000
,
00000000
00000000
01000000
00000000
00000000
10000000
00000000
00000000
,
00010000
00000000
10000000
00000000
01000000
00000000
00000000
00100000
,
00000000
00000000
00001000
00000000
00000000
00010000
00000000
00000000
,
00000100
00000000
00001000
00000000
00000001
00000000
00000000
00000100
,
00000000
00000000
00000001
00000000
00000000
00000010
00000000
00000000
,
00000100
00000000
00001000
00000000
00000100
00000000
00000000
00010000
,
00000000
00000000
00001000
00000000
00000000
01000000
00000000
00000000
,
00010000
00000000
10000000
00000000
01000000
00000000
00000000
00100000
,
00000000
00000000
00001000
00000000
00000000
00010000
00000000
00000000
,
00001000
00001000
00010000
00001000
,
01000000
00010000
00100000
01000000
,
10000000
00010000
01000000
00100000
,
00010000
00001000
00010000
00000100
,
00000010
00000001
00001000
00000010
,
00000100
00000010
00001000
00000100
,
00000010
00001000
00010000
00001000
,
01000000
00010000
00100000
00001000
,
01000000
00100000
00010000
00001000
,
01000000
00001000
00010000
00001000
,
00000100
00000001
00001000
00000001
,
00002002
00000000
00000000
00000000
,
00000000
00000000
00000000
00000000
,
00003003
00000000
00000000
00000000
;

//--------------- dance-double - Fred-104 ----------------
#NOTES:
     dance-double:
     Fred-104:
     Medium:
     14:
     :
00000000
00000000
00000000
00000000
,
00000000
00000000
00000000
00000000
,
00000000
00000000
00000000
00000000
,
00000000
00000000
00000000
00000000
,
00000000
00000000
00000000
00000000
,
20000000
00000000
00000000
00000000
,
00000000
00000000
00000000
00000000
30100000
00010000
00001000
00010000
,
00000020
00000000
00000000
00000000
00000000
00000000
00000000
00000000
00000000
00000000
00000000
00000000
00000000
00000000
00001030
00000001
,
00002000
00000000
00000000
00000000
00000000
00000000
00000000
00003000
,
00002002
00000000
00000000
00000000
00000000
00000000
00000000
00000000
00000000
00000000
00000000
00000000
00003003
00000000
00000001
00000010
,
00000200
00000000
00000000
00000000
00000000
00000000
00000000
00000000
00000000
00010300
00001000
00010000
,
00002000
00000000
00000000
00000000
00000000
00013000
00100000
01000000
,
00010000
00100000
01000000
00000000
10000000
00100000
01000000
00000000
,
00010000
10000000
00100000
00000000
00010000
00000010
00001000
00000000
,
00000100
00000010
00000001
00000000
00000100
00001000
00010000
00001000
,
00100000
00000000
01000000
00000000
10000000
00000000
00000000
00000000
00100000
00000000
00010000
00000000
00001000
00000000
00010000
00001000
,
00010000
00000000
00011000
00000000
00000000
00000000
00010000
00000010
00001000
00000000
00001001
00000000
00000000
00000000
00000001
00000010
,
00000001
00000000
00000010
00000100
00001000
00000100
00010000
00000000
00001000
00000000
00100000
00000000
00000000
00000000
00010000
00000000
,
10000000
00000000
00010000
00100000
00000000
01000000
00100000
00000000
,
00010000
10000000
00010000
00000000
10000000
00000000
00100000
00000000
,
01000000
00010000
01000000
00000000
00001000
00000000
00010000
00000000
,
00000010
00001000
00000010
00000000
00001000
00000001
00001000
00000000
,
00000001
00000010
00000001
00000000
00000010
00000100
00000010
00000000
,
00000100
00001000
00000100
00000000
00010000
00000000
00001000
00000000
,
00100000
01000000
00100000
00000000
00010000
00000000
10000000
00000000
,
00100000
10000000
00100000
00000000
01000000
00000000
00010000
00000000
,
00100000
00001000
00100000
00000000
00001000
00010000
00001000
00000000
,
00000100
00000010
00000100
00000000
00000001
00001000
00000001
00000000
,
00001000
00000001
00000100
00001000
,
00010000
00000000
00001000
00000000
00000100
00000001
00000000
00000001
,
00000000
00000001
00000010
00000000
00000100
00000000
00010000
00000000
,
00001000
00020000
00000000
00000000
00000000
00000000
00000000
00000000
,
00000000
00000000
00030000
00000000
00001000
00010000
00000000
00010000
,
00000000
00010000
00100000
00000000
10000000
00000000
01000000
00000000
,
00100000
02000000
00000000
00000000
00000000
00000000
00000000
00000000
,
00000000
03000000
10000000
00100000
,
00010000
00001000
00000100
00000001
,
00000010
00001000
00010000
00001000
,
00000000
00011000
00000000
00000000
00001000
00000000
00010000
00000000
,
01000000
10000000
00100000
00010000
,
00001000
00000100
00000001
00000010
,
00000000
00000110
00000000
00000000
00021000
00000000
00000000
00000000
,
00001000
00000000
00031000
00000000
,
00012000
00000000
00010000
00000000
,
00013000
00000000
00000000
00000000
00001000
00010000
00001000
00000000
,
00100000
00010000
10000000
00100000
,
00010000
00001000
00010000
00000000
,
00011000
00000000
00000000
00000000
00010000
00001000
00010000
00000000
,
00000010
00001000
00000100
00000010
,
00000001
00000100
00001000
00000000
,
00011000
00000000
00000000
00000000
01001000
00000000
00000000
01000000
,
00010000
00000000
00000000
00010000
00100000
00000000
01000000
00000000
,
10000000
00010000
00000000
00010000
10000000
00000000
00100000
00000000
,
00010000
00000000
00001000
00001000
,
00011000
00000000
00000000
00010000
00000010
00000000
00000000
00000010
,
00001000
00000000
00000001
00000000
00000010
00000100
00000000
00000100
,
00010000
00001000
00100000
00000000
,
01000000
00000000
01000000
00000000
11000000
00000000
00000000
10000000
,
00010000
00000000
00000000
00010000
01000000
00000000
00100000
00000000
,
00010000
00001000
00000000
00001000
00010000
00000000
00000010
00000000
,
00001000
00000000
00000100
00000100
,
00000110
00000000
00000000
00000001
00000010
00000000
00000000
00000010
,
00000100
00000000
00010000
00000000
00001000
00010000
00001000
00000000
,
00010000
00000010
00010000
00000000
00000010
00001000
00000010
00000000
,
00000100
00000001
00000100
00000000
00001001
00000000
00000000
00000000
,
00000000
00000000
00000000
00000000
,
00000001
00000000
00000010
00000000
,
00000000
00000000
00000000
00000000
,
00001000
00000000
00010000
00000000
,
00000000
00000000
00000000
00000000
,
00000000
00000000
00000020
00000000
,
00000000
00000000
00000200
00000000
,
00000000
00000000
00000330
00000000
00000001
00000010
00000000
00000001
,
00000010
00000000
00000100
00010000
00000000
00010000
00000000
00010000
,
00001000
00000000
00010000
00000000
00100000
10000000
00000000
00100000
,
10000000
00000000
00010000
00100000
00000000
00100000
00000000
00100000
,
01000000
00000000
10000000
00000000
00010000
01000000
00010000
00000000
,
10000000
00000000
01000000
00000000
00100000
00010000
00100000
00000000
,
00001000
00010000
00001000
00000000
01000000
00010000
01000000
00010000
,
01000000
00010000
01000000
00010000
10000000
00000000
01000000
00000000
,
00100000
00000000
00010000
00000000
10000000
00000000
00000000
01000000
,
00000000
00000000
00010000
00000000
00000000
01000000
00000000
00000000
,
10000000
00100000
01000000
00100000
,
00010000
00001000
00100000
00001000
,
00010000
00100000
01000000
00010000
,
10000000
01000000
00010000
00001000
,
00000100
00000001
00001000
00000000
00000001
00000000
00000000
00000010
,
00000000
00000000
00001000
00000000
00000000
00000010
00000000
00000000
,
00000001
00000100
00001000
00010000
,
00100000
00000000
10000000
00000000
01000000
00100000
00000000
01000000
,
00100000
00000000
00001000
00010000
00000000
00001000
00010000
00000000
,
00000010
00000000
00001000
00000000
00000100
00000010
00000000
00000100
,
00000010
00000000
00000001
00000100
00000000
00000001
00000100
00000000
,
00000010
00000000
00001000
00000000
00000100
00010000
00000000
00000100
,
00010000
00000000
00001000
01000000
00000000
00001000
01000000
00000000
,
00010000
00000000
00100000
00000000
01000000
00100000
00000000
01000000
,
00100000
00000000
00010000
10000000
00000000
00010000
10000000
00000000
,
00100000
00000000
00010000
00000000
00001000
00010000
00000000
00001000
,
00010000
00000000
00000010
00001000
00000000
00000010
00010000
00000000
,
00001000
00010000
00001000
00000000
00010000
00000100
00010000
00000000
,
00001000
00000010
00001000
00010000
,
00100000
00000000
00010000
00000000
00001000
00010000
00001000
00000000
,
00010000
01000000
00100000
00010000
,
01000000
00000000
00100000
00000000
00010000
00001000
00010000
00000000
,
00000010
00000000
00001000
00000000
00000100
00000010
00000100
00000000
,
00000010
00000001
00000010
00000000
00000001
00000200
00000301
00000000
,
00000010
00000000
00000100
00000000
00010000
00001000
00010000
00000000
,
00001000
00000000
01000000
00000000
00010000
00100000
00010000
00000000
,
10000000
00000000
00100000
00000000
01000000
00010000
01000000
00010000
,
01000000
00001000
00010000
00001000
00010000
00000100
00010000
00000000
,
00022000
00000000
00000000
00000000
,
00000000
00000000
00000000
00000000
,
00033000
00000000
00000000
00000000
;

//--------------- dance-double - Fred-104 ----------------
#NOTES:
     dance-double:
     Fred-104:
     Hard:
     16:
     :
00000000
00000000
00000000
00000000
,
00000000
00000000
00000000
00000000
,
00000000
00000000
00000000
00000000
,
00000000
00000000
00000000
00000000
,
00000000
00000000
00000000
00000000
,
00020000
00000000
00000000
00000000
,
00000000
00000000
00000000
00000000
00031000
00010000
01000000
00100000
,
00020000
00000000
00000000
00000000
00000000
00000000
00000000
00000000
00000000
00000000
00000000
00000000
00000000
00000000
10030000
00010000
,
20000000
00000000
00000000
00000000
00000000
00000000
00000000
30000000
,
20020000
00000000
00000000
00000000
00000000
00000000
00000000
00000000
00000000
00000000
00000000
00000000
30030000
00000000
10000000
01000000
,
00020000
00000000
00000000
00000000
00000000
00000000
00000000
00000000
00000000
00031000
00000100
00000001
,
00000020
00000000
00000000
00000000
00000000
00000130
00001000
00000100
,
00010000
00010000
00001000
01000000
00010000
00010000
00100000
01000000
,
10000000
10000000
00100000
00010000
00001000
00001000
00000010
00000001
,
00001000
00000000
00001000
00000000
00000100
00000000
00000010
00000000
00001000
00000000
00001000
00000000
00010000
00001000
00010000
00001000
,
00010000
00000000
00010000
00000000
00100000
00000000
01000000
00000000
00010000
00000000
00010000
00000000
10000000
00000000
01000000
00100000
,
01000000
00000000
01100000
00000000
00000000
00100000
00001000
00100000
00001000
00000000
00011000
00000000
00000000
00010000
00000010
00010000
,
00000010
00000000
00001000
00000100
00000010
00000001
00001000
00000000
00000001
00000000
00000010
00000000
00000001
00000000
00000010
00000000
,
00000100
00001000
00000100
00000000
00010000
00001000
00100000
00001000
,
00010000
00001000
01000000
00000000
00010000
00100000
01000000
00000000
,
00100000
01000000
10000000
00000000
00010000
10000000
00100000
10000000
,
00010000
10000000
01000000
00000000
00100000
00001000
00010000
00001000
,
00100000
00001000
00010000
00000000
00001000
00000100
00000001
00000000
,
00001000
00000100
00000010
00000000
00000001
00001000
00000100
00001000
,
00000001
00000100
00000010
00000000
00000100
00001000
00010000
00001000
,
00100000
00010000
10000000
00000000
00100000
01000000
00010000
00000000
,
10000000
01000000
00100000
00000000
00001000
00010000
00000100
00010000
,
00001000
00010000
00000010
00010000
00001000
00100000
00010000
00000000
,
20000000
30200000
00320000
00032000
,
00003200
00000000
00000302
00000000
00000013
00000100
00000000
00000100
,
00000000
00001000
00000001
00000100
00000010
00000100
00001000
00010000
,
00001000
02000000
00000000
00000000
00000000
00000000
00000000
00000000
,
00000000
00000000
03000000
00000000
00010000
10000000
00000000
10000000
,
00000000
01000000
00100000
00001000
00010000
00000100
00000010
00000001
,
00000100
00002000
00000000
00000000
00000000
00000000
00000000
00000000
,
00000000
00000000
00003000
00000000
00010000
00001000
00010000
00001000
,
00010000
00000000
00000010
00001000
00000010
00001000
00000010
00000000
,
00010000
00001000
00010000
00001000
00010000
00000000
00001000
00100000
,
00000000
00110000
00000000
00000000
00001000
00010000
00001000
00010000
,
00001000
00000000
01000000
00010000
01000000
00010000
01000000
00000000
,
00001000
00010000
00001000
00010000
00001000
00000000
00010000
00000100
,
00000000
00001100
00000000
00000000
00000010
00000001
00000000
00000010
,
00000001
00000000
00000100
00000000
00001000
00000000
00010000
00001000
,
01000000
00010000
00000000
00010000
00100000
01000000
10000000
00010000
,
01000000
00100000
10000000
00000000
00010000
00100000
01000000
00100000
,
00010000
00100000
01000000
00100000
00010000
10000000
00100000
00010000
,
00001000
00010000
00000000
00010000
00000100
00001000
00000000
00001000
,
00000001
00000000
00001000
00000000
00000100
00000010
00000001
00000010
,
00000100
00000010
00000001
00001000
00000010
00010000
00001000
00100000
,
01000000
10000000
00000000
10000000
00100000
01000000
00000000
01000000
,
00010000
00000000
10000000
00000000
01100000
00000000
00000000
00010000
,
01000000
00000000
00000000
10000000
01000000
00000000
00010000
00000000
,
10000000
01000000
00000000
01000000
00100000
00000000
00001000
00000000
,
00010000
00000100
00010000
00010000
,
00011000
00000000
00000000
00010000
00001000
00000000
00000000
00000100
,
00000001
00000000
00000010
00000000
00000100
00001000
00000000
00001000
,
00000001
00000100
00000010
00000100
,
00001000
00000000
00001000
00000000
00011000
00000000
00010000
00001000
,
00100000
00000000
00010000
01000000
00100000
00000000
01000000
00000000
,
00010000
00100000
00000000
00100000
01000000
00000000
00100000
00000000
,
00010000
00000000
10000000
00100000
00010000
00000000
00001000
00000000
,
00011000
00000000
00010000
00000100
00001000
00000000
00000100
00000010
,
00000001
00000000
00001000
00000000
00000001
00000100
00000001
00000000
,
00001000
00000100
00010000
00001000
01000000
00010000
01000000
00001000
,
00010000
00001000
00010000
00000000
00001000
00000000
00000000
00000000
,
00000000
00000000
00000000
00000000
,
00010000
00000000
00100000
00000000
,
00000000
00000000
00000000
00000000
,
10000000
00000000
01000000
00000000
,
00000000
00000000
00000000
00000000
,
00000000
00000000
00020000
00000000
,
00000000
00000000
00002000
00000000
,
00000000
00000000
00033000
00000000
00010000
00001000
00000000
00100000
,
00010000
00000000
10000000
00010000
00000000
00010000
00000000
00010000
,
01000000
00000000
00100000
10000000
01000000
00100000
00000000
00001000
,
00010000
00000000
00000100
00000010
00000000
00000010
00000000
00000010
,
00000001
00000000
00001000
00000000
00000001
00000100
00000001
00000000
,
00000100
00001000
00000100
00000000
00001000
00010000
00001000
00000000
,
00010000
01000000
00010000
00000000
01000000
10000000
00010000
10000000
,
00100000
01000000
00010000
00100000
01000000
00100000
00001000
00010000
,
00000010
00001000
00000001
00000000
00001000
00000100
00001000
00000100
,
00000000
00000000
00000001
00000100
00000001
00000100
00000000
00000000
,
00001000
00000100
00000010
00000001
00001000
00000010
00010000
00001000
,
00100000
00010000
01000000
00010000
00100000
01000000
10000000
00010000
,
01000000
00100000
00010000
00001000
00010000
00001000
00010000
00000100
,
00001000
00000001
00000100
00000010
00001000
00000001
00000010
00001000
,
00010000
00100000
10000000
00000000
00010000
00100000
00010000
00100000
,
00000000
00000000
10000000
00100000
10000000
00100000
00000000
00000000
,
00010000
10000000
00100000
01000000
00001000
00010000
00000100
00000010
,
00000001
00001000
00000010
00001000
00000001
00000100
00000000
00001000
,
00000100
00000000
00000001
00000100
00000000
00001000
00010000
00000000
,
01000000
00000000
10000000
00010000
10000000
01000000
00000000
00010000
,
01000000
00000000
10000000
01000000
00000000
00010000
00001000
00000000
,
00000100
00000000
00000001
00001000
00000001
00000010
00000000
00001000
,
00010000
00000000
00001000
00000010
00000000
00001000
00010000
00000000
,
00100000
00000000
10000000
00010000
10000000
01000000
00000000
00010000
,
00001000
00000000
00010000
01000000
00000000
00010000
00001000
00000000
,
00000100
00000000
00000001
00001000
00000001
00000010
00000000
00000100
,
00010000
00000000
00001000
00100000
00000000
01000000
10000000
00000000
,
00010000
10000000
00010000
00000000
10000000
01000000
10000000
01000000
,
00010000
00001000
00010000
00001000
00000010
00000100
00000010
00000001
,
00001000
00000010
00000100
00000010
00001000
00000001
00000010
00000100
,
00001000
00000100
00010000
00001000
01000000
00010000
00100000
00001000
,
01000000
00010000
00100000
00001000
01000000
00010000
10000000
01000000
,
00100000
00010000
00100000
00001000
00010000
00001000
00010000
00000100
,
00000010
00000001
00001000
00000000
00000001
00000100
00000010
00000100
,
00001000
00010000
00100000
01000000
10000000
01000000
00100000
10000000
,
00010000
00100000
00001000
00010000
00001000
00010000
00000100
00000010
,
00000001
00001000
00000010
00001000
00000001
00000010
00000100
00000010
,
00001000
00010000
01000000
00100000
00010000
10000000
00100000
00010000
,
00002000
00000000
00000000
00000000
,
00000000
00000000
00000000
00000000
,
00003000
00000000
00000000
00000000
;

//--------------- dance-double - Fred-104 writes an 18.999 ----------------
#NOTES:
     dance-double:
     Fred-104 writes an 18.999:
     Challenge:
     18:
     :
00000000
00000000
00000000
00000000
,
00000000
00000000
00000000
00000000
,
00000000
00000000
00000000
00000000
,
00000000
00000000
00000000
00000000
,
00000000
00000000
00000000
00000000
00000000
00000000
00001000
00010000
,
00002000
00000000
00000000
00000000
,
00000000
00000000
00000000
00000000
00013000
00001000
00000100
00000001
,
00000020
00000000
00000000
00000000
00000000
00000000
00000000
00000000
00000000
00000000
00000000
00000000
00000000
00000000
00001030
00010000
,
00002000
00000000
00000000
00000000
00000000
00000000
00000000
00003000
,
00022000
00000000
00000000
00000000
00000000
00000000
00000000
00000000
00000000
00000000
00000000
00000000
00003000
00000000
00031000
00010000
,
02000000
00000000
00000000
00000000
00000000
00000000
00000000
00000000
00000000
13000000
00100000
00010000
,
00002000
00000000
00000000
00000000
00000000
00003010
00000100
00000010
,
00000001
00000001
00000100
00001000
00010000
00010000
00100000
10000000
,
01000000
01000000
00100000
00001000
00010000
00010000
00001000
00000010
,
00000100
00000000
00000100
00000000
00000010
00000000
00000001
00000000
00000100
00000000
00000100
00000000
00001000
00010000
00001000
00010000
,
00001000
00000000
00001000
00000000
00010000
00000000
00100000
00000000
10000000
00000000
10000000
00000000
01000000
00000000
00100000
00001000
,
00010000
00000000
00011000
00000000
00000000
00010000
00001000
00000100
00000001
00000000
00000011
00000000
00000000
00000100
00001000
00000001
,
00000100
00000010
00001000
00000100
00010000
01000000
10000000
01000000
00100000
00000000
00010000
00000000
10000000
00000000
00100000
00000000
,
10000000
00010000
00100000
01000000
00100000
00010000
00100000
00001000
,
00000010
00000100
00001000
00000010
00000100
00000001
00000010
00000100
,
00001000
00000010
00010000
00001000
00010000
00100000
01000000
00010000
,
00100000
01000000
10000000
00010000
01000000
00100000
01000000
10000000
,
01000000
00100000
10000000
01000000
00010000
00001000
00000100
00000001
,
00001000
00000100
00000010
00000001
00001000
00000001
00000100
00001000
,
00010000
00001000
00000010
00001000
00010000
00100000
00010000
00001000
,
00010000
01000000
10000000
00010000
01000000
00100000
10000000
01000000
,
00100000
00010000
00100000
00001000
00010000
00001000
00000010
00000100
,
00000001
00000100
00000010
00000001
00000100
00000010
00001000
00000001
,
00000010
00000001
00000010
00000001
00000010
00000100
00001000
00000100
00010000
00001000
00100000
00010000
,
00100000
00000000
00010000
00000000
00100000
00000000
01000000
00000000
10000000
00000000
00010000
00000000
10000000
00000000
00000000
00100000
00000000
00000000
01000000
00000000
00000000
00100000
00000000
00000000
,
00010000
00001000
00000100
00000010
00000100
00000001
00001000
00000100
,
00000010
00000001
00000000
00000101
00000000
00001100
00000000
00000101
,
00000000
00001001
00000000
00001000
00000001
00000010
00000100
00000010
,
00001000
00010000
01000000
00100000
01000000
10000000
00010000
01000000
,
00100000
10000000
00000000
11000000
00000000
01010000
00000000
11000000
,
00000000
10010000
00000000
00010000
10000000
10000000
01000000
00100000
,
00100000
00001000
00010000
00010000
00000010
00001000
00001000
00000100
,
00000010
00000010
00000001
00000100
00000100
00001000
00010000
00001000
,
00001000
00011000
00000000
00000000
00001000
00001000
00010000
00100000
,
00100000
10000000
01000000
01000000
00100000
00001000
00001000
00010000
,
00000100
00000100
00000010
00000001
00000001
00000100
00000100
00001000
,
00010000
00001000
00010000
00100000
02000000
00010000
00000000
00010000
,
00010000
00000000
10000000
00000000
03010000
00000000
10000000
01000000
,
00100000
00000000
00100000
00000000
00000000
00000000
00001000
00000000
00001000
00010000
00001000
00000000
00010000
00000000
00000100
00000000
,
00001000
00000001
00001000
00000000
00000100
00000000
00000010
00000000
00000001
00000000
00001000
00000000
00000010
00000000
00000001
00000000
,
00000010
00000100
00001000
00010000
00100000
10000000
00010000
00100000
,
01000000
10000000
00100000
10000000
01000000
00100000
01000000
10000000
,
00100000
00010000
00100000
00000000
10000000
00010000
00100000
10000000
,
00100000
01000000
00010000
00001000
00000010
00000001
00001000
00000010
,
00000100
00000001
00000010
00001000
00000010
00000001
00000100
00001000
,
00010000
01000000
00100000
00000000
10010000
00000000
00010000
00100000
,
01100000
00000000
10000000
00100000
01100000
01000000
00010000
10000000
,
01000000
00100000
00000000
00100000
00001000
00010000
00001000
00000100
,
00000001
00001000
00000100
00000010
00000011
00000000
00001001
00000000
,
00000110
00000000
00000001
00000100
00000101
00000000
00001000
00000100
,
00001100
00001000
00000001
00000100
00000010
00000100
00000000
00000100
,
00001000
00010000
00100000
10000000
00010000
00100000
10000000
00100000
,
00110000
00000000
10010000
00000000
01100000
00000000
10000000
01000000
,
01100000
00000000
00010000
01000000
01100000
00100000
10000000
01000000
,
00010000
00001000
00000000
00001000
00010000
00000100
00000010
00000001
,
00000100
00000010
00000100
00001000
00011000
00000000
00011000
00000000
,
00101000
00000000
00001000
00010000
00010100
00000000
00010000
00001000
,
01001000
01000000
00010000
10000000
01000000
00100000
00010000
10000000
,
00100000
01000000
00010000
10000000
01000000
00100000
00010000
00100000
00001000
00010000
00000100
00001000
,
00000100
00000010
00000001
00001000
00000010
00001000
00000001
00000000
00000000
00000000
00000000
00000000
,
00000000
00000000
00000000
00000000
,
00001000
00000000
00010000
00000000
,
00000000
00000000
00000000
00000000
,
10000000
00000000
10010000
00000000
,
00000000
00000000
00000000
00000000
,
00000000
00000000
00000000
00000000
00000000
00000000
10000000
01000000
10000000
01000000
00100000
00010000
,
00100000
00001000
00010000
00002000
00000000
00000000
00013000
00000100
00001000
00000100
00001000
00000100
,
00000010
00000000
00000001
00000000
00000010
00000000
00000002
00000000
00000000
00000000
00000000
00000000
00001003
00000000
00000000
00000001
00000000
00000000
00000000
00000000
00000000
00000100
00000000
00000000
,
00010000
00000000
00000100
00000001
00000000
00000100
00000000
00010000
,
00001000
00000000
00010000
00100000
10000000
00100000
00000000
00001000
,
00100000
00000000
10000000
00100000
00000000
00010000
00000000
00100000
,
10000000
00000000
01000000
00100000
00001000
00010000
00000100
00000010
,
00000001
00000100
00000010
00001000
00000100
00010000
00001000
01000000
,
00010000
00100000
02000000
00000000
13000000
00100000
01000000
00001000
,
00010000
00001000
00000100
00000010
00001000
00000001
00000010
00001000
,
00010000
00001000
01000000
00001000
00010000
00001000
00000010
00001000
,
00020000
00000000
00031000
00010000
00100000
00010000
00002000
00000000
,
00013000
00001000
00000100
00000001
00001000
00000001
00000100
00000010
,
00000100
00000001
00000010
00000100
00000010
00001000
00010000
01000000
,
00100000
00010000
10000000
00010000
01000000
00100000
00010000
00001000
,
00000100
00000010
00000001
00000010
00001000
00000001
00000010
00000100
,
00000010
00001000
00020000
00000000
00031000
00010000
01000000
00010000
,
00002000
00000000
00013000
00001000
00000100
00001000
00020000
00000000
,
00031000
00010000
00100000
10000000
00010000
00100000
01000000
00010000
,
00001000
00000010
00000100
00010000
00001000
00010000
00100000
10000000
,
00010000
10000000
01000000
00010000
00001000
00000010
00000001
00001000
,
00000001
00000100
00001000
00010000
00001000
00010000
01000000
10000000
,
00010000
10000000
00100000
00010000
00001000
00000100
00000001
00001000
,
00000001
00000010
00001000
00010000
00001000
00010000
00100000
01000000
,
00010000
00100000
01000000
00010000
00001000
00000010
00000100
00001000
,
00000010
00000100
00001000
00010000
00001000
00010000
01000000
00100000
,
00010000
01000000
00100000
00010000
00001000
00000100
00000010
00001000
,
00000100
00000010
00001000
00010000
00001000
00010000
00100000
01000000
,
00010000
00100000
01000000
10000000
00100000
00010000
00001000
00000100
,
00000001
00000010
00000110
00000000
00001000
00000001
00000010
00010000
,
00001000
01000000
10000000
00010000
10000000
00100000
00001000
00010000
,
00000100
00000001
00001000
00000010
00000100
00000001
00000010
00000100
,
00001000
00000010
00000100
00001000
00010000
00001000
00100000
01000000
,
00010000
01000000
10000000
00010000
01000000
00100000
00010000
00001000
,
00010000
00000100
00000010
00000001
00001000
00000010
00000001
00000010
,
00010000
00001000
01000000
00010000
10000000
01000000
00001000
00010000
,
00000010
00000001
00001000
00000001
00000100
00010000
00001000
00100000
,
10000000
00010000
00100000
01000000
00010000
00001000
00000010
00000001
,
00001000
00000000
00000000
00000010
00000000
00000000
00010000
00000000
00000000
00001000
00000000
00000000
00010000
00000000
00000100
00000000
00001000
00000000
00000100
00000000
00000010
00000000
00000001
00000000
,
00001000
00000010
00010000
00001000
00100000
00001000
00100000
00010000
00100000
01000000
10000000
01000000
,
20000000
00000000
00000000
00000000
,
00000000
00000000
00000000
00000000
,
30000000
00000000
00000000
00000000
;
