#TITLE:V;
#ARTIST:TAKA;
#GENRE:PROGRESSIVE;
#BANNER:V.png;
#BACKGROUND:V-bg.png;
#CDTITLE:./CDTitles/bm IIDX 5th style.png;
#MUSIC:V.ogg;
#SAMPLESTART:62.400;
#SAMPLELENGTH:15;
#BPMS:0=150;
#STAGE:22;

//--------------- dance-single - Fred-104 ----------------
#NOTES:
     dance-single:
     Fred-104:
     Beginner:
     3:
     :
0000
0000
0000
0000
,
0000
0000
0000
0000
,
0000
0000
0000
0000
,
0000
0000
0000
0000
,
0100
0000
0100
0000
,
0100
0000
0100
0000
,
0001
0000
0001
0000
,
0010
0000
0010
0000
,
0001
0000
0001
0000
,
0001
0000
0001
0000
,
0100
0100
0100
0000
,
1000
1000
1000
0000
,
0001
0001
0001
0000
,
1000
0000
0001
0000
,
0010
0000
0000
0000
,
0100
0000
0000
0000
,
1000
0000
0001
0000
,
1000
0000
0001
0000
,
2002
0000
0000
0000
,
0000
0000
0000
0000
,
3003
0000
0000
0000
,
1000
0000
0010
0000
,
0100
0000
0001
0000
,
2002
0000
0000
0000
,
0000
0000
0000
0000
,
3003
0000
0000
0000
,
0100
0000
0010
0000
,
1000
0000
0001
0000
,
2002
0000
0000
0000
,
0000
0000
0000
0000
,
3003
0000
0000
0000
,
1000
0000
0001
0000
,
0100
0000
0010
0000
,
2000
0000
3000
0000
,
1000
0000
0010
0000
,
1000
0000
0001
0000
,
0100
0000
0001
0000
,
1000
0000
1000
0000
,
0001
0000
0001
0000
,
1001
0000
0000
0000
,
1000
0000
0001
0000
,
1001
0000
0000
0000
,
0100
0000
0010
0000
,
1001
0000
0000
0000
,
0010
0000
0100
0000
,
1001
0000
0000
0000
,
0001
0000
1000
0000
,
0001
0000
0000
0000
,
1000
0000
0000
0000
,
0010
0000
0010
0000
,
0100
0000
0100
0000
,
0001
0000
1000
0000
,
0001
0000
1000
0000
,
0001
0000
1000
0000
,
0010
0000
0010
0000
,
0001
0000
1000
0000
,
0100
0000
1000
0000
,
0001
0000
1000
0000
,
2002
0000
3003
0000
,
2002
0000
3003
0000
,
0001
0000
1000
0000
,
0010
0000
0100
0000
,
0010
0000
1000
1000
,
0000
0010
0000
1000
,
1000
0000
0001
0001
,
0000
0010
0000
0001
,
0001
0000
1000
1000
,
0000
0100
0000
1000
,
1000
0000
0001
0000
,
1000
1000
1000
1000
,
2000
0000
3000
0000
,
0002
0000
0003
0000
,
0200
0000
0300
0000
,
0020
0000
0030
0000
,
2002
0000
3003
0000
,
1000
0000
0001
0000
,
2002
0000
0000
0000
,
0000
0000
0000
0000
,
3003
0000
0000
0000
;

//--------------- dance-single - Fred-104 ----------------
#NOTES:
     dance-single:
     Fred-104:
     Easy:
     7:
     :
0000
0000
0000
0000
,
0000
0000
0000
0000
,
0000
0000
0000
0000
,
0000
0000
0000
0000
,
1100
0000
0100
0000
,
0100
0000
0100
0000
,
1001
0000
0001
0000
,
1010
0000
0010
0000
,
0101
0000
0001
0000
,
0001
0000
0001
0000
,
0100
0100
0100
0000
,
1100
1000
1100
0000
,
0001
0001
0001
0000
,
1001
0001
1001
0000
,
0020
0000
0000
0030
,
0200
0000
0000
0300
,
2000
3000
0002
0003
,
0001
0001
1000
1000
,
2002
0000
0000
0000
,
0000
0000
0000
3003
,
0100
0100
0100
0100
,
0001
0000
1000
0000
,
0010
0010
1000
0001
,
2002
0000
0000
0000
,
0000
0000
0000
3003
,
0010
0010
0010
0010
,
1000
0000
0010
0000
,
0100
0001
1000
0001
,
2002
0000
0000
0000
,
0000
0000
0000
3003
,
0001
0001
0001
0001
,
1000
1000
0100
0100
,
0001
0001
0010
0010
,
1000
0001
1000
0001
,
1000
1100
0100
0010
,
0001
0101
0100
0010
,
1000
1010
0010
0100
,
0001
0011
0010
0100
,
1000
1000
0001
0001
,
2002
0000
0000
3003
0100
0000
0100
0000
,
0010
0001
1000
0010
,
0220
0000
0000
0330
0010
0000
0010
0000
,
1000
0001
1000
0100
,
2002
0000
0000
3003
0001
0000
0100
0000
,
0010
1000
0100
0010
,
0220
0000
0000
0330
0010
0000
0001
0000
,
1000
0001
0100
0010
,
1000
0100
1000
0100
,
0010
0001
0010
0001
,
0100
0010
0100
0010
,
1000
0001
1000
0001
,
0100
0010
0100
0010
,
0001
0000
1000
0100
,
0010
0010
0001
0001
,
0100
0000
0100
0000
,
1000
0000
0001
0100
,
0010
0010
1000
1000
,
0100
0000
0100
0000
,
0010
0000
0022
0033
,
0100
0000
2200
3300
,
0010
0001
1000
1000
,
0200
0300
0020
0030
,
2002
0000
0000
3003
1000
0000
1000
0000
,
0010
0100
0100
0001
,
2002
0000
0000
3003
0010
0000
0010
0000
,
0100
0001
1000
0001
,
0220
0000
0000
0330
0010
0000
0010
0000
,
1000
0100
0010
0001
,
2002
0000
0000
3003
0001
0000
0001
0000
,
0100
0010
0100
0000
0010
0100
0010
0000
,
1000
0100
0010
0001
,
1000
0001
0100
0010
,
1000
0001
0010
0100
,
1000
0010
0100
0100
,
0001
0100
0010
0010
,
1000
1000
0001
0001
,
2002
0000
0000
0000
,
0000
0000
0000
0000
,
3003
0000
0000
0000
;

//--------------- dance-single - Fred-104 ----------------
#NOTES:
     dance-single:
     Fred-104:
     Medium:
     10:
     :
0000
0000
0000
0000
,
0000
0000
0000
0000
,
0000
0000
0000
0000
,
0000
0000
0000
0000
,
0101
0100
0100
0100
,
0100
0100
0100
0100
,
1001
1000
1000
1000
,
0011
0000
0010
0000
0010
0000
1000
0100
,
0011
0010
0010
0010
,
0010
0010
0010
0010
,
0101
0000
0001
0100
0001
0000
0001
0000
,
0001
0000
0001
0100
0001
0000
0001
0000
,
1001
0000
1000
0100
1000
0000
1000
0000
,
1000
0000
1000
0100
1000
0000
1000
0000
,
0022
0000
0000
0033
,
2020
0000
0000
3030
,
0202
0303
2200
3300
,
0001
0100
0001
0000
1000
0100
1000
0000
,
2002
0000
0000
0000
,
0000
0000
0000
3003
,
0100
0100
0100
0100
,
0001
0100
0001
0000
1000
0100
1000
0000
,
0001
0100
0010
1000
0100
0010
0001
0000
,
2002
0000
0000
0000
,
0000
0000
0000
3003
,
0010
0010
0010
0010
,
1000
0010
0100
0000
0001
1000
0100
0000
,
0010
0100
1000
0001
0100
0001
1000
0000
,
2002
0000
0000
0000
,
0000
0000
0000
3003
,
1000
0100
0010
0001
,
1000
1000
0010
0010
,
0001
0001
0100
0100
,
1000
0001
1000
0001
0100
0010
0100
0010
,
1000
0000
1020
0000
0130
0010
0100
0000
,
0001
0000
0021
0000
0130
0010
0100
0000
,
1000
0000
1200
0000
0310
0001
1000
0000
,
0001
0000
0201
0000
0310
1000
0100
0000
,
0001
1000
0001
1000
0010
0100
0010
0100
,
0002
0000
0000
0000
1003
0010
0100
0010
,
1000
1100
0001
0101
,
2000
0000
0000
0000
3010
0100
0001
1000
,
0001
0011
1000
1010
,
0020
0000
0000
0000
0130
0010
1000
0010
,
0100
0110
0001
1001
,
0200
0000
0000
0000
0310
1000
0001
1000
,
0001
0100
0001
0100
0010
1000
0010
1000
,
0001
0010
0100
1000
,
0010
0100
0010
1000
,
0001
0100
1000
0100
,
0001
0100
1000
0100
,
0001
0010
1000
0010
,
0001
0010
1000
0010
,
0001
0010
1000
0010
,
0001
0100
1000
0001
,
0010
1000
0001
0100
,
1000
0010
0001
1000
,
0010
0001
1000
0001
,
2002
0000
3003
0000
0100
0010
0100
0000
,
0220
0000
0330
0000
1000
0001
1000
0000
,
0001
0100
0001
0000
1000
0010
0100
0000
,
0001
1000
0001
1000
0010
0100
0010
0100
,
0002
0000
0000
0000
1003
1000
0010
0100
,
0001
0010
0100
1000
0010
0100
0001
1000
,
0001
0100
0001
0100
1000
0100
1000
0100
,
0001
0100
0010
1000
0001
0010
0100
1000
,
0001
0010
0001
0010
1000
0010
1000
0010
,
0001
1000
0010
0100
0010
1000
0100
0010
,
0001
0100
0001
0100
1000
0100
1000
0100
,
0001
0100
0010
1000
0001
0001
0100
0010
,
2000
0000
3020
0000
0130
0001
1000
0000
,
0002
0000
0023
0000
0130
1000
0001
0000
,
0200
0000
0320
0000
1030
0010
0100
0000
,
0001
0100
0001
0100
0001
0001
0101
0000
,
1000
0100
1000
0100
1000
1000
1100
0000
,
1000
0100
0001
0100
1000
0010
0001
0010
,
2002
0000
0000
0000
,
0000
0000
0000
0000
,
3003
0000
0000
0000
;

//--------------- dance-single - Fred-104 ----------------
#NOTES:
     dance-single:
     Fred-104:
     Hard:
     15:
     :
0000
0000
0000
0000
,
0000
0000
0000
0000
,
0000
0000
0000
0000
,
0000
0000
0000
0000
,
0110
0100
0100
0100
,
0100
0000
0100
0000
0100
0000
0100
0010
,
1001
0000
0001
0000
0001
0000
0001
1000
,
1010
0000
0000
0000
0010
0000
0000
0000
0010
0000
0000
0000
2000
3000
0200
0300
,
0011
0010
0010
0010
,
0010
0000
0000
0000
0010
0000
0000
0000
0010
0000
0000
0001
0010
0000
0100
0000
,
1000
0100
1000
0000
0100
1000
0100
0000
0010
0001
0010
0000
0001
0010
0001
0000
,
0100
0001
0100
0000
0001
0100
0001
0000
1000
0010
1000
0000
0010
1000
0010
0000
,
1000
0010
1000
0000
0001
0010
0001
0000
1000
0100
1000
0000
0001
0100
0001
0000
,
1000
0001
1000
0000
0010
0100
0010
0000
1000
0001
1000
0000
0001
0010
0001
0000
,
1001
0000
0000
0000
1000
0100
1000
0000
0001
0100
0001
0000
0100
0010
0100
0000
,
0110
0000
0000
0000
0010
1000
0010
0000
0100
0001
0100
0000
0001
0000
1000
0000
,
1100
0000
0000
0000
0100
0010
0100
0000
0101
0000
0000
0000
0100
0010
0100
0000
,
0001
1000
0001
1000
0001
1000
0001
1000
0001
1000
0001
1000
0001
1000
0001
2000
,
0002
0000
0000
0000
,
0000
0000
0000
0000
0000
0000
0000
0000
0000
0000
0000
0000
3003
0000
0000
1000
,
0100
0000
0000
0100
0010
0000
0000
0010
0001
0000
0000
0001
0100
0000
0000
0100
,
0010
0000
1000
0000
0100
0000
1000
0000
0001
0000
0100
0010
0100
0000
0001
0000
,
1000
0000
0100
0000
0010
0000
0100
0000
1000
0001
0000
0001
1000
0000
0001
0000
,
1001
2002
0000
0000
0000
0000
0000
0000
,
0000
0000
0000
0000
0000
0000
0000
0000
0000
0000
0000
0000
3003
0000
0000
1000
,
0010
0000
0000
0100
0001
0000
0000
1000
0001
0100
0001
0100
0001
0100
0001
0100
,
0001
0000
0010
0000
0001
0000
1000
0000
0010
0100
0010
0000
1000
0000
0100
0000
,
0010
0000
0001
0000
1000
0001
1000
0000
0001
0000
0100
0010
0100
0000
0010
0000
,
0110
0220
0000
0000
0000
0000
0000
0000
,
0000
0000
0000
0000
0000
0000
0000
0000
0000
0000
0000
0000
0330
0000
0000
1000
,
0010
0000
0000
0100
0001
0000
0000
1000
0100
0000
0000
0010
0001
0000
0000
0001
,
1000
1000
0010
0010
,
0001
0001
0100
0100
,
1000
0001
1000
0000
0010
0100
0010
0000
1000
0001
1000
0001
1000
0001
1000
0001
,
1000
0000
0010
0000
0100
0000
0001
0000
1000
0000
0001
0010
0100
0000
1000
0000
,
0001
0000
0100
0000
0010
0000
0100
0000
0001
0000
1000
0001
0100
0000
0010
0000
,
0100
0000
0001
0000
1000
0000
0100
0000
0010
0000
0001
0010
0100
0000
1000
0000
,
0001
0000
0010
0001
1000
0000
0010
0000
0100
0000
0001
1000
0100
0000
0010
0000
,
0001
0000
0101
0000
1000
0000
1100
0000
0001
1000
0001
1000
0001
1000
0001
1000
,
0001
0000
1000
0100
1000
0100
1000
0100
1000
0000
0010
0000
0100
0000
0001
0000
,
2000
3100
0002
0103
2000
3010
0200
0301
,
1000
0000
0010
0100
0010
0100
0010
0100
0010
0000
1000
0000
0100
0000
0010
0000
,
0002
0103
0002
1003
0002
0103
0020
1030
,
0001
0000
1000
0100
1000
0100
1000
0100
1000
0000
0010
0000
0100
0000
0001
0000
,
2000
3010
0002
0013
2000
3100
0002
0103
,
1000
0000
0001
0010
0001
0010
0001
0010
0001
0000
1000
0000
0001
0000
0100
0000
,
0010
0000
0010
0000
1000
0000
1000
0000
0001
0010
0000
0100
1000
0000
0001
0000
,
1000
0100
1000
0100
1000
0100
1000
0000
0001
0100
0001
0100
0001
0100
0001
0000
,
0100
0010
0100
0010
0100
0010
0100
0000
0001
1000
0001
1000
0001
1000
0001
0000
,
1000
0000
0010
0000
1000
0100
1000
0100
0010
0001
0010
0001
1000
0001
1000
0001
,
1000
0010
1000
0010
0100
0001
0100
0001
0100
0010
0100
0010
1000
0100
1000
0100
,
1000
0000
0100
0010
0100
0000
0010
0000
0001
0000
0100
0010
0100
0000
0010
0000
,
2010
0000
0000
0000
3001
0100
0001
0100
0001
0000
0100
0010
0100
0010
0100
0010
,
1000
0010
1000
0010
0100
0001
0100
0001
1000
0001
1000
0001
1000
0100
1000
0100
,
1000
0010
1000
0010
1000
0010
0100
0000
0001
0010
0001
0010
0001
0010
0100
0000
,
1000
0000
0010
0100
0010
0000
0100
0001
0100
0000
0001
1000
0001
0000
1000
0010
,
0100
0010
0100
0010
0100
0010
0100
0000
0001
1000
0001
1000
0001
1000
0001
0000
,
1001
0000
0000
1000
0100
0000
0000
0100
0010
0000
0000
0010
0001
0000
1000
0001
,
1000
0000
0010
0100
0220
0000
0330
0000
,
0001
0000
0100
0010
2020
0000
3030
0000
,
1000
0100
1000
0100
1000
0100
1000
0000
0001
0100
0001
0100
0001
0100
0001
0000
,
1000
0010
1000
0010
1000
0010
1000
0010
0100
0001
0100
0001
0100
0001
0100
0001
,
1000
0000
0001
0100
0001
0100
0001
0100
0001
1000
0001
1000
0001
1000
0001
1000
,
0002
0013
0200
0310
0002
0103
0020
1030
,
0001
0000
1000
0010
1000
0010
1000
0010
1000
0000
0010
0000
0100
0000
0001
0000
,
2000
3100
0020
0130
0002
0103
2000
3001
,
0100
0000
0010
0100
0010
0100
0010
0100
0010
0000
1000
0000
0001
0000
1000
0000
,
0200
1300
0200
0310
0200
1300
0200
0310
,
0001
0000
0100
0001
0100
0001
0100
0001
0100
0000
0010
0000
1000
0000
0001
0000
,
1000
0100
1000
0100
1000
0100
1000
0100
1000
0100
1000
0100
1000
0100
1000
0100
,
1000
0000
0001
1000
0001
1000
0001
1000
0001
0000
0010
0000
0100
0000
0010
0000
,
0001
0000
0100
0001
0100
0001
0100
0001
0100
0000
0010
0000
1000
0000
0100
0000
,
1000
0000
0010
1000
0010
1000
0010
1000
0010
0000
1000
0000
0001
0000
1000
0000
,
0100
0000
0010
0100
0010
0100
0010
0100
0010
0000
0001
0000
1000
0000
0001
0000
,
0100
0000
0010
0100
0010
0100
0010
0100
0010
0000
0100
0000
0001
0000
1000
0000
,
0010
0000
1000
0001
1000
0001
1000
0001
1000
0000
0010
0000
0100
0000
0110
0000
,
2002
0000
0000
0000
,
0000
0000
0000
0000
,
3003
0000
0000
0000
;

//--------------- dance-single - Fred-104 ----------------
#NOTES:
     dance-single:
     Fred-104:
     Challenge:
     17:
     :
0000
0000
0000
0000
,
0000
0000
0000
0000
,
0000
0000
0000
0000
,
0000
0000
0000
0000
,
1100
0100
0100
0100
,
0100
0000
0100
0000
0100
0000
0100
0100
,
0101
0000
0100
0000
0100
0000
0100
0100
,
1100
0000
0000
0000
0100
0000
0000
0000
0100
0000
0000
0000
0200
0300
0020
0030
,
0011
0010
0010
0010
,
0010
0000
0000
0000
0010
0000
0000
0000
0010
0000
1000
0100
0010
0000
0001
0000
,
1000
0100
0010
0000
0001
0010
0100
0000
1000
0010
0100
0000
0001
0100
0010
0000
,
1000
0001
0100
0000
0001
1000
0100
0000
0010
0001
1000
0000
0010
1000
0001
0000
,
1000
0001
0010
0000
0100
1000
0001
0000
0100
0010
1000
0000
0001
0010
0100
0000
,
1000
0010
0100
0000
0001
0100
0010
0000
1000
0100
0010
0000
0001
0010
0100
0000
,
2000
3000
0000
0000
0100
0000
0000
0000
1000
0000
0000
0000
0000
0000
0000
0000
0010
0000
0000
0000
0100
0000
0000
0000
0001
0000
0000
0000
0000
0000
0000
0000
1000
0000
0000
0000
0100
0000
0000
0000
0010
0000
0000
0000
0000
0000
0000
0000
0001
0000
0000
0000
1000
0000
0000
0000
0010
0000
0000
0000
0000
0000
0000
0000
,
0200
0300
0000
0000
0001
0000
0000
0000
1000
0000
0000
0000
0000
0000
0000
0000
0010
0000
0000
0000
1000
0000
0000
0000
0001
0000
0000
0000
0000
0000
0000
0000
1000
0000
0000
0000
0100
0000
0000
0000
0010
0000
0000
0000
0000
0000
0000
0000
0001
0000
0000
0000
0000
0000
0000
0000
1000
0000
0000
0000
0000
0000
0000
0000
,
1010
0000
1100
0100
0110
0000
0101
0100
,
0001
0000
0000
0010
0000
0000
0100
0000
0000
1000
0000
0000
0001
0000
0000
0100
0000
0000
0010
0000
0000
0100
0000
0000
0001
0000
0000
1000
0000
0000
0100
0000
0000
0010
0000
0000
0001
0000
0100
0000
0010
0000
1000
0000
0010
0000
0100
0000
,
0002
0000
0000
0000
,
0000
0000
0000
0000
0000
0000
0000
0000
0000
0000
0000
0000
0003
0000
1000
0010
,
0100
0000
0001
0010
0100
0000
1000
0010
0100
0000
0001
0010
0100
0000
1000
0010
,
0100
0001
0011
0010
0100
1000
1001
0001
,
0100
0000
0010
0000
0110
0000
0100
0000
0001
0100
0000
1000
0100
0000
0001
0000
,
1001
2002
0000
0000
0000
0000
0000
0000
,
0000
0000
0000
0000
0000
0000
0000
0000
0000
0000
0000
0000
3003
0000
0001
0100
,
0010
0000
1000
0100
0010
0000
0001
0100
0010
1000
0100
0010
0001
0100
0010
1000
,
0100
0000
0010
0001
1000
0000
0001
0000
0100
0010
1000
0000
0001
0000
0010
0000
,
0100
0000
1000
0001
0100
0000
0010
0000
1000
0100
0010
0000
0001
0000
1000
0000
,
0110
0220
0000
0000
0000
0000
0000
0000
,
0000
0000
0000
0000
0000
0000
0000
0000
0000
0000
0000
0000
0330
0000
0001
0100
,
1000
0000
0001
0010
1000
0000
0001
0100
1000
0000
0001
0010
1000
0000
0001
0100
,
2000
3000
0000
0000
0000
0000
0000
0000
0200
0000
0300
0000
0000
0000
0000
0000
0002
0000
0000
0003
0000
0000
0000
0000
0020
0000
0000
0000
0030
0000
0000
0000
,
2000
0000
0000
0000
0000
3000
0000
0000
0200
0000
0000
0000
0000
0000
0300
0000
0002
0000
0000
0000
0000
0000
0000
0003
0020
0000
0000
0000
0000
0000
0000
0000
,
1030
0000
0000
0100
0000
0000
0010
0000
0000
0100
0000
0000
1000
0000
0000
0010
0000
0000
0100
0000
0000
0001
0000
0000
0100
0000
0000
0001
0000
0000
1000
0000
0000
0010
0000
0000
1000
0000
0010
0000
0100
0000
0001
0000
0100
0000
0010
0000
,
1000
0000
0100
0000
0010
0001
1000
0000
0001
0000
0100
0000
0010
1000
0001
0000
,
1000
0000
0100
0000
0010
0100
1000
0000
0001
0000
0100
0000
0010
0100
0001
0000
,
1000
0100
1000
0000
0100
0010
0001
0000
0100
0001
0100
0000
0001
0100
0010
0000
,
1000
0010
1000
0000
0001
0010
0100
0000
0010
0001
0010
0000
0001
1000
0010
0000
,
1000
0000
1100
0000
0001
0000
0101
0000
1000
0100
0010
0001
0100
0010
1000
0001
,
0100
0000
0001
0010
0100
0010
0001
0010
0100
0000
1000
0001
1000
0000
0100
0000
,
2100
3010
0102
0013
1200
0310
0201
0310
,
1000
0000
0010
0100
0010
1000
0010
0100
0010
0000
1000
0001
0100
0000
0010
0000
,
2010
3100
0012
0103
1020
0130
0021
0130
,
0010
0000
1000
0001
0100
0001
1000
0001
0100
0000
0001
1000
0010
0000
0100
0000
,
0120
1030
0120
0031
0210
1300
0210
0301
,
0100
0000
0010
1000
0001
1000
0010
1000
0001
0000
1000
0100
0010
0000
0001
0000
,
1000
0000
0000
0001
0000
0000
0100
0000
0000
0001
0000
0000
1000
0000
0000
0100
0000
0000
0010
0000
0000
0100
0000
0000
1000
0000
0000
0001
0000
0000
0100
0000
0000
0010
0000
0000
1000
0000
0010
0000
0100
0000
0001
0000
0100
0000
0010
0000
,
1000
0100
1000
0100
0010
0001
0010
0001
1000
0010
1000
0010
0100
0001
0100
0001
,
1000
0001
1000
0001
0100
0010
0100
0010
1000
0010
1000
0010
0100
0001
0100
0001
,
1000
0000
0000
0000
0000
0000
0000
0000
0000
0000
0000
0000
0001
0000
0000
0000
0000
0000
0000
0000
0000
0000
0000
0000
0200
0300
0000
0000
0000
0000
0000
0000
0000
0000
0000
0000
0010
0000
0000
0000
0000
0000
0000
0000
0000
0000
0000
0000
0100
0000
0000
0000
0000
0000
0000
0000
0000
0000
0000
0000
0001
0000
0000
0000
0000
0000
0000
0000
0000
0000
0000
0000
1000
0000
0000
0000
0000
0000
0000
0000
0000
0000
0000
0000
0100
0000
0000
0000
0000
0000
0000
0000
0000
0000
0000
0000
1000
0000
0000
0000
0000
0000
0000
0000
0000
0000
0000
0000
0010
0000
0000
0000
0000
0000
0000
0000
0000
0000
0000
0000
0100
0000
0000
0000
0000
0000
0000
0000
0000
0000
0000
0000
0001
0000
0000
0000
0000
0000
0000
0000
0000
0000
0000
0000
1000
0000
0000
0000
0000
0000
0000
0000
0000
0000
0000
0000
0100
0000
0000
0000
0000
0000
0000
0000
0000
0000
0000
0000
0010
0000
0000
0000
0000
0000
0000
0000
0000
0000
0000
0000
0001
0000
0000
0000
0000
0000
0000
0000
0000
0000
0000
0000
,
1000
0001
0100
0010
1000
0001
0010
0100
1000
0010
0100
0001
1000
0100
0010
0001
,
1000
0010
1000
0010
1000
0001
1000
0001
0010
0100
1000
0001
0100
0010
1000
0001
,
2000
0000
0000
0000
3001
0100
0010
1000
0001
0010
0100
1000
0001
0100
0010
0100
,
0001
1000
0100
1000
0001
1000
0010
1000
0100
1000
0001
1000
0010
1000
0001
1000
,
0100
0010
0001
1000
0100
0010
0001
1000
0100
0010
0001
1000
0010
0100
0001
1000
,
0200
0000
1300
0100
0010
0001
0010
0001
0100
0010
0100
0010
1000
0001
0100
0001
,
1000
0100
1000
0001
1000
0010
1000
0001
1000
0001
1000
0010
1000
0001
1000
0100
,
1000
0000
0100
0010
0001
0000
0010
0100
1000
0000
0100
0010
0001
0000
1000
0010
,
1010
0000
1000
0000
0100
0000
0010
0000
0001
0100
0010
1000
0010
0100
0001
0000
,
0011
0000
0001
0000
0100
0000
0010
0000
1000
0100
0010
0001
0010
0100
1000
0000
,
0001
0010
0100
1000
0001
0010
0100
1000
0001
0100
0010
1000
0001
0100
0010
1000
,
0001
0100
0010
1000
0010
0100
0001
1000
0001
0010
0100
1000
0100
0010
0001
1000
,
0001
0000
1000
0100
0010
0001
0010
0100
1000
0001
0100
0010
1000
0100
0010
0001
,
1000
2100
3001
0102
1003
2010
3001
0012
,
1003
0000
0001
0100
0010
0100
0001
0100
0010
0000
1000
0000
0100
0000
0010
0000
,
0012
0103
2010
3100
0021
0130
1020
0130
,
0001
0000
1000
0100
0010
0100
1000
0100
0010
0000
0001
0000
1000
0000
0010
0000
,
0210
0301
0210
1300
0120
0031
0120
1030
,
0001
0000
0100
0010
1000
0010
0100
0010
1000
0000
0100
0000
0010
0000
0001
0000
,
1000
0100
0010
0100
1000
0010
0100
0010
1000
0001
0100
0001
1000
0100
0010
0001
,
1000
0000
0001
0100
0010
1000
0010
0100
0001
0000
1000
0000
0100
0000
0010
0000
,
0001
0000
1000
0010
0100
0001
0100
0010
1000
0000
0010
0000
0100
0000
0001
0000
,
1000
0000
0001
0100
0001
1000
0100
0010
0001
0000
1000
0000
0100
0000
0010
0000
,
0001
0000
1000
0100
0010
0001
0010
0100
1000
0000
0001
0000
0100
0000
0010
0000
,
1000
0000
0001
1000
0010
1000
0001
0100
0001
0000
0100
0000
0010
0000
1000
0000
,
0001
0000
0000
0010
0000
0000
0001
0000
0000
1000
0000
0000
0100
0000
0000
1000
0000
0000
0001
0000
0000
0100
0000
0000
0001
0000
0000
1000
0000
0000
0010
0000
0000
1000
0000
0000
0001
0000
0010
0000
0100
0000
1000
0000
0100
0000
0010
0000
,
0002
0000
0000
0000
,
0000
0000
0000
0000
,
0003
0000
0000
0000
;

//--------------- dance-double - Fred-104 ----------------
#NOTES:
     dance-double:
     Fred-104:
     Easy:
     6:
     :
00000000
00000000
00000000
00000000
,
00000000
00000000
00000000
00000000
,
00000000
00000000
00000000
00000000
,
00000000
00000000
00000000
00000000
,
11000000
00000000
01000000
00000000
,
00010000
00000000
00010000
00000000
,
00011000
00000000
00001000
00000000
,
00001010
00000000
00000010
00000000
,
00000011
00000000
00000001
00000000
,
00000001
00000000
00000001
00000000
,
00000100
00000100
00000100
00000000
,
00001000
00001000
00001000
00000000
,
00010000
00010000
00010000
00000000
,
00100000
00100000
00100000
00000000
,
20000000
00000000
30010000
00000000
,
00020000
00000000
01030000
00000000
,
02000000
03000000
00002000
00003000
,
00010000
00000100
00010000
00000100
,
00002002
00000000
00000000
00000000
,
00000000
00000000
00000000
00003003
,
00000100
00000100
00000100
00000100
,
00000001
00000000
00000100
00000000
,
00001000
00010000
00100000
00000000
,
20020000
00000000
00000000
00000000
,
00000000
00000000
00000000
30030000
,
00100000
00100000
00100000
00100000
,
10000000
00000000
00100000
00000000
,
00001000
00000100
00000010
00000000
,
00002002
00000000
00000000
00000000
,
00000000
00000000
00000000
00003003
,
00000100
00000100
00000100
00000100
,
00000001
00000001
00000100
00000100
,
00001000
00001000
00010000
00010000
,
01000000
10000000
00010000
01000000
,
00100000
00100000
10000000
01000000
,
00100000
00100000
00001000
00010000
,
00001000
00000100
00001000
00010000
,
00001000
00000100
00000001
00001000
,
00000010
00010000
00001000
00001000
,
00022000
00000000
00000000
00033000
00001000
00000000
00010000
00000000
,
00001000
00100000
00010000
10000000
,
20020000
00000000
00000000
30030000
00010000
00000000
10000000
00000000
,
00100000
00100000
01000000
00010000
,
00220000
00000000
00000000
00330000
00100000
00000000
00001000
00000000
,
00010000
00010000
00000100
00000010
,
00000022
00000000
00000000
00000033
00000001
00000000
00001000
00000000
,
00000001
00000001
00000100
00000010
,
00001000
00000000
00000100
00000000
,
00010000
00010000
01000000
10000000
,
00010000
00000000
10000000
00000000
,
00100000
00100000
10000000
01000000
,
00100000
00000000
00001000
00000000
,
00000010
00000100
00000010
00000010
,
00001000
00001000
00000010
00000010
,
00000001
00000001
00000100
00000100
,
00001000
00001000
00010000
00010000
,
01000000
01000000
10000000
10000000
,
00100000
00010000
00001000
00010000
,
00011000
00000000
00002020
00003030
,
00011000
00000000
00220000
00330000
,
00001000
00001000
00100000
00010000
,
02000000
03000000
00200000
00300000
,
20010000
00000000
30010000
10000000
,
00100000
10000000
01000000
00100000
,
00120000
00000000
00031000
00010000
,
00000010
00001000
00000100
00010000
,
00012000
00000000
00003100
00000010
,
00000001
00001000
00000010
00000100
,
00000120
00000000
00001030
00000001
,
00000100
00000010
00000100
00000000
00000001
00000100
00000001
00000000
,
00000100
00000000
00000001
00000101
,
00000010
00000000
00001000
00001100
,
00000100
00000000
00010000
10010000
,
10000000
00000000
01000000
01100000
,
00010000
00000000
00001000
00011000
,
00000010
00001000
00010000
00001000
,
00022000
00000000
00000000
00000000
,
00000000
00000000
00000000
00000000
,
00033000
00000000
00000000
00000000
;

//--------------- dance-double - Fred-104 ----------------
#NOTES:
     dance-double:
     Fred-104:
     Medium:
     10:
     :
00000000
00000000
00000000
00000000
,
00000000
00000000
00000000
00000000
,
00000000
00000000
00000000
00000000
,
00000000
00000000
00000000
00000000
,
00011000
00001000
00001000
00001000
,
00001000
00001000
00001000
00001000
,
00010000
00010000
00010000
00010000
,
00000010
00000000
00000010
00000000
00000010
00000000
00001000
00010000
,
00100000
00100000
00100000
00100000
,
00100000
00100000
00100000
00100000
,
10000000
01000000
10000000
00000000
00010000
01000000
00020000
00000000
,
01030000
00010000
01000000
00000000
00001000
00010000
00001000
00000000
,
00000010
00000001
00000010
00000000
00000100
00000010
00000200
00000000
,
00010300
00001000
00010000
00000000
00001000
00100000
00001000
00000000
,
01010000
00000000
00100000
00000000
10000000
01000000
00100000
00000000
,
00011000
00000000
00000100
00000000
00000010
00000001
00001000
00000000
,
00001100
00000010
00000101
00000010
,
00000001
00000100
00001000
00010000
01000000
10000000
00010000
01000000
,
02200000
00000000
00000000
00000000
,
00000000
00000000
00000000
03300000
,
01000000
01000000
01000000
01000000
,
00100000
10000000
01000000
00000000
00100000
00010000
00001000
00000000
,
00000100
00000010
00000001
00001000
00000001
00000100
00000010
00000000
,
00002002
00000000
00000000
00000000
,
00000000
00000000
00000000
00003003
,
00000010
00000010
00000010
00000010
,
00000001
00000100
00000010
00000000
00010000
00001000
00100000
00000000
,
00010000
01000000
10000000
01000000
00010000
01000000
00100000
00000000
,
20020000
00000000
00000000
00000000
,
00000000
00000000
00000000
30030000
,
10000000
10000000
00100000
00100000
,
10000000
01000000
00100000
00001000
,
00010000
00000100
00000010
00000001
,
00001000
00000010
00001000
00000010
00000100
00000001
00000100
00000010
,
00001000
00000000
00001100
00000000
00000010
00000001
00001000
00000000
,
00000010
00000000
00010010
00000000
00010000
00001000
00100000
00000000
,
00010000
00000000
10010000
00000000
01000000
00100000
10000000
00000000
,
01000000
00000000
01100000
00000000
00100000
00001000
00010000
00000000
,
00001000
00010000
00001000
00010000
00000100
00001000
00000100
00010000
,
00002000
00000000
00000000
00000000
00013000
00001000
00001000
00100000
,
00010000
00100000
10000000
00000000
00010000
01000000
10000000
00000000
,
00020000
00000000
00000000
00000000
01030000
00100000
10000000
00100000
,
00010000
00001000
00000010
00000000
00001000
00010000
00100000
00000000
,
00002000
00000000
00000000
00000000
00013000
00001000
00000100
00000001
,
00001000
00000100
00000010
00000000
00000001
00001000
00000010
00000000
,
00000200
00000000
00000000
00000000
00000301
00000100
00001000
00000100
,
00000001
00000100
00000001
00000100
00001000
00000100
00001000
00010000
,
00001000
00010000
00100000
10000000
,
01000000
00010000
00001000
00000100
,
00000001
00000010
00001000
00010000
,
00100000
10000000
01000000
00010000
,
00001000
00000100
00000001
00000010
,
00001000
00010000
01000000
10000000
,
00100000
00010000
00001000
00000010
,
00000001
00000100
00001000
00010000
,
01000000
10000000
00100000
00010000
,
00001000
00000010
00000001
00000100
,
00001000
00010000
01000000
10000000
,
20020000
00000000
30030000
00000000
01000000
00100000
00001000
00000000
,
00022000
00000000
00033000
00000000
00000010
00000100
00000001
00000000
,
00000100
00000001
00000100
00000010
00001000
00000010
00001000
00000100
,
00010000
00001000
00010000
00100000
01000000
10000000
00100000
01000000
,
00020000
00000000
00000000
00000000
10030000
10000000
00100000
01000000
,
00010000
20000000
31000000
00100000
00001000
00010000
00001000
00100000
,
00001000
00010000
00001000
00000010
00001000
00000010
00000100
00000010
,
00001000
00000001
00000010
00000100
00001000
00000100
00000010
00000001
,
00001000
00000100
00001000
00010000
00001000
00000100
00010000
00001000
,
01000000
00001000
00010000
00001000
00100000
00010000
00100000
01000000
,
10000000
01000000
00010000
01000000
10000000
00100000
01000000
00010000
,
10000000
01000000
00100000
00001000
00010000
00000100
00010000
00001000
,
00020000
00000000
00230000
00000000
10300000
01000000
00100000
00000000
,
00002000
00000000
00003200
00000000
00000301
00000010
00000100
00000000
,
00020000
00000000
00032000
00000000
00103000
00010000
10000000
00000000
,
00020000
00000000
02030000
00000000
13000000
01000000
00100000
00000000
,
00002000
00000000
00023000
00000000
00030010
00001000
00000100
00000000
,
00000010
00000001
00000100
00001000
,
00022000
00000000
00000000
00000000
,
00000000
00000000
00000000
00000000
,
00033000
00000000
00000000
00000000
;

//--------------- dance-double - Fred-104 ----------------
#NOTES:
     dance-double:
     Fred-104:
     Hard:
     15:
     :
00000000
00000000
00000000
00000000
,
00000000
00000000
00000000
00000000
,
00000000
00000000
00000000
00000000
,
00000000
00000000
00000000
00000000
,
00000011
00000010
00000010
00000010
,
00000010
00000000
00000010
00000000
00000010
00000000
00000010
00001000
,
00010100
00000000
00010000
00000000
00010000
00000000
00010000
00001000
,
01001000
00000000
00000000
00000000
01000000
00000000
00000000
00000000
01000000
00000000
00000000
00000000
02000000
03000000
00200000
00300000
,
10010000
10000000
10000000
10000000
,
00010000
00010000
00010000
00010000
,
01000000
00100000
01000000
00000000
00100000
01000000
00100000
00000000
10000000
00010000
10000000
00000000
00010000
10000000
00010000
00000000
,
00100000
00001000
00100000
00000000
00001000
00100000
00001000
00000000
00010000
00000010
00010000
00000000
00000010
00010000
00000010
00000000
,
00001000
00000100
00001000
00000000
00000100
00001000
00000100
00000000
00000010
00000001
00000010
00000000
00000001
00000010
00000001
00000000
,
00000100
00000010
00000100
00000000
00000001
00001000
00000001
00000000
00001000
00000100
00001000
00000000
00000100
00010000
00000100
00000000
,
00011000
00000000
00000000
00000000
00000100
00010000
00000100
00000000
00010000
00001000
00010000
00000000
00001000
00000000
00010000
00000000
,
00011000
00000000
00000000
00000000
01000000
00001000
01000000
00000000
00001000
00010000
00001000
00000000
00010000
00000000
00001000
00000000
,
00001100
00000000
00000010
00000001
00000101
00000000
00000010
00001000
,
00000001
00001000
00000001
00001000
00000001
00001000
00000001
00001000
00000001
00001000
00000001
00001000
00000001
00001000
00000001
00002000
,
00000002
00000000
00000000
00000000
,
00000000
00000000
00000000
00000000
00000000
00000000
00000000
00000000
00000000
00000000
00000000
00000000
00003003
00000000
00000000
00000001
,
00000100
00000000
00000000
00000100
00001000
00000000
00000000
00001000
00010000
00000000
00000000
00010000
01000000
00000000
00000000
01000000
,
00100000
10000000
01000000
00100000
00001000
00010000
00100000
10000000
,
01000000
00000000
00010000
00000000
00001000
00000000
00100000
00000000
01000000
00000000
00000000
01000000
00100000
00000000
00010000
00000000
,
10010000
20020000
00000000
00000000
00000000
00000000
00000000
00000000
,
00000000
00000000
00000000
00000000
00000000
00000000
00000000
00000000
00000000
00000000
00000000
00000000
30030000
00000000
00000000
10000000
,
01000000
00000000
00000000
01000000
00100000
00000000
00000000
00100000
00001000
00010000
00001000
00010000
00001000
00010000
00001000
00010000
,
00001000
00000010
00000001
00001000
00000010
00010000
00001000
00010000
,
00100000
10000000
00010000
00100000
01000000
00010000
00001000
00010000
,
00011000
00022000
00000000
00000000
00000000
00000000
00000000
00000000
,
00000000
00000000
00000000
00000000
00000000
00000000
00000000
00000000
00000000
00000000
00000000
00000000
00033000
00000000
00000000
00010000
,
00001000
00000000
00000000
00001000
00000010
00000000
00000000
00000010
00000001
00000000
00000000
00000001
00001000
00000000
00000000
00001000
,
00000001
00000010
00001000
00010000
,
01000000
10000000
00100000
00010000
,
00001000
00010000
00001000
00000000
00010000
00000010
00010000
00000000
00001000
00010000
00001000
00010000
00001000
00010000
00001000
00010000
,
00001000
00010000
00001000
00000100
00000001
00001000
00000010
00000001
,
00001000
00000001
00000100
00000010
00001000
00000100
00001000
00010000
,
01000000
10000000
00010000
00100000
10000000
00100000
00010000
01000000
,
00010000
00100000
00010000
00001000
00010000
00000100
00001000
00000001
,
00001000
00000000
00001000
00000000
00000001
00000000
00000001
00000000
00000100
00000010
00000100
00000010
00000100
00000010
00000100
00000010
,
00000100
00000000
00000001
00001000
00000001
00001000
00000001
00001000
00000001
00000000
00000100
00000000
00000010
00000000
00001000
00000000
,
00000200
00010300
00000200
00001300
00000200
00000301
00000200
00000310
,
00010000
00000000
00001000
00010000
00001000
00010000
00001000
00010000
00001000
00000000
00100000
00000000
10000000
00000000
00100000
00000000
,
00020000
00130000
00020000
10030000
00020000
01030000
00020000
00031000
,
00000100
00000000
00000010
00000100
00000010
00000100
00000010
00000100
00000010
00000000
00000001
00000000
00001000
00000000
00000100
00000000
,
00000020
00000031
00000020
00001030
00000020
00000130
00000020
00010030
,
00001000
00000000
00100000
00001000
00100000
00001000
00100000
00001000
00100000
00000000
00001000
00000000
00010000
00000000
00001000
00000000
,
01000000
00000000
00010000
00000000
10000000
00000000
01000000
00000000
00100000
00001000
00000000
00001000
00010000
00000000
00001000
00000000
,
00010000
00001000
00010000
00000000
00000100
00001000
00000100
00000000
00000010
00000100
00000010
00000000
00000001
00001000
00000001
00000000
,
00000100
00000010
00000100
00000010
00000100
00000010
00000100
00000000
00000001
00000100
00000001
00000100
00000001
00000100
00000001
00000000
,
00001000
00000000
00000100
00000000
00000010
00000001
00000010
00000001
00001000
00000010
00001000
00000010
00010000
00001000
00010000
00001000
,
00100000
00010000
00100000
00010000
01000000
00100000
01000000
00100000
10000000
00100000
10000000
00100000
01000000
00010000
01000000
00010000
,
01000000
00000000
00001000
00010000
00001000
00000000
00000100
00000000
00000010
00000000
00010000
00001000
00010000
00000000
00100000
00000000
,
02100000
00000000
00000000
00000000
03010000
01000000
00010000
00000000
01000000
00000000
00001000
00010000
00001000
00000000
00010000
00000100
,
00001000
00000100
00001000
00000100
00000010
00000100
00000010
00000100
00000010
00000001
00000010
00000001
00001000
00000001
00001000
00000001
,
00001000
00000010
00001000
00000010
00001000
00000010
00001000
00000000
00010000
00001000
00010000
00001000
00010000
00001000
00010000
00000000
,
00001000
00000000
00100000
00010000
00100000
00000000
00010000
10000000
00010000
00000000
01000000
00100000
01000000
00000000
00100000
10000000
,
00100000
01000000
00100000
01000000
00100000
01000000
00100000
00000000
10000000
00010000
10000000
00010000
10000000
00010000
10000000
00000000
,
10010000
00000000
00000000
10000000
00100000
00000000
00000000
00100000
00001000
00000000
00000000
00001000
00010000
00000000
00001000
00010000
,
00001000
00010000
00100000
00000000
20020000
00000000
30030000
00000000
,
10000000
01000000
00100000
00000000
00022000
00000000
00033000
00000000
,
00001000
00000100
00001000
00000000
00000001
00000100
00000001
00000000
00000100
00000010
00000100
00000000
00000010
00001000
00000010
00000000
,
00010000
00000100
00010000
00000100
00010000
00000100
00010000
00000100
00010000
00001000
00010000
00001000
00010000
00001000
00010000
00001000
,
00100000
00000000
00010000
10000000
00010000
10000000
00010000
10000000
00100000
01000000
00100000
01000000
00100000
01000000
00100000
01000000
,
00020000
10030000
02000000
03100000
00002000
00013000
00000200
00010300
,
00001000
00000000
00010000
00001000
00010000
00001000
00010000
00001000
00010000
00000000
00001000
00000000
00000100
00000000
00000001
00000000
,
00002000
00003100
00000020
00000130
00002000
00003001
00000200
00000310
,
00001000
00000000
00000001
00000010
00000001
00000010
00000001
00000010
00000001
00000000
00001000
00000000
00000010
00000000
00000100
00000000
,
00000002
00000103
00002000
00013000
02000000
13000000
00020000
01030000
,
00100000
00000000
10000000
01000000
10000000
01000000
10000000
01000000
10000000
00000000
01000000
00000000
00100000
00000000
00001000
00000000
,
00010000
00001000
00010000
00001000
00010000
00001000
00010000
00001000
00010000
00001000
00010000
00001000
00010000
00001000
00010000
00001000
,
00010000
00000000
00000010
00001000
00000010
00001000
00000010
00001000
00000010
00000000
00001000
00000000
00000001
00000000
00000010
00000000
,
00000100
00000000
00000010
00000100
00000010
00000100
00000010
00000100
00000010
00000000
00000001
00000000
00001000
00000000
00000010
00000000
,
00010000
00000000
00001000
00100000
00001000
00100000
00001000
00100000
00001000
00000000
00100000
00000000
00010000
00000000
10000000
00000000
,
01000000
00000000
00100000
01000000
00100000
01000000
00100000
01000000
00100000
00000000
00010000
00000000
00001000
00000000
00000010
00000000
,
00010000
00000000
00001000
00010000
00001000
00010000
00001000
00010000
00001000
00000000
00010000
00000000
00100000
00000000
10000000
00000000
,
01000000
00000000
00100000
00001000
00100000
00010000
00100000
00001000
00010000
00000000
00000100
00000000
00000010
00000000
00001000
00000000
,
00022000
00000000
00000000
00000000
,
00000000
00000000
00000000
00000000
,
00033000
00000000
00000000
00000000
;

//--------------- dance-double - Fred-104 ----------------
#NOTES:
     dance-double:
     Fred-104:
     Challenge:
     17:
     :
00000000
00000000
00000000
00000000
,
00000000
00000000
00000000
00000000
,
00000000
00000000
00000000
00000000
,
00000000
00000000
00000000
00000000
,
00011000
00001000
00001000
00001000
,
00001000
00000000
00001000
00000000
00001000
00000000
00001000
00100000
,
01100000
00000000
01000000
00000000
01000000
00000000
01000000
10000000
,
10010000
00000000
00000000
00000000
00010000
00000000
00000000
00000000
00010000
00000000
00000000
00000000
00020000
00030000
00002000
00003000
,
00001100
00000100
00000100
00000100
,
00000100
00000000
00000000
00000000
00000100
00000000
00000000
00000000
00000100
00000000
00000001
00001000
00000010
00000000
00000100
00000000
,
00000001
00000010
00000001
00000000
00000100
00000010
00000100
00000000
00000010
00001000
00000010
00000000
00001000
00000100
00001000
00000000
,
00000100
00010000
00000100
00000000
00010000
00001000
00010000
00000000
00001000
01000000
00001000
00000000
00100000
00010000
00100000
00000000
,
00010000
10000000
00010000
00000000
01000000
00100000
01000000
00000000
00100000
10000000
00100000
00000000
01000000
00010000
01000000
00000000
,
00010000
01000000
00100000
00000000
10000000
01000000
00100000
00000000
00001000
00010000
00001000
00000000
00100000
00001000
00010000
00000000
,
00001000
00001000
00010000
00000000
00000100
00001000
00000001
00000000
00000100
00000010
00001000
00000000
00000001
00000000
00000100
00000000
,
00000010
00000010
00000100
00000000
00000001
00001000
00000100
00000000
00001000
00000010
00000100
00000000
00000001
00000000
00000100
00000000
,
00000110
00000000
00000010
00001000
00011000
00000000
00100000
01000000
,
10000000
00000000
00000000
00100000
00000000
00000000
01000000
00000000
00000000
00100000
00000000
00000000
10000000
00000000
00000000
01000000
00000000
00000000
00100000
00000000
00000000
00010000
00000000
00000000
00100000
00000000
00000000
00001000
00000000
00000000
00010000
00000000
00000000
00000100
00000000
00000000
00001000
00000000
00000010
00000000
00001000
00000000
00000001
00000000
00000000
00001000
00000000
00000000
,
00000200
00000000
00000000
00000000
,
00000000
00000000
00000000
00000000
00000000
00000000
00000000
00000000
00000000
00000000
00000000
00000000
00000300
00000000
00000001
00000100
,
00000010
00000000
00001000
00000100
00010000
00000000
00001000
00100000
00010000
00000000
01000000
00100000
10000000
00000000
00010000
10000000
,
00010000
10000000
01000000
00100000
00001000
00010000
00100000
00001000
,
00000010
00000000
00000001
00000000
00001000
00000000
00000001
00000000
00000100
00000010
00000000
00001000
00000100
00000000
00010000
00000000
,
00011000
00022000
00000000
00000000
00000000
00000000
00000000
00000000
,
00000000
00000000
00000000
00000000
00000000
00000000
00000000
00000000
00000000
00000000
00000000
00000000
00033000
00000000
00001000
00010000
,
00100000
00000000
00010000
00001000
00000010
00000000
00001000
00010000
01000000
00100000
01000000
00100000
01000000
00100000
01000000
00100000
,
10000000
00100000
00001000
00010000
00000010
00000001
00000010
00010000
,
00001000
00100000
01000000
10000000
01000000
00010000
00001000
00100000
,
00011000
00022000
00000000
00000000
00000000
00000000
00000000
00000000
,
00000000
00000000
00000000
00000000
00000000
00000000
00000000
00000000
00000000
00000000
00000000
00000000
00033000
00000000
00010000
00001000
,
00000100
00000000
00001000
00010000
01000000
00000000
00010000
00001000
00000010
00000000
00001000
00010000
00100000
00000000
10000000
00010000
,
20000000
30000000
00000000
00000000
00000000
00000000
00000000
00000000
00020000
00000000
00030000
00000000
00000000
00000000
00000000
00000000
02000000
00000000
00000000
03000000
00000000
00000000
00000000
00000000
00002000
00000000
00000000
00000000
00003000
00000000
00000000
00000000
,
00200000
00000000
00000000
00000000
00000000
00300000
00000000
00000000
00000020
00000000
00000000
00000000
00000000
00000000
00000030
00000000
00000200
00000000
00000000
00000000
00000000
00000000
00000000
00000300
00000002
00000000
00000000
00000000
00000000
00000000
00000000
00000000
,
00000103
00000000
00000000
00000001
00000000
00000000
00000100
00000000
00000000
00000001
00000000
00000000
00000100
00000000
00000000
00000010
00000000
00000000
00001000
00000000
00000000
00000100
00000000
00000000
00010000
00000000
00000000
00001000
00000000
00000000
00010000
00000000
00000000
00100000
00000000
00000000
01000000
00000000
10000000
00000000
01000000
00000000
00100000
00000000
00000000
00010000
00000000
00000000
,
10000000
00000000
00100000
10000000
01000000
00000000
00100000
00000000
00010000
00000000
00100000
01000000
10000000
00000000
00100000
00000000
,
01000000
00000000
00001000
00100000
00010000
00000000
01000000
00000000
00001000
00000000
00010000
00000100
00001000
00000000
00000100
00000000
,
00000010
00000000
00000001
00000010
00000100
00000000
00001000
00000000
00000001
00000000
00000100
00000010
00001000
00000000
00000100
00000000
,
00000010
00000000
00000001
00000100
00001000
00000000
00010000
00000000
01000000
00000000
10000000
00010000
01000000
00000000
00100000
00000000
,
10000000
00000000
10100000
00000000
00010000
00000000
00110000
00000000
00001000
00010000
00001000
00010000
00001000
00010000
00001000
00010000
,
00001000
00000000
00010000
00000100
00001000
00000100
00010000
00000100
00001000
00000000
00000001
00001000
00000010
00000000
00000100
00000000
,
00000001
00000012
00001003
00002010
00003100
00010200
00010300
00021000
,
00031000
00000000
00100000
00001000
00010000
00001000
00100000
00001000
00010000
00000000
00001000
00100000
00001000
00000000
00010000
00000000
,
00001000
00201000
00310000
20010000
31000000
01200000
00310000
02010000
,
03100000
00000000
10000000
01000000
00100000
01000000
10000000
01000000
00100000
00000000
00010000
10000000
00100000
00000000
01000000
00000000
,
00010000
02010000
03001000
00021000
00030010
00001020
00001030
00001002
,
00000103
00000000
00000010
00001000
00000010
00000100
00000010
00001000
00000001
00000000
00000100
00000010
00001000
00000000
00000100
00000000
,
00010000
00000000
00000000
00000010
00000000
00000000
00001000
00000000
00000000
00000010
00000000
00000000
00010000
00000000
00000000
00001000
00000000
00000000
00100000
00000000
00000000
00010000
00000000
00000000
00100000
00000000
00000000
01000000
00000000
00000000
10000000
00000000
00000000
00010000
00000000
00000000
01000000
00000000
00100000
00000000
01000000
00000000
00100000
00000000
00000000
10000000
00000000
00000000
,
01000000
10000000
01000000
10000000
00010000
01000000
00010000
01000000
00010000
00100000
00010000
00100000
00001000
00010000
00001000
00010000
,
00000100
00010000
00000100
00010000
00000100
00001000
00000100
00001000
00000100
00000010
00000100
00000010
00000001
00001000
00000001
00001000
,
00000001
00000100
00000001
00000100
00000010
00001000
00000100
00010000
00001000
00010000
00001000
00010000
00001000
00100000
00010000
00100000
,
01000000
10000000
00100000
01000000
00010000
01000000
00100000
10000000
01000000
00100000
00010000
00100000
00001000
00010000
00001000
00100000
,
00001000
00010000
00001000
00010000
00001000
00000100
00000010
00000100
00000010
00000001
00001000
00000001
00001000
00000010
00001000
00000010
,
00000200
00000000
00000000
00000000
00000301
00000010
00000100
00001000
00000001
00000010
00000100
00001000
00000001
00000100
00000010
00000000
,
00001000
00000010
00001000
00000010
00010000
00001000
00010000
00001000
00100000
00010000
00100000
00010000
01000000
00100000
01000000
00100000
,
10000000
00100000
01000000
00100000
10000000
00100000
01000000
00100000
10000000
00100000
01000000
00100000
10000000
01000000
00100000
00010000
,
00200000
00000000
00301000
00100000
00001000
00010000
00001000
00010000
00000100
00001000
00000100
00000010
00000001
00001000
00000001
00000000
,
00001000
00000100
00001000
00000001
00001000
00000010
00001000
00000001
00001000
00000001
00001000
00000010
00001000
00000001
00001000
00000100
,
00010000
00000000
00001000
00010000
00001000
00000000
00100000
00010000
10000000
00000000
00010000
01000000
00100000
00000000
10000000
00000000
,
11000000
00100000
00022000
00033000
,
00001010
00000100
00002002
00003003
,
00000001
00000100
00000010
00001000
00000001
00000010
00000100
00001000
00000100
00000010
00000001
00000100
00000010
00001000
00000010
00000100
,
00000001
00001000
00000100
00010000
00001000
00100000
00010000
10000000
00100000
01000000
00100000
01000000
00100000
01000000
00100000
01000000
,
00010000
00000000
00001000
00100000
00010000
01000000
00100000
10000000
00010000
01000000
00010000
01000000
00100000
10000000
00100000
10000000
,
00010000
01020000
10030000
21000000
30100000
00210000
00301000
00012000
,
00013000
00000000
00001000
00010000
00000100
00010000
00001000
00010000
00000100
00000000
00001000
00000000
00000001
00000000
00000100
00000000
,
00000001
00000012
00001003
00002010
00003100
00020100
00031000
00012000
,
00103000
00000000
00001000
00010000
00001000
00100000
00001000
00010000
00001000
00000000
00100000
00000000
00010000
00000000
10000000
00000000
,
00010000
01020000
10030000
21000000
30010000
00120000
10030000
20100000
,
30010000
00000000
10000000
01000000
00100000
01000000
10000000
01000000
00100000
00000000
00001000
00000000
00010000
00000000
00001000
00000000
,
00100000
00001000
00010000
00001000
00010000
00000100
00001000
00000100
00000010
00000100
00000010
00000001
00001000
00000001
00000100
00000001
,
00000100
00000000
00000010
00001000
00000001
00000010
00000001
00000010
00000001
00000000
00000100
00000000
00001000
00000000
00010000
00000000
,
01000000
00000000
00100000
01000000
00100000
10000000
00100000
10000000
00100000
00000000
10000000
00000000
01000000
00000000
00010000
00000000
,
00001000
00000000
00100000
00001000
00010000
00001000
00010000
00001000
00010000
00000000
00001000
00000000
00000010
00000000
00000001
00000000
,
00001000
00000000
00000001
00000100
00000010
00001000
00000001
00000010
00000100
00000000
00010000
00000000
00001000
00000000
00010000
00000000
,
00001000
00000000
00100000
00010000
00100000
01000000
10000000
00010000
01000000
00000000
00100000
00000000
10000000
00000000
01000000
00000000
,
00100000
00000000
00000000
01000000
00000000
00000000
10000000
00000000
00000000
01000000
00000000
00000000
00100000
00000000
00000000
01000000
00000000
00000000
00010000
00000000
00000000
00100000
00000000
00000000
00001000
00000000
00000000
00010000
00000000
00000000
00000100
00000000
00000000
00001000
00000000
00000000
00000010
00000000
00000100
00000000
00000010
00000000
00000100
00000000
00000010
00000000
00000100
00000000
,
00000002
00000000
00000000
00000000
,
00000000
00000000
00000000
00000000
,
00000003
00000000
00000000
00000000
;
