#VERSION:0.83;
#TITLE:Uranus(Fred-Special);
#ARTIST:Tatsh SN 2 Style;
#BANNER:Uranus(Fred-Special).png;
#BACKGROUND:Uranus(Fred-Special)-bg.png;
#CDTITLE:./CDTitles/DDR SuperNOVA2.png;
#MUSIC:Uranus(Fred-Special).ogg;
#SAMPLESTART:33.15;
#SAMPLELENGTH:15;
#DISPLAYBPM:81:162;
#BPMS:0=161.25,4=162,56=324,57=162,122=81,138=162,174=160,174.25=141.75,174.5=121.5,174.75=101.25,175=81,175.25=67.5,175.5=54,175.75=45.7,175.875=46,176=162;
#STOPS:56=0.185,121=1.111,137.9375=1.472;
#TIMESIGNATURES:0=4=4,52=5=4,57=4=4,121=1=4,122=4=4,174=2=4,176=4=4;
#STAGE:27;

//--------------- dance-single - Fred-104-CSP ----------------
#NOTEDATA:;
#CHARTNAME:Fred-104-CSP;
#STEPSTYPE:dance-single;
#DESCRIPTION:Fred-104-CSP;
#DIFFICULTY:Challenge;
#METER:17;
#CREDIT:Fred-104;
#NOTES:
0000
0000
0000
0000
,
0000
0000
0000
0000
,
0001
0000
0100
0001
0010
0000
0100
1000
0010
0000
0100
0001
0010
0000
0100
0000
,
1000
0000
0010
1000
0100
0000
0010
0001
0100
0000
0010
1000
0100
0000
0010
0001
,
0000
0001
1000
0000
0001
0000
1000
0100
0010
0000
0001
0100
0010
0000
1000
0000
,
0001
0100
0001
0100
0001
0000
1000
0001
0100
0000
0001
0000
1001
0000
0000
0000
,
0001
0100
0010
0000
0001
1000
0100
0000
0010
1000
0100
0000
0010
1000
0010
0000
,
0001
0010
0100
0000
0001
0100
1000
0000
0001
0100
0010
0000
0001
0000
0010
1000
,
0001
0100
0010
0000
0001
0010
0100
0000
1000
0100
0010
0000
1000
0001
0100
0000
,
0001
0010
1000
0000
0010
0001
1000
0000
0001
0100
0010
0100
0001
0100
0010
0100
,
0001
0000
0100
1000
0100
0000
0001
0000
1000
0000
0100
0001
0100
0000
1000
0000
,
0001
0000
0010
1000
0010
0000
0100
0000
1000
0000
0010
0001
0010
0000
0100
0000
,
0001
0100
0010
0000
1000
0100
0010
0000
0001
0010
0100
0000
1000
0010
0100
0000
,
0011
0001
1010
1000
0101
0001
1100
1000
,
2002
3003
0000
0000
0000
0000
0000
0000
0000
0000
0000
0000
0000
0000
0000
0000
1000
0000
0000
0000
0100
0000
0000
0000
1000
0000
0000
0000
0000
0000
0000
0000
0001
0000
0000
0000
0010
0000
0000
0000
0100
0000
0000
0000
1000
0000
0000
0000
0010
0000
0000
0000
0100
0000
0000
0000
0001
0000
0000
0000
0000
0000
0000
0000
,
1000
0000
0010
0100
0010
0100
0010
0000
1000
0100
1000
0100
0010
0001
1000
0000
,
0001
0000
0100
0001
0010
0100
1000
0000
0001
0100
0001
1000
0010
0100
0001
0000
,
1000
0000
0100
0010
0001
1000
0010
0000
1000
0100
1000
0010
0100
0010
1000
0000
,
0001
0100
1000
0100
0001
0000
0010
0001
0100
0000
0110
0000
0010
0000
1000
0100
,
0010
0000
0011
0000
0001
0000
1000
0001
0100
0000
0110
0000
0010
0000
0001
0100
,
0010
0000
1000
0100
1000
0000
0100
0001
0100
0000
1100
0000
1000
0000
0010
0001
,
0010
0000
1010
0000
1100
0000
1000
0000
0101
0000
0001
0000
1000
0001
0100
0000
,
0020
0030
0000
0000
0000
0000
0000
0000
0020
0030
0000
0000
0001
0000
0000
0000
1000
0000
0000
0000
0000
0000
0000
0000
0001
0000
0000
0000
0100
0000
0000
0000
0000
0000
0000
0000
0010
0000
0000
0000
1000
0000
0000
0000
0000
0000
0000
0000
0001
0000
0000
0000
0010
0000
0000
0000
0000
0000
0000
0000
0100
0000
0000
0000
,
1000
0000
0001
0010
0100
0010
0001
0100
0000
0010
0100
0000
0010
1000
0000
0010
,
0100
0000
0010
0001
1000
0001
0100
0010
0000
1000
0100
0000
0010
0001
0000
1000
,
0001
0000
0100
0010
1000
0010
0100
0001
0000
0010
0100
0000
1000
0010
0000
0100
,
0001
0000
1000
0100
0010
0001
1000
0100
0000
0100
0100
0000
0001
0100
0000
0100
,
0100
0000
1000
0010
0100
0001
1000
0010
0000
0010
0010
0000
0001
0010
0000
0010
,
0010
0000
1000
0100
0010
0001
1000
0100
1000
0010
0100
0010
1000
0100
1000
0001
,
0100
0001
0010
0100
1000
0001
0100
0010
0100
0010
0100
0001
1000
0010
1000
0100
,
0001
0100
1000
0000
0000
0000
0000
0000
MMMM
0010
0000
0001
0010
0000
1000
0000
,
MMMM
0100
0000
0001
0100
0000
1000
0000
MMMM
0010
0000
0001
0010
0000
1000
0000
,
MMMM
0100
0000
0001
0100
0000
1000
0000
0001
0100
0010
0100
1000
0100
0010
0100
,
0000
0001
1000
0100
0110
0000
1001
0000
MMMM
0100
1000
0100
0001
0000
1001
0000
,
MMMM
0010
1000
0010
0001
0000
1001
1000
0002
0000
0000
0100
0000
0000
0023
0000
,
0000
0230
0000
0000
0301
1000
0001
0000
1000
0100
0010
0000
0001
0100
0000
0010
,
0000
0100
0000
0100
0001
1000
0001
0000
2000
0000
0000
3200
0000
0000
0302
0000
,
0000
0203
0000
0000
1300
0100
0010
0000
0001
0100
0010
0100
0010
1000
0100
0010
,
0100
1000
0001
0000
0011
0000
0000
0000
1001
0000
0100
0000
0010
0100
0010
0000
,
1000
0000
0100
0000
0010
0100
0010
0000
0001
0010
0100
0000
1000
0100
0010
0000
,
0001
0100
0010
1000
0010
0000
1010
0000
1001
0000
0000
0000
MMMM
0000
0001
0000
,
0101
0000
MMMM
1000
1100
0000
0101
0000
,
1010
0000
0011
0000
1100
1000
0101
0001
,
1010
0000
1000
0000
0011
0000
0001
0000
2002
0000
0000
0000
0000
0000
0000
3003
,
1000
0010
0100
0010
1000
0000
0100
0000
0010
0001
1000
0000
0001
0100
0010
0000
,
1000
0100
0010
0001
0100
0010
1000
0100
0010
0000
0001
0100
0001
0000
0001
0000
,
1000
0001
0010
0000
0001
0000
0100
0010
1000
0100
1000
0010
0100
0001
1000
0000
,
0001
0100
0001
0000
0100
0000
1000
0100
1000
0000
0100
0000
0001
0000
1000
0001
,
1000
0100
0010
0000
0001
0100
0001
0000
0010
0100
1000
0000
0001
0000
0100
0010
,
0100
0001
0100
0000
0001
1000
0001
0000
1000
0100
0010
0001
0010
0100
1000
0001
,
0100
0000
0001
0100
0010
0000
1000
0100
0010
0000
0001
1000
0000
0010
0100
0000
,
0001
0000
0000
0000
0000
0000
0000
0000
0010
0000
0000
0000
0000
0000
0000
0000
0100
0000
0000
0000
0000
0000
0000
0000
1000
0000
0000
0000
0000
0000
0000
0000
1200
0000
0000
0000
0000
0000
0000
0000
0000
0000
0000
0000
0000
0000
0000
0300
0201
0000
0000
0000
0000
0000
0000
0300
0200
0000
0000
0000
0000
0000
0000
0300
,
1100
0000
1000
0000
0100
0000
0010
0001
0010
0000
0001
0000
1000
0010
1000
0000
,
0001
0100
0010
0100
0001
0100
0010
1000
0002
0000
0000
0000
1003
0100
0010
0001
,
2000
0000
0000
0000
0000
0000
0000
0000
0000
0000
0000
0000
0000
0000
0000
0000
3020
0030
0000
0000
0000
0000
0000
0000
0020
0030
0000
0000
0000
0000
0000
0000
0001
0000
0000
0000
1000
0000
0000
0000
0001
0000
0000
0000
0100
0000
0000
0000
0010
0000
0000
0000
1000
0000
0000
0000
0001
0000
0000
0000
0000
0000
0000
0000
,
1000
0000
0000
0000
0000
0000
0000
0000
1000
0000
0000
0000
0000
0000
0000
0000
0001
0000
0000
0000
0000
0000
0000
0000
0001
0000
0000
0000
0000
0000
0000
0000
1020
0000
0000
0000
0000
0000
0000
0000
0000
0000
0000
0000
0000
0000
0000
0030
0021
0000
0000
0000
0000
0000
0000
0030
0020
0000
0000
0000
0000
0000
0000
0030
,
1010
1000
0100
0010
0001
0100
0010
1000
,
0100
0100
1000
1000
0010
0010
0100
0100
,
0001
0001
0010
0010
0100
0100
1000
1000
,
0001
0100
0010
1000
0100
0010
0001
0100
0010
1000
0100
0010
0001
0100
0010
1000
,
0002
0000
0000
0000
,
0000
0000
0000
0000
,
0000
0000
0003
0000
;

//--------------- dance-double - Fred-104-CDP ----------------
#NOTEDATA:;
#CHARTNAME:Fred-104-CDP;
#STEPSTYPE:dance-double;
#DESCRIPTION:Fred-104-CDP;
#DIFFICULTY:Challenge;
#METER:17;
#CREDIT:Fred-104;
#NOTES:
00000000
00000000
00000000
00000000
,
00000000
00000000
00000000
00000000
,
00010000
00001000
00010000
00000000
00001000
00000000
00000100
00000000
00000010
00000001
00000010
00000000
00000001
00000000
00001000
00000000
,
00000001
00000100
00000010
00000000
00001000
00000000
00000100
00000000
00010000
00001000
00010000
00000000
00001000
00000000
00100000
00010000
,
00000000
00100000
01000000
00000000
10000000
00000000
00010000
01000000
00100000
00000000
10000000
00000000
01000000
00000000
00100000
00000000
,
00010000
10000000
00010000
10000000
00010000
00000000
01000000
00100000
01000000
00000000
00010000
00000000
00011000
00000000
00000000
00000000
,
00010000
00001000
00000100
00000000
00000001
00000100
00001000
00000000
00000100
00000001
00000010
00000000
00000100
00001000
00010000
00000000
,
00100000
10000000
00010000
00000000
01000000
00100000
10000000
00000000
01000000
00010000
00001000
00000000
00000100
00000000
00000010
00000001
,
00001000
00000001
00000100
00000000
00000010
00000100
00000001
00000000
00000100
00000010
00000001
00000000
00000010
00000100
00000001
00000000
,
00001000
00000100
00000010
00000000
00001000
00000010
00000100
00000000
00001000
00000001
00000100
00000001
00001000
00000001
00000100
00000000
,
00000001
00000000
00000100
00000010
00001000
00000000
00000100
00000000
00010000
00000000
00001000
00100000
00010000
00000000
01000000
00000000
,
00100000
00000000
10000000
01000000
00100000
00000000
00001000
00000000
00010000
00000000
00000100
00001000
00000010
00000000
00000100
00000000
,
00000001
00000010
00000001
00000000
00000100
00000010
00000100
00000000
00000010
00001000
00000010
00000000
00010000
00001000
00010000
00000000
,
00010010
00010000
00101000
00001000
00010100
00010000
01001000
00001000
,
00022000
00033000
00000000
00000000
00000000
00000000
00000000
00000000
00000000
00000000
00000000
00000000
00000000
00000000
00000000
00000000
00100000
00000000
00000000
00000000
00010000
00000000
00000000
00000000
00100000
00000000
00000000
00000000
00000000
00000000
00000000
00000000
00010000
00000000
00000000
00000000
01000000
00000000
00000000
00000000
00100000
00000000
00000000
00000000
10000000
00000000
00000000
00000000
00100000
00000000
00000000
00000000
01000000
00000000
00000000
00000000
00010000
00000000
00000000
00000000
00000000
00000000
00000000
00000000
,
10000000
00000000
01000000
00100000
01000000
00100000
01000000
00000000
00010000
00100000
00010000
00100000
00001000
00010000
00001000
00000000
,
00010000
00000000
00000010
00001000
00000010
00001000
00000010
00000000
00001000
00000001
00000100
00000001
00001000
00000001
00001000
00000000
,
00000001
00000000
00000100
00000010
00001000
00000010
00000100
00000000
00000001
00000010
00000100
00001000
00000100
00010000
00001000
00000000
,
00100000
00001000
00010000
00001000
01000000
00000000
00010000
01000000
00100000
00000000
10000000
00000000
01000000
00000000
00100000
01000000
,
10000000
00000000
00010000
00000000
01000000
00000000
00001000
00010000
00000100
00000000
00001000
00000000
00000001
00000000
00000100
00000010
,
00001000
00000000
00000010
00000000
00000100
00000000
00000001
00000010
00000100
00000000
00000010
00000000
00000001
00000000
00001000
00000100
,
00000001
00000000
00000000
00000000
00000000
00000000
00000000
00000000
00000100
00000000
00000000
00000000
00000000
00000000
00000000
00000000
00000110
00000000
00000000
00000000
00000000
00000000
00000000
00000000
00000010
00000000
00000000
00000000
00000000
00000000
00000000
00000000
00001001
00000000
00000000
00000000
00000000
00000000
00000000
00000000
00001000
00000000
00000000
00000000
00000000
00000000
00000000
00000000
00000001
00000000
00000000
00000000
00000100
00000000
00000000
00000000
00000020
00000030
00000000
00000000
00000000
00000000
00000000
00000000
,
00000020
00000030
00000000
00000000
00000000
00000000
00000000
00000000
00000001
00000000
00000000
00000000
00001000
00000000
00000000
00000000
00000100
00000000
00000000
00000000
00000000
00000000
00000000
00000000
00000001
00000000
00000000
00000000
00000100
00000000
00000000
00000000
00000000
00000000
00000000
00000000
00000100
00000000
00000000
00000000
00001000
00000000
00000000
00000000
00000000
00000000
00000000
00000000
00001000
00000000
00000000
00000000
00010000
00000000
00000000
00000000
00000000
00000000
00000000
00000000
00010000
00000000
00000000
00000000
,
01000000
00000000
10000000
00000000
00100000
00000000
01000000
00010000
00000000
00010000
10000000
00000000
10000000
01000000
00000000
01000000
,
00100000
00000000
00001000
00000000
00010000
00000000
00001000
00000010
00000000
00000010
00000001
00000000
00001000
00000100
00000000
00000100
,
00000010
00000000
00000001
00000000
00001000
00000000
00000001
00000100
00000000
00000100
00000010
00000000
00000010
00001000
00000000
00001000
,
00000100
00000000
00010000
00000000
00001000
00000000
00100000
00010000
00000000
00100000
01000000
00000000
00100000
10000000
00000000
00100000
,
01000000
00000000
00100000
00010000
10000000
00100000
01000000
00010000
00000000
00001000
00010000
00000000
00100000
00001000
00000000
00010000
,
00001000
00000000
00010000
00000100
00001000
00000100
00000010
00000001
00001000
00000001
00000100
00000000
00000001
00000010
00000100
00001000
,
00000100
00000000
00010000
00001000
00100000
00010000
10000000
00100000
01000000
00010000
10000000
00000000
01000000
00100000
00010000
10000000
,
00100000
01000000
00001000
00000000
00000000
00000000
00000000
00000000
MMMMMMMM
00010000
00001000
00000100
00000001
00000000
00001001
00000000
,
MMMMMMMM
00000001
00000010
00001000
00010000
00000000
00011000
00000000
MMMMMMMM
00001000
00010000
01000000
10000000
00000000
10010000
00000000
,
MMMMMMMM
10000000
00100000
00010000
00001000
00000000
00011000
00000000
MMMMMMMM
00010000
01000000
10000000
00100000
00000000
00010000
00000000
,
MMMMMMMM
00001000
00000100
00000001
00000010
00000000
00001000
00000000
MMMMMMMM
00010000
00100000
10000000
01000000
00000000
00010000
00000000
,
MMMMMMMM
00001000
00000010
00000001
00000100
00000000
00001000
00010000
02000000
00000000
00000000
03200000
00000000
00000000
20300000
00000000
,
00000000
32000000
00000000
00000000
03100000
01000000
00100000
00000000
00001000
00010000
00001000
00000000
00010000
00001000
00000000
00000100
,
00000000
00000010
00000000
00000001
00000100
00000001
00000100
00000000
00002000
00000000
00000000
00003200
00000000
00000000
00000320
00000000
,
00000000
00000230
00000000
00000000
00001300
00000001
00001000
00000000
00000001
00000100
00000010
00000100
00000001
00000010
00000100
00001000
,
00000010
00010000
00001000
00000000
00011000
00000000
00000000
00000000
00110000
00000000
00010000
00000000
10000000
00000000
10000000
00000000
,
01000000
00000000
00100000
00000000
00001000
00000000
00001000
00000000
00010000
00001000
00010000
00000000
00000010
00001000
00000010
00000000
,
00000100
00000001
00000100
00000010
00000100
00000000
00000110
00000000
00001001
00000000
00000000
00000000
MMMMMMMM
00000000
00001000
00000000
,
00010010
00000000
MMMMMMMM
00001000
00101000
00000000
00010010
00000000
,
01001000
00000000
00010100
00000000
01001000
00001000
00010100
00010000
,
00101000
00000000
00001000
00000000
00010010
00000000
00010000
00000000
00022000
00000000
00000000
00000000
00000000
00000000
00000000
00033000
,
00001000
00100000
00001000
00100000
00010000
00000000
10000000
00000000
00010000
01000000
00100000
00000000
10000000
01000000
00100000
00000000
,
00001000
00010000
00001000
00000000
00010000
00000100
00001000
00000000
00000010
00000000
00000100
00000010
00000100
00000000
00000001
00000000
,
00001000
00000001
00000100
00000000
00000010
00000000
00001000
00000100
00000010
00000001
00000100
00000010
00001000
00000000
00000010
00000000
,
00010000
00001000
00010000
00000000
00100000
00000000
01000000
00100000
01000000
00000000
10000000
00000000
01000000
00000000
00100000
00001000
,
00010000
00000100
00001000
00000000
00000010
00001000
00000100
00000000
00010000
00001000
00010000
00000000
00001000
00000000
01000000
00010000
,
00100000
00001000
00010000
00000000
00000100
00001000
00000010
00000000
00000100
00000001
00000100
00000010
00000100
00000001
00000100
00000000
,
00000001
00000000
00000010
00000100
00001000
00000000
00000001
00000000
00000100
00000000
00001000
00010000
00000000
00010000
01000000
00000000
,
10000000
00000000
00000000
00000000
00000000
00000000
00000000
00000000
00100000
00000000
00000000
00000000
00000000
00000000
00000000
00000000
01000000
00000000
00000000
00000000
00000000
00000000
00000000
00000000
00010000
00000000
00000000
00000000
00000000
00000000
00000000
00000000
00210000
00000000
00000000
00000000
00000000
00000000
00000000
00000000
00000000
00000000
00000000
00000000
00000000
00000000
00000000
00300000
10200000
00000000
00000000
00000000
00000000
00000000
00000000
00300000
00200000
00000000
00000000
00000000
00000000
00000000
00000000
00300000
,
00110000
00000000
01000000
00000000
00001000
00000000
00010000
00001000
00010000
00000000
00000010
00000000
00001000
00000001
00000100
00000000
,
00000001
00000100
00000010
00001000
00000001
00000100
00000010
00000100
00000002
00000000
00000000
00000000
00001003
00000010
00010000
00001000
,
00200000
00000000
00000000
00000000
01300000
00000000
00100000
00000000
10000000
01000000
00100000
00010000
10000000
01000000
00100000
00000000
,
00001000
00000000
00000000
00000000
00000000
00000000
00000000
00000000
00010000
00000000
00000000
00000000
00000000
00000000
00000000
00000000
00000100
00000000
00000000
00000000
00000000
00000000
00000000
00000000
00001000
00000000
00000000
00000000
00000000
00000000
00000000
00000000
00001200
00000000
00000000
00000000
00000000
00000000
00000000
00000000
00000000
00000000
00000000
00000000
00000000
00000000
00000000
00000300
00000201
00000000
00000000
00000000
00000000
00000000
00000000
00000300
00000200
00000000
00000000
00000000
00000000
00000000
00000000
00000300
,
00001100
00001000
00000010
00000100
00000001
00001000
00000100
00000010
,
00000001
00000001
00000100
00000100
00000010
00000010
00001000
00001000
,
00010000
00010000
01000000
01000000
00100000
00100000
10000000
10000000
,
00010000
01000000
00100000
10000000
01000000
00100000
00001000
00010000
00000100
00001000
00000010
00001000
00000100
00001000
00000001
00000100
,
00000020
00000000
00000000
00000000
,
00000000
00000000
00000000
00000000
,
00000000
00000000
00000030
00000000
;
