#TITLE:魚氷に上り 耀よひて;
#ARTIST:あさき;
#TITLETRANSLIT:Uohi ni nobori kagayohite;
#ARTISTTRANSLIT:Asaki;
#BANNER:Uohi ni nobori kagayohite.png;
#BACKGROUND:Uohi ni nobori kagayohite-bg.png;
#CDTITLE:./CDTitles/RB limelight.png;
#MUSIC:Uohi ni nobori kagayohite.ogg;
#SAMPLESTART:63.964;
#SAMPLELENGTH:15;
#BPMS:0=106;
#TIMESIGNATURES:0=4=4,16=5=4,21=4=4,33=6=4,39=4=4,63=6=4,69=4=4;
#BGSTAGE:1;

//--------------- dance-single - Fred-104 ----------------
#NOTES:
     dance-single:
     Fred-104:
     Beginner:
     1:
     :
0000
0000
0000
0000
,
0000
0000
0000
0000
,
0000
0000
0000
0000
,
0001
0000
0000
0000
,
1000
0000
0000
0000
,
0000
0001
0000
0000
,
0000
1000
0000
0000
,
0000
0100
0000
0000
,
0000
1000
0000
0000
,
0000
0000
0000
0001
,
0000
0000
0000
0100
,
0000
0000
0000
0001
,
0000
0000
0000
1000
,
0000
0000
0000
0001
,
0000
0000
0000
1000
,
0000
0000
0000
0001
,
0000
0000
0000
0000
,
0000
1000
0000
0000
,
0000
0001
0000
0000
,
0000
1000
0000
0000
,
0000
0001
0000
0000
,
0000
1000
0000
0000
,
0000
0010
0000
0000
,
0000
0100
0000
0000
,
0000
0001
0000
0000
,
0000
1000
0000
0000
,
0000
0001
0000
0000
,
0000
1000
0000
0000
,
0000
0001
0000
0000
,
0000
0100
0000
0000
,
0000
0001
0000
0000
,
0000
1000
0000
0000
,
0000
0001
0000
0000
,
0000
0100
0000
0000
,
0000
0001
0000
0000
,
0000
1000
0000
0000
,
0000
0001
0000
0000
,
0000
1000
0000
0000
,
0000
0001
0000
0000
,
0000
1000
0000
0000
,
0000
0001
0000
0000
,
0000
1000
0000
0000
,
0000
0100
0000
0000
,
0000
1000
0000
0000
,
0000
0001
0000
0000
,
0000
0000
0000
0000
,
0000
1000
0000
0000
,
0000
0001
0000
0000
,
0000
1000
0000
0000
;

//--------------- dance-single - Fred-104 ----------------
#NOTES:
     dance-single:
     Fred-104:
     Easy:
     5:
     :
0000
0000
0000
0000
,
0000
0000
0000
0000
,
0000
0000
0000
0000
,
0001
0100
0001
0010
,
0001
0000
1000
0000
0000
0001
0000
0000
,
1000
0000
0001
0000
0000
1000
0000
0000
,
0010
1001
0000
1000
,
0010
0100
0001
0010
,
0001
1000
0000
0010
,
1000
0000
0100
0000
1000
0001
1000
0000
,
0001
0010
0001
0100
,
0000
0010
0100
0001
,
1000
0000
0100
0000
1000
0000
0002
0003
,
2000
3000
2002
0000
3003
0000
1000
0000
,
0000
0010
0000
0000
0100
0000
0001
0000
,
0010
0000
0001
1000
0010
0000
1000
0000
,
0100
1000
1001
0000
,
0000
0001
0010
1000
,
0010
0001
0100
1000
,
0100
0002
0000
1003
,
0010
0000
0100
0000
0000
0010
0000
0000
,
0100
1001
0000
0001
,
1000
0010
0000
1000
,
0100
1000
0010
1000
,
1001
0001
0000
0100
,
1000
0100
0000
0001
,
0010
0100
1000
0010
,
0100
0000
0010
0000
1000
0000
0001
1000
,
0001
1000
0100
1000
,
0001
0010
0001
1000
,
0010
0100
0010
0100
,
0001
1000
0100
1000
,
0001
1000
1001
0000
,
0001
0100
0110
0000
,
1000
0000
0010
0000
0000
1000
0000
0000
,
0100
0010
0000
0001
,
1000
1001
0001
0100
,
0100
0010
0010
1000
,
1000
0000
0001
0000
0001
0000
1000
0001
,
1000
0001
0100
0001
,
1000
0002
0000
1003
,
0010
0200
0000
0310
,
1000
0001
0010
1000
,
0100
0000
0001
0000
1000
0010
0100
0000
,
0010
2002
0000
0000
,
0000
3003
0000
0000
,
0002
1003
0100
1000
,
0001
1000
0010
0100
,
0001
0000
0000
1001
0000
0000
0000
0000
0000
0000
0000
0000
0000
0000
0000
0000
;

//--------------- dance-single - Fred-104 ----------------
#NOTES:
     dance-single:
     Fred-104:
     Medium:
     9:
     :
0000
0000
0000
0000
,
0000
0000
0000
0000
,
0000
0000
0000
0000
,
1000
0001
0000
1000
0001
0000
0010
0000
0001
0000
0100
0000
0001
0000
0000
0000
,
1000
0000
0010
0000
1000
0100
0000
0000
0000
0000
0001
0100
0000
0000
0000
0000
,
1000
0001
0000
0000
1000
0000
0000
1100
0000
0000
0001
0000
0000
0011
0000
0000
,
0001
0100
0020
0000
1030
0200
0000
1300
,
0001
0010
0100
1000
0001
0000
0100
0010
,
0100
0000
0001
1000
0010
1000
0100
1000
,
0001
0000
0100
0000
0001
0000
1000
0000
0100
1000
0100
0000
1000
0000
0010
0000
,
1000
0000
0001
0000
0100
0000
0000
0010
0000
0000
0100
0000
0001
0000
0000
0010
,
0000
0000
0001
0000
0000
0100
0000
0000
0010
0000
0100
0000
0001
0000
0010
0000
,
0011
0000
0100
1000
1100
0000
0101
0001
,
1010
1000
2002
0000
3003
0000
1000
0000
,
0010
0000
0200
0000
0000
0000
0301
0000
1000
0000
0001
0000
0010
0000
0000
0001
,
0000
1000
0010
0100
0010
1000
0100
0000
,
1000
0000
0020
0000
0000
0000
0031
0000
0010
0000
1000
0002
0000
0000
0000
0000
,
0003
0000
0000
1000
0000
1000
0100
0000
0100
0010
0000
0010
,
0001
0000
0001
0100
0000
0100
0010
0000
0010
1000
0000
0001
,
1001
0000
0002
0000
0100
0000
0103
0010
,
1000
0000
0010
0000
1000
0001
0000
0000
0000
0000
0100
0010
0000
1000
0000
0001
,
1000
0000
0000
0000
0001
0000
0000
0010
0000
0000
0001
0000
0000
0100
0000
0000
,
0010
0000
1000
0000
0001
0000
0000
1000
0000
0000
0010
0000
0000
0100
0000
0000
,
0010
0000
1000
0000
0001
0100
0001
0100
0000
0001
0000
1000
0000
0010
0000
0100
,
0000
0002
0000
0000
1003
0000
0000
0100
0000
0000
1000
0000
0000
0010
0000
0000
,
0100
0000
0001
0000
1000
0000
0000
0010
0000
0000
0001
0000
0000
1000
0000
0000
,
0100
0001
1000
0000
1001
0000
0001
0100
,
0010
0000
0100
0000
0001
0100
0001
0100
0000
0010
0000
1000
0000
0000
0001
0000
,
1000
0100
1000
0010
1010
0000
0010
0100
,
0001
1000
0000
0010
0100
0000
0001
0010
,
0001
0100
0000
0010
0100
0001
1000
0100
,
0010
0100
1000
0010
0110
0000
0001
0010
,
1000
0010
0001
0100
0002
0000
0013
0100
,
0001
0100
1000
0100
0020
0000
0031
1000
,
0010
0000
1000
0000
0001
0000
0000
0011
0000
0000
1000
0000
0000
1010
0000
0000
,
0001
0000
1000
0000
0100
0000
1000
0000
0010
0000
0100
0000
0001
1000
0000
0001
,
0100
0010
1010
0000
1100
0000
1001
0000
,
0101
0011
1001
0101
,
1001
1100
0101
0011
,
1010
0000
1100
0010
0001
0000
1010
0100
,
0001
1000
0001
0010
0001
0100
0001
0010
,
0100
0000
0010
0001
1000
0001
0100
0010
,
1000
0000
0001
0100
1000
0100
0001
0010
,
0001
0000
1000
0000
0001
0000
0100
0000
0010
1000
0000
0100
0000
1000
0001
0000
,
0100
0010
0220
0000
0000
0000
0000
0000
,
0000
0330
0000
0000
,
2000
0000
3001
0001
0010
0010
0100
0100
,
1000
1000
0001
0100
0010
1000
0001
1000
,
0010
0100
0010
0100
0000
0000
0000
0000
0000
0000
0000
0000
0000
0000
0000
0000
;

//--------------- dance-single - Fred-104 ----------------
#NOTES:
     dance-single:
     Fred-104:
     Hard:
     14:
     :
0000
0000
0000
0000
,
0000
0000
0000
0000
,
0000
0000
0000
0000
,
1000
0100
0000
1000
0010
0000
0100
0001
0010
0001
0010
0000
0001
1000
0001
1000
,
0100
0010
0001
1000
0001
0001
0000
0000
0000
0000
1000
1000
0010
0100
0010
0100
,
0001
0002
0000
0003
0011
0000
0000
1010
0000
0000
0101
0000
0000
1000
0001
1000
,
0001
0100
0010
0000
2000
0000
0000
0000
3010
0000
0200
0000
0000
0000
0310
0000
,
1000
0000
0001
0000
0010
0000
0001
0000
0100
0000
0010
0100
0000
0001
0100
0000
,
0010
0000
1000
0000
0100
1000
0100
0000
1000
0000
0001
0000
0010
0000
0001
0100
,
0001
0000
0000
0000
0100
0000
0010
0000
2000
0000
0000
0000
3002
0000
0000
0000
0013
0100
0010
0100
0020
0000
0000
0000
0031
0000
0000
0000
0100
0000
0001
0000
,
0010
0000
0001
1000
0000
0010
0100
0000
0010
0000
1000
0100
1000
0010
0000
0100
,
0001
0000
1000
0100
0000
0010
0001
0000
0100
0000
0001
0000
0020
0000
0001
0000
,
0031
0000
0100
0000
0020
0000
1000
0000
1030
0000
0001
0000
0100
0100
0000
0000
,
0110
0000
0000
0000
0010
0000
0010
0000
0000
0000
0000
0000
1000
0000
0000
0000
0001
0100
0001
0000
0010
0000
0001
0000
2000
0000
0000
0000
0010
0000
0000
0000
,
3001
0000
0200
0000
0010
0000
0301
0000
1000
0000
0010
1000
0001
0010
0000
0100
,
0000
0010
0001
1000
0000
0010
1000
0010
0100
0000
0001
1000
0000
0100
0000
1000
,
0010
0100
0000
0001
0010
0000
0001
1000
0001
0100
0002
2000
0000
0000
0000
0000
,
3003
0000
0000
1000
0100
1000
0010
0001
0010
1000
0010
1000
,
0100
0001
0100
1000
0100
0010
0001
0000
0100
0001
1000
0001
,
0100
0000
0000
0000
0010
0000
0000
0000
1000
0000
0000
0000
1001
0000
0000
0000
0000
0000
0001
0000
0000
0000
0000
0000
1000
0000
0000
0000
0000
0000
0100
0000
0000
0010
0000
0000
0000
0000
0000
0001
0000
0000
0100
0000
0000
0001
0000
0000
,
0010
0000
0001
0000
1000
1000
0000
0000
0001
0100
0001
0001
0000
1000
0000
0010
,
0100
0001
0010
0001
1000
0000
0010
1000
0000
0100
0001
0100
0000
0010
0000
0001
,
1000
0000
0001
0000
0100
0000
1000
0100
0000
0010
1000
0100
0000
0010
0000
0001
,
0100
0000
0010
0000
1000
0000
0000
0000
0001
0000
0010
0000
0001
0000
0100
0000
0000
0000
0110
0000
0000
0000
1010
0000
0000
0000
1000
0010
1000
0000
0001
0000
,
0100
0020
0000
0000
1030
0000
0100
0010
0000
1000
0010
0001
0000
0010
0000
0100
,
1000
0000
0001
0000
0100
0000
0010
0001
0000
0010
1000
0010
0000
0100
0000
0001
,
1000
0100
0010
0000
0001
0100
0001
0010
0001
0000
1000
0010
0000
1000
0100
1000
,
0001
0000
0000
0100
0000
0000
0010
0000
0000
1000
0000
0000
0001
0000
0000
0010
0000
0000
0001
0000
0000
0010
0000
0000
0000
0000
0000
0110
0000
0000
0000
0000
0000
1100
0000
0000
0000
0000
0000
1000
0000
0000
0010
0000
1000
0000
0010
0000
,
0100
0000
0001
0000
0100
0000
0001
0000
1000
0000
0001
0000
0010
0000
0000
0000
0000
0000
0001
0000
0000
1000
0000
0000
0001
0000
0000
0000
0000
0000
0100
0000
0000
0010
0000
0000
0100
0000
0000
0000
0000
0000
0010
0000
0000
1000
0000
0000
,
0100
0000
0010
0000
0001
0000
0100
0001
0010
0000
0001
1000
0010
0000
1000
0010
,
0100
0000
0010
0000
1000
0000
0001
1000
0100
0000
1000
0010
0100
0000
0010
1000
,
0001
0000
0010
0000
0001
0000
0010
0100
1000
0000
0001
1000
0100
0000
0001
0100
,
1000
0010
1010
1000
1100
0100
0110
0010
,
0011
0000
0001
0000
0101
0000
0100
0000
1100
0000
0100
0000
0101
0000
0001
1000
,
0010
0000
1000
0001
0100
0000
0001
0010
0000
0001
1000
0000
0010
0100
0000
0010
,
1000
0000
0100
0000
1000
0100
0010
0100
1000
0010
0100
0000
0001
0010
0000
0001
,
1000
0000
0010
0000
1000
0000
0100
0000
0010
0000
0001
0000
1000
0000
0000
0000
0000
0000
0001
0000
0000
0010
0000
0000
1000
0000
0000
0000
0000
0000
0001
0000
0000
0100
0000
0000
1000
0000
0000
0000
0000
0000
0001
0000
0000
0010
0000
0000
,
0100
0000
1000
0000
0010
0000
1000
0100
0001
0000
1000
0010
0001
0000
1000
0010
,
0100
0000
0001
0000
0010
0000
0001
0010
0100
0000
0001
0100
0010
0000
0001
1000
,
0010
0000
1000
0000
0001
0000
1000
0010
0100
0000
1000
0100
0010
0000
1000
0001
,
0010
0000
0001
1000
0001
0010
0100
0010
0001
1000
0001
1000
0010
0000
1000
0010
,
0100
0000
0010
0000
1000
0000
0010
1000
0100
0000
1000
0010
0100
0000
0010
1000
,
0001
0000
0010
0000
0011
0000
0001
1000
0010
0000
0100
0010
0000
0100
0001
0010
,
0100
0000
1000
0000
1010
0000
1000
0001
0100
0010
0000
0110
0000
0100
0001
1000
,
0010
1000
0100
0010
0001
1000
0002
0000
0000
0000
0000
0000
0000
0000
0000
0000
0000
0000
0000
0000
0000
0000
0000
0000
,
0000
0003
0000
0000
,
0002
2003
3002
2003
3001
0010
0001
0100
0001
0010
0001
0100
0010
1000
0100
1000
,
0001
0100
0010
0100
0001
0010
0100
1000
0001
0010
0100
0010
0001
1000
0010
1000
,
0001
1000
0001
0000
1000
0010
0100
0001
0000
0000
0000
0000
0000
0000
0000
0000
0000
0000
0000
0000
0000
0000
0000
0000
0000
0000
0000
0000
0000
0000
0000
0000
;

//--------------- dance-double - Fred-104 ----------------
#NOTES:
     dance-double:
     Fred-104:
     Easy:
     5:
     :
00000000
00000000
00000000
00000000
,
00000000
00000000
00000000
00000000
,
00000000
00000000
00000000
00000000
,
00001000
00010000
00001000
01000000
,
00001000
00000000
00010000
00000000
00000000
00010000
00000000
00000000
,
00010000
00000000
00000100
00000000
00000000
00001000
00000000
00000000
,
00000010
00001001
00000000
00000001
,
00000100
00000010
00000100
00000001
,
00001000
00000010
00000000
00010000
,
00001000
00000000
00010000
00000000
00100000
01000000
00010000
00000000
,
10000000
00010000
01000000
00100000
,
00000000
01000000
00010000
10000000
,
01000000
00000000
00100000
00000000
00001000
00000000
00020000
00030000
,
00002000
00003000
00022000
00000000
00033000
00000000
00010000
00000000
,
00000000
00010000
00000000
00000000
00010000
00000000
00001000
00000000
,
00010000
00000000
00001000
00000010
00001000
00000000
00010000
00000000
,
00100000
00010000
00011000
00000000
,
00000000
00010000
00001000
00000100
,
00000001
00001000
00000100
00000010
,
00000001
00002000
00000000
00003001
,
00000100
00000000
00000001
00000000
00000000
00000010
00000000
00000000
,
00000001
00001001
00000000
00000010
,
00010000
00001000
00000000
00100000
,
00001000
00100000
00001000
00010000
,
00011000
00001000
00000000
00010000
,
01000000
10000000
00000000
00010000
,
01000000
00100000
10000000
00100000
,
10000000
00000000
00100000
00000000
01000000
00000000
00010000
00100000
,
00010000
00100000
00001000
00010000
,
00001000
00000010
00001000
00010000
,
00001000
00100000
00001000
00010000
,
00001000
00000010
00000100
00001000
,
00000001
00000100
00000110
00000000
,
00001000
00000100
00000110
00000000
,
00000001
00000000
00000100
00000000
00000000
00001000
00000000
00000000
,
00010000
00100000
00000000
10000000
,
00010000
01010000
01000000
00100000
,
00100000
10000000
10000000
01000000
,
01000000
00000000
00010000
00000000
00010000
00000000
00001000
00010000
,
00001000
00010000
00000100
00001000
,
00000001
00002000
00000000
00003010
,
00000100
00000020
00000000
00001030
,
00000001
00000010
00000100
00000010
,
00001000
00010000
00100000
01000000
,
00010000
20020000
00000000
00000000
,
00000000
30030000
00000000
00000000
,
20000000
30010000
10000000
01000000
,
00010000
01000000
10000000
00100000
,
00010000
00000000
00000000
00011000
00000000
00000000
00000000
00000000
00000000
00000000
00000000
00000000
00000000
00000000
00000000
00000000
;

//--------------- dance-double - Fred-104 ----------------
#NOTES:
     dance-double:
     Fred-104:
     Medium:
     9:
     :
00000000
00000000
00000000
00000000
,
00000000
00000000
00000000
00000000
,
00000000
00000000
00000000
00000000
,
00001000
00010000
00000000
00001000
00010000
00000000
00000100
00000000
00001000
00000000
00000010
00000000
00010000
00000000
00000000
00000000
,
00001000
00000000
00100000
00000000
00010000
01000000
00000000
00000000
00000000
00000000
00001000
00010000
00000000
00000000
00000000
00000000
,
00001000
00010000
00000000
00000000
00010000
00000000
00000000
00010100
00000000
00000000
00001000
00000000
00000000
01001000
00000000
00000000
,
00010000
00001000
00020000
00000000
00030010
00002000
00000000
00003100
,
00001000
00000010
00000100
00000001
00001000
00000000
00000001
00000100
,
00001000
00000000
00010000
00100000
01000000
00010000
10000000
00010000
,
00100000
00000000
01000000
00000000
00100000
00000000
00001000
00000000
00010000
00001000
00100000
00000000
00010000
00000000
01000000
00000000
,
00001000
00000000
00010000
00000000
00001000
00000000
00000000
00100000
00000000
00000000
00010000
00000000
00000010
00000000
00000000
00001000
,
00000000
00000000
00010000
00000000
00000000
01000000
00000000
00000000
00100000
00000000
00010000
00000000
01000000
00000000
00100000
00000000
,
10100000
00000000
01000000
00100000
00110000
00000000
00020000
00230000
,
00302000
00000000
00023000
00030000
00022000
00000000
00000000
00000000
00033000
00000000
00000000
00000000
00010000
00000000
00000000
00000000
,
00001000
00000000
00000200
00000000
00000000
00000000
00000301
00000000
00001000
00000000
00000100
00000000
00000010
00000000
00000000
00000001
,
00000000
00001000
00000001
00000010
00000100
00000010
00001000
00000000
,
00010000
00000000
00200000
00000000
00000000
00000000
01300000
00000000
00010000
00000000
10000000
00200000
00000000
00000000
00000000
00000000
,
00300000
00000000
00000000
10000000
00000000
01000000
00100000
00000000
00001000
00010000
00000000
00000100
,
00000010
00000000
00000001
00001000
00000000
00000100
00000001
00000000
00000100
00001000
00000000
00000000
,
00001001
00000000
00000002
00000000
00000100
00000000
00000103
00000010
,
00001000
00000000
00000100
00000000
00010000
00001000
00000000
00000000
00000000
00000000
00010000
00001000
00000000
00100000
00000000
00010000
,
01000000
00000000
00000000
00000000
00100000
00000000
00000000
01000000
00000000
00000000
00001000
00000000
00000000
00010000
00000000
00000000
,
00001000
00000000
00100000
00000000
00001000
00000000
00000000
00010000
00000000
00000000
00000010
00000000
00000000
00001000
00000000
00000000
,
00000100
00000000
00010000
00000000
00001000
00010000
00001000
00010000
00000000
00001000
00000000
00100000
00000000
00010000
00000000
10000000
,
00000000
00200000
00000000
00000000
01300000
00000000
00000000
00100000
00000000
00000000
10000000
00000000
00000000
00100000
00000000
00000000
,
10000000
00000000
01000000
00000000
00010000
00000000
00000000
00001000
00000000
00000000
00000010
00000000
00000000
00000100
00000000
00000000
,
00001000
00000010
00000100
00000000
00000110
00000000
00000100
00000001
,
00000010
00000000
00000001
00000000
00001000
00000010
00001000
00000100
00000000
00000010
00000000
00000001
00000000
00000000
00000100
00000000
,
00001000
00010000
00011000
00000000
01100000
00000000
01000000
10000000
,
00100000
01000000
00000000
00010000
00100000
00000000
00010000
00100000
,
01000000
00100000
00000000
00010000
00001000
00000010
00000100
00000010
,
00001000
00010000
00100000
01000000
00010000
00000000
10000000
00100000
,
00010000
00100000
10000000
01000000
00020000
00000000
00031000
00000010
,
00000100
00001000
00000001
00000010
00002000
00000000
00013000
01000000
,
00100000
00000000
00010000
00000000
10000000
00000000
00000000
11000000
00000000
00000000
00010000
00000000
00000000
01010000
00000000
00000000
,
00100000
00000000
01000000
00000000
00010000
00000000
00001000
00000000
00000010
00000000
00000100
00000000
00010000
00001000
00000000
00010000
,
00001000
00010000
00011000
00000000
00010010
00000000
00010000
00001000
,
00100000
00000000
00110000
00000000
10010000
00000000
10000000
01000000
,
00010000
00000000
00011000
00000000
00001010
00000000
00000100
00001000
,
00000001
00000000
00000110
00000001
00001000
00000000
00000110
00001000
,
00000001
00000100
00000001
00000010
00001000
00010000
01000000
10000000
,
00010000
00000000
10000000
00100000
00010000
00001000
00000100
00000001
,
00001000
00000000
00000001
00000010
00000100
00000010
00000100
00001000
,
00000010
00000000
00010000
00000000
00001000
00000000
00100000
00000000
00010000
01000000
00000000
00001000
00000000
00010000
00000100
00000000
,
00001000
00000100
00000220
00000000
00000000
00000000
00000000
00000000
,
00000000
00000330
00000000
00000000
,
00000002
00000000
00001003
00001000
00000001
00000001
00000100
00000100
,
00001000
00001000
00010000
00010000
00100000
00100000
10000000
10000000
,
00010000
10000000
00010000
10000000
00000000
00000000
00000000
00000000
00000000
00000000
00000000
00000000
00000000
00000000
00000000
00000000
;

//--------------- dance-double - Fred-104 ----------------
#NOTES:
     dance-double:
     Fred-104:
     Hard:
     14:
     :
00000000
00000000
00000000
00000000
,
00000000
00000000
00000000
00000000
,
00000000
00000000
00000000
00000000
,
00010000
00001000
00000000
00010000
00000010
00000000
00001000
00000010
00000100
00000010
00001000
00000000
00000001
00000100
00000001
00000100
,
00000010
00001000
00000100
00000010
00000001
00000001
00000000
00000000
00000000
00000000
00010000
00010000
00000000
00000000
00000000
00000000
,
00001000
00001000
00000000
00000000
00011000
00000000
00000000
00010010
00000000
00000000
00011000
00000000
00000000
00100000
00001000
00010000
,
00001000
01000000
00020000
00000000
00130000
00002000
00000000
00013000
,
00001000
00000000
00000010
00000000
00000100
00000000
00001000
00000000
00000010
00000000
00000100
00000010
00000000
00001000
00000100
00000000
,
00010000
00000000
00001000
00000000
01000000
00010000
00100000
00000000
01000000
00000000
10000000
00000000
00010000
00000000
00100000
01000000
,
00100000
00000000
00000000
00000000
00010000
00000000
00000000
00000000
02000000
00000000
00000000
00000000
03002000
00000000
00000000
00000000
00013000
00001000
00010000
00001000
00020000
00000000
00000000
00000000
00031000
00000000
00000000
00000000
00010000
00000000
00001000
00000000
,
00000100
00000000
00000001
00001000
00000000
00000100
00000010
00000000
00000001
00000000
00000100
00000010
00000100
00000001
00000000
00000100
,
00000010
00000000
00001000
00000100
00000000
00010000
00000100
00000000
00010000
00000000
00000010
00000000
00002000
00000000
00000100
00000000
,
00003100
00010000
00002000
01000000
01003000
00001000
00101000
00010010
,
01001000
00000000
00000000
00000000
00010100
00000000
00000000
00000000
00011000
00000000
00000000
00000000
00010000
00000000
00000000
00000000
00001000
00010000
00001000
00000000
00010000
00000000
01000000
00000000
10000000
00000000
00000000
00000000
00010000
00000000
00100000
00000000
,
01000000
00000000
10000000
00000000
00010000
10000000
00100000
00000000
01000000
00000000
00001000
00010000
00001000
00000010
00000000
00000100
,
00000000
00001000
00000010
00000100
00000000
00000010
00001000
00000100
00010000
00000000
00001000
00010000
00000000
00001000
00000000
00100000
,
00010000
01000000
00000000
00001000
00010000
00000000
00001000
00000010
00000001
00001000
00000002
00000200
00000000
00000000
00000000
00000000
,
00000303
00000000
00000000
00000001
00000010
00001000
00010000
00100000
01000000
00010000
10000000
01000000
,
00100000
00010000
01000000
00001000
00010000
00001000
00000100
00000000
00000010
00001000
00000100
00000010
,
00000001
00000000
00000000
00000000
00000100
00000000
00000000
00000000
00001000
00000000
00000000
00000000
00011000
00000000
00000000
00000000
00000000
00000000
00010000
00000000
00000000
00000000
00000000
00000000
00001000
00000000
00000000
00000000
00000000
00000000
00100000
00000000
00000000
00010000
00000000
00000000
00000000
00000000
00000000
01000000
00000000
00000000
00001000
00000000
00000000
00010000
00000000
00000000
,
00001000
00000000
00100000
00000000
00010000
00010000
00000000
00000000
10000000
01000000
10000000
10000000
00000000
00100000
00000000
00010000
,
00001000
00010000
00100000
10000000
00010000
00000000
01000000
10000000
00000000
01000000
00100000
10000000
00000000
00100000
00000000
00010000
,
00100000
00000000
01000000
00000000
10000000
00000000
00010000
00100000
00000000
00001000
00100000
00010000
00000000
01000000
00000000
00001000
,
00010000
00001000
00000010
00000000
00000100
00001000
00000010
00000100
00000000
00000110
00000000
00001010
00000000
00001000
00000100
00010000
,
00001000
00002000
00000000
00000000
00013000
00000000
00001000
00000100
00000000
00000001
00001000
00000100
00000000
00000010
00000000
00000001
,
00000100
00000000
00001000
00000000
00000100
00000000
00000001
00000010
00000000
00000100
00000001
00000100
00000000
00001000
00000000
00000100
,
00000010
00000001
00001000
00000000
00000010
00000100
00000010
00000100
00000010
00000000
00010000
00001000
00000000
00100000
00010000
01000000
,
00010000
00000000
00000000
00100000
00000000
00000000
01000000
00000000
00000000
00100000
00000000
00000000
00010000
00000000
00000000
00001000
00000000
00000000
00000010
00000000
00000000
00000100
00000000
00000000
00000000
00000000
00000000
00000010
00000000
00000000
00000000
00000000
00000000
00001000
00000000
00000000
00000000
00000000
00000000
00010000
00000000
00000000
00100000
00000000
01000000
00000000
00010000
00000000
,
10000000
00000000
00010000
00000000
01000000
00000000
00010000
00000000
00000000
01000000
00000000
00000000
00100000
00000000
00000000
00000000
00000000
00000000
10000000
00000000
00000000
01000000
00000000
00000000
00010000
00000000
00000000
00000000
00000000
00000000
00010000
00000000
00000000
01000000
00000000
00000000
10000000
00000000
00000000
00000000
00000000
00000000
00100000
00000000
00000000
01000000
00000000
00000000
,
00010000
00000000
10000000
00000000
01000000
00000000
00010000
00001000
00000010
00000000
00000100
00001000
00000001
00000000
00000100
00000010
,
00001000
00000000
00000001
00000000
00001000
00000000
00000001
00000010
00001000
00000000
00001000
00000010
00000001
00000000
00000100
00000010
,
00001000
00000000
00000100
00000000
00010000
00000000
00001000
00010000
00100000
00000000
00010000
00001000
00000010
00000000
00001000
00010000
,
00001000
00100000
00110000
00010000
01010000
01000000
01001000
00001000
,
00011000
00000000
00010000
00000000
00010100
00000000
00010000
00000000
00010010
00000000
00010000
00000000
00011000
00000000
00010000
00000010
,
00001000
00000000
00000100
00000000
00010000
00000000
00001000
00100000
00000000
00010000
01000000
00000000
00001000
00010000
00000000
00000010
,
00001000
00000000
00000100
00000000
00010000
00001000
00010000
00001000
00010000
00100000
01000000
00000000
00010000
10000000
00000000
01000000
,
10000000
00000000
01000000
00000000
10000000
00000000
00100000
00000000
01000000
00000000
00010000
00000000
10000000
00000000
00000000
00000000
00000000
00000000
00100000
00000000
00000000
01000000
00000000
00000000
00100000
00000000
00000000
00000000
00000000
00000000
00010000
00000000
00000000
00001000
00000000
00000000
00000010
00000000
00000000
00000000
00000000
00000000
00000100
00000000
00000000
00001000
00000000
00000000
,
00000001
00000000
00001000
00000000
00000001
00000000
00000010
00000100
00000010
00000000
00001000
00010000
00100000
00000000
01000000
00010000
,
10000000
00000000
00010000
00000000
01000000
00000000
00100000
10000000
00010000
00000000
10000000
01000000
00010000
00000000
00001000
00000010
,
00000001
00000000
00001000
00000000
00000010
00000000
00000100
00000001
00000010
00000000
00000100
00001000
00000010
00000000
00010000
00001000
,
00100000
00000000
00010000
01000000
00010000
00100000
01000000
00100000
00001000
00010000
00001000
00010000
00001000
00000000
00010000
00000100
,
00001000
00000000
00000010
00000000
00000100
00000000
00000001
00000010
00001000
00000000
00000010
00000001
00000100
00000000
00000010
00001000
,
00000100
00000000
00010000
00000000
00011000
00000000
00010000
00001000
00000010
00000000
00000100
00010000
00000000
00001000
00100000
01000000
,
00010000
00000000
00001000
00000000
00011000
00000000
00010000
00000100
00001000
00000100
00000000
00000110
00000000
00000010
00000001
00001000
,
00000001
00000010
00000100
00001000
00000100
00010000
00002000
00000000
00000000
00000000
00000000
00000000
00000000
00000000
00000000
00000000
00000000
00000000
00000000
00000000
00000000
00000000
00000000
00000000
,
00000000
00003000
00000000
00000000
,
00002000
00003002
00002003
00003002
00001003
00000100
00000010
00000001
00000100
00001000
00010000
00001000
00100000
01000000
00100000
00010000
,
10000000
00100000
00001000
00000010
00010000
00001000
00010000
01000000
00100000
00010000
10000000
01000000
00010000
00001000
00000010
00000100
,
00001000
00000010
00001000
00000000
00000001
00001000
00000001
00001000
00000000
00000000
00000000
00000000
00000000
00000000
00000000
00000000
00000000
00000000
00000000
00000000
00000000
00000000
00000000
00000000
00000000
00000000
00000000
00000000
00000000
00000000
00000000
00000000
;
