#VERSION:0.83;
#TITLE:Under the Sky;
#ARTIST:南さやか(BeForU)with platoniX;
#ARTISTTRANSLIT:Sayaka Minami (BeForU) with platoniX;
#GENRE:J-EUROTRANCE;
#BANNER:Under the Sky.png;
#BACKGROUND:Under the Sky-bg.png;
#CDTITLE:./CDTitles/bm IIDX 12 HAPPY SKY.png;
#MUSIC:Under the Sky.ogg;
#SAMPLESTART:57.881;
#SAMPLELENGTH:15;
#BPMS:0=170,256=158.4,260=170;
#BGSTAGE:18;

//--------------- dance-single - Fred-104 ----------------
#NOTEDATA:;
#STEPSTYPE:dance-single;
#DESCRIPTION:Fred-104;
#DIFFICULTY:Beginner;
#METER:1;
#CREDIT:Fred-104;
#NOTES:
0000
0000
0000
0000
,
0000
0000
0000
0000
,
0000
0000
0000
0000
,
0000
0000
0000
0000
,
0000
0000
0000
0000
,
0000
0000
0000
0000
,
0000
0000
0000
0000
,
0000
0000
0000
0000
,
0000
0000
0000
0000
,
1000
0000
0000
0000
,
0000
0000
0000
0000
,
1000
0000
0000
0000
,
0000
0000
0000
0000
,
0001
0000
0000
0000
,
0000
0000
0000
0000
,
0001
0000
0000
0000
,
0000
0000
0000
0000
,
1000
0000
0000
0000
,
0000
0000
0000
0000
,
1000
0000
0000
0000
,
0000
0000
0000
0000
,
0001
0000
0000
0000
,
0000
0000
0000
0000
,
0001
0000
0000
0000
,
0000
0000
0000
0000
,
1000
0000
0000
0000
,
0000
0000
0000
0000
,
1000
0000
0000
0000
,
0000
0000
0000
0000
,
0001
0000
0000
0000
,
0000
0000
0000
0000
,
0010
0000
0000
0000
,
0000
0000
0000
0000
,
0001
0000
0000
0000
,
0000
0000
0000
0000
,
1000
0000
0000
0000
,
0000
0000
0000
0000
,
1000
0000
0000
0000
,
0000
0000
0000
0000
,
0001
0000
0000
0000
,
0000
0000
0000
0000
,
1000
0000
0000
0000
,
0000
0000
0000
0000
,
0100
0000
0000
0000
,
0000
0000
0000
0000
,
1000
0000
0000
0000
,
0000
0000
0000
0000
,
1000
0000
0000
0000
,
0000
0000
0000
0000
,
0001
0000
0000
0000
,
0000
0000
0000
0000
,
0001
0000
0000
0000
,
0000
0000
0000
0000
,
0100
0000
0000
0000
,
0000
0000
0000
0000
,
0001
0000
0000
0000
,
0000
0000
0000
0000
,
1000
0000
0000
0000
,
0000
0000
0000
0000
,
1000
0000
0000
0000
,
0000
0000
0000
0000
,
0001
0000
0000
0000
,
0000
0000
0000
0000
,
0001
0000
0000
0000
,
0000
0000
0000
0000
,
1000
0000
0000
0000
,
0000
0000
0000
0000
,
0000
0000
0000
0000
,
0000
0000
0000
0000
,
0001
0000
0000
0000
,
0000
0000
0000
0000
,
0000
0000
0000
0000
,
0000
0000
0000
0000
,
1000
0000
0000
0000
,
0000
0000
0000
0000
,
0001
0000
0000
0000
,
0000
0000
0000
0000
,
1000
0000
0000
0000
,
0000
0000
0000
0000
,
1000
0000
0000
0000
,
0000
0000
0000
0000
,
0001
0000
0000
0000
,
0000
0000
0000
0000
,
0000
0000
0000
0000
,
0000
0000
0000
0000
,
0100
0000
0000
0000
,
0000
0000
0000
0000
,
0001
0000
0000
0000
;

//--------------- dance-single - Fred-104 ----------------
#NOTEDATA:;
#STEPSTYPE:dance-single;
#DESCRIPTION:Fred-104;
#DIFFICULTY:Easy;
#METER:6;
#CREDIT:Fred-104;
#NOTES:
0000
0000
0000
0000
,
0000
0000
0000
0000
,
0000
0000
0000
0000
,
0000
0000
0000
0000
,
0000
0000
0000
0000
,
0000
0000
0000
0000
,
0000
0000
0000
0000
,
0000
0000
0000
0000
,
0000
0000
0000
0000
,
0001
0000
0000
0002
0000
0000
0003
0000
,
0010
0000
0000
0020
0000
0000
0030
0000
,
0100
0000
0000
0200
0000
0000
0300
0000
,
1000
0000
0000
1000
0000
0000
1000
0000
,
0001
0000
0000
0002
0000
0000
0003
0000
,
0100
0000
0000
0200
0000
0000
0300
0000
,
0010
0000
0000
0020
0000
0000
0030
0000
,
0100
0000
0001
0000
,
1000
0000
0000
2000
0000
0000
3000
0000
,
0001
0000
0000
0002
0000
0000
0003
0000
,
0100
0000
0000
0200
0000
0000
0300
0000
,
0010
0000
0000
0020
0000
0000
0030
0000
,
0100
0000
0000
0200
0000
0000
0300
0000
,
0001
0000
0000
0002
0000
0000
0003
0000
,
2000
0000
0000
0000
,
0000
0000
3000
0000
,
0001
0000
0000
0001
0000
0000
0001
0000
,
0100
0000
0010
0100
,
0100
0000
0000
0001
0000
0000
1000
0000
,
0100
0000
0010
0010
,
0001
0000
1000
0001
,
0100
0000
0000
0010
0000
0000
0100
0000
,
0001
0000
0010
0100
,
1000
0000
0000
0001
0000
0000
1000
0000
,
0001
0000
0000
0100
0000
0010
0000
0100
,
0000
0100
0000
0000
0001
0000
1000
0000
,
0001
0000
0000
1000
0000
0000
0010
0000
,
0000
0100
0000
0000
0001
0000
1000
0000
,
0100
0000
0000
0010
0000
0000
0001
0000
,
0000
1000
0000
0000
0001
0000
0100
0000
,
0010
0000
0000
0010
0000
0000
0010
0000
,
2002
0000
0000
3003
,
1000
0100
1000
0100
,
0000
0001
0000
0100
,
0001
0100
1000
0001
,
1000
0000
0001
0000
,
1000
0000
0010
0000
,
0001
0000
0100
0000
,
1000
0001
1000
1000
,
0001
0100
0010
1000
,
0001
0100
0001
0100
,
0000
1000
0000
0100
,
0001
1000
0001
0010
,
0100
0000
1000
0000
,
0001
0000
1000
0010
,
0100
0100
0001
1000
,
0100
0000
0010
0000
,
0001
0001
1000
1000
,
0001
0000
0000
0010
0000
0000
0100
0000
,
1000
1000
0001
1000
,
0010
0100
0010
1000
,
0100
0010
0001
0000
,
1000
0000
0000
0010
0000
0000
0100
0000
,
0010
1000
0100
0010
,
0001
1000
0010
0100
,
0110
0000
1001
0000
,
0001
0010
0100
2000
,
0000
3002
0000
2003
,
3010
0000
0100
0000
0001
0000
0000
2002
,
0000
0000
3003
0000
,
1000
0000
0002
2003
,
3002
0203
0320
2030
,
3002
0000
2000
0000
,
0000
0000
0000
3003
,
1000
0100
0010
0001
,
0000
1000
0000
0001
,
0100
0010
0100
0001
,
0100
0001
1000
0100
,
0010
0000
0001
0010
,
0001
1000
0001
0100
,
0001
0000
1000
0000
,
0001
0000
0100
0010
,
0210
0000
0000
0000
,
0302
0000
0000
0000
,
2003
0000
0000
0000
,
3001
0000
0100
0000
,
2002
0000
0000
0000
,
0000
0000
0000
0000
,
3003
0000
0000
0000
;

//--------------- dance-single - Fred-104 ----------------
#NOTEDATA:;
#STEPSTYPE:dance-single;
#DESCRIPTION:Fred-104;
#DIFFICULTY:Medium;
#METER:9;
#CREDIT:Fred-104;
#NOTES:
0000
0000
0000
0000
,
0000
0000
0000
0000
,
0000
0000
0000
0000
,
0000
0000
0000
0000
,
0000
0000
0000
0000
,
0000
0000
0000
0000
,
0000
0000
0000
0000
,
0000
0000
0000
0000
,
0000
0000
0000
0000
,
1000
0000
0000
0000
0001
0000
0100
0002
,
0000
0000
0000
0000
0000
0000
0000
1003
,
0001
1000
0000
0100
0000
0200
0000
0000
,
0310
0000
0001
0010
0000
0000
0001
0002
,
0000
0000
0103
0020
,
0000
0000
0130
0000
0001
0000
1000
2000
,
0000
0000
0000
0000
,
0000
3000
0000
0000
0000
0000
0000
0000
0000
0000
0000
0000
0000
0000
0000
0000
,
0001
0000
1000
0001
0000
0000
1000
1000
,
0000
0000
0000
0000
0000
0100
0010
0000
,
0010
0000
0001
0001
0000
0000
1000
0001
,
0000
0000
0000
0000
0000
0100
0001
0000
,
0100
0000
0010
0010
0000
0000
0000
1000
,
1000
0000
0001
0001
0000
1000
0001
0000
,
0200
0000
0000
0000
,
0000
0000
0300
0000
,
0001
0000
0010
0000
0100
0000
1000
0010
,
0100
0000
0010
0000
1000
0001
0010
0000
,
0100
0000
1000
0000
0001
0000
0100
0010
,
0100
0000
0001
0000
0010
0100
1000
0000
,
0001
0000
0100
0001
0010
0000
0100
0000
,
1000
0000
0000
0010
0000
0100
0100
0000
,
0001
0000
1000
0100
0010
0000
0001
0000
,
1000
0000
0000
0001
0000
0000
0100
0001
,
1000
0000
1000
1000
0000
0001
0000
0100
,
0000
0010
0000
0100
0100
0000
0001
0000
,
1000
0000
0000
0100
0100
0000
0010
0000
,
0000
0001
0001
0000
1000
0001
0100
0000
,
0010
1000
0000
0010
1000
0000
0001
0010
,
0000
0001
0010
0000
0100
0000
1000
0000
,
0001
0100
0000
0001
0100
0000
0010
0000
,
0220
0000
0000
0330
,
1001
0001
1000
0010
,
0100
0000
0010
0000
1000
0100
0010
0000
,
0001
0000
0001
0000
1000
0000
0001
0100
,
0000
0001
0010
0000
0100
1000
0100
0000
,
1000
0000
0000
0001
0100
0000
0010
0000
,
0000
1000
0100
0000
0010
0001
0010
0000
,
0001
0000
0000
1000
0001
0000
0100
0000
,
0000
0010
0100
0000
0110
0000
1001
0000
,
0001
1000
0100
0010
,
0001
0000
1000
0000
0010
1000
0010
0000
,
0100
0000
0001
0000
1000
0000
0100
0010
,
0000
0100
1000
0000
0001
1000
0010
0000
,
0100
0000
0001
1000
0001
0000
0010
0010
,
0000
0100
0000
1000
0000
0001
1000
0001
,
0000
0100
0100
0000
0010
0000
0010
0000
,
0100
0000
0100
0000
0001
1000
0001
0000
,
1000
0010
1000
0010
0000
0100
0001
0000
,
1000
0100
0001
0100
,
0010
0100
1000
0001
,
0100
0000
1000
0000
0100
0001
1000
0000
,
0001
0010
0001
0010
0000
0100
0010
0000
,
0001
0100
0001
1000
,
0100
0000
0001
0000
0100
1000
0100
0000
,
1100
0000
1001
0000
,
0002
0203
0320
0230
,
0000
0302
0000
2003
,
3200
0000
0320
0000
0032
0000
1003
2000
,
0000
0000
3000
0000
,
1001
0000
2000
3002
,
0203
0320
2030
3200
,
0320
0000
0000
0031
0002
0000
0000
0000
,
0000
0000
0000
0003
,
1000
0000
0010
0000
0100
0001
1000
0000
,
0100
0000
0010
0000
0001
0010
0100
0000
,
1000
0010
0100
0000
0010
1000
0100
0000
,
0010
0000
0001
0000
1000
0001
0100
0000
,
0010
0000
1000
0000
0100
0010
0001
0000
,
0100
0001
0010
0000
0100
1000
0001
0000
,
0100
0001
1000
0000
0001
0010
0100
0000
,
1000
0001
0100
0001
,
1002
0000
0000
2003
,
3200
0000
0000
0010
0000
0000
0010
0000
,
0320
0000
0000
0000
,
0000
0000
0000
0000
0031
0000
0000
0000
1000
0000
0000
1000
0000
0000
1000
0000
,
0001
0000
0100
0200
0000
0000
0000
0000
,
0000
0000
0000
0000
,
0300
0000
0000
0000
;

//--------------- dance-single - Fred-104 ----------------
#NOTEDATA:;
#STEPSTYPE:dance-single;
#DESCRIPTION:Fred-104;
#DIFFICULTY:Hard;
#METER:12;
#CREDIT:Fred-104;
#NOTES:
0000
0000
0000
0000
,
0000
0000
0000
0000
,
0000
0000
0000
0000
,
2000
0000
0000
0200
0000
0000
3300
0000
,
0002
0000
0000
0200
0000
0000
0303
0000
,
2000
0000
0000
0020
0000
0000
3030
0000
,
0002
0000
0000
0020
0000
0000
0033
0000
,
2000
0000
0000
0002
0000
0000
0000
0000
,
0000
0000
3003
0000
,
1001
0000
0000
0000
0001
0000
0010
0020
,
0000
0000
0000
0000
0000
0000
0000
0130
,
1000
0001
0000
1000
0000
0020
0000
0000
,
0130
0000
0001
0002
0000
0000
1003
2000
,
0000
0000
3001
0200
,
0000
0000
1300
0000
0100
0000
0001
0002
,
0000
0000
0000
0000
,
0003
0000
0000
0000
,
1000
0000
0100
0200
0000
0000
0310
0002
,
0000
0000
0000
0000
0000
1003
0001
0100
,
0010
0000
0100
0200
0000
0000
0301
2000
,
0000
0000
0000
0000
0000
3100
1000
0001
,
0100
0000
0010
0020
0000
0000
0000
0130
,
0100
0000
0001
0002
0000
0013
0100
1000
,
0002
0000
0000
0000
,
2000
0000
3000
0003
,
1000
0100
1000
0001
0000
0100
0001
1000
,
0001
0000
0010
0000
0100
0000
1000
0001
,
0100
0010
1000
0001
0000
0100
0001
0010
,
0001
0000
0010
0000
0100
1000
0001
0000
,
0100
0000
0010
1000
0100
0010
0100
0000
,
1000
0000
0001
0100
0000
1000
0100
0000
,
0001
0000
1000
0010
0100
0001
0010
0000
,
0100
0000
0010
0001
0000
0100
0010
1000
,
0001
0000
0010
0100
1000
0010
0100
0001
,
2000
0010
3002
0100
,
1003
0000
0001
0100
0110
0000
1000
0100
,
0010
0001
1000
0010
0100
0001
1000
0000
,
0001
0010
0000
1000
0010
0000
0100
0001
,
0000
0100
1000
0000
0001
0010
0100
0000
,
1000
0010
0100
0001
1000
0100
0010
0002
,
2000
0000
0003
3000
,
0011
1010
0101
1100
,
0110
0000
1001
0000
1000
0100
0010
0000
,
0011
0000
1010
0000
0001
0100
1000
0100
,
0001
1000
0100
0001
0100
1000
0001
0000
,
0110
0000
1000
0010
0001
0000
0110
0000
,
0101
0000
1100
0000
0001
1000
0001
0000
,
0110
0000
1000
0001
0010
0000
0100
0010
,
0001
1000
0010
0100
0110
0000
1001
0000
,
1100
0101
1010
0011
,
0110
0000
1001
0000
0001
0100
0010
0000
,
1010
0000
1000
0100
0010
0001
1000
0001
,
0100
0010
1000
0100
0010
0001
1000
0000
,
0110
0000
0001
1000
0010
0000
0100
0002
,
0000
2003
0000
3200
0000
0310
0001
1000
,
0000
0001
0100
0000
0001
0010
0100
1000
,
0001
0000
0100
0000
0001
0001
1001
0000
,
1000
0100
1000
0100
0000
0100
0010
0001
,
2000
0000
0010
0000
0100
0000
3010
1000
,
0001
0010
0100
0000
1100
0000
0001
1000
,
0100
0010
0100
1000
0010
0100
0001
0010
,
0001
0100
0001
0100
0000
0100
0010
1000
,
0002
0000
0010
0000
0100
0000
0013
0001
,
1000
0010
0100
0000
0010
1000
0100
0000
,
0010
0001
0100
0010
1000
0001
1001
0000
,
2000
3200
0320
0032
,
0000
2003
0000
3002
,
0203
0000
0320
0000
2030
0000
3001
0002
,
0000
0000
0000
0000
,
0023
0000
0230
2300
,
3002
0203
2300
3200
,
0302
0000
0000
0000
0000
0000
1003
0000
1000
0000
0000
0100
0000
0000
0010
0000
,
0001
0000
0000
0100
0000
0000
0010
0000
1000
0000
0000
0000
1001
0000
0000
0000
,
1000
0100
1000
0100
0001
0100
0001
0100
,
0010
1000
0010
1000
0010
0001
0010
0001
,
1000
0100
0010
0001
0100
0001
0010
0100
,
1000
0010
0100
0001
0010
0001
0100
0010
,
1000
0100
0001
0100
0010
1000
0010
0001
,
1000
0100
0010
0001
0100
0001
0010
0100
,
1000
0001
0010
0100
0001
0100
0010
0001
,
1000
0010
0100
0001
0010
0100
1000
0001
,
0200
0000
0000
0310
,
1000
0000
0000
0100
0000
0000
0010
0000
,
0002
0000
0000
0000
,
0000
0000
0000
0000
0013
0000
0000
0000
0100
0000
0000
1000
0000
0000
0001
0000
,
0100
0000
0001
0020
0000
0000
0000
0000
,
1000
0000
0002
0000
,
0033
0000
0000
0000
;

//--------------- dance-single - Fred-104 ----------------
#NOTEDATA:;
#STEPSTYPE:dance-single;
#DESCRIPTION:Fred-104;
#DIFFICULTY:Challenge;
#METER:15;
#CREDIT:Fred-104;
#NOTES:
0000
0000
0000
0000
,
0000
0000
0000
0000
,
0000
0000
0000
0000
,
0000
0000
0000
0000
,
0000
0000
0000
0000
,
0000
0000
0000
0000
,
0000
0000
0000
0000
,
0000
0000
0000
0000
,
0000
0000
0000
0000
,
0001
0010
0100
1000
0001
0000
0001
0200
,
0000
0000
0000
0000
0000
0000
0000
0310
,
1000
0100
0010
0001
0000
0002
0000
0000
,
2003
0000
3001
0200
0000
1300
0100
0001
,
0010
0100
1000
0002
0100
0000
0103
0000
,
0010
1000
0100
0010
0001
0000
1000
0010
,
1000
0001
0010
0200
0000
0000
0000
0000
,
1300
0001
0100
1000
0001
0010
1000
0100
,
0010
0001
0010
0001
0000
0001
0100
1000
,
0200
0000
0000
1000
0000
1300
0100
0001
,
2000
0000
3100
0020
0000
0031
0200
0000
,
0310
1000
0100
0010
0001
0100
0010
0100
,
0002
0000
1003
0100
0000
0100
0001
0100
,
2000
0000
3001
0100
0000
0100
1000
0100
,
0002
0000
0000
0000
,
2000
0000
0003
3000
,
0001
0100
0010
0001
1000
0100
0001
1000
,
0100
0010
0100
0001
0100
1000
0001
0100
,
0010
1000
0100
0010
1000
0010
0001
1000
,
0020
0001
0100
1030
,
0001
0100
0010
1000
0001
0010
1000
0010
,
0001
1000
0010
0001
1000
0100
0010
0000
,
1000
0100
0010
0001
1000
0010
0001
0010
,
0100
0001
0010
0100
0001
0100
1000
0001
,
1000
0001
0200
0010
0000
1000
0000
0302
,
1000
0000
0100
0000
0013
0100
0010
0000
,
0002
0100
2003
0010
,
3001
1000
0100
0010
0001
1000
0001
0000
,
1000
0100
0001
1000
0010
0001
1000
0010
,
0001
1000
0100
0001
0010
0100
1000
0001
,
0100
0010
0100
0010
0100
0010
0100
0010
0100
0010
0100
0010
0100
0010
0100
0020
,
0200
0000
0030
0300
,
0011
1010
0101
1100
,
0100
0010
0001
1000
0010
0001
0010
1000
,
1100
0000
0101
0000
1100
1000
0001
1000
,
0020
0001
0100
1030
,
0110
0000
0001
0100
1100
0000
0101
0000
,
2000
0010
3001
0000
0002
0010
1003
0000
,
1000
0001
0100
1000
0100
0010
1000
0100
,
0010
1000
0010
0001
0110
0000
1001
0000
,
1100
0010
0001
0000
0101
0010
1000
0000
,
0001
0100
1000
0100
0010
0001
0010
1000
,
0001
0000
1000
0010
0001
1000
0001
0010
,
1000
0001
0100
0010
1000
0100
0010
0001
,
0011
0000
1000
0010
0100
0001
0020
0100
,
0000
0001
0000
1000
0000
0031
0010
0100
,
1000
0001
0100
0010
1000
0001
0010
0100
,
1000
0000
0001
0000
0100
0000
1000
0000
0100
0010
0100
0010
0100
0000
0000
0000
,
0001
0000
1000
0100
1000
0000
0001
0100
0001
0000
1000
0010
1000
0000
0001
0000
,
1000
0100
0010
1000
0001
0100
0010
0001
,
1000
0001
0100
1000
0001
1000
0100
0001
,
0010
0100
0001
1000
0010
0100
1000
0001
,
1000
0000
0001
0010
0001
0000
1000
0010
0100
0000
0001
0100
0001
0000
1000
0000
,
0001
0000
1000
0010
1000
0000
0001
0010
0001
0000
1000
0001
1000
0000
0100
0000
,
0010
0001
1000
0010
0100
0000
0001
0000
1000
0100
0010
0001
1000
0000
0001
0000
,
0100
0010
0001
1000
0100
0001
0010
0100
,
2000
3002
0203
2300
,
3200
0302
0000
2003
,
3200
0000
0320
0000
0032
0000
2003
0002
,
0000
0000
3000
0003
,
1000
0200
0000
0301
0200
0000
0310
0200
,
0000
1300
0020
0000
0130
0100
0002
0000
,
1003
0001
1000
0001
1000
0001
1000
0001
1000
0001
1000
0001
1000
0001
1000
0001
,
0100
0010
0100
0010
0100
0010
0100
0010
0100
0010
0100
0010
0100
0000
0000
0000
,
0001
0000
0010
0000
1000
0000
0010
0000
0100
0000
0001
0000
0100
1000
0100
1000
,
0001
0000
1000
0000
0010
0000
0100
0000
0010
0000
0001
0000
0010
1000
0010
1000
,
0001
0000
0010
0000
0100
0000
0001
0000
0100
0000
0010
0000
0001
1000
0001
1000
,
0001
0000
0100
0000
1000
0000
0100
0000
0010
0000
1000
0000
0100
0010
0100
0010
,
0001
0000
1000
0000
0010
0000
0001
0000
1000
0000
0100
0000
0010
0100
0010
0100
,
0001
0000
1000
0000
0100
0000
0001
0000
1000
0000
0010
0000
0100
1000
0100
1000
,
0001
0000
0100
0000
0010
0000
1000
0000
0100
0000
0010
0000
0001
1000
0001
1000
,
0010
0001
0010
1000
1100
0000
0011
0000
,
2001
0000
0000
3002
,
0203
0000
0000
0320
0000
0000
2030
0000
,
3200
0000
0000
0000
,
0000
0000
0000
0000
0320
0000
0000
0000
0032
0000
0000
0203
0000
0000
2300
0000
,
3200
0302
2003
3200
0000
0000
0000
0000
,
0010
0000
0010
0000
,
0300
0000
0000
0000
;

//--------------- dance-double - Fred-104 ----------------
#NOTEDATA:;
#STEPSTYPE:dance-double;
#DESCRIPTION:Fred-104;
#DIFFICULTY:Easy;
#METER:5;
#CREDIT:Fred-104;
#NOTES:
00000000
00000000
00000000
00000000
,
00000000
00000000
00000000
00000000
,
00000000
00000000
00000000
00000000
,
00000000
00000000
00000000
00000000
,
00000000
00000000
00000000
00000000
,
00000000
00000000
00000000
00000000
,
00000000
00000000
00000000
00000000
,
00000000
00000000
00000000
00000000
,
00000000
00000000
00000000
00000000
,
00020000
00000000
00000000
00030000
,
00002000
00000000
00000000
00003000
,
00100000
00000000
00010000
00000000
,
10000000
00000000
00100000
00000000
,
00020000
00000000
00000000
00030000
,
00002000
00000000
00000000
00003000
,
00020000
00000000
00000000
00000000
,
00000000
00000000
00030000
00000000
,
00002000
00000000
00000000
00003000
,
00020000
00000000
00000000
00030000
,
00000020
00000000
00000000
00000030
,
00002000
00000000
00000000
00003000
,
00000001
00000000
00000010
00000000
,
00000100
00000000
00010000
00000000
,
00002000
00000000
00000000
00000000
,
00000000
00000000
00003000
00000000
,
01000000
00000000
00000000
00001000
00000000
00000000
01000000
00000000
,
00010000
00000000
01000000
00010000
,
10000000
00000000
00000000
01000000
00000000
00000000
10000000
00000000
,
01000000
00000000
00010000
00001000
,
00010000
00000000
00001000
00000100
,
00000001
00000000
00000000
00001000
00000000
00000000
00000000
00000000
,
00000001
00000000
00000010
00000100
,
00010000
00000000
00000000
00010000
00000000
00000000
00000000
00000000
,
00001000
00000000
00000000
00010000
00000000
00000000
00001000
00000000
,
00000000
01000000
00000000
00000000
00010000
00000000
00000000
00000000
,
10000000
00000000
00000000
01000000
00000000
00000000
00100000
00000000
,
00000000
00010000
00000000
00000000
00100000
00000000
00000000
00000000
,
00001000
00000000
00000000
00010000
00000000
00000000
00001000
00000000
,
00000000
00010000
00000000
00000000
00000010
00000000
00000000
00000000
,
00001000
00000000
00000000
00000001
00000000
00000000
00001000
00000000
,
00002002
00000000
00000000
00003003
,
00000001
00000100
00000001
00000100
,
00000000
00000010
00000000
00001000
,
00000010
00010000
00001000
00000000
,
00010000
00000000
00001000
00000000
,
00010000
00000000
00100000
01000000
,
00100000
00000000
10000000
00000000
,
00010000
00000000
00000000
10000000
00000000
00000000
01000000
00000000
,
00000000
00100000
00000000
00000000
00011000
00000000
00011000
00000000
,
00001000
00010000
00001000
00010000
,
00000000
00000010
00000000
00001000
,
00000100
00000000
00000010
00000001
,
00001000
00000000
00000001
00000000
,
00000100
00000000
00001000
00010000
,
00001000
00000000
00100000
00000000
,
00010000
00000000
10000000
00000000
,
01000000
00100000
00001000
00001000
,
00010000
00000000
00001000
00000000
,
00010000
00000010
00010000
00000000
,
00000010
00000000
00001000
00000000
,
00000100
00000010
00000001
00000000
,
00001000
00000000
00000010
00000000
,
00000100
00001000
00010000
00000000
,
00001000
00000000
01000000
00000000
,
00010000
00000000
10000000
00000000
,
00020000
20030000
30020000
20030000
,
00000000
32000000
00000000
03200000
,
00302000
00000000
00023000
00000000
00030020
00000000
00000030
00000020
,
00000000
00000000
00000030
00000000
,
00001001
00000000
00000002
00000203
,
00002300
00023000
00032000
00023000
,
02030000
00000000
23000000
00000000
,
00000000
00000000
00000000
30000000
,
00010000
10000000
00010000
01000000
,
00000000
00100000
00000000
10000000
,
01000000
00000000
00100000
00000000
,
00001000
00000000
00010000
00001000
,
00010000
00000000
00000010
00000000
,
00001000
00000010
00000100
00000010
,
00001000
00000000
00000001
00000000
,
00000010
00000100
00010000
00001000
,
00021000
00000000
00000000
00000000
,
00032000
00000000
00000000
00000000
,
00023000
00000000
00000000
00000000
,
00030100
00000000
00001000
00000000
,
00002002
00000000
00000000
00000000
,
00000000
00000000
00000000
00000000
,
00003003
00000000
00000000
00000000
;

//--------------- dance-double - Fred-104 ----------------
#NOTEDATA:;
#STEPSTYPE:dance-double;
#DESCRIPTION:Fred-104;
#DIFFICULTY:Medium;
#METER:9;
#CREDIT:Fred-104;
#NOTES:
00000000
00000000
00000000
00000000
,
00000000
00000000
00000000
00000000
,
00000000
00000000
00000000
00000000
,
00000000
00000000
00000000
00000000
,
00000000
00000000
00000000
00000000
,
00000000
00000000
00000000
00000000
,
00000000
00000000
00000000
00000000
,
00000000
00000000
00000000
00000000
,
00000000
00000000
00000000
00000000
,
00001000
00000000
00000000
00020000
00000000
00000000
00000000
00000000
,
00031000
00000000
00000000
02000000
00000000
00000000
00000000
00000000
,
03010000
00000000
00000000
20000000
00000000
00000000
00000000
00000000
,
31000000
00000000
00000000
00200000
00000000
00000000
00000000
00000000
,
00301000
00000000
00000000
00020000
00000000
00000000
00000000
00000000
,
00030010
00000000
00000000
00002000
00000000
00000000
00000000
00000000
,
00003001
00000000
00000000
00002000
00000000
00000000
00000000
00000000
,
00003001
00000010
00001000
00010000
,
00001000
00000000
00000000
00020000
00000000
00000000
00000000
00000000
,
00030100
00000000
00000000
00020000
00000000
00000000
00000000
00000000
,
00031000
00000000
00000000
02000000
00000000
00000000
00000000
00000000
,
03010000
00000000
00000000
00200000
00000000
00000000
00000000
00000000
,
01300000
01000000
10000000
10000000
,
00100000
00100000
00010000
00010000
,
00002000
00000000
00000000
00000000
,
00020000
00000000
00003000
00030000
,
00001000
00000000
00010000
00000000
00100000
00000000
10000000
00010000
,
10000000
01000000
00100000
00100000
,
00001000
00000000
00010000
00000000
00000010
00000000
00001000
00000100
,
00000010
00000001
00001000
00000001
,
00001000
00000001
00000100
00001000
,
00010000
00000000
00001000
01000000
00000000
00000000
01000000
00000000
,
00010000
10000000
01000000
00010000
,
00001000
00000000
00010000
00001000
00000000
00000000
00010000
00000000
,
00000100
00000000
00001000
00001000
00000000
00000001
00000000
00000010
,
00000000
00000100
00000000
00010000
00010000
00000000
00001000
00000000
,
00011000
00000000
00000000
00001000
01000000
00000000
00010000
10000000
,
00000000
01000000
00100000
00000000
00001000
00000000
00010000
00000000
,
00000100
00001000
00000000
00000100
00001000
00000000
00000001
00000100
,
00000000
00000001
00000100
00000000
00001000
00000000
00010000
00000000
,
00001000
00100000
00000000
00001000
00010000
00000000
00001000
00000000
,
00022000
00000000
00000000
00033000
,
00011000
00001000
00010000
00100000
,
01000000
00000000
00010000
00000000
10000000
01000000
00100000
00000000
,
00001000
00000000
00010000
00000000
00001000
00000000
00010000
00000100
,
00000000
00001000
00000100
00000000
00000010
00000001
00001000
00000000
,
00000001
00000000
00000000
00000100
00000001
00000000
00000010
00000000
,
00000000
00000100
00001000
00000000
00000100
00010000
00001000
00000000
,
00010000
00000000
00000000
00001000
01000000
00000000
00010000
00100000
,
00000000
00001000
00010000
00000000
00011000
00000000
00011000
00000000
,
00010000
00001000
00000010
00000100
,
00000010
00000000
00000001
00000000
00001000
00000010
00001000
00000000
,
00000100
00000000
00000010
00000000
00001000
00000000
00010000
00001000
,
00000000
00100000
00001000
00000000
00010000
00000000
00001000
00000000
,
00100000
00000000
00000000
00010000
00100000
00000000
01000000
10000000
,
00000000
00010000
00000000
10000000
00000000
00100000
00010000
00100000
,
00000000
00010000
00001000
00000000
00010000
00000000
00000100
00000000
,
00001000
00000000
00000001
00000000
00000100
00000010
00000100
00000000
,
00000001
00000010
00000001
00000010
00000000
00000100
00001000
00000000
,
00000100
00010000
00001000
00010000
,
01000000
00100000
00010000
00000000
10000000
00000000
00100000
00000000
,
00010000
00001000
00010000
00000000
00000010
00010000
00001000
00000000
,
00100000
00010000
00100000
00010000
00000000
10000000
00010000
00000000
,
00100000
01000000
10000000
00100000
,
00010000
00001000
00010000
00000000
00000100
00001000
00000100
00000000
,
00000110
00000000
00010010
00000000
,
00020000
00032000
00023000
00032000
,
00000000
02003000
00000000
03020000
,
20030000
00000000
30020000
00000000
00230000
00000000
00301000
00002000
,
00000000
00000000
00003000
00000000
,
00011000
00000000
00020000
00032000
,
00003020
00000230
00020300
00032000
,
00023000
00000000
00000000
00031000
00002000
00000000
00000000
00000000
,
00000000
00000000
00000000
00003000
,
00010000
00000000
00001000
00000000
00010000
00100000
01000000
00000000
,
00010000
00000000
10000000
00000000
00100000
00010000
00001000
00000000
,
00010000
00000000
00000100
00000010
00000000
00000001
00000000
00001000
,
00000010
00000000
00000100
00000000
00001000
00010000
00001000
00000000
,
01000000
00000000
00010000
00100000
01000000
00000000
10000000
00100000
,
00000000
00010000
00000000
00100000
00000000
10000000
01000000
00000000
,
00100000
00000000
00001000
00010000
00001000
00000000
00010000
00001000
,
00000100
00000001
00001000
00000100
00000010
00000001
00000010
00000000
,
00000002
00000000
00000000
00002003
,
00003020
00000000
00000000
00020030
00000000
00000000
00032000
00000000
,
00023000
00000000
00000000
00000000
,
00000000
00000000
00000000
00000000
00031000
00000000
00000000
00000000
01000000
00000000
00000000
01000000
00000000
00000000
00010000
00000000
,
00100000
00000000
01000000
20000000
00000000
00000000
00000000
00000000
,
00000000
00000000
00000000
00000000
,
30000000
00000000
00000000
00000000
;

//--------------- dance-double - Fred-104 ----------------
#NOTEDATA:;
#STEPSTYPE:dance-double;
#DESCRIPTION:Fred-104;
#DIFFICULTY:Hard;
#METER:12;
#CREDIT:Fred-104;
#NOTES:
00000000
00000000
00000000
00000000
,
00000000
00000000
00000000
00000000
,
00000000
00000000
00000000
00000000
,
00020000
00000000
00000000
00002000
00000000
00000000
00033000
00000000
,
00002000
00000000
00000000
02000000
00000000
00000000
03003000
00000000
,
00020000
00000000
00000000
20000000
00000000
00000000
30030000
00000000
,
02000000
00000000
00000000
00200000
00000000
00000000
03300000
00000000
,
00002000
00000000
00000000
00020000
00000000
00000000
00000000
00000000
,
00000000
00000000
00033000
00000000
,
00000110
00000000
00000000
00000000
00001000
00000000
00000100
00000200
,
00000000
00000000
00000000
00000000
00000000
00000000
00000000
00000310
,
00000001
00001000
00000000
00000001
00000000
00000200
00000000
00000000
,
00001300
00000000
00010000
00020000
00000000
00000000
00031000
00002000
,
00000000
00000000
00013000
00002000
,
00000000
00000000
01003000
00000000
00010000
00000000
10000000
20000000
,
00000000
00000000
00000000
00000000
,
30000000
00000000
00000000
00000000
,
00020000
00000000
01030000
02000000
00000000
00000000
03100000
00200000
,
00000000
00000000
00000000
00000000
00000000
10300000
01000000
00010000
,
00001000
00000000
00010000
00010000
00000000
00000000
00000010
00002000
,
00000000
00000000
00000000
00000000
00000000
00003100
00000010
00000001
,
00001000
00000000
00000010
00000020
00000000
00000000
00000000
00010030
,
00010000
00000000
00001000
00002000
00000000
00013000
00100000
10000000
,
00020000
00000000
00000000
00000000
,
20000000
00000000
00030000
30000000
,
01000000
00000000
00100000
00001000
00000000
00010000
00001000
00000100
,
00000001
00000000
00001000
00000000
00000100
00000010
00000001
00001000
,
00000010
00000000
00000100
00001000
00000000
00010000
00001000
01000000
,
00001000
00000000
00010000
00000000
01000000
00100000
00010000
00000000
,
10000000
00000000
00100000
00000000
00010000
00001000
00010000
00000000
,
00001000
00100000
00001000
00010000
00000000
00001000
00000100
00000000
,
00000001
00000000
00001000
00000000
00000100
00000010
00000001
00000000
,
00001000
00000010
00000100
00001000
00000000
00010000
00001000
00000000
,
00100000
00000000
00010000
00100000
00000000
01000000
10000000
00100000
,
02000000
00010000
03200000
10000000
,
01300000
00000000
00010000
10000000
01000000
00000000
00010000
00001000
,
00010000
00001000
00000100
00000001
00000100
00000001
00001000
00000000
,
00000001
00000010
00000000
00001000
00000010
00000000
00000001
00000100
,
00000000
00001000
00010000
00000000
00001000
01000000
00001000
00000000
,
00010000
00001000
00100000
00001000
00010000
00001000
00000100
00000002
,
00002000
00000000
00000003
00003000
,
00000110
00000000
00001001
00000000
00000001
00000100
00001000
00000000
,
00011000
00000000
01001000
00000000
00001000
00100000
00010000
00000000
,
00110000
00000000
11000000
00000000
00010000
01000000
00100000
10000000
,
00000000
00100000
01000000
00000000
00100000
00010000
00001000
00000000
,
00010000
00000000
00001000
00000010
00000001
00000000
00001001
00000000
,
00001000
00000100
00000010
00000000
00000001
00000010
00000100
00000000
,
00001000
00000000
00000001
00000100
00001000
00000000
00010000
00001000
,
00000000
01000000
00001000
00100000
00110000
00000000
11000000
00000000
,
01010000
00000000
11000000
00000000
00010000
01000000
00100000
00000000
,
10100000
00000000
01010000
00000000
10000000
01000000
00010000
00000000
,
00011000
00000000
00000010
00001000
00000010
00001000
00000000
00000001
,
00000100
00000000
00001000
00000000
00010000
00001000
00010000
00000000
,
00011000
00000000
00001000
00100000
00010000
00100000
01000000
10000000
,
00010000
01000000
00100000
10000000
00100000
01000000
00010000
10000000
,
00100000
00010000
00001000
00000000
00010000
00001000
00000010
00000000
,
00000001
00001000
00000010
00000100
00001000
00010000
00001000
00000000
,
00010000
00001000
00010000
00001000
00000000
00001000
01000000
00001000
,
00010000
00100000
01000000
00000000
00010000
00000000
00100000
01000000
,
10000000
00010000
10000000
00000000
10010000
00000000
00010000
00100000
,
01000000
00100000
01000000
00010000
00001000
00010000
00000010
00000000
,
00001000
00000100
00001000
00000100
00000000
00000010
00000001
00001000
,
00000010
00000100
00001000
00000000
00010000
00001000
00010000
00000000
,
00001000
00010000
00100000
00000000
01000000
00010000
10000000
00000000
,
01000000
00010000
00001000
00000000
00010000
01000000
10000000
00000000
,
00020000
20030000
30200000
00320000
,
00000000
00032000
00000000
00023000
,
00032000
00000000
00003200
00000000
00000302
00000000
00000013
00000020
,
00000000
00000000
00000030
00000000
,
00000002
00000000
00000203
00002300
,
00023000
00230000
20300000
30020000
,
00230000
00000000
00000000
00000000
00000000
00000000
01300000
00000000
01000000
00000000
00000000
10000000
00000000
00000000
00010000
00000000
,
01000000
00000000
00000000
00100000
00000000
00000000
00010000
00000000
00001000
00000000
00000000
00000000
00011000
00000000
00000000
00000000
,
00010000
00001000
00010000
00001000
00000010
00001000
00000010
00001000
,
00010000
00001000
00010000
00001000
00000100
00001000
00000100
00001000
,
00010000
00001000
00000100
00000001
00001000
00000100
00000010
00000001
,
00001000
00000010
00000100
00001000
00010000
00100000
10000000
00010000
,
10000000
00100000
01000000
00100000
10000000
00100000
00010000
00100000
,
01000000
00010000
10000000
00010000
01000000
00001000
00010000
00001000
,
00010000
00000010
00001000
00000001
00000010
00000100
00000010
00001000
,
00010000
00001000
00010000
01000000
00100000
00000000
00010000
00000000
,
20010000
00000000
00000000
30010000
,
01000000
00000000
00000000
00010000
00000000
00000000
00001000
00000000
,
00000200
00000000
00000000
00000000
,
00000000
00000000
00000000
00000000
00000310
00000000
00000000
00000000
00000001
00000000
00000000
00000100
00000000
00000000
00001000
00000000
,
00010000
00000000
00001000
00020000
00000000
00000000
00000000
00000000
,
00001000
00000000
00002000
00000000
,
00033000
00000000
00000000
00000000
;

//--------------- dance-double - Fred-104 ----------------
#NOTEDATA:;
#STEPSTYPE:dance-double;
#DESCRIPTION:Fred-104;
#DIFFICULTY:Challenge;
#METER:15;
#CREDIT:Fred-104;
#NOTES:
00000000
00000000
00000000
00000000
,
00000000
00000000
00000000
00000000
,
00000000
00000000
00000000
00000000
,
00000000
00000000
00000000
00000000
,
00000000
00000000
00000000
00000000
,
00000000
00000000
00000000
00000000
,
00000000
00000000
00000000
00000000
,
00000000
00000000
00000000
00000000
,
00000000
00000000
00000000
00000000
,
00010000
00001000
00010000
00000100
00000010
00000000
00000010
00000002
,
00000000
00000000
00000000
00000000
00000000
00000000
00000000
00000103
,
00001000
00010000
01000000
00100000
00000000
00200000
00000000
00000000
,
00320000
00000000
10030000
02000000
00000000
03010000
00001000
00010000
,
00000100
00001000
00010000
00100000
02000000
00000000
23000000
00000000
,
30010000
01000000
00100000
00010000
00001000
00000000
00010000
00001000
,
00000100
00000001
00001000
00000002
00000000
00000000
00000000
00000000
,
00000103
00000001
00000010
00001000
00000001
00000100
00001000
00000010
,
00010000
00001000
00010000
00001000
00000000
00001000
00010000
01000000
,
20000000
00000000
00000000
01000000
00000000
31000000
00010000
00001000
,
00020000
00000000
00030010
00002000
00000000
00013000
00002000
00000000
,
00003010
00010000
00001000
00000010
00000001
00001000
00000010
00000100
,
00000002
00000000
00000103
00001000
00000000
00001000
00010000
01000000
,
20000000
00000000
30010000
10000000
00000000
10000000
00100000
00010000
,
00002000
00000000
00000000
00000000
,
00020000
00000000
00000000
00033000
,
00010000
00001000
00000100
00000010
00001000
00000001
00001000
00000100
,
00000010
00000001
00001000
00000001
00000010
00001000
01000000
00010000
,
00100000
01000000
10000000
00010000
01000000
00100000
00010000
00001000
,
00100000
00010000
01000000
10000000
01000000
00100000
01000000
00001000
,
00100000
00010000
00100000
10000000
00100000
00010000
10000000
00100000
,
00010000
00001000
00010000
00000010
00010000
00001000
00010000
00000000
,
00001000
00000100
00000010
00000001
00000010
00000100
00000001
00001000
,
00000010
00000100
00001000
00000001
00000010
00000100
00000001
00001000
,
00000010
00000100
00001000
00010000
00001000
01000000
00010000
00100000
,
01000000
10000000
00010000
01000000
00100000
00010000
00001000
00000000
,
00011000
00000000
00010000
00001000
00000100
00000000
00000001
00001000
,
00000100
00000010
00000100
00001000
00000010
00010000
00001000
00000000
,
00010000
00100000
01000000
00010000
00100000
01000000
00010000
00000100
,
00001000
00000010
00000100
00001000
01000000
00010000
00100000
01000000
,
10000000
00010000
10000000
00010000
10000000
00010000
10000000
00010000
10000000
00010000
10000000
00010000
10000000
00010000
10000000
00020000
,
20000000
00000000
00030000
30000000
,
11000000
01010000
10100000
00110000
,
10000000
01000000
00010000
00001000
00000100
00000001
00001000
00000100
,
00000110
00000000
00000011
00000000
00000001
00001000
00000010
00000100
,
00001000
00010000
01000000
00010000
00001000
00000100
00001000
00010000
,
00011000
00000000
00001000
00100000
00020000
10000000
10030000
00000000
,
10000000
01000000
00020000
00000000
00031000
00000100
00000002
00000000
,
00000013
00000100
00001000
00000010
00000100
00001000
01000000
00010000
,
01000000
00100000
10000000
01000000
01100000
00000000
00011000
00000000
,
00010000
00001000
00000010
00000100
00001000
00000001
00000100
00000010
,
00001000
00000001
00000010
00000100
00000010
00001000
00010000
00001000
,
01000000
00000000
00010000
01000000
10000000
00010000
10000000
01000000
,
00010000
10000000
01000000
00010000
00001000
00010000
00011000
00000000
,
00010000
00001000
00000010
00000100
00000001
00000100
00001000
00000100
,
00010000
00100000
01000000
00001000
00010000
01000000
00100000
00010000
,
10000000
00100000
01000000
00100000
00010000
00001000
00000100
00000010
,
00001000
00000000
00000001
00000000
00000010
00000000
00000100
00000000
00010000
00001000
00010000
00001000
00010000
00000000
00000000
00000000
,
00001000
00000000
01000000
00010000
01000000
00000000
00010000
10000000
00010000
00000000
00100000
01000000
00100000
00000000
01000000
00000000
,
10000000
00000000
00010000
01000000
00100000
00000000
00010000
00000000
00001000
00000000
00000100
00000001
00000100
00000000
00000010
00000000
,
00001000
00000010
00000001
00001000
00000100
00000010
00001000
00000001
,
00000100
00001000
00010000
01000000
10000000
00100000
01000000
00010000
,
10000000
00000000
01000000
00100000
01000000
00000000
00010000
00001000
00010000
00000000
00001000
00000100
00000010
00000000
00001000
00000000
,
00000001
00000000
00001000
00000010
00010000
00000000
00001000
00010000
00001000
00000000
00100000
00010000
10000000
00000000
00010000
00000000
,
01000000
00100000
10000000
00010000
00100000
00000000
00010000
00000000
10000000
00100000
10000000
00010000
00100000
00000000
01000000
00000000
,
10000000
00100000
00010000
00001000
00000100
00000001
00001000
00000100
,
00000020
00000032
00000203
00002300
,
00023000
00032000
00000000
00023000
,
00230000
00000000
20300000
00000000
32000000
00000000
03200000
00302000
,
00000000
00000000
00000000
00000000
,
00023000
00000000
00032000
00023000
,
02030000
23000000
30200000
00320000
,
00031000
00010000
00001000
00010000
00001000
00010000
00001000
00010000
00001000
00010000
00001000
00010000
00001000
00010000
00001000
00010000
,
00000100
00001000
00000100
00001000
00000100
00001000
00000100
00001000
00000100
00001000
00000100
00001000
00000001
00000000
00000000
00000000
,
00001000
00000010
00000100
00001000
00010000
00100000
01000000
00001000
,
00100000
01000000
00010000
00001000
01000000
00010000
00000100
00001000
,
00010000
00100000
01000000
00001000
00000010
00001000
00010000
00001000
,
00100000
01000000
00100000
00010000
00001000
00000100
00000010
00010000
,
00100000
00001000
00010000
00100000
01000000
00100000
00010000
00001000
,
01000000
00010000
00000100
00001000
00010000
00001000
00000010
00001000
,
00010000
00001000
01000000
00100000
00010000
00001000
00000100
00000010
,
00001000
00010000
01000000
00001000
00010000
00000000
00001000
00000000
,
00021000
00000000
00000000
00032000
,
00003020
00000000
00000000
00000032
00000000
00000000
00002003
00000000
,
00003002
00000000
00000000
00000000
,
00000000
00000000
00000000
00000000
00000203
00000000
00000000
00000000
00002300
00000000
00000000
00023000
00000000
00000000
00230000
00000000
,
20300000
32000000
03200000
00302000
00000000
00000000
00000000
00000000
,
00010000
00000000
00010000
00000000
,
00003000
00000000
00000000
00000000
;
