#TITLE:Übertreffen;
#ARTIST:TAKA respect for J.S.B.;
#TITLETRANSLIT:Ubertreffen;
#GENRE:PROGRESSIVE BAROQUE;
#BANNER:Ubertreffen.png;
#BACKGROUND:Ubertreffen-bg.png;
#CDTITLE:./CDTitles/pnm 14 FEVER!.png;
#MUSIC:Ubertreffen.ogg;
#SAMPLESTART:12.413;
#SAMPLELENGTH:15;
#BPMS:0=174;
#BGSTAGE:23;

//--------------- dance-single - Fred-104 ----------------
#NOTES:
     dance-single:
     Fred-104:
     Beginner:
     4:
     :
0000
0000
0000
0000
,
0000
0000
0000
0000
,
0000
0000
0000
0000
,
0000
0000
0000
0000
,
0000
0000
0000
0000
,
1000
0000
0000
0000
,
0001
0000
0000
0000
,
1000
0000
0000
0000
,
1001
0000
0000
0000
,
0001
0000
0001
0000
,
0100
0000
0010
0000
,
1000
0000
0100
0000
,
1000
0000
0001
0000
,
1000
0000
1000
0000
,
0001
0000
1000
0000
,
0001
0000
1000
0000
,
0001
0000
0010
0000
,
0001
0001
0001
0001
,
0001
0000
1000
0000
,
1000
1000
1000
1000
,
1000
0000
0001
0000
,
1000
0000
1000
0000
,
0010
0000
0100
0000
,
0001
0000
1000
0000
,
0001
0001
0001
0000
,
0100
0000
0010
0000
,
0100
0000
0001
0000
,
1000
0000
0010
0000
,
0100
0100
0100
0000
,
0001
0000
1000
0000
,
0001
0001
0001
0000
,
1000
0000
0010
0000
,
0100
0100
0100
0000
,
0001
0000
1000
0000
,
0001
0000
1000
0000
,
0010
0000
1000
0000
,
0100
0000
1000
0000
,
0001
0000
0000
0000
,
1000
0000
0000
0000
,
0010
0000
0000
0000
,
0100
0000
0000
0000
,
0001
0000
0001
0000
,
1000
0000
1000
0000
,
0001
0001
0001
0000
,
1000
1000
1000
0000
,
0001
0000
0100
0000
,
0010
0000
1000
0000
,
0001
0000
0010
0000
,
1001
0000
0000
0000
,
1001
0000
0000
0000
,
1001
0000
0001
0000
,
1000
1000
1000
1000
,
1000
0000
0010
0000
,
1000
0000
0100
0100
,
0100
0000
1000
0000
,
0001
0000
1000
1000
,
1000
0000
0001
0000
,
0100
0000
0010
0000
,
1000
0000
0001
0000
,
0010
0000
0100
0000
,
1000
0000
0010
0000
,
1000
0000
0001
0000
,
1000
1000
1000
0000
,
0001
0001
0001
0000
,
1000
0010
1000
0000
,
0001
0100
0001
0000
,
0100
0100
0010
0010
,
2002
0000
0000
0000
,
0000
0000
0000
0000
,
0000
0000
0000
0000
,
3003
0000
0000
0000
;

//--------------- dance-single - Fred-104 ----------------
#NOTES:
     dance-single:
     Fred-104:
     Easy:
     9:
     :
0000
0000
0000
0000
,
0000
0000
0000
0000
,
0000
0000
0000
0000
,
0000
0000
0000
0000
,
0000
0000
0000
0000
,
1001
0000
0000
0100
,
1001
0000
0000
0010
,
1001
0000
0100
0000
,
0110
0000
1001
0000
,
1000
0010
0100
0010
,
1000
0000
0100
1000
,
0001
0100
0010
0100
,
0001
0010
0100
1000
,
0001
0001
0100
0100
,
1000
1000
0010
0010
,
0001
1000
0001
0100
,
0010
0000
1000
0001
,
1000
0010
1000
0010
1000
0000
1001
0000
,
0001
0100
0010
1000
,
0001
0010
0001
0010
0001
0000
1001
0000
,
1000
0010
1000
0000
0001
0100
0001
0000
,
1000
0100
0020
0030
,
0001
0100
0020
0030
,
1000
0010
0200
0300
,
0001
0100
0001
0000
0100
0010
0100
0000
,
0010
1000
0200
0300
,
0010
0001
0200
0300
,
0010
1000
0002
0003
,
1000
0010
1000
0000
0001
0100
0001
0000
,
1000
1000
0010
0100
,
0001
1000
0100
1000
,
0001
0100
0010
0100
,
0001
0001
0010
0100
,
1000
0000
0010
0000
,
0100
0001
0100
0000
0001
0000
1000
0000
,
0001
0010
0001
0000
0100
0000
0010
0000
,
1000
0100
1000
0000
0100
0000
0010
0000
,
0001
0100
0001
0000
0010
0000
0100
0000
,
1000
0010
0100
0000
0010
0000
1000
0000
,
0100
1000
0100
0000
0010
0000
0001
0000
,
0100
0010
0100
0010
0100
0000
0001
0000
,
1001
0100
0000
0100
,
0000
0100
0000
0100
,
0002
0023
0230
2300
,
3002
2003
3020
0230
,
0301
0100
0001
0000
0100
0010
0100
0000
,
0010
1000
0010
0000
1000
0100
1000
0000
,
0001
1000
0001
0000
0100
0010
0100
0000
,
0101
0000
0000
0000
,
1100
0000
0000
0000
,
0011
0000
1010
0000
,
0001
0000
1000
0000
0001
1000
0002
0000
,
0103
0010
0100
0000
0010
1000
0010
0000
,
1000
0100
1000
0000
0001
0000
0100
0000
,
0001
0010
0001
0000
0100
0010
0100
0000
,
0001
0100
0001
0000
0100
0000
0010
0000
,
1000
1100
0001
0101
,
1000
1010
0001
0011
,
1000
1010
0001
0101
,
1000
1100
0001
0011
,
1000
0010
0100
0010
,
2000
3200
0320
0032
,
1003
0001
0100
0000
0010
0000
0100
0000
,
0001
0010
0100
0000
0010
0000
0001
0000
,
1000
0100
0001
0100
,
1000
0010
0001
0010
,
1000
0100
1000
0000
0001
0100
0001
0000
,
1001
0000
0220
0000
,
0000
0000
0000
0000
,
0000
0000
0000
0000
,
0330
0000
0000
0000
;

//--------------- dance-single - Fred-104 ----------------
#NOTES:
     dance-single:
     Fred-104:
     Medium:
     12:
     :
0000
0000
0000
0000
,
0000
0000
0000
0000
,
0000
0000
0000
0000
,
0000
0000
0000
0000
,
0000
0000
0000
0000
,
1100
0000
0000
0010
,
0101
0000
0000
0010
,
1010
0000
0000
0000
,
0011
0000
2002
3003
,
1000
0010
0100
0010
1000
0100
0010
0000
,
0001
0100
0001
0010
0001
1000
0001
0000
,
0100
0010
1000
0010
0100
0010
1000
0000
,
0001
0010
0100
1000
0010
0100
1000
0000
,
0100
0001
1000
0100
0010
0001
0100
0010
,
0100
0001
0010
0100
0010
0001
1000
0000
,
0001
0100
0010
0000
1000
0100
0010
0000
,
0001
0100
0010
0100
0001
1000
0001
0000
,
1000
0100
0100
0100
0010
0000
0011
0000
,
0001
0100
0010
0000
1000
0010
0100
0000
,
0001
0100
0100
0100
0010
0000
1010
0000
,
1000
0100
0010
0001
1000
0001
1000
0000
,
0001
0100
0010
0000
1000
0100
0000
0010
,
0001
0100
0010
0000
1000
0100
0000
0010
,
0001
0100
0010
0000
1000
0100
0000
0010
,
0001
1000
0010
0100
0001
1000
0010
0000
,
0001
0100
1000
0100
0001
0010
0000
0010
,
0001
0010
1000
0010
0001
0100
0000
0100
,
0001
0010
1000
0010
0100
1000
0000
1000
,
0001
1000
0200
0010
0310
0001
1001
0000
,
1000
0100
0010
0000
0001
0100
0010
0100
,
0001
0010
0001
0000
0010
1000
0010
0000
,
0001
0100
0001
0000
0100
1000
0100
0000
,
0001
0100
0010
1000
0001
0010
0100
0000
,
1000
0010
0100
1000
0100
0010
1000
0000
,
0100
0010
0001
1000
0001
0100
0010
0000
,
0100
0001
0010
0001
0100
0010
1000
0000
,
0001
0010
0001
0100
0001
0010
0001
0100
,
0010
1000
0010
0100
0010
1000
0001
0000
,
1000
0010
0001
0000
1000
0100
0001
0000
,
1000
0010
0100
0010
1000
0100
0010
0001
,
0100
0010
1000
0001
0100
0000
0010
0000
,
2001
0010
0000
3010
,
0002
0100
0000
0103
,
1000
0010
1000
0000
0001
0100
0010
0000
,
1000
0100
0010
0001
0100
0010
1000
0000
,
0001
0100
0001
0000
0100
0010
1000
0000
,
0010
1000
0100
0000
1000
0001
1000
0000
,
0001
0010
1000
0000
0001
0100
1000
0000
,
1001
0001
0100
0010
,
1001
1000
0100
0010
,
0011
0100
1010
0100
,
0001
0010
0100
1000
0001
0100
0020
0000
,
1030
0100
0001
0100
1000
0010
0100
0000
,
0001
0010
0100
0010
0001
1000
0001
0000
,
0100
0010
0001
0010
1000
0001
0100
0000
,
0001
0100
0010
1000
0100
0010
0100
0000
,
1000
0100
0010
0000
0001
0100
0010
0000
,
1000
1100
0001
0101
,
1000
1010
0001
0011
,
1000
0110
0001
0110
,
1000
0100
0001
0100
1000
0010
0100
0001
,
2000
3200
0302
0023
,
1030
0010
0100
0010
1000
0100
0010
0001
,
0100
0010
1000
0010
0100
0010
1000
0100
,
0010
0001
1000
0001
0100
0010
0100
0001
,
0010
0100
1000
0001
0100
0010
1000
1000
,
0001
0010
0100
1000
0001
1000
0100
0010
,
0110
0000
0000
0000
0001
2002
0000
0000
,
0000
0000
0000
0000
,
0000
0000
0000
0000
,
3003
0000
0000
0000
;

//--------------- dance-single - Fred-104 ----------------
#NOTES:
     dance-single:
     Fred-104:
     Hard:
     16:
     :
0000
0000
0000
0000
,
0000
0000
0000
0000
,
0000
0000
0000
0000
,
0000
0000
0000
0000
,
0000
0000
0000
0000
,
1100
0000
0000
0001
,
1001
0000
0000
0010
,
0110
0000
0000
0000
,
1100
0000
0202
0303
,
1000
0100
1000
0100
1000
0000
0000
0000
0001
0000
0100
0010
0100
0000
0001
0000
,
0010
0000
0001
0100
0001
0000
0100
0000
0010
0000
1000
0100
1000
0000
0100
0000
,
0010
0001
0010
0000
0001
1000
0001
0000
0100
0010
0100
0000
0010
1000
0010
0000
,
1000
0100
1000
0000
0010
0100
0010
0000
0100
0001
0100
0000
0001
1000
0001
0000
,
1000
0100
1000
0100
0010
0000
0001
0000
0100
0010
0100
0010
1000
0010
0100
0000
,
0001
0100
0001
0000
0010
0000
0001
0100
0001
0000
0010
0100
1000
0000
0001
0000
,
1000
0001
0100
0100
1000
0001
0010
0010
,
1000
0100
1000
0000
0001
0000
1000
0010
1000
0000
0001
0000
1000
0000
0000
0000
,
1100
0100
0100
0100
0010
0000
1001
0000
,
0100
0001
0100
0000
0010
0000
1000
0010
0100
0000
0010
0000
1000
0010
0100
0000
,
0101
0100
0100
0100
0010
0000
1001
0000
,
0001
0010
0100
0000
1000
0100
0010
0000
0001
0000
1000
0000
1001
0000
0000
0000
,
1000
0000
0010
1000
0100
0000
0010
0000
0002
0000
0203
0000
0310
0000
0200
0000
,
0301
0000
0010
0100
0010
0000
0001
0000
0200
0000
0320
0000
1030
0000
0200
0000
,
1300
0000
0010
0100
0010
0000
1000
0000
0002
0000
0023
0000
0130
0000
2000
0000
,
3001
0010
1000
0000
1000
0010
0100
0000
1000
0000
0001
0000
1001
0000
0000
0000
,
1000
0000
0001
0100
0010
0000
1000
0000
0020
0000
2030
0000
3100
0000
0020
0000
,
0031
0000
0100
0010
1000
0000
0010
0000
2000
0000
3002
0000
0013
0000
0200
0000
,
1300
0000
0001
0100
0010
0000
1000
0000
0002
0000
2003
0000
3100
0000
0020
0000
,
0031
0100
1000
0000
1000
0100
0010
0000
1000
0100
0010
0001
1000
0000
0000
0000
,
1000
0100
0110
0010
0001
1000
1010
0010
,
0100
0001
0100
0000
0001
0010
0001
0000
0100
0010
0100
0000
0010
1000
0010
0000
,
1000
0100
1100
0001
0100
0010
1010
0001
,
0100
0010
1000
0000
0010
0100
0001
0000
0010
0100
1000
0000
0100
0010
0001
0000
,
1000
0010
1000
0001
0100
0000
0001
0000
0010
0001
1000
0001
0100
0000
0010
0000
,
1000
0000
0000
0000
0001
0000
0010
0001
1000
0000
0001
1000
0010
0000
0100
0000
,
0001
0010
0001
0010
0100
0000
1000
0000
0001
0000
0100
0010
1000
0010
0100
0000
,
0001
0100
0001
0000
0100
0010
0100
0000
0010
1000
0010
1000
0001
1000
0100
0010
,
0001
0000
0000
0000
1001
0000
0001
0100
0010
0000
0100
0010
1000
0000
0010
0000
,
1000
0001
0100
0100
1000
0001
0010
0010
,
1000
0010
0100
0000
0010
0100
0001
0000
0010
0001
0010
0000
0100
1000
0100
0000
,
1000
0010
1000
0010
0100
0001
0100
0001
2000
0000
0000
0000
3001
0000
0100
0000
,
0001
0100
0010
2000
0000
3001
0010
0200
,
0000
0301
0100
0020
0000
0031
0100
0010
,
1000
0100
1000
0000
0001
0010
0001
0000
1000
0010
1000
0010
0100
0001
0100
0001
,
1000
0000
0010
0100
0010
0000
1000
0010
0100
0000
0001
0010
1000
0000
0010
0000
,
0001
0100
0001
0000
0100
0010
0100
0000
0010
1000
0010
0000
1000
0100
1000
0000
,
0001
0100
0001
0000
1000
0010
1000
0000
0001
0010
0001
0000
1000
0100
1000
0000
,
0001
0100
0001
0000
0100
0010
0100
0000
0010
1000
0010
1000
0001
0000
0100
0000
,
0110
0010
1000
0100
,
0110
0010
0001
0100
,
1001
0100
1001
0010
,
0001
0000
0100
0000
0010
0000
1000
0000
0001
1000
0001
1000
0002
0000
0000
0000
,
1003
0010
1000
0000
0100
0010
0100
0000
1000
0100
1000
0000
0010
0100
0010
0000
,
1000
0001
1000
0000
0001
0100
0001
0000
0100
0010
0100
0000
0001
0010
0001
0000
,
0100
0010
0100
0000
0010
1000
0010
0000
0100
0010
0100
0000
0001
0100
0001
0000
,
1000
0001
1000
0000
0010
0100
0010
0000
1000
0010
1000
0010
0100
0001
1000
0000
,
0001
0010
0001
0010
0100
0000
1000
0000
0010
1000
0010
1000
0001
0000
0100
0000
,
0001
0010
0110
0000
1000
0010
0110
0000
,
0001
0100
0110
0000
1000
0100
0110
0000
,
0001
0010
1100
0000
1000
0010
0101
0000
,
0001
1000
0001
1000
0010
0000
0100
0000
1000
0000
0001
0010
0100
0000
0001
0000
,
2000
3020
0032
0203
,
1300
0100
1000
0000
0100
0000
0010
0000
0001
0100
0001
0000
0100
0000
0010
0000
,
1000
0000
0010
0000
0100
0010
0100
0010
0100
0000
0001
1000
0010
0000
1000
0000
,
1100
1000
1010
0000
0101
0001
0011
0000
,
1010
1000
1100
0000
0011
0001
0101
0000
,
1000
0100
1000
0100
0010
0001
0010
0001
1000
0010
0100
0001
0010
0100
1000
0010
,
0100
0000
0000
0000
0001
2002
0000
0000
,
0000
0000
0000
0000
,
0000
0000
0000
0000
,
3003
0000
0000
0000
;

//--------------- dance-single - Fred-104† ----------------
#NOTES:
     dance-single:
     Fred-104†:
     Challenge:
     18:
     :
0000
0000
0000
0000
,
0000
0000
0000
0000
,
0000
0000
0000
0000
,
0000
0000
0000
0000
,
0000
0000
0000
0000
,
1010
0000
0000
1001
,
0101
0000
0000
1100
,
0011
0000
0000
0000
,
0110
0000
2002
3003
,
1000
0010
1000
0010
0100
0000
0001
0010
0001
0100
0010
1000
0001
0100
0010
1000
,
0001
0100
0001
0000
0100
0000
0010
1000
0001
1000
0010
0100
0001
1000
0100
1000
,
0001
0100
0001
0100
1000
0100
0001
0000
1000
0100
1000
0100
0001
0100
1000
0000
,
0001
0100
0010
1000
0001
0100
0010
1000
0001
1000
0100
0010
0001
1000
0010
0000
,
1000
0010
0100
0010
0100
0000
0001
0000
1000
0100
0010
0001
0010
0100
1000
0000
,
0001
0100
0010
0000
1000
0000
0100
0010
0001
0100
0001
0100
0010
1000
0001
0000
,
1000
0001
1000
0100
0010
0000
0001
1000
0010
0100
0001
0100
0010
1000
0001
0000
,
1000
0010
1000
0100
1000
0000
0001
0100
0001
0010
0100
1000
0001
0000
1000
0000
,
1100
0000
1100
0000
1100
0000
1100
0000
1001
0000
0001
0100
0010
0000
0000
0000
,
1000
0010
0100
0000
1000
0000
0100
0001
1000
0100
0010
0000
0001
0100
0010
0000
,
1010
0000
1010
0000
1010
0000
1010
0000
1001
0000
0001
0010
0100
0000
0000
0000
,
1000
0100
0010
0000
0001
0100
0010
0000
0001
0010
1000
0001
1000
0000
0000
0000
,
0001
0000
0100
0010
0001
0000
0010
0000
2000
0000
3002
0000
0000
0000
0203
0000
,
0310
0000
1000
0100
0010
0000
1000
0000
0020
0000
0032
0000
0000
0000
2003
0000
,
3001
0000
1000
0010
0001
0000
0010
0000
0100
0000
0020
0000
0000
0000
1030
0000
,
0001
0010
0001
1000
0001
0010
0100
0010
0100
1000
0001
1000
0010
0100
0001
1000
,
0001
0000
1000
0010
0001
0000
1000
0000
0100
0000
0020
0000
0000
0000
0130
0000
,
0001
0000
1000
0000
0100
0001
1000
0000
0010
0000
0002
0000
0000
0000
1003
0000
,
0001
0000
0100
0010
1000
0010
0100
0000
0001
0000
0020
0000
0000
0000
0130
0000
,
1000
0000
0000
0100
0000
0000
0010
0000
0000
0001
0000
0000
1000
0000
0010
0000
1000
0000
0010
0000
0000
0100
0000
0000
0001
0000
0000
0010
0000
0000
0100
0000
0000
1000
0000
0000
0001
0000
0000
0000
0000
0000
0000
0000
0000
0000
0000
0000
,
1000
0001
1000
0100
0010
0000
0001
0100
0010
1000
0001
0000
0010
0100
1000
0000
,
0001
0100
0020
0000
0032
0000
0013
0100
0001
1000
0001
0010
0100
1000
0002
0000
,
1003
0100
0010
0000
1000
0000
0010
0100
1000
0100
0010
0001
1000
0010
0100
0000
,
0001
0010
0001
1000
0001
0010
0100
1000
0010
1000
0001
1000
0001
0100
0010
0000
,
1000
0100
0010
0001
1000
0100
0010
0001
1000
0010
0100
0001
1000
0010
0100
0000
,
0001
1000
0100
0000
1000
0001
0100
0000
0001
0010
0100
1000
0001
0100
0010
0000
,
0100
0001
1000
0001
0100
0001
0100
0010
1000
0010
0100
1000
0100
0010
0100
0000
,
0001
1000
0001
1000
0001
0100
0010
1000
0010
0100
0010
1000
0001
1000
0100
0010
,
0001
0000
0000
0000
1000
0000
0100
0010
0001
1000
0010
0100
0010
1000
0001
0100
,
0010
1000
0001
0010
0100
1000
0001
0100
0010
1000
0010
0100
0001
1000
0100
1000
,
0001
0010
0001
0100
0010
1000
0100
1000
0010
0100
0001
0010
0001
0100
0010
1000
,
0001
0010
0100
0010
0001
1000
0010
0100
0002
0000
0000
0000
1003
0000
0000
0000
,
1100
0000
0100
0000
0010
0000
0002
0000
0000
0000
0103
0010
0001
0000
0020
0000
,
0000
0000
1030
0000
0001
0010
0200
0000
0000
0000
1300
0001
0100
0010
1000
0000
,
0001
0010
0100
1000
0001
0100
0010
1000
0010
1000
0100
1000
0010
0100
0001
0100
,
0001
0000
0000
0010
0000
0000
0100
0000
0000
1000
0000
0000
0100
0000
0000
0010
0000
0000
0001
0000
0000
1000
0000
0000
0001
0000
0000
0000
0000
0000
0100
0000
0010
0000
1000
0000
0010
0000
0000
0100
0000
0000
0001
0000
0000
1000
0000
0000
,
0001
0100
0001
0100
0010
1000
0010
1000
0001
1000
0001
1000
0100
0010
0100
0010
,
0001
0010
0001
0010
0001
1000
0001
1000
0010
0100
0010
0100
0001
0100
0001
0100
,
0010
1000
0001
1000
0010
1000
0001
1000
0100
0010
0001
1000
0001
0010
0001
0000
,
1001
0000
0001
0000
0100
0010
1000
0000
,
1001
0000
1000
0000
0100
0010
0001
0000
,
1000
0010
0100
0000
0010
0100
0001
0000
0010
0100
1000
0000
0001
1000
0010
0000
,
1000
0100
0010
0001
1000
0100
0010
0001
0010
0100
1000
0001
0200
0000
0000
0000
,
0301
1000
0001
1000
0001
0010
0001
0010
0100
0010
0100
0010
0001
0010
0001
0010
,
0001
0100
0001
0100
0010
0100
0010
0100
0010
1000
0010
1000
0010
0100
0010
0100
,
0001
1000
0001
1000
0100
1000
0100
1000
0001
1000
0001
1000
0100
1000
0100
1000
,
0100
0010
0100
0010
0001
0010
0001
0010
0100
0010
0100
0010
0001
1000
0001
1000
,
0001
0100
1000
0100
0001
0000
1001
0000
1000
0100
0001
0100
1000
0000
1001
0000
,
1000
0010
0100
0000
0110
0000
0101
0000
0001
0010
0100
1000
0010
0000
1010
0000
,
1000
0100
0010
1000
0001
0100
0020
0000
0031
0100
0010
0001
1000
0100
0020
0000
,
1030
0010
0001
1000
0100
0010
2000
0000
3001
0010
1000
0001
0100
0010
0002
0000
,
1003
0010
0100
0010
0001
0000
1000
0000
0100
0000
0010
0100
0001
0000
1000
0000
,
0002
0203
2300
3020
,
0031
1000
0001
1000
0100
0010
0100
0010
0001
0010
0001
0010
0100
1000
0010
0100
,
0001
0000
1000
0000
0001
1000
0100
1000
0001
0100
0010
1000
0100
0010
0100
0000
,
1100
0000
1000
0010
0100
0000
0001
0000
0101
0000
0001
0010
0100
0000
1000
0000
,
1010
1000
1100
0000
0011
0001
0101
0000
,
0001
0000
0000
0010
0000
0000
0100
0000
0000
1000
0000
0000
0010
0000
0000
0100
0000
0000
0001
0000
0000
1000
0000
0000
0100
0000
0000
0010
0000
0000
0001
0000
0000
1000
0000
0000
0001
0000
1000
0000
0001
0000
1000
0000
0001
0000
1000
0000
,
0001
0000
0000
0000
1001
2002
0000
0000
,
0000
0000
0000
0000
,
0000
0000
0000
0000
,
3003
0000
0000
0000
;

//--------------- dance-double - Fred-104 ----------------
#NOTES:
     dance-double:
     Fred-104:
     Easy:
     9:
     :
00000000
00000000
00000000
00000000
,
00000000
00000000
00000000
00000000
,
00000000
00000000
00000000
00000000
,
00000000
00000000
00000000
00000000
,
00000000
00000000
00000000
00000000
,
00001001
00000000
00000000
00000010
,
00000110
00000000
00000000
00010000
,
00011000
00000000
00000000
00000000
,
00101000
00000000
00220000
00330000
,
00010000
00100000
00010000
00000000
,
01000000
00100000
01000000
00000000
,
00010000
10000000
01000000
00000000
,
00100000
00001000
00010000
00000000
,
01000000
10000000
00100000
00000000
,
00010000
00001000
00000010
00000000
,
00000001
00000100
00001000
00000000
,
00010000
00000100
00000010
00000000
,
00000001
00001000
00000001
00001000
00000001
00000000
00001001
00000000
,
00000010
00010000
00001000
00100000
,
00010000
10000000
00010000
10000000
00010000
00000000
10010000
00000000
,
01000000
00100000
10000000
01000000
,
00100000
00001000
00010000
00000000
,
00000100
00001000
00000001
00000000
,
00000100
00000010
00001000
00000000
,
00000001
00000100
00001000
00000000
00001000
00000100
00000001
00000000
,
00000100
00000010
00010000
00000000
,
00000100
00010000
00001000
00000000
,
01000000
00010000
00100000
00000000
,
00010000
01000000
10000000
00000000
10000000
01000000
00010000
00000000
,
01000000
00100000
10000000
01000000
,
00100000
00001000
00010000
00001000
,
00100000
00100000
00001000
00010000
,
00000010
00001000
00000010
00000100
,
00000001
00000010
00000100
00001000
,
00000001
00000100
00000010
00000100
,
00000010
00001000
00000100
00000010
,
00000001
00000100
00001000
00010000
,
00100000
01000000
00010000
10000000
,
01000000
00000000
10000000
00000000
00100000
01000000
00100000
00000000
,
10000000
00000000
01000000
00000000
00100000
00010000
00100000
00000000
,
00001000
01000000
00001000
00000000
00010000
00000100
00010000
00000000
,
00011000
00001000
00000000
00000010
,
00000000
00000001
00000000
00000010
,
00001000
00010000
01000000
00100000
,
00010000
10000000
00100000
00000000
01000000
00100000
10000000
00000000
,
00010000
00100000
01000000
00000000
00001000
00000000
00010000
00000000
,
00001000
00000100
00000010
00001000
,
00000001
00000010
00000100
00000000
00001000
00000100
00000010
00000000
,
00000001
00000010
00001000
00010000
,
01000000
10000000
00100000
00010000
,
00001000
00010000
00001000
00000000
00010000
00000100
00010000
00000000
,
00000010
00001000
00000010
00000000
00001000
00000001
00002000
00000000
,
00003001
00000001
00000100
00000010
,
00001000
00000000
00000001
00000000
,
00000100
00001000
00010000
00001000
,
01000000
00000000
00100000
00000000
,
10010000
00000000
10100000
00000000
,
11000000
00000000
01010000
00000000
,
00011000
00000000
00001010
00000000
,
00000011
00000000
00001001
00000000
,
00000001
00000100
00000010
00001000
,
00000002
00000023
00000032
00002003
,
00003010
00010000
00001000
00000000
00100000
00010000
00100000
00000000
,
00001000
00010000
00000100
00001000
,
00000100
00000010
00010000
00001000
,
00011000
00000000
01100000
00000000
,
10000000
01000000
00100000
00000000
00001000
00010000
00001000
00000000
,
00011000
00000000
00002002
00000000
,
00000000
00000000
00000000
00000000
,
00000000
00000000
00000000
00000000
,
00003003
00000000
00000000
00000000
;

//--------------- dance-double - Fred-104 ----------------
#NOTES:
     dance-double:
     Fred-104:
     Medium:
     12:
     :
00000000
00000000
00000000
00000000
,
00000000
00000000
00000000
00000000
,
00000000
00000000
00000000
00000000
,
00000000
00000000
00000000
00000000
,
00000000
00000000
00000000
00000000
,
10010000
00000000
00000000
00100000
,
00110000
00000000
00000000
00001000
,
00011000
00000000
00000000
00000000
,
00101000
00000000
00020020
00030030
,
00010000
00001000
00000010
00000000
00000001
00000100
00001000
00000000
,
00010000
00100000
10000000
00000000
01000000
00010000
00001000
00000000
,
00000010
00000001
00001000
00000000
00000001
00000100
00000010
00000000
,
00001000
00000001
00000010
00000000
00000100
00010000
00001000
00000000
,
00100000
01000000
10000000
00000000
00010000
01000000
00100000
00000000
,
00010000
00100000
10000000
00000000
00010000
10000000
01000000
00000000
,
00100000
00001000
00010000
00000000
00000010
00001000
00000100
00000000
,
00010000
00001000
01000000
00000000
00001000
00010000
00000100
00000000
,
00001000
00001000
00000001
00000001
00000100
00000000
00000110
00000000
,
00000001
00000010
00001000
00000000
00010000
01000000
10000000
00000000
,
00010000
00010000
10000000
10000000
00100000
00000000
01100000
00000000
,
10000000
01000000
00010000
00000000
00001000
00000010
00000001
00000000
,
00001000
00000100
00000010
00000000
00000001
00000100
00000000
00000100
,
00000010
00001000
00000001
00000000
00000010
00000100
00000000
00000100
,
00010000
00001000
01000000
00000000
00010000
10000000
00000000
01000000
,
10000000
00100000
00010000
00000000
00001000
00010000
01000000
00000000
,
10000000
01000000
00100000
00000000
00001000
00010000
00000000
00001000
,
01000000
00001000
00010000
00000000
00001000
00000010
00000000
00000100
,
00001000
00000001
00000100
00000000
00000001
00000010
00000000
00000010
,
00000001
00000100
00001000
00010000
01000000
10000000
00010000
00000000
,
01000000
00100000
10000000
00000000
00010000
00100000
01000000
00100000
,
00001000
00010000
00001000
00000000
00010000
00000100
00001000
00000010
,
00000100
00000001
00000010
00001000
,
00000010
00000001
00000100
00000000
00000010
00001000
00000100
00000000
,
00010000
00000100
00001000
00000100
00010000
00001000
00100000
00010000
,
01000000
00100000
10000000
01000000
,
00100000
00010000
10000000
00000000
00010000
01000000
10000000
00000000
,
01000000
00100000
10000000
01000000
00100000
00010000
10000000
00000000
,
00010000
01000000
00001000
00010000
00000100
00001000
00000010
00000000
,
00000100
00000001
00000010
00000100
00001000
00000100
00000010
00000000
,
00000001
00000010
00001000
00010000
01000000
00100000
00010000
01000000
,
00100000
10000000
01000000
00010000
00001000
00000000
00010000
00000000
,
00012000
00100000
00000000
00003010
,
00021000
01000000
00000000
00030100
,
00010000
00001000
00000100
00000000
00001000
00010000
01000000
00000000
,
10000000
01000000
00010000
00000000
00001000
00010000
01000000
00000000
,
10000000
00100000
01000000
00100000
10000000
00100000
01000000
00000000
,
00100000
10000000
01000000
00100000
00001000
00010000
00001000
00000000
,
00000100
00000001
00001000
00000001
00000010
00000100
00000010
00000000
,
00000011
00000100
00001000
00010000
,
01010000
10000000
01000000
00100000
,
00001000
00010000
00100000
00000000
00010000
00001000
00000010
00000000
,
00001000
00010000
00001000
00010000
01000000
00100000
00020000
00000000
,
10030000
00100000
00010000
00100000
01000000
00100000
10000000
00010000
,
00100000
01000000
00100000
00001000
00000010
00001000
00010000
00000000
,
00001000
00010000
00001000
00010000
00001000
00000100
00000010
00001000
,
00000100
00000010
00000001
00000100
00001000
00000100
00000001
00000000
,
00000001
00000100
00001000
00000000
00010000
01000000
10000000
00000000
,
10000000
01100000
00010000
00011000
,
00000100
00000110
00000001
00001001
,
00000001
00000010
00001000
00000000
00010000
01000000
10000000
00000000
,
00010000
10000000
00100000
01000000
00100000
00010000
00001000
00000100
,
00000020
00002030
00003002
00000023
,
00000031
00000010
00000100
00000010
00000001
00001000
00000001
00000000
,
00000100
00000010
00001000
00000100
00010000
00001000
00100000
00000000
,
01000000
00100000
00010000
00001000
00000100
00000010
00000001
00000000
,
00000100
00001000
00010000
00100000
01000000
00010000
10000000
00000000
,
01000000
00100000
00010000
01000000
00001000
00010000
00000100
00000010
,
00000110
00000000
00000000
00000000
00000001
00000022
00000000
00000000
,
00000000
00000000
00000000
00000000
,
00000000
00000000
00000000
00000000
,
00000033
00000000
00000000
00000000
;

//--------------- dance-double - Fred-104 ----------------
#NOTES:
     dance-double:
     Fred-104:
     Hard:
     16:
     :
00000000
00000000
00000000
00000000
,
00000000
00000000
00000000
00000000
,
00000000
00000000
00000000
00000000
,
00000000
00000000
00000000
00000000
,
00000000
00000000
00000000
00000000
,
00011000
00000000
00000000
01000000
,
10010000
00000000
00000000
00100000
,
01100000
00000000
00000000
00000000
,
00011000
00000000
00000220
00000330
,
00000001
00000100
00000001
00000100
00000001
00000000
00000000
00000000
00001000
00000000
00000001
00000100
00000001
00000000
00000100
00000000
,
00000010
00000000
00001000
00000001
00001000
00000000
00000010
00000000
00000100
00000000
00000001
00000010
00000001
00000000
00001000
00000000
,
00000010
00010000
00000010
00000000
00010000
00001000
00010000
00000000
00001000
00100000
00001000
00000000
01000000
00100000
01000000
00000000
,
00010000
01000000
00010000
00000000
10000000
01000000
10000000
00000000
00010000
00100000
00010000
00000000
10000000
00100000
10000000
00000000
,
00010000
01000000
00010000
01000000
00010000
00000000
10000000
00000000
01000000
00100000
01000000
00100000
01000000
10000000
00010000
00000000
,
10000000
01000000
10000000
00000000
01000000
00000000
00100000
00001000
00010000
00000000
00001000
00010000
00001000
00000000
01000000
00000000
,
00001000
00010000
00001000
00000100
00000010
00001000
00000001
00000100
,
00001000
00010000
00001000
00000000
00100000
00000000
01000000
10000000
00010000
00000000
10000000
00000000
00100000
00000000
00000000
00000000
,
10000000
01000000
00010000
01000000
10000000
00000000
10010000
00000000
,
00010000
00000000
10000000
00000000
01000000
00000000
00100000
00000000
00001000
00010000
00000010
00000000
00001000
00000000
00000000
00000000
,
00000001
00000100
00001000
00000100
00000001
00000000
00001001
00000000
,
00000001
00000010
00001000
00010000
00100000
10000000
10010000
00000000
,
10000000
00000000
00100000
01000000
00100000
00000000
10000000
00000000
01000000
00000000
00100000
00000000
00001000
00000000
00000000
00000000
,
00010000
00000000
00000100
00001000
00000100
00000000
00010000
00000000
00000010
00000000
00001000
00000000
00000100
00000000
00000000
00000000
,
00001000
00000000
00000001
00000100
00000001
00000000
00000010
00000000
00000100
00000000
00000010
00000000
00000001
00000000
00000000
00000000
,
00000100
00000010
00000100
00000000
00000001
00000100
00000001
00000000
00000100
00000000
00000010
00000000
00001000
00000000
00000100
00000000
,
00010000
00000000
00000010
00001000
00000010
00000000
00010000
00000000
00001000
00000000
00100000
00000000
00001000
00000000
00010000
00000000
,
00000100
00000000
00001000
00000010
00001000
00000000
00000100
00000000
00010000
00000000
00001000
00000000
01000000
00000000
00010000
00000000
,
00100000
00000000
00001000
00010000
00001000
00000000
01000000
00000000
00010000
00000000
00100000
00000000
00001000
00000000
00010000
00000000
,
00000010
00001000
00000010
00000000
00010000
00001000
00010000
00000000
00001000
00100000
00001000
00100000
00001000
00000000
00000000
00000000
,
00010000
00001000
00000100
00000010
00001000
00000001
00000010
00010000
,
00100000
00001000
00010000
00001000
00000010
00000100
00001000
00000001
,
00000100
00000010
00000100
00001000
00010000
00100000
01000000
00010000
,
01000000
00100000
10000000
01000000
00010000
00001000
00010000
00100000
,
01000000
00001000
00010000
01000000
00100000
00010000
10000000
00000000
,
00010000
10000000
01000000
00001000
00000100
00010000
00001000
00000010
,
00000001
00000100
00000010
00000100
00001000
00010000
00100000
10000000
,
00010000
00100000
00001000
00010000
00001000
00000010
00000100
00001000
,
00000001
00000000
00000010
00010000
00100000
01000000
00100000
00001000
,
00010000
00100000
01000000
00001000
00010000
01000000
10000000
00100000
,
00010000
00001000
00010000
01000000
00100000
00001000
00010000
00001000
,
00010000
00001000
00010000
00001000
00010000
00001000
00010000
00001000
00020000
00000000
00000000
00000000
00031000
00000000
00000000
00000000
,
00001000
00010000
01000000
20000000
00000000
30010000
01000000
00200000
,
00000000
10300000
01000000
00200000
00000000
00301000
00010000
00001000
,
01000000
00100000
01000000
00000000
00001000
00010000
00001000
00000000
00010000
00000010
00010000
00000000
00000010
00001000
00000001
00001000
,
00000100
00000000
00001000
00000010
00000100
00000000
00000001
00000010
00000100
00000000
00001000
00000010
00000001
00000000
00000010
00000000
,
00001000
00000001
00001000
00000000
00000001
00000100
00000001
00000000
00000100
00000010
00000100
00000000
00000010
00001000
00000010
00000000
,
00010000
00001000
00010000
00000000
00000100
00001000
00000100
00000000
00010000
00001000
00010000
00000000
00001000
00100000
00001000
00000000
,
00100000
00010000
00100000
00000000
00010000
01000000
00010000
00000000
10000000
00100000
01000000
00100000
10000000
00000000
00010000
00000000
,
11000000
00100000
00001000
00010000
,
00010100
00001000
00000001
00000100
,
00000001
00000010
00000100
00010000
00001000
00100000
01000000
10000000
,
00100000
00000000
00010000
00000000
00001000
00000000
00010000
00000000
00001000
00010000
00001000
00010000
00002000
00000000
00000000
00000000
,
00013000
00000100
00010000
00000000
00001000
00100000
00010000
00000000
01000000
00000000
00001000
00000000
00010000
00000000
00100000
00000000
,
01000000
00001000
00010000
00000000
00001000
00010000
01000000
00000000
10000000
00000000
00100000
00000000
00001000
00000000
00000010
00000000
,
00000100
00000001
00001000
00000000
00000001
00000010
00000100
00000000
00000010
00000000
00000001
00000000
00001000
00000000
00000010
00000000
,
00000100
00000001
00001000
00000000
00000001
00000010
00000100
00000000
00001000
00000100
00010000
00001000
00100000
00010000
10000000
00000000
,
00010000
00100000
01000000
00100000
00010000
00000000
10000000
00000000
00100000
01000000
00100000
01000000
00010000
00000000
01000000
00000000
,
00001000
00010010
00001000
01001000
,
00001000
00010100
00001000
00101000
,
10010000
00011000
00001001
00011000
,
00010000
00001000
00010000
00001000
00010000
00000000
00100000
00000000
01000000
00000000
00010000
00100000
01000000
00000000
10000000
00000000
,
02000000
03200000
00302000
00023000
,
00031000
00100000
00001000
00000000
00010000
00000000
00000010
00000000
00001000
00000001
00000010
00000000
00000100
00000000
00001000
00000000
,
00000001
00000000
00000100
00000000
00000010
00000100
00000010
00000100
00000010
00000000
00001000
00000001
00000010
00000000
00000001
00000000
,
00000011
00000001
00001001
00000000
00001010
00000010
00010010
00000000
,
00011000
00001000
01001000
00000000
01100000
00100000
10100000
00000000
,
10000000
00010000
01000000
00001000
00100000
00001000
00010000
00000010
00001000
00000010
00000100
00000001
00001000
00000100
00010000
00001000
,
01000000
00000000
00000000
00000000
00010000
20020000
00000000
00000000
,
00000000
00000000
00000000
00000000
,
00000000
00000000
00000000
00000000
,
30030000
00000000
00000000
00000000
;

//--------------- dance-double - Fred-104† ----------------
#NOTES:
     dance-double:
     Fred-104†:
     Challenge:
     18:
     :
00000000
00000000
00000000
00000000
,
00000000
00000000
00000000
00000000
,
00000000
00000000
00000000
00000000
,
00000000
00000000
00000000
00000000
,
00000000
00000000
00000000
00000000
,
00011000
00000000
00000000
00001000
,
00001001
00000000
00000000
00000001
,
00001001
00000000
00000000
00000000
,
00011000
00000000
20020000
30030000
,
00010000
01000000
00010000
01000000
00100000
00000000
10000000
00000000
00010000
01000000
00100000
00000000
10000000
01000000
00100000
00000000
,
00001000
00010000
00001000
00000000
00010000
00000000
00000100
00001000
00000010
00001000
00000010
00000100
00000001
00000100
00000001
00000000
,
00001000
00000010
00000100
00000000
00000001
00000010
00000100
00000000
00010000
00001000
00010000
00000000
00000010
00001000
00000010
00000000
,
00010000
00001000
00100000
00010000
10000000
00100000
01000000
00010000
00100000
00001000
00100000
00010000
01000000
00100000
10000000
00000000
,
00010000
01000000
00100000
10000000
01000000
00000000
00100000
00000000
00010000
00100000
10000000
00000000
00010000
01000000
10000000
00000000
,
00010000
10000000
01000000
00000000
00100000
00000000
00010000
01000000
00001000
00010000
00000100
00001000
00000010
00010000
00001000
00000000
,
00100000
00010000
01000000
00001000
00010000
00000000
00000010
00001000
00000100
00010000
00001000
00100000
00010000
01000000
00001000
00000000
,
00010000
00001000
00000100
00000010
00001000
00000000
00000010
00000100
00001000
00000100
00000010
00001000
00000001
00000000
00001000
00000000
,
00000001
00000000
00000010
00000000
00001000
00000000
00010000
00000000
01000000
00000000
10000000
00010000
10000000
00000000
00000000
00000000
,
00010000
00100000
10000000
00100000
00001000
00010000
00000010
00001000
,
00000001
00000000
00000100
00000000
00001000
00000000
00010000
00000000
00100000
00000000
10000000
00010000
10000000
00000000
00000000
00000000
,
00010000
10000000
01000000
00010000
00001000
00000010
00000001
00000000
,
00001000
00000000
00000001
00000100
00000010
00000000
00000001
00000000
00000010
00000000
00001000
00000000
00000000
00000000
00000001
00000000
,
00000100
00000000
00000010
00001000
00000100
00000000
00010000
00000000
01000000
00000000
00100000
00000000
00000000
00000000
00010000
00000000
,
10000000
00000000
00100000
01000000
10000000
00000000
01000000
00000000
00100000
00000000
10000000
00000000
00000000
00000000
00010000
00000000
,
10000000
01000000
00100000
00000000
00001000
00010000
00001000
00000000
00010000
00000100
00001000
00000001
00000010
00000100
00000010
00000000
,
00000001
00000000
00000001
00000100
00001000
00000000
00000100
00000000
00000010
00001000
00000100
00000000
00000010
00000000
00000001
00000000
,
00000100
00000000
00001000
00010000
00001000
00000000
00010000
00000000
01000000
00100000
01000000
00000000
00010000
00000000
10000000
00000000
,
01000000
00000000
10000000
00100000
00010000
00000000
00100000
00000000
01000000
00010000
10000000
00000000
00010000
00000000
01000000
00000000
,
00100000
10000000
00100000
10000000
00010000
00100000
01000000
00100000
00001000
00010000
00001000
00010000
00001000
00000000
00000000
00000000
,
00010000
00000100
00001000
00000100
00010000
00000000
00000010
00001000
00000100
00010000
00001000
00000000
01000000
00001000
00010000
00000000
,
00010000
00000100
00001000
00000000
00000010
00001000
00000100
00000000
00010000
00001000
00100000
00000000
00010000
10000000
00010000
10000000
,
00010000
01000000
00100000
00000000
00010000
00000000
00100000
10000000
00010000
01000000
00100000
00000000
10000000
01000000
00100000
00000000
,
00001000
00010000
00001000
00010000
00000100
00001000
00000100
00001000
00000100
00000010
00000100
00000010
00000001
00001000
00000001
00000000
,
00000100
00000001
00000100
00000001
00000100
00000010
00000100
00000010
00001000
00000010
00001000
00000010
00010000
00001000
00010000
00001000
,
00010000
00001000
00100000
00000000
00010000
00000000
10000000
01000000
00100000
00000000
00001000
00000000
00010000
00100000
01000000
00000000
,
00010000
10000000
00010000
00100000
01000000
10000000
01000000
10000000
00010000
00000000
10000000
01000000
00100000
00000000
00010000
01000000
,
00100000
10000000
01000000
00100000
00001000
00010000
00001000
00000100
00000010
00001000
00000010
00000100
00000001
00000010
00000100
00000000
,
00001000
00000000
00000000
00000000
00000001
00000000
00000100
00000010
00000001
00000010
00000100
00000001
00001000
00000100
00001000
00000000
,
00000001
00000100
00000001
00001000
00000100
00010000
00001000
01000000
00010000
01000000
00001000
00010000
00001000
00000000
00100000
00000000
,
00010000
01000000
00010000
01000000
00100000
10000000
00100000
10000000
00010000
00100000
00010000
00100000
01000000
00000000
10000000
00000000
,
00010000
01000000
00100000
10000000
00100000
01000000
00010000
00100000
00002000
00000000
00000000
00000000
00013000
00000000
00000000
00000000
,
00011000
00000000
00001000
00000000
00000010
00000000
00000002
00000000
00000000
00000000
00001003
00000100
00000010
00000000
00000002
00000000
,
00000000
00000000
00000103
00000000
00000010
00010000
00002000
00000000
00000000
00000000
00003010
00000001
00001000
00000001
00000100
00000000
,
00000001
00000100
00001000
00000000
00010000
00100000
10000000
00000000
00010000
00100000
01000000
00000000
10000000
00100000
01000000
00000000
,
00010000
00000000
00000000
10000000
00000000
00000000
00010000
00000000
00000000
01000000
00000000
00000000
00100000
00000000
00000000
10000000
00000000
00000000
01000000
00000000
00000000
00100000
00000000
00000000
00010000
00000000
00000000
00000000
00000000
00000000
01000000
00000000
00001000
00000000
00010000
00000000
00001000
00000000
00000000
00010000
00000000
00000000
00001000
00000000
00000000
00010000
00000000
00000000
,
00000010
00001000
00000010
00001000
00000001
00001000
00000001
00001000
00000100
00000010
00000100
00000010
00000001
00001000
00000001
00000000
,
00000010
00000100
00001000
00000000
00000100
00010000
00001000
00000000
00100000
00010000
00100000
00000000
01000000
10000000
00010000
00000000
,
10000000
01000000
00100000
00000000
00010000
00100000
01000000
00000000
10000000
01000000
00100000
00010000
00100000
00001000
00010000
00000010
,
00010000
00000000
00001000
00000000
00000010
00000001
00000100
00000000
,
00001000
00000000
00010000
00000000
00100000
10000000
01000000
00000000
,
00010000
00001000
00010000
00000000
00000100
00000000
00001000
00000000
00000010
00001000
00000010
00000000
00010000
00000000
00001000
00000000
,
00010000
00000010
00001000
00000100
00010000
00001000
01000000
00010000
00100000
00001000
00010000
00001000
00000200
00000000
00000000
00000000
,
00000310
00001000
00000001
00000010
00000100
00010000
00001000
00000100
00000010
00000000
00001000
00000000
00000001
00000000
00000010
00000000
,
00000100
00001000
00000100
00010000
00001000
01000000
00010000
00100000
00001000
00000000
00010000
00000000
00100000
00000000
01000000
00000000
,
00010000
10000000
01000000
00100000
00001000
00010000
00100000
01000000
00010000
00000000
10000000
00000000
01000000
00000000
00010000
00000000
,
00001000
00010000
00000100
00000010
00000001
00000100
00000010
00000100
00001000
00000000
00010000
00000000
00100000
00000000
01000000
00000000
,
00010000
10000000
01000000
00100000
01000000
00000000
01100000
00000000
00100000
00010000
01000000
00001000
00010000
00000000
00011000
00000000
,
00001000
00010000
00000010
00000000
00001010
00000000
00001000
00000000
00000001
00000100
00000010
00000000
00000110
00000000
00001000
00000000
,
00000001
00000100
00000010
00000000
00000001
00000010
00001000
00000000
00000001
00000010
00000100
00000000
00000001
00000100
00001000
00000000
,
00000001
00000010
00001000
00000000
00010000
01000000
00100000
00000000
00010000
00100000
01000000
00000000
10000000
01000000
00100000
00000000
,
00010000
01000000
00010000
01000000
00100000
00000000
01000000
00000000
00100000
00000000
00010000
00100000
01000000
00000000
00010000
00000000
,
20000000
30020000
00032000
00003002
,
00001003
00000001
00000010
00000001
00000100
00000010
00000100
00001000
00010000
00100000
01000000
00010000
10000000
01000000
00100000
00010000
,
01000000
00000000
00010000
00000000
01000000
00100000
10000000
00100000
01000000
00010000
00100000
00001000
00100000
00010000
00100000
00000000
,
00110000
00000000
00100000
00001000
00010000
00000000
00000010
00000000
00000110
00000000
00000001
00001000
00000100
00000000
00000010
00000000
,
00000100
00000010
00001000
00010000
01000000
00100000
00010000
01000000
,
00100000
00000000
00000000
10000000
00000000
00000000
00010000
00000000
00000000
01000000
00000000
00000000
00001000
00000000
00000000
00010000
00000000
00000000
00001000
00000000
00000000
00100000
00000000
00000000
00001000
00000000
00000000
00010000
00000000
00000000
00000010
00000000
00000000
00001000
00000000
00000000
00000001
00000000
00000100
00000000
00000001
00000000
00000100
00000000
00000001
00000000
00000100
00000000
,
00000010
00000000
00000000
00000000
00011000
00022000
00000000
00000000
,
00000000
00000000
00000000
00000000
,
00000000
00000000
00000000
00000000
,
00033000
00000000
00000000
00000000
;
