#TITLE:UNDERWORLD HOLOGRAPHY;
#ARTIST:BEMANI Sound Team "L.E.D." feat. KOTOKO;
#ARTISTTRANSLIT:L.E.D. feat. KOTOKO;
#GENRE:DRUM & BASS;
#BANNER:UNDERWORLD HOLOGRAPHY.png;
#BACKGROUND:UNDERWORLD HOLOGRAPHY-bg.png;
#CDTITLE:./CDTitles/bm IIDX 26 Rootage.png;
#MUSIC:UNDERWORLD HOLOGRAPHY.ogg;
#SAMPLESTART:56.47;
#SAMPLELENGTH:15;
#BPMS:0=187;

//--------------- dance-single - Fred-104 ----------------
#NOTES:
     dance-single:
     Fred-104:
     Beginner:
     3:
     :
0000
0000
0000
0000
,
0000
0000
0000
0000
,
0000
0000
0000
0000
,
0000
0000
0000
0000
,
0000
0000
0000
0000
,
0000
0000
0000
0000
,
1000
0000
0000
0000
,
0001
0000
0010
0000
,
0001
0000
0000
0000
,
1000
0000
0010
0000
,
1000
0000
0000
0000
,
0001
0000
0100
0000
,
0001
0000
0000
0000
,
1001
0000
0000
0000
,
2000
0000
3000
0000
,
0010
0000
0100
0000
,
0020
0000
0030
0000
,
0100
0000
0001
0000
,
0020
0000
0030
0000
,
0001
0000
1000
0000
,
0020
0000
0030
0000
,
1000
0000
0001
0000
,
1000
0000
0000
0000
,
1000
0000
0001
0000
,
1000
0000
0000
0000
,
0001
0000
0100
0000
,
0001
0000
0000
0000
,
0100
0000
0010
0000
,
0100
0000
0000
0000
,
0001
0000
1000
0000
,
1001
0000
0000
0000
,
0000
0000
0000
0000
,
0001
0000
0010
0000
,
0001
0000
1000
0000
,
1001
0000
0000
0000
,
0000
0000
0000
0000
,
1000
0000
0100
0000
,
0010
0000
0001
0000
,
1001
0000
0000
0000
,
0000
0000
0000
0000
,
1000
0000
0001
0000
,
1000
0000
0010
0000
,
1001
0000
0000
0000
,
0000
0000
0000
0000
,
1001
0000
0000
0000
,
0000
0000
0000
0000
,
1000
0000
0010
0000
,
0100
0000
0001
0000
,
1000
0000
0100
0000
,
0010
0000
0001
0000
,
1000
0000
0001
0000
,
0100
0000
0001
0000
,
0010
0000
0001
0000
,
1000
0000
0001
0000
,
1000
0000
0100
0000
,
1000
0000
0001
0000
,
0100
0000
0010
0000
,
0100
0000
0001
0000
,
1000
0000
0001
0000
,
0010
0000
0100
0000
,
1000
0000
0001
0000
,
1001
0000
0000
0000
,
2000
0000
0000
0000
,
0000
0000
3000
0000
,
0002
0000
0003
0000
,
1000
0000
0000
0000
,
1001
0000
0000
0000
,
0000
0000
0000
0000
,
1001
0000
0000
0000
,
0000
0000
0000
0000
,
1001
0000
0000
0000
,
0000
0000
0000
0000
,
2002
0000
0000
0000
,
3003
0000
0000
0000
,
1000
0000
0100
0000
,
0010
0000
0001
0000
,
1000
0000
0001
0000
,
0100
0000
0001
0000
,
1000
0000
0100
0000
,
0010
0000
0001
0000
,
1000
0000
0001
0000
,
1000
0000
0010
0000
,
0100
0000
0010
0000
,
0100
0000
0001
0000
,
0010
0000
0001
0000
,
1000
0000
0001
0000
,
1000
0000
0100
0000
,
1000
0000
0001
0000
,
1000
0000
0001
0000
,
1001
0000
0000
0000
,
2000
0000
3000
0000
,
0010
0000
1000
0000
,
0002
0000
0003
0000
,
0100
0000
0001
0000
,
2000
0000
3000
0000
,
0001
0000
1000
0000
,
0002
0000
0000
0000
0003
0000
0000
1001
;

//--------------- dance-single - Fred-104 ----------------
#NOTES:
     dance-single:
     Fred-104:
     Easy:
     9:
     :
0000
0000
0000
0000
,
0000
0000
0000
0000
,
0000
0000
0000
0000
,
0000
0000
0000
0000
,
0000
0000
0000
0000
,
0000
0000
0000
0000
,
1000
0000
0000
0010
0000
0000
0100
0001
,
0000
0100
0010
0100
,
0001
0000
0000
0010
0000
0000
0100
1000
,
0000
0000
0010
0000
0100
0010
0100
0000
,
0002
0000
0100
0000
0103
0000
0010
1000
,
0200
0000
1000
0000
1300
0000
0010
1000
,
0002
0010
0013
0001
,
1001
0000
1000
0001
,
1000
0100
0000
0001
,
0100
1000
0001
0001
,
1000
0010
0001
0010
,
1000
0001
1000
1000
,
0002
0100
0103
0020
,
2030
0000
0000
3200
0000
0000
0320
0000
,
0031
0100
0020
0000
,
2030
0000
0000
3002
0000
0000
2003
0000
,
3001
0010
1000
0010
,
0001
1000
0010
0010
,
1000
0100
0001
0100
,
1000
0001
0100
0100
,
0002
0000
0013
0001
,
0200
0000
0000
0320
0000
0000
0130
0000
,
0010
1000
0002
0000
,
1003
0100
1000
0001
,
1001
0000
1000
0100
0000
1000
0100
0000
,
0010
0000
0010
0000
0100
0010
0100
0000
,
0001
0010
0100
1000
,
0001
0000
0100
0000
0010
1000
0010
0000
,
1001
0000
0001
1000
0000
1000
0001
0000
,
1000
0000
1000
0000
0001
1000
0010
0000
,
0100
0001
0001
1000
,
0100
0010
0001
0000
0100
0010
1000
0000
,
1001
0000
0001
0100
0000
0100
0010
0000
,
0100
0000
0100
0000
0010
1000
0001
0000
,
0001
0010
0100
1000
,
0010
0100
0010
0000
1000
0001
1000
0000
,
1001
0000
0001
1000
0000
1000
0100
0000
,
0010
0000
0001
0000
1000
0001
2000
3002
,
1003
0000
0000
0000
,
2002
0000
0000
3003
,
2000
0000
3002
0000
,
1003
0100
0010
0001
,
0100
0010
0100
0000
0001
0010
0001
0000
,
0100
0000
0010
1000
0001
0000
0100
0000
,
0001
0000
0001
0000
0010
0000
0100
1000
,
0000
0010
0000
0000
0100
0000
0001
0000
,
1000
0000
1000
0000
0010
0000
0100
0001
,
0000
1000
0000
0000
0001
0000
0100
0000
,
0002
0000
2003
0000
,
3001
0010
0001
0100
,
0010
1000
0010
0000
1000
0100
0010
0000
,
0001
0000
0100
0010
0100
0000
0001
0000
,
1000
0000
1000
0000
0010
0000
0100
0001
,
0000
1000
0000
0000
0001
0000
0010
0000
,
0100
0000
0010
0000
0001
1000
0001
0000
,
1001
0000
0000
0000
,
1000
0010
2000
0000
0100
0000
3100
0000
,
1000
0000
0001
0000
0100
0000
0001
0010
,
0002
0100
0103
0010
,
1001
0000
0000
0100
,
1100
0000
0000
0000
,
0000
0000
0000
0000
,
0101
0000
0000
0000
,
0000
0000
0000
0000
,
1010
0000
0000
0000
,
0000
0000
0000
0000
,
0011
0000
0000
0000
,
2002
0000
0000
3003
,
0002
0000
2003
0000
,
3001
0100
0010
0100
,
0001
0010
0100
0000
1000
0001
1000
0000
,
0001
0000
1000
0010
0100
0000
0001
0000
,
0100
0000
0100
0000
0010
0000
1000
0001
,
0000
0010
0000
0000
0001
0000
0100
0000
,
0010
0000
0010
0000
0100
0000
0001
1000
,
0000
0100
0000
0000
1000
0000
0010
0000
,
0200
0000
0320
0000
,
1030
0100
0010
0001
,
0100
0010
0100
0000
0001
0010
0100
0000
,
1000
0000
0001
1000
0010
0000
1000
0000
,
0001
0000
0100
0000
0010
0000
0100
0100
,
0000
0010
0000
0000
1000
0000
0100
0000
,
1000
0000
0010
0000
1000
0001
1000
0000
,
1001
0000
0000
0000
,
1000
0000
0000
0100
0000
0000
1000
0000
,
0010
0000
1000
0000
0100
0000
0010
0001
,
0010
0000
0000
0001
0000
0000
0100
0000
,
0001
0000
0100
0000
0010
0000
0100
0010
,
0100
0000
0000
0010
0000
0000
1000
0000
,
0100
0000
1000
0000
0001
1000
0001
0000
,
0100
0010
0100
0000
0001
0000
0000
1001
;

//--------------- dance-single - Fred-104 ----------------
#NOTES:
     dance-single:
     Fred-104:
     Medium:
     14:
     :
0000
0000
0000
0000
,
0000
0000
0000
0000
,
0000
0000
0000
0000
,
0000
0000
0000
0000
,
0000
0000
0000
0000
,
0000
0000
0000
0000
,
1000
0100
1000
0010
1000
0100
0010
0200
,
0000
1300
0001
0020
0000
0031
0100
0010
,
0100
0001
0010
0001
1000
0001
0100
0020
,
0000
1030
0010
0100
0001
1000
0010
0000
,
0100
0020
1000
0000
0100
0000
1030
0001
,
0010
0100
0010
0100
1000
0010
0100
0000
,
0001
0001
0100
0010
0100
0010
1000
0100
,
1100
0000
0000
0000
0000
0000
0000
0000
1000
0001
1000
0001
1000
0000
0001
0000
,
1000
0100
0010
0002
0000
0103
0010
2000
,
0000
3001
1000
0200
0000
0310
0001
1000
,
0001
1000
0100
1000
0010
0100
0010
2000
,
0000
3100
0010
0001
1000
0010
1000
0001
,
0200
0010
0001
2300
,
3002
0000
0103
0002
0000
0013
0001
2000
,
0000
3100
0020
0000
0000
0000
0032
0000
,
0203
0000
0300
0220
0000
0330
1001
0000
,
1000
0010
0100
1000
0100
0010
1000
0002
,
0000
0203
0000
2300
0000
3100
0001
1000
,
0001
0010
0100
0001
0100
0010
0001
2000
,
0000
3020
0000
0031
0010
0100
0001
1000
,
0001
0010
0200
0000
0310
0001
1000
0001
,
0200
0000
0301
0200
0000
0310
0100
0002
,
0000
1003
0200
0000
0000
0000
2300
0000
,
3001
0000
0100
0000
0010
0000
1000
0000
0001
1000
0001
1000
0001
0000
0000
0000
,
1000
0000
0000
1000
0010
0000
0100
0000
0000
0100
0001
0000
0010
0000
0000
0010
,
0100
1000
0010
0100
0010
1000
0001
0000
,
1000
0010
1000
0010
0100
0001
0010
0002
,
0000
0103
0010
1000
0100
0010
0001
0000
,
0100
0000
0000
0001
0100
0000
0010
0000
0000
1000
0100
0000
0010
0000
0000
0001
,
1000
0000
0100
0000
1000
0000
0001
0100
0000
0100
0001
0000
0010
0000
0001
0000
,
1000
0001
1000
0001
0010
0100
0010
0200
,
0000
2300
0000
3002
0013
0001
0100
0010
,
1000
0000
0000
0100
1000
0000
0001
0000
0000
0100
0001
0000
0010
0000
0000
0100
,
1000
0000
0010
0000
0100
0000
0001
1000
0000
1000
0001
0000
0010
0000
0010
0000
,
0001
0010
0001
0100
0001
0010
0100
2000
,
0000
3001
1000
0002
0000
0103
0010
0100
,
0001
0000
0000
0010
0100
0000
1000
0000
0000
0001
0100
0000
0010
0000
0000
1000
,
0100
0000
0010
0000
0001
0000
1000
0000
0001
1000
0001
1000
0002
0000
0103
0010
,
0100
0000
0000
0000
,
0001
1000
0001
1000
0001
1000
0001
1000
0001
1000
0001
1000
0001
0000
1000
0000
,
2100
3010
0102
0013
,
2000
0000
3200
0000
0320
0000
2030
3020
,
0000
0032
0000
0000
0103
0010
0100
0000
,
0001
0010
0100
1000
0010
0100
0001
0000
,
1000
0010
1000
0100
2000
0000
3010
0200
,
0000
0302
0000
1003
0100
0010
0100
1000
,
0001
0100
0001
0010
0200
0000
1300
0002
,
0000
0203
0000
0301
0010
0001
1000
0100
,
0210
0301
0210
1300
,
0002
0000
0203
0000
0320
0000
0032
0023
,
0000
2030
0000
0000
3010
0100
0010
0000
,
1000
0100
1000
0010
0100
0001
1000
0100
,
0010
0001
1000
0001
0200
0000
0310
0200
,
0000
0302
0000
0103
0010
1000
0001
0010
,
0100
0000
1000
0000
0010
0000
1000
0000
0001
1000
0001
1000
0001
0000
1000
0000
,
1001
0000
0000
0000
,
1000
0020
0100
0000
1000
0000
0130
0000
,
0201
0000
0010
0000
1000
0000
0302
2003
,
3020
0000
0100
0000
0001
0000
2030
3001
,
1001
0000
0000
0110
,
1010
0000
0000
0000
,
0000
0000
0000
0000
0000
0000
0000
0000
0000
0000
0100
0010
0100
0000
0000
0000
,
0101
0101
0000
0000
0000
0000
0000
0000
,
0000
0000
0000
0000
0000
0000
0000
0000
0000
0000
1000
0001
1000
0000
0000
0000
,
1100
1100
0000
0000
0000
0000
0000
0000
,
0000
0000
0000
0000
0000
0000
0000
0000
0000
0000
0010
0100
0010
0000
0000
0000
,
0011
0011
0000
0000
0000
0000
0000
0000
,
0100
0010
0100
0010
0100
0010
0100
0010
0100
0010
0100
0010
0100
0000
0001
0000
,
0012
0103
2010
3100
,
0002
0000
0203
0000
2300
0000
3002
0023
,
0000
2030
0000
0000
3001
1000
0010
0000
,
1000
0100
0010
0001
0100
0010
0100
0001
,
1000
0010
1000
0100
2000
0000
3001
0200
,
0000
2300
0000
3100
0001
0010
0100
0010
,
0001
0100
0010
0100
0002
0000
1003
0020
,
0000
0230
0000
0310
1000
0001
1001
0000
,
1200
0310
0201
0310
,
2000
0000
3002
0000
0203
0000
2300
3200
,
0000
0320
0000
0000
1030
0001
1000
0000
,
0001
0010
0100
0010
0001
0100
0010
0100
,
0001
0100
1000
0100
0001
0000
1000
0200
,
0000
0320
0000
0031
0100
0010
0100
0001
,
1000
0001
0100
1000
0100
0010
1000
0001
,
1000
0000
0000
0000
0000
0000
0000
0000
0000
0000
0001
1000
0001
0000
0000
0000
,
1000
0010
0100
0010
1000
0001
0100
0000
,
0001
0100
0010
0000
0001
0010
0100
0000
,
0001
0100
0010
0100
0001
1000
0001
0000
,
1000
0100
0010
0000
1000
0010
0100
0000
,
1000
0001
1000
0100
0010
0001
0010
0000
,
0001
1000
0100
0000
1000
0001
0010
0001
,
0100
0001
0010
0001
1000
0010
1000
1010
;

//--------------- dance-single - Fred-104 ----------------
#NOTES:
     dance-single:
     Fred-104:
     Hard:
     17:
     :
0000
0000
0000
0000
,
0000
0000
0000
0000
,
0000
0000
0000
0000
,
0000
0000
0000
0000
,
0000
0000
0000
0000
,
0000
0000
0000
0000
,
0001
0000
0010
0000
0100
0000
0010
0001
0010
0001
0010
0000
0100
0000
0010
0000
,
0001
0000
0010
0000
0100
0000
1000
0010
0100
0010
1000
0100
0010
0000
0100
0000
,
1000
0000
0010
0000
0100
0000
0010
1000
0010
0100
0010
0000
1000
0000
0100
0000
,
0010
0000
0001
0000
0100
0000
0001
0010
0001
0100
0001
0010
0100
0000
1000
0001
,
1000
0000
0010
0000
1000
0000
0100
0010
0001
0100
0001
0000
0100
0000
0010
0000
,
0100
0000
0001
0000
0010
0000
0100
1000
0100
1000
0010
1000
0010
0000
0100
0000
,
0001
0000
0010
0000
0100
0000
0010
0001
0100
0001
0010
0000
0100
0000
1000
0000
,
1001
0000
1001
0000
0000
0000
0000
0000
1000
0010
0100
0001
1000
0000
0001
0000
,
1000
0100
0010
0002
0000
0103
0010
0001
,
0010
0000
2000
0000
0000
0000
3001
0000
0010
0000
0100
1000
0100
0000
1000
0000
,
0001
0010
0100
0001
0100
1000
0001
0020
,
0000
0000
1030
0000
0010
0000
0001
0000
1000
0001
1000
0001
1000
0000
0001
0000
,
0100
0020
1000
0000
0130
0002
2003
0000
,
3002
0000
0103
0020
0000
1030
0010
0100
,
0001
0200
1000
0000
0001
0000
1300
0000
,
0002
0000
0103
0000
1000
0000
0002
0000
0013
0000
1000
0001
1000
0000
0001
1000
,
0100
0010
0001
0100
0010
0001
0010
0200
,
0000
0000
0302
0000
0000
0000
2003
0000
0000
0000
3001
1000
0010
0000
1000
0000
,
0001
0100
0010
0100
1000
0100
0001
2000
,
0000
0000
3020
0000
0000
0000
0230
0000
0301
0000
1000
0001
1000
0000
0001
1000
,
0010
2000
0001
0000
3100
0020
0031
2000
,
3001
0010
1000
0002
0000
0103
1000
0001
,
0100
0000
0020
0000
0001
0000
0000
0000
1030
0001
1000
0000
0010
0000
0100
0000
,
0002
0000
1000
0000
1000
0000
1003
0000
0001
1000
0010
0100
0001
0000
0010
0000
,
0011
0000
0000
0001
0100
0000
0110
0000
0000
0010
1000
0000
1100
0000
0000
0100
,
0010
0000
0001
1000
0010
0000
1000
0001
0010
0000
0100
0000
1000
0010
0100
0000
,
0110
0100
0001
1000
0001
0100
1000
0200
,
0000
0000
0301
0000
0010
0000
0100
0010
0001
0000
1000
0000
0001
0100
0010
0000
,
1010
0000
0000
1000
0010
0000
0110
0000
0000
0100
0001
0000
0101
0000
0000
0001
,
0010
0000
0100
0010
0100
0000
1000
0010
0000
0100
0001
0000
0100
0010
0100
0010
,
0100
0001
0100
0010
0100
1000
0100
0020
,
0000
0000
2030
0000
0000
0000
3002
0000
0013
0000
0001
0000
0100
0010
1000
0000
,
1010
0000
0000
0100
0010
0000
0011
0000
0000
0100
0010
0000
1100
0000
0000
0010
,
0100
0000
0001
0010
0100
0000
1000
0100
0000
0010
0001
0000
1000
0000
0001
0010
,
0001
0010
0100
1000
0001
0100
1000
0200
,
0000
0000
0310
0000
1000
0000
0002
0000
0000
0000
1003
0100
1000
0001
0010
0000
,
0011
0000
0001
0100
0010
0000
1010
0000
1000
0100
0010
0000
0011
0000
0001
1000
,
0001
0000
0100
0010
1000
0000
0100
0000
0010
0001
1000
0001
0200
0000
0301
1000
,
0001
0000
0000
0000
,
1000
0010
1000
0010
0100
0001
0100
0001
1000
0010
0100
0001
1000
0000
0001
0000
,
1000
0000
0100
0000
0010
0000
0001
0100
0001
0010
0001
0000
0100
0000
0010
0000
,
0100
0000
0001
0000
0010
0000
0100
0000
1000
0010
0100
0001
1000
0000
0020
0000
,
0000
0000
0130
0000
0010
0000
1000
0100
0010
0001
0010
0000
0001
0000
0100
0000
,
0001
0000
0100
0000
0001
0000
0010
0100
1000
0010
0100
0001
1000
0000
0001
1000
,
0001
0010
0100
1000
1100
0000
0010
0110
,
0000
0000
0101
0000
0000
0000
0001
0000
1000
0000
0010
1000
0100
0000
0010
0000
,
0100
1000
0001
0100
0101
0000
0100
0110
,
0000
0000
1010
0000
0000
0000
1000
0100
1000
0100
0010
0001
0100
0001
0010
0000
,
0001
0000
0100
0000
0001
0000
0010
0001
0100
0001
1000
0000
0010
0000
0100
0000
,
0010
0000
1000
0000
0100
0000
0010
0000
0100
1000
0010
0100
0001
0000
0200
0000
,
0000
0000
0310
0000
0100
0000
0001
1000
0100
1000
0010
0000
1000
0000
0001
0000
,
0010
0000
0001
0000
1000
0000
0001
0010
0100
1000
0001
0010
0100
1000
0001
0000
,
1000
0010
0100
0010
1010
0000
1000
1100
,
0000
0000
0101
0000
0000
0000
1100
0000
1000
0000
0001
0010
0001
0000
0100
0000
,
0001
0000
0010
0000
0100
0000
1000
0000
0001
0100
0001
0100
0010
0000
1000
0000
,
1001
0000
0002
0000
0000
0000
0103
0010
1000
0010
0100
0010
1000
0000
0000
0000
,
0001
0020
1000
0000
0001
0030
0100
0000
,
2000
0000
0010
0000
0100
0000
3020
2030
,
3001
0200
0010
0000
1000
0300
0002
1003
,
1001
0000
0000
0110
,
1001
1010
0000
0000
0000
0000
0000
0000
,
0000
0000
0000
0000
0000
0000
0000
0000
0000
0000
0001
1000
0001
0100
0010
0000
,
1010
0101
0000
0000
0000
0000
0000
0000
,
0000
0000
0000
0000
0000
0000
0000
0000
0000
0000
1000
0100
0010
0001
1000
0000
,
1100
0011
0000
0000
0000
0000
0000
0000
,
0000
0000
0000
0000
0000
0000
0000
0000
0000
0000
0100
0010
0100
0001
1000
0000
,
1001
1010
0000
0000
0000
0000
0000
0000
,
0001
0100
0001
0100
0010
1000
0100
0010
0100
0010
0001
1000
0010
1000
0001
0100
,
0010
0000
1000
0000
0100
0000
0010
0001
0100
0001
0100
0000
0010
0000
0100
0000
,
0001
0000
0010
0000
0100
0000
1000
0000
0010
1000
0001
0100
0001
0000
0200
0000
,
0000
0000
1300
0000
0100
0000
0010
1000
0001
1000
0001
0000
0100
0000
0010
0000
,
1000
0000
0001
0000
0010
0000
0001
0100
0001
0010
0100
1000
0001
0000
0100
0000
,
0001
0100
1000
0100
0101
0000
0001
0011
,
0000
0000
1001
0000
0000
0000
1000
0010
0100
0000
0010
1000
0100
0000
0010
0000
,
0001
0100
0001
0000
0010
0000
0001
0000
0101
0000
0000
0000
0100
0000
0110
0000
,
0000
0000
1010
0000
0000
0000
1000
0001
0100
0000
0001
1000
0010
1000
0001
1000
,
0010
0000
1000
0000
0100
0000
0010
0000
0001
1000
0001
0100
0001
0000
1000
0000
,
0001
0000
1000
0000
0010
0000
0100
0000
0001
0100
0010
0100
0001
0000
2000
0000
,
0000
0000
3001
0000
0100
0000
0010
1000
0010
0100
0010
0000
1000
0000
0100
0000
,
1000
0000
0010
0000
0100
0000
0001
0100
0010
0100
0001
1000
0001
0000
0010
0000
,
0011
0001
1000
0010
0110
0000
0100
0101
,
0000
0000
1001
0000
0000
0000
0001
0010
0100
0000
0010
0001
0100
0010
1000
0000
,
1010
0000
0010
0000
0100
0001
0010
0001
0100
0010
1000
0001
0010
0100
1000
0010
,
1000
0000
0000
0000
0000
0000
0000
0000
0000
0000
0001
1000
0001
0000
0000
0000
,
1000
0100
0010
1000
0010
0100
1000
0001
,
0100
0000
1000
0000
0100
0000
0010
0000
1000
0000
0001
0100
0010
0000
0100
0000
,
0001
0100
0010
0001
0010
0100
0001
1000
,
0010
0000
0001
0000
0010
0000
0100
0000
0001
1000
0001
1000
0200
0000
0320
0000
,
0031
0000
0100
0000
0010
0000
1000
0001
0100
0001
1000
0000
0100
0000
0010
0000
,
0001
0000
0100
0000
0010
0000
0100
0001
0010
0001
1000
0001
0100
0000
0010
0000
,
1010
0000
1010
0000
1000
0000
0001
0100
0010
0100
0001
0100
0010
0000
1001
0000
;

//--------------- dance-double - Fred-104 ----------------
#NOTES:
     dance-double:
     Fred-104:
     Easy:
     9:
     :
00000000
00000000
00000000
00000000
,
00000000
00000000
00000000
00000000
,
00000000
00000000
00000000
00000000
,
00000000
00000000
00000000
00000000
,
00000000
00000000
00000000
00000000
,
00000000
00000000
00000000
00000000
,
00010000
00000000
00000000
01000000
00000000
00000000
00100000
01000000
,
00000000
00010000
10000000
01000000
,
00100000
00000000
00000000
01000000
00000000
00000000
10000000
00100000
,
00000000
00000000
01000000
00000000
00001000
00010000
00001000
00000000
,
00020000
00030100
00002000
00003100
,
00020000
00000000
00030010
00000000
00002000
00000000
00003010
00010000
,
00001000
00100000
00010000
01000000
,
01100000
00000000
00000000
00000000
10000000
00010000
10000000
00000000
,
00010000
10000000
00000000
10000000
,
01000000
00000000
00100000
00000000
00001000
00010000
00001000
00000000
,
01000000
00001000
00010000
00001000
,
00000100
00000000
00000001
00000000
00001000
00000001
00001000
00000000
,
00000002
00000000
00000103
00000010
,
00001000
00000000
00000010
00000100
00000000
00000010
00001000
00000000
,
00000001
00000010
00001000
00010000
,
00200000
00000000
00000000
20300000
00000000
00000000
30010000
00000000
,
10010000
10000000
00100000
00010000
,
00001000
00010000
00100000
10000000
,
00010000
10000000
01000000
00010000
,
00001000
00000100
00000001
00001000
,
00000020
00000000
00010030
00001000
,
00200000
00000000
00000000
00320000
00000000
00000000
10030000
00000000
,
00010000
01000000
20000000
30000000
,
00100000
00010000
00001000
00000010
,
00000011
00000000
00000000
00000001
00000000
00000000
00000100
00000000
,
00000000
00000010
00000000
00000000
00010000
00000000
00001000
00000000
,
00010000
00001000
00100000
00000000
00010000
00000000
01000000
00000000
,
00010000
10000000
00010000
00000000
01000000
00100000
10000000
00000000
,
10100000
00000000
00000000
10000000
00000000
00000000
01000000
00000000
,
00000000
00100000
00000000
00000000
00001000
00000000
00010000
00000000
,
00000010
00000000
00001000
00000000
00000100
00001000
00000001
00000000
,
00000100
00000010
00000100
00000000
00000001
00001000
00000001
00000000
,
00001001
00000000
00000000
00000100
00000000
00000000
00010000
00000000
,
00000000
01000000
00000000
00000000
10000000
00000000
00010000
00000000
,
01000000
00100000
01000000
00000000
00100000
10000000
00010000
00000000
,
10000000
01000000
00100000
00000000
00010000
10000000
00010000
00000000
,
10010000
00000000
00000000
00100000
00000000
00000000
00001000
00000000
,
00000000
00000010
00000000
00000000
00001000
00010000
00100000
00000000
,
10010000
00000000
00000000
00000000
,
00022000
00000000
00000000
00033000
,
00020000
00030010
00002000
00003010
,
00010000
00000000
00001000
00000000
00010000
00000000
00000100
00001000
,
00000000
00000001
00000000
00000000
00000100
00000000
00000010
00000000
,
00001000
00000000
00010000
00000000
01000000
00100000
01000000
00000000
,
00010000
10000000
00010000
00000000
,
01000000
00001000
00010000
00001000
,
00100000
00010000
10000000
00000000
,
00010000
00000000
10000000
00000000
00010000
01000000
00010000
00000000
,
00100000
00010000
00001000
00010000
,
01000000
00000000
00010000
00000000
00001000
00000000
00010000
00000100
,
00000000
00010000
00001000
00000100
,
00000001
00000000
00001000
00000000
00000001
00000100
00000001
00000000
,
00000100
00001000
00010000
00000000
,
01000000
10000000
00010000
00100000
,
01000000
10000000
00010000
00000000
00100000
00000000
00001000
00000000
,
00011000
00000000
00000000
00000000
,
00020000
00001000
00031000
00010000
,
00000200
00001000
00001300
00000001
,
00000100
00000000
00001000
00000000
00010000
01000000
10000000
00000000
,
10010000
00000000
00000000
00000000
,
10010000
00000000
00000000
00000000
,
00000000
00000000
00000000
00000000
,
01100000
00000000
00000000
00000000
,
00000000
00000000
00000000
00000000
,
00011000
00000000
00000000
00000000
,
00000000
00000000
00000000
00000000
,
00000110
00000000
00000000
00000000
,
00002002
00000000
00000000
00003003
,
00000002
00000103
00002000
00003100
,
00000001
00000000
00000010
00000000
00000100
00000000
00000010
00000001
,
00000000
00001000
00000000
00000000
00000010
00000000
00010000
00000000
,
00001000
00000000
00100000
00000000
00010000
10000000
00010000
00000000
,
01000000
10000000
01000000
00000000
,
00010000
10000000
00100000
00010000
,
00001000
00000010
00000001
00000000
,
00001000
00000000
00000001
00000000
00000010
00000100
00001000
00000000
,
00020000
00031000
00020000
00030010
,
00010000
00000000
00001000
00000000
00100000
00000000
01000000
00100000
,
00000000
10000000
00000000
00000000
00010000
00000000
10000000
00000000
,
01000000
00000000
00100000
00000000
00001000
00010000
00100000
00000000
,
10000000
01000000
00100000
00000000
,
00001000
00010000
00000100
00000010
,
00000001
00000000
00000100
00000000
00001000
00010000
00001000
00000000
,
00011000
00000000
00000000
00000000
,
00010000
00000000
01000000
00100000
00000000
01000000
00100000
00000000
,
10000000
00000000
01000000
00000000
00100000
00010000
00100000
00000000
,
00001000
00000000
00010000
00000000
00000100
00010000
00000100
00000000
,
00001000
00000000
00000001
00000000
00001000
00000010
00001000
00000000
,
00000001
00000000
00000100
00000000
00001000
00010000
01000000
00000000
,
10000000
00000000
00010000
00000000
10000000
00100000
01000000
00000000
,
00100000
00000000
00001000
00000000
00010000
00000000
00000000
00011000
;

//--------------- dance-double - Fred-104 ----------------
#NOTES:
     dance-double:
     Fred-104:
     Medium:
     14:
     :
00000000
00000000
00000000
00000000
,
00000000
00000000
00000000
00000000
,
00000000
00000000
00000000
00000000
,
00000000
00000000
00000000
00000000
,
00000000
00000000
00000000
00000000
,
00000000
00000000
00000000
00000000
,
00010000
00001000
00010000
00001000
00010000
00000100
00010000
00002000
,
00000000
00103000
00010000
20000000
00000000
30010000
10000000
00010000
,
01000000
00010000
01000000
00010000
00100000
01000000
00100000
02000000
,
00000000
13000000
00100000
01000000
00100000
10000000
00010000
00000000
,
01000000
00001000
01000000
00001000
00010000
00001000
01000000
00001000
,
00000000
00010000
00000100
00001000
00000100
00001000
00000001
00000000
,
00000100
00000001
00000100
00000001
00000010
00000001
00001000
00000001
,
00001001
00000000
00000000
00000000
00000000
00000000
00000000
00000000
00000001
00000100
00000001
00000100
00000001
00000000
00001000
00000000
,
00000001
00000010
00000001
00000020
00000000
00001030
00010000
00001000
,
00010000
00200000
00000000
20300000
00000000
30010000
10000000
00010000
,
10000000
01000000
10000000
01000000
00010000
01000000
00010000
00002000
,
00000000
00013000
00001000
00000200
00000000
00000301
00001000
00000001
,
00000010
00000100
00000020
00000000
00000001
00000000
00002030
00000000
,
00003001
00000100
00001000
00020000
00000000
00031000
00010000
01000000
,
10000000
00010000
20000000
00000000
30100000
10000000
01000000
00100000
,
00002000
00000000
00000000
00023000
00000000
00030000
00011000
00000000
,
00010000
00000010
00001000
00000010
00010000
00000010
00001000
00000002
,
00000000
00000023
00000000
00000230
00000000
00010300
00002000
00000000
,
01003000
00001000
00010000
00001000
01000000
00001000
00010000
00002000
,
00000000
00203000
00000000
00301000
00010000
00000010
00001000
00000001
,
00000010
00000001
00002000
00000000
00003010
00010000
00001000
00010000
,
00000100
00010000
00001000
00200000
00000000
00310000
10000000
00010000
,
10000000
00010000
02000000
00000000
00100000
00000000
23000000
00000000
,
30020000
00000000
10030000
01000000
00100000
00001000
00010000
00000000
,
00011000
00000000
00000000
00010000
00001000
00000000
00000100
00000000
00000000
00000100
00000010
00000000
00000001
00000000
00000000
00001000
,
00000001
00000100
00001000
00000100
00000001
00000010
00000100
00000000
,
00010000
01000000
00010000
01000000
10000000
01000000
10000000
02000000
,
00000000
03020000
00000000
00031000
00000100
00000001
00001000
00000000
,
00001001
00000000
00000000
00000001
00000100
00000000
00000010
00000000
00000000
00000010
00001000
00000000
00000100
00000000
00000000
00010000
,
00001000
00000000
00100000
00000000
00010000
00000000
01000000
00100000
00000000
10000000
01000000
00000000
10000000
00000000
00010000
00000000
,
10000000
00100000
10000000
00100000
00010000
00100000
00010000
00200000
,
00000000
00310000
00001000
00000010
00000001
00001000
00000001
00000000
,
00000110
00000000
00000000
00000001
00000100
00000000
00000010
00000000
00000000
00010000
00001000
00000000
00100000
00000000
00000000
01000000
,
10000000
00000000
00010000
00000000
01000000
00000000
00100000
10000000
00000000
00100000
10000000
00000000
01000000
00000000
00100000
00000000
,
00001000
00010000
00100000
10000000
01000000
00010000
00001000
00000020
,
00000000
00000031
00000100
00001000
00010000
00100000
10000000
00000000
,
10010000
00000000
00000000
10000000
01000000
00000000
00100000
00000000
00000000
00001000
00010000
00000000
00000100
00000000
00000000
00000010
,
00000100
00000000
00001000
00000000
00000010
00000000
00000100
00000000
00000001
00001000
00000001
00001000
00000100
00000000
00010000
00000000
,
00011000
00000000
00000000
00000000
,
00010000
10000000
00010000
10000000
00010000
10000000
00010000
10000000
00010000
10000000
00010000
10000000
00010000
00000000
10000000
00000000
,
20010000
31000000
00021000
00030100
,
00002001
00000000
00003100
00000000
00001002
00000000
00000103
00000010
,
00000000
00001000
00000100
00000010
00000001
00000100
00001000
00000000
,
00000100
00000001
00000010
00000100
00000010
00000001
00000000
00000001
,
00000100
00001000
00010000
00001000
00020000
00000000
01030000
20000000
,
00000000
30020000
00000000
10030000
00100000
01000000
00100000
10000000
,
00010000
10000000
00100000
00010000
00002000
00000000
00003010
00000002
,
00000000
00001003
00000001
00000100
00001000
00000100
00000010
00001000
,
00001002
00000013
00012000
00103000
,
20010000
00000000
31000000
00000000
10000000
00010000
01000000
00200000
,
00000000
10300000
02000000
00000000
03100000
00001000
00010000
00001000
,
01000000
00000000
00001000
00010000
00001000
00000100
00000001
00001000
,
00000001
00000010
00000100
00000010
00000002
00000000
00001003
00000020
,
00000000
00010030
00001000
00100000
00010000
10000000
00100000
01000000
,
00010000
00000000
10000000
00000000
01000000
00000000
10000000
00000000
00010000
01000000
00010000
01000000
00010000
00000000
01000000
00000000
,
01100000
00000000
00000000
00000000
,
00010000
02000000
10000000
00000000
00010000
00000000
13000000
00000000
,
01200000
00000000
00001000
00000000
01000000
00000000
00302000
00023000
,
00030020
00000000
00001000
00000000
00000001
00000000
00000230
00000310
,
00000110
00000000
00000000
00001100
,
00001001
00000000
00000000
00000000
,
00000000
00000000
00000000
00000000
00000000
00000000
00000000
00000000
00000000
00000000
00000010
00000100
00000010
00000000
00000000
00000000
,
00011000
00011000
00000000
00000000
00000000
00000000
00000000
00000000
,
00000000
00000000
00000000
00000000
00000000
00000000
00000000
00000000
00000000
00000000
00010000
10000000
00010000
00000000
00000000
00000000
,
01100000
01100000
00000000
00000000
00000000
00000000
00000000
00000000
,
00000000
00000000
00000000
00000000
00000000
00000000
00000000
00000000
00000000
00000000
10000000
01000000
10000000
00000000
00000000
00000000
,
10100000
10100000
00000000
00000000
00000000
00000000
00000000
00000000
,
00010000
00001000
00010000
00001000
00010000
00001000
00010000
00001000
00010000
00001000
00010000
00001000
00010000
00000000
00000100
00000000
,
00002100
00003010
00000102
00000013
,
00002001
00000000
00003100
00000000
00001000
00000010
00000100
00000001
,
00000000
00001000
00000100
00000000
00000001
00000010
00001000
00010000
,
00100000
00000000
10000000
00010000
01000000
00100000
10000000
01000000
,
10000000
00100000
10000000
00100000
00020000
00000000
00031000
00020000
,
00000000
00032000
00000000
00003010
00000001
00000100
00000001
00001000
,
00000001
00000100
00001000
00010000
00002000
00000000
00013000
02000000
,
00000000
13000000
00010000
10000000
00100000
01000000
00010000
00001000
,
00012000
00103000
00021000
00030010
,
00021000
00000000
01000000
00000000
00031000
00010000
00000100
00020000
,
00000000
00031000
00100000
00010000
10000000
00010000
01000000
00000000
,
00010000
01000000
10000000
01000000
00010000
10000000
00010000
00000000
,
10000000
01000000
00100000
00001000
00010000
00000000
00000100
00010000
,
00000000
00001000
00100000
00010000
10000000
00100000
01000000
00010000
,
10000000
01000000
00010000
00001000
00000010
00000001
00000100
00001000
,
00010000
00000000
00000000
00000000
00000000
00000000
00000000
00000000
00000000
00000000
00001000
00010000
00001000
00000000
00000000
00000000
,
00100000
00010000
10000000
00010000
00000000
01000000
00100000
10000000
,
01000000
00100000
00001000
00010000
00100000
10000000
00010000
00000000
,
10000000
01000000
00100000
00010000
00100000
01000000
10000000
00000000
,
00010000
01000000
00001000
00010000
00000100
00001000
00000010
00000000
,
00001000
00000100
00000010
00000001
00001000
00000001
00000100
00000000
,
00001000
00010000
00100000
10000000
00010000
01000000
00100000
00000000
,
10000000
01000000
00100000
00010000
01000000
00001000
00010000
00011000
;

//--------------- dance-double - Fred-104 ----------------
#NOTES:
     dance-double:
     Fred-104:
     Hard:
     17:
     :
00000000
00000000
00000000
00000000
,
00000000
00000000
00000000
00000000
,
00000000
00000000
00000000
00000000
,
00000000
00000000
00000000
00000000
,
00000000
00000000
00000000
00000000
,
00000000
00000000
00000000
00000000
,
00000001
00000000
00000010
00000000
00000100
00000000
00001000
00000010
00001000
00000010
00000100
00000000
00000010
00000000
00001000
00000000
,
00010000
00000000
01000000
00000000
00100000
00000000
01000000
00100000
10000000
00100000
10000000
00000000
00010000
00000000
10000000
00000000
,
00100000
00000000
10000000
00000000
01000000
00000000
00100000
00001000
00100000
00001000
00010000
00000000
00001000
00000000
01000000
00000000
,
00001000
00000000
00010000
00000000
00000100
00000000
00001000
00000010
00000100
00000010
00000100
00000010
00001000
00000000
00000001
00000000
,
00000010
00000000
00000100
00000000
00001000
00000000
00000010
00000100
00000010
00000100
00000010
00000000
00001000
00000000
00000100
00000000
,
00010000
00000000
00001000
00000000
01000000
00000000
00010000
00100000
01000000
00100000
00010000
00000000
01000000
00000000
00100000
00000000
,
10000000
00000000
00010000
00000000
01000000
00000000
00001000
00010000
00100000
00010000
00001000
00000000
00010000
00000000
00001000
00000000
,
00011000
00000000
00011000
00000000
00000000
00000000
00000000
00000000
00010000
00000100
00001000
00000010
00000100
00000000
00000001
00000000
,
00001000
00000100
00000001
00000200
00000000
00001300
00000010
00010000
,
00001000
00000000
00100000
00000000
00010000
00000000
10000000
00000000
00000000
00000000
00010000
01000000
00100000
00000000
00100000
00000000
,
10000000
01000000
00100000
00001000
00010000
00000100
00000010
00000002
,
00000000
00000000
00001003
00000000
00000010
00000000
00000100
00000000
00000001
00000100
00000001
00000100
00000010
00000000
00001000
00000000
,
00000001
00000020
00001000
00000000
00000031
00000020
00000230
00000000
,
00020300
00000000
00031000
00002000
00000000
00103000
00001000
00010000
,
00001000
00200000
00010000
00000000
10000000
00000000
00320000
00000000
,
20030000
00000000
31000000
00000000
00010000
00000000
00002000
00000000
00003010
00000000
00000001
00001000
00000001
00000000
00000100
00000010
,
00001000
00000100
00000010
00000001
00000100
00000010
00000001
00000020
,
00000000
00001030
00000001
00000200
00000000
00000310
00010000
00001000
,
00100000
00010000
01000000
00100000
00001000
00010000
00000100
00000010
,
00000000
00000000
00000001
00000000
00000100
00000000
00001000
00000000
00010000
00000000
00100000
10000000
00010000
00000000
10000000
00100000
,
01000000
00200000
10000000
00000000
01300000
00100000
10000000
00010000
,
00100000
01000000
00100000
00002000
00000000
00013000
00000100
00000010
,
00000001
00000000
00000200
00000000
00001000
00000000
00000000
00000000
00000301
00001000
00000001
00000000
00000010
00000000
00000100
00000000
,
00020000
00000000
00001000
00000000
00001000
00000000
00031000
00000000
00010000
00001000
00100000
00010000
01000000
00000000
00100000
00000000
,
01100000
00000000
00000000
10000000
01000000
00000000
01100000
00000000
00000000
00100000
00001000
00000000
00011000
00000000
00000000
00010000
,
00000100
00000000
00001000
00000010
00000100
00000000
00000010
00001000
00000100
00000000
00000010
00000000
00000001
00001000
00000001
00000000
,
00001001
00001000
00000001
00000100
00001000
00010000
00001000
00020000
,
00000000
00000000
01030000
00000000
10000000
00000000
00010000
01000000
00100000
00000000
01000000
00000000
00001000
00010000
00001000
00000000
,
00011000
00000000
00000000
00010000
00000100
00000000
00000110
00000000
00000000
00000010
00000001
00000000
00001001
00000000
00000000
00000001
,
00000100
00000000
00000010
00001000
00000100
00000000
00000010
00000001
00001000
00000000
00000010
00000000
00010000
00001000
00010000
00001000
,
00100000
00001000
00010000
00000010
00001000
00000010
00010000
00002000
,
00000000
00000000
00203000
00000000
00000000
00000000
00320000
00000000
01030000
00000000
00100000
00000000
01000000
00001000
00010000
00000000
,
00011000
00000000
00000000
00001000
00100000
00000000
00110000
00000000
00000000
01000000
00100000
00000000
10100000
00000000
00000000
10000000
,
01000000
00000000
00100000
00010000
10000000
00000000
00100000
10000000
00000000
01000000
00100000
00000000
00001000
00000000
00010000
00001000
,
00010000
00000100
00000010
00000001
00001000
00000001
00000100
00002000
,
00000000
00000000
00013000
00000000
01000000
00000000
20000000
00000000
00000000
00000000
30010000
01000000
00010000
00000000
01000000
00000000
,
01100000
00000000
00000000
00100000
10000000
00000000
11000000
00000000
00000000
01000000
00100000
00000000
00101000
00000000
00000000
00001000
,
00010000
00000000
00000100
00001000
00000001
00000000
00000100
00000000
00000010
00001000
00000010
00001000
00000020
00000000
00000130
00000001
,
00001000
00000000
00000000
00000000
,
00000010
00010000
00000010
00010000
00001000
00100000
00001000
00100000
00010000
01000000
00010000
01000000
00100000
00000000
10000000
00000000
,
00010000
00000000
01000000
00000000
10000000
00000000
01000000
00100000
01000000
00100000
10000000
00000000
01000000
00000000
00100000
00000000
,
00001000
00000000
00010000
00000000
00000100
00000000
00010000
00000000
00001000
00010000
00001000
00010000
00000010
00000000
00002000
00000000
,
00000000
00000000
00003001
00000000
00000100
00000000
00000010
00001000
00000001
00000010
00000100
00000000
00000010
00000000
00000001
00000000
,
00001000
00000000
00000010
00000000
00010000
00000000
00001000
00010000
00000100
00000000
00001000
00000010
00000100
00000000
00000001
00000000
,
00000100
00000001
00000010
00000100
00001000
00000010
00000100
00000020
,
00000000
00000000
00020030
00000000
00000000
00000000
00031000
00100000
00010000
00000000
10000000
00010000
01000000
00000000
00100000
00000000
,
01000000
00100000
10000000
01000000
00100000
00001000
00010000
00200000
,
00000000
00000000
10300000
00000000
01000000
00000000
00100000
00000000
00001000
00010000
00001000
00010000
00001000
01000000
00001000
00000000
,
00010000
00000000
00001000
00000000
00100000
00000000
00010000
10000000
00010000
10000000
01000000
00000000
00100000
00000000
01000000
00000000
,
10000000
00000000
00100000
00000000
01000000
00000000
00100000
00000000
01000000
00010000
01000000
00010000
00100000
00000000
02000000
00000000
,
00000000
00000000
03100000
00000000
00001000
00000000
00010000
00000100
00010000
00000100
00001000
00000000
00000010
00000000
00000100
00000000
,
00000001
00000000
00000100
00000000
00001000
00000000
00010000
00001000
00010000
00000000
01000000
10000000
00010000
00000000
01000000
00000000
,
00100000
10000000
01000000
00100000
01000000
10000000
00100000
00020000
,
00000000
00000000
00031000
00000000
00000010
00000000
00000001
00000000
00001000
00000000
00000001
00000100
00000001
00000000
00000010
00000000
,
00000100
00000000
00001000
00000000
00000010
00000000
00000100
00000000
00000001
00001000
00000001
00001000
00000001
00000000
00000100
00000000
,
00000110
00000000
00000020
00000000
00000000
00000000
00010030
00000010
00001000
00000010
00010000
00001000
00010000
00000000
00000000
00000000
,
00001000
00010000
00002000
00000000
01000000
00000000
00003010
00000000
,
00020000
00000000
00001000
00000000
01000000
00000000
00031000
00020000
,
00000100
00000000
01000000
00000000
00031000
00000000
00020000
00031000
,
00011000
00000000
00000000
00101000
,
00011000
00010010
00000000
00000000
00000000
00000000
00000000
00000000
,
00000000
00000000
00000000
00000000
00000000
00000000
00000000
00000000
00000000
00000000
00000001
00000010
00000100
00001000
00000001
00000000
,
00000101
00001001
00000000
00000000
00000000
00000000
00000000
00000000
,
00000000
00000000
00000000
00000000
00000000
00000000
00000000
00000000
00000000
00000000
00010000
00001000
00100000
00001000
00010000
00000000
,
00011000
01001000
00000000
00000000
00000000
00000000
00000000
00000000
,
00000000
00000000
00000000
00000000
00000000
00000000
00000000
00000000
00000000
00000000
01000000
00100000
10000000
00100000
01000000
00000000
,
01100000
10010000
00000000
00000000
00000000
00000000
00000000
00000000
,
10000000
00100000
10000000
00100000
01000000
00010000
10000000
00010000
00100000
00001000
00010000
00001000
00000010
00000000
00001000
00000000
,
00000001
00000000
00000100
00000000
00000010
00000000
00001000
00000010
00000100
00000001
00001000
00000000
00000100
00000000
00000010
00000000
,
00000001
00000000
00000100
00000000
00001000
00000000
00010000
00000000
01000000
10000000
01000000
10000000
00010000
00000000
02000000
00000000
,
00000000
00000000
03100000
00000000
10000000
00000000
01000000
10000000
00100000
10000000
01000000
00000000
00100000
00000000
01000000
00000000
,
10000000
00000000
00100000
00000000
00010000
00000000
00001000
00000010
00001000
00000000
00000010
00000001
00001000
00000000
00000001
00000000
,
00000100
00000000
00000001
00000010
00000100
00000000
00000010
00000000
00000011
00000000
00000000
00000000
00000101
00000000
00001100
00000000
,
00000000
00000000
00011000
00000000
00000000
00000000
01010000
00000000
01000000
00000000
10000000
00010000
01000000
00000000
00100000
00000000
,
10000000
00000000
00100000
10000000
01000000
00000000
00100000
00000000
00110000
00000000
00000000
00000000
01001000
00000000
00011000
00000000
,
00000000
00000000
00010100
00000000
00000000
00000000
00001100
00000000
00001000
00000000
00000010
00001000
00000100
00000010
00000001
00000000
,
00001000
00000000
00000010
00000000
00010000
00000000
00001000
00010000
00000100
00010000
00001000
00000000
00100000
00000000
00001000
00000000
,
00010000
00000000
00001000
00000000
00100000
00000000
00010000
00000000
10000000
00100000
01000000
00010000
00100000
00000000
02000000
00000000
,
00000000
00000000
03100000
00000000
00010000
00000000
10000000
01000000
00100000
00010000
00100000
00000000
00001000
00000000
00010000
00000000
,
00000010
00000000
00001000
00000000
00000001
00000000
00000100
00001000
00000100
00000000
00000010
00001000
00000001
00000000
00001000
00000000
,
00000010
00000000
00010000
00001000
00010000
00000000
00001000
00000000
00101000
00000000
00000000
00000000
00110000
00000000
10010000
00000000
,
00000000
00000000
10100000
00000000
00000000
00000000
10000000
01000000
00010000
00000000
00001000
00000100
00000001
00000000
00001000
00000000
,
00001001
00000000
00000001
00000000
00000100
00000001
00000010
00000001
00001000
00000010
00001000
00000100
00010000
00000000
00001000
00000000
,
00011000
00000000
00000000
00000000
00000000
00000000
00000000
00000000
00000000
00000000
00100000
00010000
10000000
00000000
00000000
00000000
,
00010000
00100000
01000000
00010000
01000000
00100000
00010000
10000000
,
00100000
00000000
01000000
00000000
00010000
00000000
10000000
00000000
01000000
00000000
00010000
00001000
00010000
00000000
00001000
00000000
,
00000010
00000001
00001000
00000001
00000100
00000010
00001000
00000001
,
00000010
00000000
00000100
00000000
00000001
00000000
00000100
00000000
00000010
00000001
00000010
00000001
00002000
00000000
00003020
00000000
,
00010030
00000000
00001000
00000000
00100000
00000000
00001000
00010000
00000010
00001000
00000100
00000000
00010000
00000000
00001000
00000000
,
01000000
00000000
00010000
00000000
00100000
00000000
01000000
00100000
00010000
00100000
00010000
10000000
00010000
00000000
01000000
00000000
,
01100000
00000000
01100000
00000000
00100000
00000000
10000000
01000000
00100000
00010000
00100000
00001000
00010000
00000000
00011000
00000000
;
