#VERSION:0.83;
#TITLE:∀;
#ARTIST:BEMANI Sound Team "HuΣeR" respect for D.J.Amuro;
#TITLETRANSLIT:Turn A;
#ARTISTTRANSLIT:HuMeR respect for D.J.Amuro;
#GENRE:RENAISSANCE;
#BANNER:Turn A.png;
#BACKGROUND:Turn A-bg.png;
#CDTITLE:./CDTitles/bm IIDX 28 BISTROVER.png;
#MUSIC:Turn A.ogg;
#SAMPLESTART:90.654;
#SAMPLELENGTH:15;
#BPMS:0=180;

//--------------- dance-single - Fred-104 ----------------
#NOTEDATA:;
#STEPSTYPE:dance-single;
#DESCRIPTION:Fred-104;
#DIFFICULTY:Beginner;
#METER:4;
#CREDIT:Fred-104;
#NOTES:
0000
0000
0000
0000
,
0000
0000
0000
0000
,
0000
0000
0000
0000
,
0000
0000
0000
0000
,
0000
0000
0000
0000
,
0000
0000
0000
0000
,
0000
0000
0000
0000
,
0000
0000
0000
0000
,
0000
0000
0000
0000
,
0000
0000
0000
0000
,
0000
0000
0000
0000
,
0000
0000
0000
0000
,
0001
0000
1000
0000
,
0010
0000
0000
0000
,
1000
0000
0001
0000
,
0010
0000
0000
0000
,
0100
0000
0100
0000
,
1000
0000
1000
0000
,
0001
0000
0001
0000
,
1001
0000
0000
0000
,
1000
0000
1000
0000
,
0001
0000
0100
0000
,
0010
0000
0100
0000
,
1000
0000
0100
0000
,
0001
0000
0001
0000
,
1000
0000
1000
0000
,
0001
0000
0001
0000
,
1001
0000
0000
0000
,
1000
0000
0010
0000
,
0001
0000
0001
0000
,
0010
0000
0010
0000
,
1000
0000
1000
0000
,
0001
0000
0001
0000
,
1000
0000
1000
0000
,
0100
0000
0100
0000
,
0010
0000
0010
0000
,
0001
0000
0001
0000
,
1000
0000
1000
0000
,
0001
0000
0100
0000
,
1000
0000
0100
0000
,
0001
0000
0001
0000
,
1000
0000
1000
0000
,
0001
0000
0001
0000
,
1000
1000
1000
1000
,
2000
0000
0000
0000
,
0000
0000
3000
0000
,
0002
0000
0000
0000
,
0000
0000
0003
0000
,
2000
0000
0000
3000
,
0002
0000
0000
0003
,
2000
0000
0000
3000
,
0002
0000
0000
0003
,
1000
0000
0001
0000
,
0010
0000
0010
0000
,
0100
0000
0001
0000
,
0100
0000
0100
0000
,
1000
0000
1000
0000
,
0001
0000
0001
0000
,
1000
0000
1000
0000
,
0001
0001
0001
0001
,
1001
0000
1000
0000
,
0001
0000
0100
0000
,
0010
0000
0100
0000
,
0001
0000
1000
0000
,
0001
0000
1000
0000
,
0100
0000
0010
0000
,
0100
0000
0010
0000
,
0001
0000
0001
0001
,
1001
0000
1000
0000
,
0001
0000
0100
0000
,
0010
0000
0100
0000
,
0001
0000
1000
0000
,
0001
0000
0010
0000
,
0100
0000
1000
0000
,
0001
0000
1000
0000
,
0100
0100
0100
0100
,
0200
0300
0010
0000
,
0002
0003
1000
0000
,
0001
0000
1000
0000
,
0001
0001
0001
0000
,
2000
3000
0010
0000
,
0002
0003
0100
0000
,
1000
0000
1000
0000
,
0001
0001
0001
0000
,
2000
0000
0000
3000
,
0002
0000
0000
0003
,
2002
0000
0000
0000
,
0000
0000
0000
0000
,
3003
0000
0000
0000
;

//--------------- dance-single - Fred-104 ----------------
#NOTEDATA:;
#STEPSTYPE:dance-single;
#DESCRIPTION:Fred-104;
#DIFFICULTY:Easy;
#METER:9;
#CREDIT:Fred-104;
#NOTES:
0000
0000
0000
0000
,
0000
0000
0000
0000
,
0000
0000
0000
0000
,
0000
0000
0000
0000
,
0000
0000
0000
0000
,
0000
0000
0000
0000
,
0000
0000
0000
0000
,
0000
0000
0000
0000
,
0000
0000
0000
0000
,
0000
0000
0000
0000
,
0000
0000
0000
0000
,
0000
0000
0000
0000
,
0001
0100
0001
0010
,
0001
0000
0000
1000
0000
0001
0000
0001
,
0000
0001
0100
0000
0010
0000
0000
0010
,
0100
0000
0001
1000
,
0002
0003
0010
0100
,
2000
3000
0010
0100
,
0001
0001
1000
1000
,
0100
0010
0100
0000
0010
0001
0010
0000
,
1001
0000
1000
1000
,
0001
0000
0000
0100
0000
0100
0000
0100
,
0000
0100
0010
0000
0100
0100
0000
0001
,
0001
1000
0100
0010
,
0011
0000
0001
0000
,
1000
0000
0010
0000
,
0100
0100
0001
0001
,
1000
1000
0001
1000
,
2002
3003
1000
1000
,
0001
0001
0001
0000
0011
0000
0000
0000
,
1010
0000
0011
0001
,
1000
0000
0001
0000
0100
0010
0100
0000
,
0110
0000
0101
0000
,
0001
1000
1100
0000
,
0100
0100
0010
0010
,
0001
0000
1000
0001
0000
1000
0001
0000
,
2002
3003
1001
0000
,
0001
0100
0110
0000
,
1000
0100
0110
0000
,
0010
0000
0001
0000
1000
0001
1000
0000
,
0001
0100
1100
0000
,
1000
0100
0101
0001
,
1000
0000
0001
0100
,
0010
0000
0010
0000
0100
0010
0100
0010
,
2000
0000
0000
0000
,
0000
0000
0000
3000
,
0002
0000
0000
0000
,
0000
0000
0000
0003
,
2000
0000
0000
3000
,
0002
0000
0000
0003
,
0200
0300
0020
0030
,
0100
0100
0010
0010
,
1001
1000
0100
0010
,
0001
1000
0010
1000
,
0001
0001
0010
0100
,
0010
0001
0010
0001
2000
0000
3000
0000
,
1001
0000
0110
0000
,
0110
0000
1001
0000
,
0001
0100
0001
0000
1000
0010
1000
0000
,
0100
0000
0100
0000
0010
0001
0010
0000
,
2002
3003
0001
1000
,
1000
0010
0100
1000
,
0100
0000
0010
0000
,
0100
0000
0100
0000
0001
0000
1000
1000
,
0001
0000
0001
0010
,
0100
0100
0001
0100
,
2000
3000
0002
0003
,
1000
1000
0001
0001
,
1000
1000
1000
0000
0100
0000
0010
0000
,
0001
1000
0001
0000
1000
0010
1000
0000
,
0001
0100
0001
0000
1000
0100
1000
0000
,
0001
0100
0010
0000
1000
0010
0100
0000
,
0001
1000
0100
1000
,
0001
0100
1000
0100
,
0101
0001
1000
0100
,
0110
0010
0001
1000
,
0002
0000
1003
0100
1000
0000
0001
0000
,
2000
0000
3001
0100
0001
0000
1000
0000
,
0200
0000
0320
0000
0032
0000
0103
0010
,
0200
0000
0310
0000
1000
0001
1000
0000
,
0002
0000
0013
0100
1000
0000
0110
0000
,
2000
0000
3010
0100
0001
0000
0110
0000
,
0001
0100
0001
0000
1000
0100
1000
0000
,
0001
0010
0001
1000
0010
1000
0001
0000
,
2000
0000
3002
0000
,
1003
0001
1000
0001
1000
0001
1000
0001
,
2002
0000
0000
0000
,
0000
0000
0000
0000
,
3003
0000
0000
0000
;

//--------------- dance-single - Fred-104 ----------------
#NOTEDATA:;
#STEPSTYPE:dance-single;
#DESCRIPTION:Fred-104;
#DIFFICULTY:Medium;
#METER:13;
#BPMS:0=90,40=180,72=90,84=180,92=90,104=180,272=90;
#CREDIT:Fred-104;
#NOTES:
0000
0000
0000
0000
,
0000
0000
0000
0000
,
0000
0000
0000
0000
,
0000
0000
0000
0000
,
0000
0000
0000
0000
,
0000
0000
0000
0000
,
1000
0000
0010
0000
0100
0000
0100
0000
0001
0000
1000
0001
0000
1000
0010
1000
,
0000
0001
0010
0000
0100
0000
1000
0000
0001
0000
0100
0000
0010
0000
0110
0000
,
1001
0000
0000
0000
1000
0100
0010
0000
1001
0000
0000
0000
0001
0100
0010
0000
,
1001
0000
0000
0000
1000
0001
0010
0000
0100
1000
0000
0001
1000
0000
0010
1000
,
2002
3003
0000
0000
0000
0000
0000
0000
0000
0000
0000
0000
0000
0000
0000
0000
0001
0000
0000
0000
0000
0000
0000
0000
0010
0000
0000
0000
0000
0000
0000
0000
0100
0000
0000
0000
0000
0000
0000
0000
0010
0000
0000
0000
0000
0000
0000
0000
0100
0000
0000
0000
0000
0000
0000
0000
0100
0000
0000
0000
0000
0000
0000
0000
,
1000
0000
0001
0100
0000
0001
1000
0100
,
0000
0010
0100
0000
0010
0001
0000
1000
,
0001
0100
1000
0001
0010
1000
0001
0000
,
0010
0100
0010
0100
1000
0001
1000
0001
,
0100
0010
0100
0010
1000
0001
0010
0100
,
2000
3002
0203
0320
,
0130
0000
0100
0000
0100
0000
0001
1000
,
2002
0000
3003
0000
0001
0000
0010
0000
0100
0000
0100
0000
1000
0001
1000
0000
,
1010
0000
0000
0000
0101
0000
0000
0000
1000
0000
0100
0000
0010
0001
0010
0001
,
0010
0000
1001
0000
0001
0100
1000
0100
,
0002
0000
1003
0100
0010
0001
1000
0001
,
1000
0100
0001
0100
0000
0100
1000
0001
,
0200
0000
0300
0000
0110
0000
0010
0000
1000
0100
0010
0001
1000
0000
1001
0000
,
0001
0000
0100
0000
0010
0000
0100
0000
0010
1000
0010
1000
0001
1000
0100
0010
,
0001
0000
1000
0000
1001
0000
0001
0000
0100
0010
1000
0010
1000
0010
0100
0001
,
2000
0000
3100
0010
0001
1000
0001
0000
,
0011
1010
1100
0101
,
1002
0000
0000
0000
,
0000
0000
0000
0000
,
2003
0000
0000
0000
,
0000
0000
0000
0000
,
3200
0000
0320
0000
,
0032
0000
2003
0000
,
3020
0000
0230
0000
,
0301
1000
0010
1000
0001
0010
0110
0000
,
1000
0100
1000
0100
0010
0001
0010
0001
,
1000
0010
1000
0001
0010
0100
1000
0000
,
0001
0100
0010
0100
0001
0100
0010
1000
,
0001
1000
0100
0010
0001
0010
0100
0000
,
1000
1000
0001
0100
0010
0010
1000
0001
,
0010
0010
0100
1000
0001
0001
0100
0010
,
0100
0001
1000
0001
0100
0001
1000
0100
,
0010
0000
0010
0000
0011
0000
0001
1000
,
0001
0000
1001
0000
1000
0001
0100
0000
,
0010
1000
0100
1000
0010
0100
0001
1000
,
0001
0010
0100
1000
0100
0010
0001
1000
,
0001
0000
0000
0001
0100
0000
0010
0000
0100
0000
0100
0000
0001
1000
0000
1000
,
0001
0000
1000
0100
0010
0001
1000
0010
,
0100
0010
1000
0001
0010
0100
0010
0001
,
0100
0010
1000
0001
0010
0100
1000
0001
,
0100
0000
0010
0000
0100
0000
0000
0000
0010
0000
1000
0000
0010
1000
0000
1000
,
0001
0001
1001
0000
1000
0100
0010
0001
,
0100
0010
1000
0001
0010
0100
1000
0010
,
0100
0001
1000
0001
0010
0100
1000
0001
,
0100
1000
0100
0010
0100
1000
0100
0001
,
1000
0100
0010
0001
1000
0010
1000
0001
,
0010
0100
1000
0100
0010
0001
1000
0010
,
0100
0001
1000
0001
0010
0001
1000
0010
,
0100
0000
0010
0000
0100
0000
0010
0000
0110
0000
0000
0000
0001
1000
0000
1000
,
0002
0000
1003
0100
0001
1000
0010
0001
,
2000
0000
3001
0100
1000
0001
0010
1000
,
0001
0010
0100
1000
0100
0010
0001
0000
,
1001
0000
0000
1000
0010
0000
0100
0000
0001
0000
1000
0000
0001
1000
0000
1000
,
0002
0000
1003
0010
0001
1000
0100
0001
,
0020
0000
0130
1000
0001
0100
0010
1000
,
0100
0010
0100
0010
0001
1000
0001
1000
,
0010
0100
0001
1000
0100
0010
0001
0000
,
2000
0000
0000
0000
3002
0000
0000
0000
1003
0100
0010
0001
0100
0010
1000
0001
,
2002
0000
0000
0000
,
3003
0000
0000
0000
;

//--------------- dance-single - Fred-104 ----------------
#NOTEDATA:;
#STEPSTYPE:dance-single;
#DESCRIPTION:Fred-104;
#DIFFICULTY:Hard;
#METER:16;
#DISPLAYBPM:90:180;
#BPMS:0=90,40=180,72=90,84=180,92=90,104=180,176=270,176.375=225,176.6875=135,176.875=90,177=180,272=90;
#CREDIT:Fred-104;
#NOTES:
0000
0000
0000
0000
,
0000
0000
0000
0000
,
0000
0000
0000
0000
,
0000
0000
0000
0000
,
0000
0000
0000
0000
,
0000
0000
0000
0000
,
0001
0000
0010
0000
0100
0100
1000
0000
0001
1000
0010
0000
1000
0001
0010
0010
,
0100
0000
1000
1000
0010
0000
0100
0100
0001
0010
0010
1000
0010
0010
0001
0100
,
0110
0000
1000
0001
0010
0010
0100
0000
0110
0000
0001
1000
0010
0010
0100
0000
,
1001
0000
0001
0000
0010
1000
0010
0100
0010
0001
0001
0100
0001
0001
0010
0100
,
2200
3300
0000
0000
0000
0000
0000
0000
0000
0000
0000
0000
0000
0000
0000
0000
0001
0000
0000
0000
0000
0000
0000
0000
0100
0000
0000
0000
0000
0000
0000
0000
0010
0000
0000
0000
0000
0000
0000
0000
0010
0000
0000
0000
0000
0000
0000
0000
0000
0000
0000
0000
0000
0000
0000
0000
1000
0000
0000
0000
0001
0000
0000
0000
,
1000
0100
0001
1000
0010
0100
0010
0001
,
0000
0000
1000
0000
0010
0000
0001
0000
1000
0000
0100
0000
0000
0000
0001
1000
,
0001
0100
0010
1000
0100
0010
1001
0000
,
0001
0010
0001
0010
0100
1000
0100
1000
,
0001
0100
0001
0100
0010
1000
0010
1000
,
0100
0010
0100
0010
0100
0010
0100
0010
0001
1000
0001
1000
0001
1000
0001
1000
,
0001
0000
0000
0000
0001
0000
0000
0000
0001
0000
0000
0000
1000
0001
1000
0001
,
2000
0000
0000
0000
0000
0000
3000
0000
1001
0000
0001
0000
0010
0000
0010
0000
0100
1000
0000
1000
0100
1000
0000
1000
0200
0000
0320
0000
0032
0000
1003
0010
,
1000
0000
0000
0000
0001
0000
0010
0000
0110
0000
0000
0000
1000
0100
1000
0000
1002
0000
0000
0000
2003
0000
0010
0000
3020
0000
0100
0000
0130
0001
0100
0000
,
0101
0000
0000
0000
0001
1000
0001
0000
0011
0000
0010
0100
0000
0010
0100
0000
1000
0001
0000
0001
1000
0001
0000
0001
0100
0000
0010
0000
0200
0000
0000
0000
,
0302
0003
0000
0000
0000
0000
0000
0000
0000
0000
0000
0000
0000
0000
0000
0000
1001
0000
0000
0000
0000
0000
0000
0000
1000
0000
0000
0000
0000
0000
0000
0000
0100
0000
0000
0000
0000
0000
0000
0000
0001
0000
0000
0000
0000
0000
0000
0000
1000
0000
0000
0000
0000
0000
0000
0000
0010
0000
0000
0000
0000
0000
0000
0000
,
0001
0000
1000
0000
0010
0000
1000
0000
0000
0000
1000
0000
0100
0010
0100
0010
,
0002
0000
0000
0000
1000
0000
0003
0000
1001
0000
0001
0000
1000
0000
0100
0000
0010
0100
0010
0100
0010
0100
0010
0100
0010
0000
0001
0000
0100
0000
0010
0000
,
1000
0000
0100
0000
0010
0000
0001
0000
0010
0000
0100
0000
1000
0000
0001
0000
0200
0000
2300
0000
3200
0000
0302
0000
0013
0100
0010
0100
0010
0100
0010
0100
,
0010
0000
0000
0000
0001
1000
0001
1000
0100
0000
0010
0001
0010
0000
0001
0000
1000
0010
1000
0010
1000
0010
1000
0010
0100
0001
0100
0001
0100
0000
0001
0000
,
2002
3003
0000
0000
0000
0000
0000
0000
0000
0000
0000
0000
0000
0000
0000
0000
1100
0000
0000
0000
0000
0000
0000
0000
1000
0000
0000
0000
0000
0000
0000
0000
0001
0000
0000
0000
0000
0000
0000
0000
0100
0000
0000
0000
0000
0000
0000
0000
0010
0000
0000
0000
0000
0000
0000
0000
1000
0000
0000
0000
0000
0000
0000
0000
,
1001
0000
1000
0000
1100
0000
0100
0000
0110
0000
0010
0000
0001
1000
0001
1000
,
0002
0000
0000
0000
,
0000
0000
0000
0000
0000
0000
0000
0000
0000
0000
0000
0000
0000
0000
0013
0100
,
2000
0000
0000
0000
,
0000
0000
0000
0000
0000
0000
0000
0000
0000
0000
0000
0000
0000
0000
3010
0100
,
0020
0000
0000
0100
0000
0000
0100
0000
0000
0100
0000
0000
0130
0000
0001
0000
,
0200
0000
0000
0010
0000
0000
0010
0000
0000
0010
0000
0000
0310
0000
1000
0000
,
0001
0010
0001
1000
0010
0100
0001
1000
,
0100
0110
0010
0001
1001
1000
0010
0110
,
0100
0000
0001
0000
0010
0100
1000
0000
0001
0000
0100
0000
0001
1000
0001
0000
,
0010
0000
0100
1000
0001
0000
0010
0100
1000
0000
0001
0010
0100
0000
1000
0001
,
1000
0001
0100
0010
0100
1000
0100
0010
,
1000
0000
0100
0000
0001
0000
1000
0010
1000
0010
0100
0000
1000
0000
0001
0000
,
0011
0010
0100
1000
1001
0001
0100
0010
,
1010
1000
0001
0010
0110
0100
1000
0001
,
0100
0001
0100
0001
0100
0001
0100
0001
1000
0010
1000
0010
1000
0001
0010
0100
,
1000
0000
0000
0000
1000
0000
0000
0000
1001
0000
0000
0000
1000
0001
1000
0001
,
2000
0000
0000
0000
0000
0000
0000
0000
0000
0000
0000
0000
0000
0000
0000
0000
3200
0300
0000
0000
0000
0000
0000
0000
0010
0000
0000
0000
0000
0000
0000
0000
0001
0000
0000
0000
0000
0000
0000
0000
1000
0000
0000
0000
0000
0000
0000
0000
0010
0000
0000
0000
0000
0000
0000
0000
1000
0000
0000
0000
0000
0000
0000
0000
,
0001
0000
0010
0000
0100
0000
0001
0000
1000
0000
0010
0000
0001
0000
1000
0001
,
0010
0100
1000
0010
0100
1000
0001
0010
,
0100
0000
0001
1000
0001
0000
0010
0000
0100
0000
1000
0000
0001
1000
0000
1000
,
0010
1000
0001
0010
0100
1000
0001
0100
,
0010
1000
0010
0100
0010
0000
0001
0000
2000
0000
3200
0000
0320
0000
2030
0000
,
3001
0100
0001
0010
0200
2300
3002
2003
,
3010
0000
1000
0000
0001
0000
1000
0000
0100
0000
0010
0000
0001
0010
0000
0010
,
0001
0000
0001
0000
1001
0000
0000
0000
1000
0100
1000
0100
0010
0000
0001
0000
,
1000
0010
1000
0010
0100
0000
0001
0000
1000
0001
1000
0001
0010
0000
0100
0000
,
1000
0100
0010
0000
0001
0100
0010
0000
1000
0010
0100
0000
0001
0010
0100
0000
,
1000
0001
0100
0000
0001
1000
0100
0000
0010
0001
1000
0010
1000
0001
0010
0001
,
1000
0010
0001
0010
0100
1000
0100
0001
,
0010
0000
0100
0000
0001
0000
0100
0000
0010
0001
0010
0000
0100
1000
0100
0000
,
0010
0000
0001
0000
1000
0000
0001
0000
0100
0001
0100
0000
0010
1000
0010
0000
,
0100
0000
0100
0000
0010
0000
0010
0000
0110
0000
0000
0001
1000
0001
0000
0001
,
2000
0000
0000
0000
3001
0010
0001
0010
0100
1000
0100
1000
0001
1000
0001
1000
,
0002
0000
0000
0000
1003
0010
1000
0010
0100
0001
0100
0001
1000
0001
1000
0001
,
1000
0100
0010
1000
0001
0100
0010
0001
,
1001
0000
0000
1000
0010
0000
0100
0000
1100
0000
0100
0000
0001
1000
0001
1000
,
0002
0000
0000
0000
1003
0100
1000
0100
0010
0001
0010
0001
1000
0001
1000
0001
,
0020
0000
0000
0000
0130
1000
0100
1000
0001
0010
0001
0010
0001
1000
0001
1000
,
0010
1000
0010
0000
0100
0001
0100
0000
0001
0010
0001
0000
1000
0100
1000
0000
,
1001
0000
0001
0000
0101
0000
0100
0000
0110
0000
0010
0000
1000
0001
1000
0000
,
0002
0003
0000
0000
0010
0000
0000
0000
0010
0000
0000
0000
0100
0000
0000
0000
1000
0000
0000
0000
0010
0000
0000
0000
0010
0000
0000
0000
0100
0000
0000
0000
0001
0000
0100
0000
0001
0000
0100
0000
0001
0000
0100
0000
0001
0000
0100
0000
0001
0000
1000
0000
0001
0000
1000
0000
0001
0000
1000
0000
0001
0000
1000
0000
,
0002
0000
0000
0000
,
0003
0000
0000
0000
;

//--------------- dance-single - Fred-104† ----------------
#NOTEDATA:;
#STEPSTYPE:dance-single;
#DESCRIPTION:Fred-104†;
#DIFFICULTY:Challenge;
#METER:18;
#DISPLAYBPM:90:180;
#BPMS:0=90,40=180,72=90,84=180,92=90,104=180,176=360,176.5=180,176.75=90,177=180,272=90;
#CREDIT:Fred-104†;
#NOTES:
0000
0000
0000
0000
,
0000
0000
0000
0000
,
0000
0000
0000
0000
,
0000
0000
0000
0000
,
0000
0000
0000
0000
,
0000
0000
0000
0000
,
1000
0000
0100
0000
0110
0010
0001
0000
1000
0000
0001
0100
0000
0010
1000
0010
,
0100
0100
0110
0000
0010
0001
0000
0010
1000
0001
0020
1030
0002
0103
2000
3001
,
1001
0000
0002
1003
1100
0100
0020
0030
0011
0000
0002
0103
0210
0310
2000
3000
,
0001
0000
0000
0000
0020
0000
0030
1000
0010
1000
0010
0000
0200
0000
0300
0000
0010
0000
0011
0000
0002
0000
1003
0000
2001
0000
3001
0000
0200
0300
0110
0000
,
1010
0000
0000
0000
0010
1000
0001
0000
0011
0000
0110
0000
0100
0000
1000
0001
,
1000
0000
0010
0100
0000
0100
0001
1000
,
0000
0000
0100
0000
0001
0000
0100
0000
0010
0000
1000
0000
0000
0000
0010
0001
,
0010
0001
0100
1000
0001
0010
1000
0000
,
1001
0001
0100
0100
0010
0010
1000
1000
,
0100
0100
0010
0010
0001
0001
1000
1000
,
0001
0010
0100
1000
0001
0010
0100
1000
0001
0100
0010
1000
0010
0100
0001
1000
,
0001
0000
0000
0000
0001
0000
0000
0000
0001
0000
0000
0000
1000
0001
1000
0001
,
0020
0000
0000
0000
0230
0000
2300
3000
1010
0000
1000
0000
0001
0010
0001
0000
0010
0100
0010
0100
0001
0100
0001
0100
0020
0000
0031
1000
0020
0000
1030
0001
,
0020
0000
0030
0000
0001
0100
0010
0100
0002
0000
0003
0001
1000
0100
0010
0100
2000
0000
3020
0000
0130
0001
1000
0000
1001
0000
1000
0000
0001
0010
0100
1000
,
0002
0000
0003
0000
1000
0010
0100
0010
1000
0000
0001
0010
0000
0100
1000
0000
0010
0100
0010
0100
1000
0100
1000
0100
0010
0000
1000
0000
0002
0000
0000
0000
,
0013
0000
0000
0000
0210
0000
1300
0000
0001
1000
0100
0000
0120
0000
0031
0000
,
1000
0000
0100
0000
0102
0000
1003
0000
0010
0000
0012
0000
1003
0001
1000
0001
,
0020
0000
0000
0000
0100
0000
0130
0000
2100
0000
0001
0000
3001
1000
0001
0000
0100
0010
0100
0010
0001
0010
0001
0010
0100
0010
0100
0010
1000
0000
0001
1000
,
0020
0000
0030
0000
1000
0001
0100
0010
1000
0000
0000
1000
0001
0010
0100
1000
0002
0000
0010
0000
2003
0000
0100
0000
3001
1000
0010
1000
0001
1000
0010
1000
,
0001
0000
0000
0000
0010
0100
1000
0100
0010
0000
0001
1000
0001
1000
0001
0000
0010
0100
0001
0100
0010
0100
0001
0100
0010
0001
1000
0001
0100
0010
1000
0001
,
0010
0000
0000
0000
0210
0000
1300
0000
0001
0100
0010
0000
0210
0000
0301
0000
,
2100
0000
3001
0000
1020
0000
0031
0000
2100
0000
3001
0000
1000
0100
0010
0001
,
2000
0000
0000
0000
,
0000
0000
0000
0000
0000
0000
0000
0000
0000
0000
0000
0000
0000
0000
3010
0100
,
0002
0000
0000
0000
,
0000
0000
0000
0000
0000
0000
0000
0000
0000
0000
0000
0000
0000
0000
0103
0001
,
0020
0000
0000
1000
0000
0000
0100
0000
0000
0001
0000
0000
0130
0000
1000
0000
,
0002
0000
0000
0100
0000
0000
1000
0000
0000
0010
0000
0000
1003
0000
0001
1000
,
0100
0020
0001
0000
0130
2000
0001
0000
,
3010
0000
1000
0100
0010
0000
0001
0000
0021
0000
0032
0000
0203
0000
0320
0000
,
1030
0100
0010
0000
0001
1000
0010
0000
0100
0001
1000
0000
0100
0010
0001
0000
,
1000
0001
0100
0010
1000
0001
0010
0100
0010
0001
0100
0010
1000
0000
0001
1000
,
0100
0000
0010
0000
0001
0000
1000
0010
1000
0001
0010
0000
0100
0000
1000
0000
,
0001
0000
0100
0000
1000
0000
0001
0010
0100
0010
1000
0000
0001
0000
0010
0000
,
0110
0100
1000
0001
0101
0100
0010
1000
,
1001
0001
0010
0100
1100
1000
0001
0100
,
0010
1000
0100
0010
0001
0010
0100
1000
0010
0100
0001
1000
0001
0010
1000
0010
,
0001
0000
0001
0000
0100
0010
0100
0000
0110
0000
0100
0000
0001
1000
0001
1000
,
0002
0000
0000
0003
1001
0000
1000
0000
0100
0000
0010
0000
1010
0000
1000
0000
,
0010
0100
0010
0001
1000
0000
0001
0000
0100
0000
0010
0000
0011
0000
0010
1000
,
0001
0000
0010
0000
0110
0000
0100
0000
0002
0003
0200
0300
2100
3000
0002
0003
,
0102
0000
0000
0103
0010
0000
0010
0000
0002
0000
0023
0000
0130
1000
0100
0001
,
0100
0010
1010
1000
0001
0100
0110
0010
,
0001
0010
0100
0010
1000
0000
0100
0000
0210
0000
0320
0000
0032
0000
2003
0000
,
3001
0000
0100
0000
0120
0000
1030
0000
0001
0010
0100
0000
2100
0000
3002
0000
,
0203
0000
1000
0000
0320
0000
0001
0000
1030
0000
1000
0000
0001
1000
0010
1000
,
0001
0000
0001
0000
1001
0000
0000
0000
0001
0010
0100
1000
0001
0100
0001
1000
,
0100
0010
0100
1000
0001
0100
0010
0100
0001
1000
0100
0010
0001
0010
0100
1000
,
0001
0100
0010
1000
0100
1000
0010
0100
0001
1000
0100
0010
0001
1000
0100
0010
,
0100
1000
0001
0100
0010
0100
0001
0010
0100
0010
0001
0100
0001
0010
0001
1000
,
0010
0100
0101
0001
1000
0100
0110
0010
,
1000
0000
0010
0000
0011
0000
0001
0000
1000
0010
0001
0010
0100
1000
0100
0010
,
0100
0000
0001
0000
1001
0000
1000
0000
0001
0100
0010
1000
0001
0010
0100
1000
,
0001
0100
0010
1000
0100
0010
0001
0100
0010
1000
0001
0010
1000
0010
0100
1000
,
0002
0000
0000
0000
1003
0001
0010
0100
0010
1000
0010
0100
0010
0001
1000
0010
,
0200
0000
0000
0000
0301
1000
0010
0100
0010
0001
0010
0100
0001
1000
0100
0010
,
0001
0010
1000
0010
0100
0001
1000
0010
,
0011
0000
0001
1000
0010
0000
0100
0000
1100
0000
0101
0000
0100
0001
0100
0001
,
2000
0000
0000
0000
3001
0010
1000
0010
0100
0010
0001
1000
0010
0001
1000
0100
,
0020
0000
0000
0000
1030
0001
0100
1000
0001
0010
0100
0001
1000
0100
0001
0100
,
1000
0001
0100
0010
1000
0001
0010
0100
0010
0001
1000
0010
0100
0001
1000
0001
,
0010
0100
1000
0010
0100
0001
0010
0100
1000
0010
0100
0001
0010
0100
2000
0000
,
3001
0100
0010
1000
0001
0100
0010
1000
0001
0010
0100
1000
0001
0010
0100
1000
0001
0100
0010
1000
0100
1000
0010
0100
0001
0010
0001
0100
0010
1000
0100
0010
,
0002
0000
0000
0000
,
0003
0000
0000
0000
;

//--------------- dance-double - Fred-104 ----------------
#NOTEDATA:;
#STEPSTYPE:dance-double;
#DESCRIPTION:Fred-104;
#DIFFICULTY:Easy;
#METER:9;
#CREDIT:Fred-104;
#NOTES:
00000000
00000000
00000000
00000000
,
00000000
00000000
00000000
00000000
,
00000000
00000000
00000000
00000000
,
00000000
00000000
00000000
00000000
,
00000000
00000000
00000000
00000000
,
00000000
00000000
00000000
00000000
,
00000000
00000000
00000000
00000000
,
00000000
00000000
00000000
00000000
,
00000000
00000000
00000000
00000000
,
00000000
00000000
00000000
00000000
,
00000000
00000000
00000000
00000000
,
00000000
00000000
00000000
00000000
,
00001000
01000000
00001000
00010000
,
00000100
00000000
00000000
00000010
00000000
00000010
00000000
00000001
,
00000000
00000100
00001000
00000000
00010000
00000000
00000000
00010000
,
00001000
00000000
00010000
00100000
,
20000000
30000000
01000000
00010000
,
00002000
00003000
00010000
00000100
,
00000010
00000001
00000100
00001000
,
00010000
00001000
00010000
00000000
00100000
10000000
00100000
00000000
,
10010000
00000000
00000000
00000000
20000000
30000000
01000000
00000000
,
00100000
00000000
00000000
00001000
00000000
00001000
00000000
00010000
,
00000000
00010000
00001000
00000000
00010000
00000100
00000000
00000100
,
00000010
00000001
00000100
00001000
,
00011000
00000000
00010000
00000000
,
00001000
00000000
00000010
00000000
,
00000001
00000010
00000100
00010000
,
00001000
00001000
00010000
00010000
,
00022000
00033000
00001000
00010000
,
00100000
00100000
01100000
00000000
01010000
00000000
00000000
00000000
,
10010000
00000000
11000000
01000000
,
00100000
00000000
00001000
00000000
00010000
00001000
00010000
00000000
,
00011000
00000000
00001010
00000000
,
00001000
00010000
00011000
00000000
,
00010000
00001000
00000100
00001000
,
00010000
00000000
00001000
00000010
00000000
00000001
00000100
00000000
,
00000220
00000330
00001001
00000000
,
00000001
00001000
00001010
00000000
,
00010000
00001000
01001000
00000000
,
00001000
00000000
00010000
00000000
01000000
10000000
01000000
00000000
,
00100000
00010000
10010000
00000000
,
10000000
00100000
00110000
00010000
,
00001000
00000000
00010000
00000100
,
00001000
00000000
00000010
00000000
00000100
00000001
00000100
00000001
,
00002000
00000000
00000000
00000000
,
00000000
00000000
00000000
00003000
,
00000200
00000000
00000000
00000000
,
00000000
00000000
00000000
00000300
,
00020000
00000000
00000000
00030000
,
00002000
00000000
00000000
00003000
,
00200000
00300000
02000000
03000000
,
10000000
00100000
00010000
00001000
,
00011000
00010000
00001000
00000100
,
00001000
00010000
00001000
01000000
,
00001000
00000000
00010000
00000000
00001000
00000000
00000100
00000010
,
00000100
00000010
00001000
00000001
,
00001001
00000000
00010010
00000000
,
00101000
00000000
10010000
00000000
,
10000000
01000000
00010000
00000000
00001000
00010000
00001000
00000000
,
00000010
00000000
00000010
00000000
00000001
00000100
00001000
00000000
,
00022000
00033000
00001000
00010000
,
00001000
00100000
00001000
00010000
,
01000000
00000000
10000000
00000000
,
00010000
00000000
10000000
00000000
01000000
00000000
00100000
00100000
,
00001000
00000000
00010000
00001000
,
00010000
00000100
00001000
00000001
,
00000020
00000030
00002000
00003000
,
00010000
00010000
00001000
00001000
,
00010000
00010000
00010000
00000000
01000000
00000000
10000000
00000000
,
00100000
01000000
00100000
00000000
10000000
01000000
10000000
00000000
,
00100000
01000000
00100000
00000000
00010000
00001000
00010000
00000000
,
00000100
00001000
00000100
00000000
00000010
00000001
00000010
00000000
,
00000001
00001000
00000010
00010000
,
00100000
01000000
00010000
00100000
,
01100000
01000000
10000000
00100000
,
00110000
00010000
00001000
00010000
,
00002000
00000000
00013000
01000000
00010000
00000000
00001000
00000000
,
00020000
00000000
00031000
00000100
00001000
00000000
00010000
00000000
,
00002000
00000000
00023000
00000000
00230000
00000000
10300000
01000000
,
00200000
00000000
00301000
00010000
00001000
00000000
00011000
00000000
,
00020000
00000000
00030100
00000010
00000001
00000000
00001001
00000000
,
00000002
00000000
00001003
00000010
00000100
00000000
00000110
00000000
,
00000001
00001000
00000010
00000000
00010000
00001000
01000000
00000000
,
00100000
10000000
00100000
01000000
00010000
10000000
01000000
00000000
,
00200000
00000000
00302000
00000000
,
00013000
00010000
00001000
00001000
00010000
00001000
00010000
00010000
,
00022000
00000000
00000000
00000000
,
00000000
00000000
00000000
00000000
,
00033000
00000000
00000000
00000000
;

//--------------- dance-double - Fred-104 ----------------
#NOTEDATA:;
#STEPSTYPE:dance-double;
#DESCRIPTION:Fred-104;
#DIFFICULTY:Medium;
#METER:13;
#BPMS:0=90,40=180,72=90,84=180,92=90,104=180,272=90;
#CREDIT:Fred-104;
#NOTES:
00000000
00000000
00000000
00000000
,
00000000
00000000
00000000
00000000
,
00000000
00000000
00000000
00000000
,
00000000
00000000
00000000
00000000
,
00000000
00000000
00000000
00000000
,
00000000
00000000
00000000
00000000
,
00001000
00000000
01000000
00000000
00010000
00100000
01000000
00000000
10000000
00000000
00010000
01000000
00000000
01000000
10000000
01000000
,
00000000
01000000
00010000
00000000
10000000
01000000
00000000
01000000
00010000
00000000
00001000
00000000
00010000
00000000
00011000
00000000
,
00011000
00000000
00000000
00000000
00001000
00010000
00100000
00000000
10100000
00000000
00000000
00000000
10000000
01000000
00010000
00000000
,
00011000
00000000
00000000
00000000
00010000
00000100
00000010
00000000
00000001
00000100
00000000
00000010
00000100
00000000
00000010
00001000
,
00002002
00003003
00000000
00000000
00000000
00000000
00000000
00000000
00000000
00000000
00000000
00000000
00000000
00000000
00000000
00000000
00000001
00000000
00000000
00000000
00000000
00000000
00000000
00000000
00000100
00000000
00000000
00000000
00000000
00000000
00000000
00000000
00001000
00000000
00000000
00000000
00000000
00000000
00000000
00000000
00010000
00000000
00000000
00000000
00000000
00000000
00000000
00000000
00001000
00000000
00000000
00000000
00000000
00000000
00000000
00000000
00001000
00000000
00000000
00000000
00000000
00000000
00000000
00000000
,
00100000
00000000
00010000
10000000
00000000
00100000
01000000
10000000
,
00000000
01000000
00010000
10000000
01000000
01000000
00000000
00100000
,
00001000
00000000
00010000
00001000
00000010
00000001
00000100
00000000
,
00000010
00001000
00000010
00001000
00000100
00000010
00000100
00000010
,
00001000
00010000
00001000
00010000
01000000
00100000
00010000
01000000
,
00200000
00320000
00032000
02003000
,
03001000
00000000
00001000
00000000
00010000
00100000
10000000
01000000
,
02200000
00000000
03300000
00000000
00010000
00000000
10000000
00000000
00100000
00000000
00100000
00000000
00010000
00001000
00010000
00000000
,
00011000
00000000
00000000
00000000
00000110
00000000
00000000
00000000
00000001
00000100
00001000
00000000
00010000
00001000
00010000
00000000
,
00011000
00000000
00000000
00000000
00010000
00001000
00010000
00000000
00001000
00010000
00100000
10000000
01000000
00100000
00010000
00100000
,
00202000
00303000
00000000
00000000
00000000
00000000
00000000
00000000
00000000
00000000
00000000
00000000
00000000
00000000
00000000
00000000
00001000
00000000
00000000
00000000
00000000
00000000
00000000
00000000
00010000
00000000
00000000
00000000
00000000
00000000
00000000
00000000
00000100
00000000
00000000
00000000
00000000
00000000
00000000
00000000
00000010
00000000
00000000
00000000
00000000
00000000
00000000
00000000
00000001
00000000
00000000
00000000
00000000
00000000
00000000
00000000
00000100
00000000
00000000
00000000
00000000
00000000
00000000
00000000
,
00000001
00000010
00000100
00000010
00000000
00001000
00000010
00000001
,
00000200
00000000
00000300
00000000
00000110
00000000
00000010
00000000
00010000
00001000
01000000
00010000
00100000
00000000
01100000
00000000
,
10000000
00000000
00100000
00000000
01100000
01000000
00010000
00000000
10000000
01000000
00010000
00001000
00010000
00000100
00000010
00000001
,
00001000
00000000
00001001
00000000
00000001
00000100
00001000
00000000
00010000
00001000
00100000
01000000
00100000
01000000
10000000
00010000
,
02000000
00000000
13000000
01000000
00010000
10000000
01000000
00010000
,
00011000
00001010
00000011
00000110
,
00001002
00000000
00000000
00000000
,
00000000
00000000
00000000
00000003
,
00000200
00000000
00000000
00000000
,
00000000
00000000
00000000
00000300
,
00002000
00000000
00023000
00000000
,
00230000
00000000
20300000
00000000
,
30020000
00230000
02300000
23000000
,
30010000
01000000
00001000
00010000
00001000
00100000
00010000
00000000
,
10010000
00000000
10000000
01000000
00010000
01000000
10000000
00010000
,
01000000
00100000
01000000
00001000
00010000
00000100
00000010
00000001
,
00001000
00000010
00001000
00000001
00000100
00001000
00010000
00001000
,
00020000
00001000
01000000
00031000
,
00010000
00010000
00001000
00000100
00000001
00000001
00000010
00000100
,
00010000
00010000
00001000
01000000
00100000
00100000
10000000
01000000
,
00100000
00001000
00010000
00001000
00000100
00000010
00000100
00000001
,
00001000
00000000
00001000
00000000
00000100
00000010
00001000
00010000
,
00002000
00000000
00013000
00001000
01000000
00001000
00010000
00000100
,
00000010
00000001
00001000
00000010
00000100
00001000
00010000
00001000
,
00100000
00010000
01000000
00100000
10000000
00010000
00100000
01000000
,
00010000
00000000
00000000
00010000
00001000
00000000
00010000
00000000
00000100
00000000
00000010
00000000
00000001
00001000
00000000
00001000
,
00000001
00000000
00001000
00000001
00000100
00000001
00000010
00000100
,
00010000
00001000
00010000
00000010
00001000
00000100
00010000
00001000
,
01000000
00010000
00100000
00001000
00100000
00010000
10000000
00100000
,
01000000
00000000
00010000
00000000
01000000
00000000
00000000
00000000
00001000
00000000
00010000
00000000
00000100
00000010
00000000
00000010
,
00000100
00000100
00001001
00000000
00000001
00000010
00000001
00000010
,
00001000
00010000
00001000
00010000
01000000
10000000
01000000
10000000
,
00100000
00010000
00100000
00010000
00001000
00000100
00001000
00000100
,
00000001
00000010
00000100
00001000
00000010
00000100
00001000
00010000
,
00001000
00100000
00010000
10000000
00100000
01000000
00001000
00010000
,
00000100
00001000
00000001
00000100
00000010
00001000
00000001
00000010
,
00000100
00001000
00000100
00010000
00001000
01000000
00010000
10000000
,
01000000
00000000
00100000
00000000
01000000
00000000
00100000
00000000
00101000
00000000
00000000
00000000
00010000
00001000
00000000
00001000
,
00020000
00000000
00031000
00010000
00100000
10000000
01000000
00010000
,
00002000
00000000
00013000
00001000
00000010
00000001
00000100
00001000
,
00010000
00001000
01000000
00010000
10000000
00010000
00100000
01000000
,
00010000
00000000
00000000
00010000
00001000
00000000
01000000
00000000
00001000
00000000
00010000
00000000
00001000
00010000
00000000
00010000
,
00002000
00000000
00013000
00001000
00000100
00000001
00000010
00001000
,
00020000
00000000
00031000
00010000
01000000
10000000
00100000
00010000
,
00001000
00010000
00000100
00001000
00000001
00000100
00000010
00001000
,
00000001
00000001
00000010
00000010
00001000
00010000
00011000
00000000
,
00020000
00000000
00000000
00000000
00032000
00000000
00000000
00000000
00013000
00001000
00000100
00000001
00001000
00000100
00000010
00000001
,
00002002
00000000
00000000
00000000
,
00003003
00000000
00000000
00000000
;

//--------------- dance-double - Fred-104 ----------------
#NOTEDATA:;
#STEPSTYPE:dance-double;
#DESCRIPTION:Fred-104;
#DIFFICULTY:Hard;
#METER:16;
#DISPLAYBPM:90:180;
#BPMS:0=90,40=180,72=90,84=180,92=90,104=180,176=270,176.375=225,176.6875=135,176.875=90,177=180,272=90;
#CREDIT:Fred-104;
#NOTES:
00000000
00000000
00000000
00000000
,
00000000
00000000
00000000
00000000
,
00000000
00000000
00000000
00000000
,
00000000
00000000
00000000
00000000
,
00000000
00000000
00000000
00000000
,
00000000
00000000
00000000
00000000
,
00010000
00000000
00000100
00000000
00000010
00000001
00001000
00000000
00000001
00000010
00000100
00001000
00000000
00000100
00010000
00001000
,
00010000
00000000
00100000
10000000
00010000
00000000
00100000
01000000
10000000
00010000
01000000
10000000
01000000
00100000
00010000
00001000
,
00011000
00000000
00010000
00000100
00000010
00000010
00000001
00000000
00001001
00000000
00000001
00000100
00001000
00001000
00010000
00000000
,
00011000
00000000
00001000
00000000
00010000
00100000
10000000
00100000
01000000
00010000
00010000
10000000
00010000
00010000
00100000
00001000
,
00022000
00033000
00000000
00000000
00000000
00000000
00000000
00000000
00000000
00000000
00000000
00000000
00000000
00000000
00000000
00000000
00010000
00000000
00000000
00000000
00000000
00000000
00000000
00000000
00001000
00000000
00000000
00000000
00000000
00000000
00000000
00000000
00000100
00000000
00000000
00000000
00000000
00000000
00000000
00000000
00000001
00000000
00000000
00000000
00000000
00000000
00000000
00000000
00001000
00000000
00000000
00000000
00000000
00000000
00000000
00000000
00000100
00000000
00000000
00000000
00000010
00000000
00000000
00000000
,
00000100
00000000
00000010
00000001
00000000
00001000
00000001
00000100
,
00001000
00000000
00010000
00000000
00001000
00000000
00100000
00000000
00001000
00000000
00010000
00000000
00000000
00000000
00010000
00001000
,
00010000
00000000
00100000
10000000
01000000
00100000
10010000
00000000
,
10000000
00100000
10000000
00100000
00010000
00001000
00010000
00001000
,
00000100
00000001
00000100
00000001
00000010
00000100
00000010
00000100
,
00001000
00000001
00001000
00000000
00000001
00000100
00000001
00000000
00001000
00000100
00001000
00000100
00000010
00000100
00000010
00000100
,
00000010
00000000
00000000
00000000
00001000
00000000
00000000
00000000
00010000
00000000
00000000
00000000
00010000
00001000
00010000
00001000
,
00020000
00000000
00000000
00000000
00000000
00000000
00030000
00000000
00011000
00000000
00001000
00000000
00000010
00000000
00000100
00000000
00000010
00000001
00000000
00000001
00000010
00000001
00000000
00000001
00002000
00000000
00003020
00000000
00000230
00000000
00001300
00010000
,
00001000
00000000
00000000
00000000
00010000
00000000
00100000
00000000
10100000
00000000
00000000
00000000
10000000
00000000
01000000
00000000
01200000
00000000
00000000
00000000
00302000
00000000
00000000
00000000
00013000
00000000
00001000
00000000
00010000
00001000
00010000
00000000
,
00011000
00000000
00000000
00000000
00010000
00001000
00010000
00000000
00010100
00000000
00000100
00000010
00000000
00000100
00000010
00000000
00000001
00001000
00000000
00001000
00000001
00001000
00000000
00001000
00000001
00000000
00000100
00000000
00000020
00000000
00000000
00000000
,
00002030
00003000
00000000
00000000
00000000
00000000
00000000
00000000
00000000
00000000
00000000
00000000
00000000
00000000
00000000
00000000
00001001
00000000
00000000
00000000
00000000
00000000
00000000
00000000
00000001
00000000
00000000
00000000
00000000
00000000
00000000
00000000
00000100
00000000
00000000
00000000
00000000
00000000
00000000
00000000
00001000
00000000
00000000
00000000
00000000
00000000
00000000
00000000
00010000
00000000
00000000
00000000
00000000
00000000
00000000
00000000
00001000
00000000
00000000
00000000
00000000
00000000
00000000
00000000
,
00100000
00000000
01000000
00000000
10000000
00000000
00010000
00000000
00000000
00000000
00010000
00000000
01000000
00100000
01000000
00100000
,
02000000
00000000
00000000
00000000
03100000
00000000
00000000
00000000
10010000
00000000
10000000
00000000
01000000
00000000
00100000
00000000
00001000
00010000
00001000
00010000
00001000
00010000
00001000
00000000
00010000
00000000
00000100
00000000
00000010
00000000
00000001
00000000
,
00001000
00000000
00000001
00000000
00000100
00000000
00000010
00000000
00000001
00000000
00000010
00000000
00000100
00000000
00001000
00000000
00020000
00000000
00230000
00000000
02300000
00000000
23000000
00000000
31000000
00100000
01000000
00100000
01000000
00100000
01000000
00100000
,
01000000
00000000
00000000
00000000
00010000
10000000
00010000
10000000
01000000
00000000
00100000
00010000
00100000
00000000
00001000
00000000
00010000
00001000
00010000
00001000
00010000
00001000
00010000
00001000
00010000
00000100
00010000
00000100
00001000
00000000
00000100
00000000
,
00000220
00000330
00000000
00000000
00000000
00000000
00000000
00000000
00000000
00000000
00000000
00000000
00000000
00000000
00000000
00000000
00001001
00000000
00000000
00000000
00000000
00000000
00000000
00000000
00000001
00000000
00000000
00000000
00000000
00000000
00000000
00000000
00000100
00000000
00000000
00000000
00000000
00000000
00000000
00000000
00001000
00000000
00000000
00000000
00000000
00000000
00000000
00000000
00010000
00000000
00000000
00000000
00000000
00000000
00000000
00000000
00000000
00000000
00000000
00000000
00000000
00000000
00000000
00000000
,
01001000
01000000
01010000
00010000
20010000
31000000
00100000
00010000
,
20000000
00000000
00000000
00000000
,
00000000
00000000
00000000
00000000
00000000
00000000
00000000
00000000
00000000
00000000
00000000
00000000
00000000
00000000
31000000
00100000
,
00002000
00000000
00000000
00000000
,
00000000
00000000
00000000
00000000
00000000
00000000
00000000
00000000
00000000
00000000
00000000
00000000
00000000
00000000
00013000
00000010
,
00002000
00000000
00000000
00000001
00000000
00000000
00000001
00000000
00000000
00003001
00000000
00000000
00000010
00000000
00000100
00000000
,
00020000
00000000
00000000
00001000
00000000
00000000
00001000
00000000
00000000
00031000
00000000
00000000
00010000
00000000
00100000
00000000
,
10000000
01000000
00100000
00010000
00001000
00000100
00000010
00000001
,
00000100
00000110
00000010
00000100
00001100
00001000
00010000
00011000
,
00001000
00100000
01000000
00100000
00001000
00010000
01000000
00100000
,
00010000
00000000
10000000
00100000
01000000
00000000
00010000
10000000
00100000
00000000
01000000
00010000
10000000
00000000
01000000
00100000
,
00010000
00100000
00001000
00000010
00000100
00010000
00001000
00000100
,
00000010
00000000
00001000
00000000
00000001
00000000
00000010
00000100
00000010
00000100
00001000
00000000
00000100
00000000
00010000
00000000
,
00011000
00001000
01000000
00010000
10010000
10000000
01000000
00100000
,
00101000
00001000
00010000
00000010
00001010
00001000
00000001
00000010
,
00000100
00001000
00000100
00000000
00000010
00000001
00000010
00000000
00000001
00001000
00000001
00001000
00000010
00010000
00001000
00010000
,
00001000
00000000
00000000
00000000
00010000
00000000
00000000
00000000
00011000
00000000
00000000
00000000
00010000
00001000
00010000
00001000
,
00020000
00000000
00000000
00000000
00000000
00000000
00000000
00000000
00000000
00000000
00000000
00000000
00000000
00000000
00000000
00000000
00032000
00003000
00000000
00000000
00000000
00000000
00000000
00000000
01000000
00000000
00000000
00000000
00000000
00000000
00000000
00000000
00010000
00000000
00000000
00000000
00000000
00000000
00000000
00000000
00100000
00000000
00000000
00000000
00000000
00000000
00000000
00000000
01000000
00000000
00000000
00000000
00000000
00000000
00000000
00000000
10000000
00000000
00000000
00000000
00000000
00000000
00000000
00000000
,
00100000
00000000
01000000
00000000
10000000
00000000
01000000
00000000
00100000
00000000
00010000
00000000
00001000
00000000
00000100
00000001
,
00001000
00000010
00000001
00001000
00000100
00000010
00001000
00000001
,
00000100
00000000
00001000
00010000
00001000
00000000
00010000
00000000
00100000
00000000
01000000
00000000
00100000
10000000
00000000
10000000
,
00100000
10000000
00010000
00100000
01000000
00010000
00001000
00010000
,
00000100
00001000
00000100
00000010
00000100
00000000
00000001
00000000
00000200
00000000
00000320
00000000
00000230
00000000
00020300
00000000
,
00031000
00010000
00100000
01000000
00002000
00023000
00230000
20300000
,
31000000
00000000
00100000
00000000
01000000
00000000
00010000
00000000
00001000
00000000
00001000
00000000
00010000
00001000
00000000
00001000
,
00010000
00000000
00001000
00000000
00011000
00000000
00000000
00000000
00001000
00100000
00001000
00000000
00100000
00010000
00100000
00000000
,
01000000
10000000
01000000
00000000
00010000
00001000
00010000
00000000
00000100
00010000
00000100
00000000
00001000
00000001
00001000
00000000
,
00000010
00001000
00000010
00000000
00000100
00000001
00000100
00000000
00000001
00000010
00000001
00000000
00001000
00000100
00001000
00000000
,
00000001
00000010
00000100
00000000
00001000
00000100
00000010
00000000
00000001
00001000
00000010
00001000
00000001
00000010
00000100
00001000
,
00000100
00010000
01000000
00100000
00001000
01000000
00100000
00010000
,
00000010
00001000
00100000
01000000
00001000
00010000
00000010
00000100
,
00001000
00000000
00010000
00000000
01000000
00000000
00100000
00000000
00001000
00010000
00001000
00000000
00010000
00000100
00010000
00000000
,
00001000
00000000
00001000
00000000
00010000
00000000
00010000
00000000
00011000
00000000
00000000
00010000
00001000
00010000
00000000
00010000
,
00002000
00000000
00000000
00000000
00103000
00010000
10000000
00000000
00100000
10000000
00010000
00000000
10000000
01000000
00100000
00001000
,
00020000
00000000
00000000
00000000
00030010
00010000
00001000
00000000
00010000
00000010
00001000
00000000
00000001
00000010
00000100
00001000
,
00000100
00000010
00000001
00000100
00001000
00010000
00100000
10000000
,
10010000
00000000
00000000
00010000
10000000
00000000
01000000
00000000
01100000
00000000
00100000
00000000
00001000
00010000
00001000
00010000
,
00002000
00000000
00000000
00000000
00013000
00000100
00010000
00000100
00001000
00000001
00001000
00000001
00000010
00000100
00000010
00000100
,
00020000
00000000
00000000
00000000
00031000
00100000
00001000
00100000
00010000
10000000
00010000
10000000
01000000
00100000
01000000
00100000
,
00001000
00010000
00000100
00010000
00001000
00000000
00100000
00000000
00010000
10000000
00100000
10000000
00010000
00000000
00100000
00000000
,
01000000
00000000
10000000
00000000
00100000
00000000
00010000
00000000
00001000
00000000
00000100
00000000
00000001
00001000
00000001
00000000
,
00000020
00000000
00000100
00000000
00000100
00000000
00000130
00000000
00020000
00000000
00001000
00000000
00001000
00000000
00031000
00000000
00100000
00010000
00100000
00010000
00100000
00010000
00100000
00010000
00100000
00001000
00100000
00001000
00010000
00001000
00010000
00000010
,
00020000
00000000
00000000
00000000
,
00030000
00000000
00000000
00000000
;

//--------------- dance-double - Fred-104† ----------------
#NOTEDATA:;
#STEPSTYPE:dance-double;
#DESCRIPTION:Fred-104†;
#DIFFICULTY:Challenge;
#METER:18;
#DISPLAYBPM:90:180;
#BPMS:0=90,40=180,72=90,84=180,92=90,104=180,176=360,176.5=180,176.75=90,177=180,272=90;
#CREDIT:Fred-104†;
#NOTES:
00000000
00000000
00000000
00000000
,
00000000
00000000
00000000
00000000
,
00000000
00000000
00000000
00000000
,
00000000
00000000
00000000
00000000
,
00000000
00000000
00000000
00000000
,
00000000
00000000
00000000
00000000
,
00010000
00000000
00001000
00000000
00011000
00001000
01000000
00000000
00010000
00100000
10000000
00010000
01000000
10000000
00100000
00010000
,
00001000
00010000
00002000
00000000
00013000
00001000
00000100
00000010
00001000
00000100
00000020
00000031
00000200
00001300
00020000
00130000
,
10100000
00000000
00020000
00130000
01100000
01000000
20000000
30000000
01100000
00000000
20000000
30100000
00210000
00310000
00002000
00003000
,
00010000
00000000
00000000
00000000
00002000
00000000
00003000
00000100
00000010
00000100
00000010
00000000
00002000
00000000
00003000
00000000
00000001
00000000
00000011
00000000
00000020
00000000
00000130
00000000
00010200
00000000
00010300
00000000
00002000
00003000
00011000
00000000
,
00011000
00000000
00000000
00000000
00001000
00000000
00010000
00000000
00100000
00000000
10000000
00100000
01000000
00000000
00010000
10000000
,
00010000
00000000
01000000
00100000
00010000
00001000
00000100
00000010
,
00001000
00000000
00010000
00000000
01000000
00000000
00001000
00000000
00010000
00000000
00001000
00000000
00000000
00000000
00001000
00000010
,
00000001
00000000
00000100
00000010
00000100
00001000
00011000
00000000
,
00011000
00010000
00001000
00001000
00000100
00000100
00000001
00000001
,
00001000
00001000
00000010
00000010
00010000
00010000
00100000
00100000
,
01000000
00010000
10000000
01000000
00100000
00010000
00100000
00001000
00010000
00000100
00001000
00000100
00000010
00000001
00000100
00000010
,
00001000
00000000
00000000
00000000
00001000
00000000
00000000
00000000
00001000
00000000
00000000
00000000
00000001
00001000
00000001
00001000
,
00000002
00000000
00000000
00000000
00000023
00000000
00002030
00003000
00011000
00000000
00010000
00000000
00100000
10000000
00010000
00000000
00100000
01000000
00100000
01000000
00010000
01000000
00010000
01000000
00100000
00000000
00010000
00000000
00001000
00000100
00000010
00000100
,
00000020
00000000
00000030
00000000
00000001
00000100
00000010
00000100
00001000
00000000
00000000
00001000
00010000
00100000
01000000
00100000
20000000
00000000
30020000
00000000
10030000
01000000
00100000
00000000
00101000
00000000
00001000
00000000
00010000
00001000
00010000
00001000
,
00020000
00000000
00030000
00000000
00001000
00010000
00000010
00001000
00000010
00000000
00001000
00000001
00000000
00001000
00000001
00000000
00000100
00000010
00000100
00000010
00000100
00001000
00000100
00001000
00010000
00000000
00001000
00000000
00020000
00000000
00000000
00000000
,
00031000
00000000
00000000
00000000
00011000
00000000
00010000
00000000
00000010
00001000
00000001
00000000
00002001
00000000
00003100
00000000
,
00000120
00000000
00000031
00000000
00001000
00000000
00000120
00000000
00001030
00000000
00000001
00000000
00000010
00000100
00001000
00000100
,
00020000
00000000
00000000
00000000
00001000
00000000
00031000
00000000
00011000
00000000
00010000
00000000
00001000
01000000
00010000
00000000
01000000
00100000
01000000
00100000
00010000
00100000
00010000
00100000
01000000
00010000
00100000
01000000
10000000
00000000
00010000
10000000
,
00200000
00000000
00300000
00000000
00100000
01000000
00100000
00010000
00001000
00000000
00000000
00001000
00010000
00000010
00001000
00000100
00000020
00000000
00000032
00000000
00000203
00000000
00002300
00000000
00013000
00001000
00010000
00001000
01000000
00001000
01000000
00001000
,
00010000
00000000
00000000
00000000
00001000
00010000
00100000
00010000
00001000
00000000
00010000
01000000
00010000
01000000
10000000
00000000
00010000
01000000
00010000
01000000
10000000
01000000
10000000
01000000
00010000
01000000
00010000
10000000
01000000
00100000
00001000
00010000
,
00001000
00000000
00000000
00000000
00012000
00000000
00013000
00000000
00001000
00000010
00000100
00000000
00002100
00000000
00003001
00000000
,
00000120
00000000
00000031
00000000
00001200
00000000
00000301
00000000
00002010
00000000
00003001
00000000
00001000
00000001
00000010
00000100
,
00020000
00000000
00000000
00000000
,
00000000
00000000
00000000
00000000
00000000
00000000
00000000
00000000
00000000
00000000
00000000
00000000
00000000
00000000
00031000
01000000
,
00020000
00000000
00000000
00000000
,
00000000
00000000
00000000
00000000
00000000
00000000
00000000
00000000
00000000
00000000
00000000
00000000
00000000
00000000
00130000
01000000
,
20000000
00000000
00000000
00100000
00000000
00000000
00010000
00000000
00000000
01000000
00000000
00000000
30010000
00000000
00100000
00000000
,
00002000
00000000
00000000
00010000
00000000
00000000
01000000
00000000
00000000
00010000
00000000
00000000
00013000
00000000
00001000
00010000
,
00001000
00010000
00000010
00001000
00000010
00000100
00000001
00001000
,
00000100
00000110
00000001
00000010
00000110
00000100
00001000
00001001
,
00000001
00001000
00000010
00010000
00100000
01000000
00001000
00010000
,
00100000
01000000
00100000
01000000
00100000
10000000
00100000
10000000
00010000
00100000
01000000
00100000
00001000
00000000
00010000
00001000
,
00010000
00000000
00000100
00000000
00000010
00000000
00000001
00001000
00000010
00000100
00001000
00000000
00000100
00000000
00000001
00000000
,
00000100
00000000
00001000
00000000
00010000
00000000
00100000
10000000
01000000
00100000
01000000
00000000
00100000
00000000
00001000
00000000
,
00011000
00010000
00000010
00001000
00001001
00000001
00000010
00000100
,
00010100
00010000
00001000
01000000
01010000
00010000
10000000
01000000
,
00100000
00001000
00010000
00001000
00100000
00001000
00010000
00001000
00000100
00000010
00001000
00000010
00000100
00001000
00010000
00100000
,
01000000
00000000
01000000
00000000
00010000
10000000
00010000
00000000
10010000
00000000
10000000
00000000
01000000
00100000
00001000
00010000
,
00002000
00000000
00000000
00003000
00011000
00000000
00010000
00000000
00000100
00000000
00000010
00000000
00000011
00000000
00000001
00000000
,
00001000
00000001
00000100
00000010
00000100
00000000
00001000
00000000
00010000
00000000
00100000
00000000
10100000
00000000
10000000
00010000
,
00100000
00000000
01000000
00000000
01100000
00000000
00100000
00000000
00002000
00003000
00020000
00030000
00010020
00000030
00002000
00003000
,
00001002
00000000
00000000
00000103
00000010
00000000
00000010
00000000
00000100
00000000
00001000
00000000
00010000
00001000
00000000
00001000
,
00010000
00100000
01100000
01000000
00010000
10000000
11000000
01000000
,
00100000
00001000
00010000
00001000
00010000
00000000
00001000
00000000
00012000
00000000
00023000
00000000
00030200
00000000
00000320
00000000
,
00000031
00000000
00001000
00000000
00001010
00000000
00000010
00000000
00010000
00001000
00100000
00000000
02100000
00000000
23000000
00000000
,
30200000
00000000
00010000
00000000
02300000
00000000
10000000
00000000
03010000
00000000
00010000
00000000
10000000
01000000
10000000
01000000
,
00010000
00000000
00001000
00000000
00011000
00000000
00000000
00000000
00010000
00000100
00010000
00000100
00001000
00000100
00001000
00000100
,
00000010
00000001
00001000
00000001
00000010
00000001
00001000
00000001
00000100
00000001
00001000
00000100
00010000
00000000
00001000
00000000
,
00100000
00010000
10000000
00010000
00100000
00010000
10000000
00010000
01000000
00001000
00010000
00001000
01000000
00001000
00010000
00001000
,
00010000
00000100
00000010
00000001
00001000
00000010
00010000
00001000
00100000
00010000
10000000
00100000
01000000
00010000
10000000
01000000
,
00100000
00001000
00011000
00010000
00000100
00000010
00000011
00000001
,
00000100
00000000
00001000
00000000
00011000
00000000
00010000
00000000
00001000
00100000
00010000
00100000
01000000
00100000
00010000
00100000
,
00001000
00000000
00010000
00000000
00011000
00000000
00001000
00000000
01000000
00010000
10000000
00010000
01000000
00010000
10000000
00010000
,
10000000
01000000
00100000
00001000
00010000
00000100
00001000
00000010
00000100
00000001
00000010
00000100
00001000
00000001
00000100
00000010
,
00002000
00000000
00000000
00000000
00003001
00000010
00000001
00000010
00000100
00001000
00000100
00010000
00001000
01000000
00010000
01000000
,
00200000
00000000
00000000
00000000
10300000
00010000
10000000
01000000
00100000
00001000
00010000
00000100
00001000
00000100
00000010
00000001
,
00001000
00000001
00000100
00000010
00001000
00010000
01000000
00100000
,
10100000
00000000
10000000
00010000
00100000
00000000
00100000
00000000
00101000
00000000
00011000
00000000
00001000
00010000
00001000
00010000
,
00002000
00000000
00000000
00000000
00013000
00001000
00000100
00000010
00001000
00000100
00000010
00000001
00001000
00000010
00000100
00001000
,
00020000
00000000
00000000
00000000
00031000
00010000
00100000
01000000
00010000
00100000
01000000
10000000
00100000
00010000
00001000
00010000
,
00001000
00010000
00000100
00010000
00001000
01000000
00010000
01000000
00001000
00010000
00000100
00001000
00000100
00000000
00000010
00000000
,
00000001
00001000
00000010
00000000
00010000
00001000
00100000
00000000
00010000
10000000
00100000
01000000
00010000
10000000
00020000
00000000
,
10030000
00100000
10000000
00100000
01000000
00001000
01000000
00001000
00010000
00000100
00010000
00000100
00000010
00000001
00000010
00000001
00001000
00000001
00000010
00000001
00000100
00000010
00001000
00000100
00010000
00001000
00100000
00010000
01000000
00100000
10000000
01000000
,
20000000
00000000
00000000
00000000
,
30000000
00000000
00000000
00000000
;
