#TITLE:ツキミチヌ;
#ARTIST:CULTVOICE by S.S.D.PRODUCTS;
#TITLETRANSLIT:Tsukimichinu;
#BANNER:Tsukimichinu.png;
#BACKGROUND:Tsukimichinu-bg.png;
#CDTITLE:./CDTitles/RB limelight.png;
#MUSIC:Tsukimichinu.ogg;
#SAMPLESTART:63.252;
#SAMPLELENGTH:15;
#BPMS:0=146;
#BGSTAGE:1;

//--------------- dance-single - Fred-104 ----------------
#NOTES:
     dance-single:
     Fred-104:
     Beginner:
     1:
     :
0000
0000
0000
0000
,
0000
0000
0000
0000
,
0000
0000
0000
0000
,
0000
0000
0000
0000
,
0000
0000
0000
0000
,
1000
0000
0000
0000
,
0001
0000
0000
0000
,
1000
0000
0000
0000
,
0001
0000
0000
0000
,
0100
0000
0000
0000
,
0000
0000
0000
0000
,
0010
0000
0000
0000
,
0000
0000
0000
0000
,
0100
0000
0000
0000
,
0000
0000
0000
0000
,
0001
0000
0000
0000
,
1000
0000
0000
0000
,
0001
0000
0000
0000
,
0000
0000
0000
0000
,
0100
0000
0000
0000
,
0000
0000
0000
0000
,
0010
0000
0000
0000
,
0000
0000
0000
0000
,
1000
0000
0000
0000
,
0001
0000
0000
0000
,
1000
0000
0000
0000
,
0001
0000
0000
0000
,
1000
0000
0000
0000
,
0010
0000
0000
0000
,
1000
0000
0000
0000
,
0001
0000
0000
0000
,
1000
0000
0000
0000
,
0001
0000
0000
0000
,
0100
0000
0000
0000
,
0010
0000
0000
0000
,
1000
0000
0000
0000
,
0000
0000
0000
0000
,
0001
0000
0000
0000
,
0000
0000
0000
0000
,
1000
0000
0000
0000
,
0001
0000
0000
0000
,
1000
0000
0000
0000
,
0100
0000
0000
0000
,
1000
0000
0000
0000
,
0001
0000
0000
0000
,
1000
0000
0000
0000
,
0001
0000
0000
0000
,
1000
0000
0000
0000
,
0010
0000
0000
0000
,
1000
0000
0000
0000
,
0001
0000
0000
0000
,
0100
0000
0000
0000
,
0001
0000
0000
0000
,
0010
0000
0000
0000
,
0001
0000
0000
0000
,
1000
0000
0000
0000
,
1000
0000
0000
0000
,
0001
0000
0000
0000
,
0001
0000
0000
0000
,
1000
0000
0000
0000
,
0001
0000
0000
0000
,
1000
0000
0000
0000
,
1001
0000
0000
0000
;

//--------------- dance-single - Fred-104 ----------------
#NOTES:
     dance-single:
     Fred-104:
     Easy:
     4:
     :
0000
0000
0000
0000
,
0000
0000
0000
0000
,
0000
0000
0000
0000
,
0000
0000
0000
0000
,
0000
0000
0000
0000
,
1000
0000
0010
0000
,
1000
0001
1000
0000
,
0001
0000
0010
0000
,
0001
0100
0010
0000
,
1001
2000
3000
0200
,
0300
2000
3001
0100
,
0001
0020
0030
0020
,
0030
0020
0031
1000
,
0001
0200
0300
0200
,
0300
0200
0301
1000
,
0001
0001
1000
1000
,
0001
1000
2002
3003
,
1000
0200
0300
0200
,
0300
0200
1300
0001
,
0100
0002
0003
0002
,
0003
0002
0103
0010
,
1000
0020
0030
0020
,
0030
0020
1030
0100
,
0010
0010
0100
0100
,
0010
0100
0220
0330
,
0001
0010
0001
1000
,
0001
0010
0100
0000
,
1000
0010
1000
0100
,
1000
0001
0100
0000
,
0001
0000
0100
0000
,
1000
0000
0100
0000
,
0001
0000
0010
0000
,
1000
0000
0010
0000
,
0001
0000
1000
0000
,
0001
0010
0100
1000
,
0001
0000
1000
0000
,
0001
0100
0010
0000
,
1000
1000
0001
0001
,
2002
0000
3003
0000
,
1000
0010
1000
0000
,
1000
0001
0100
0000
,
0001
0010
0001
0000
,
0001
1000
0100
0000
,
1000
0000
0100
0000
,
0001
0000
0010
0000
,
1000
1000
0001
0001
,
1000
0001
2002
3003
,
0001
0100
0010
0000
,
0010
1000
0001
0000
,
1000
0100
1000
0000
,
1000
0100
0010
0000
,
0001
0000
0010
0000
,
1000
0000
0100
0000
,
0001
0001
1000
1000
,
0002
0203
0320
2030
,
3002
0000
0000
0000
,
1003
0000
0010
0000
,
0200
0000
0000
0300
,
0110
0000
0000
0000
,
0001
0000
1000
0000
,
0001
0001
0100
0010
,
2000
0000
3002
0003
,
1001
0000
0000
0000
;

//--------------- dance-single - Fred-104 ----------------
#NOTES:
     dance-single:
     Fred-104:
     Medium:
     8:
     :
0000
0000
0000
0000
,
0000
0000
0000
0000
,
0000
0000
0000
0000
,
0000
0000
0000
0000
,
0000
0000
0000
0000
,
2000
0000
3200
0000
1300
0010
1000
0000
,
0002
0000
0203
0000
0301
0000
0100
0010
,
0100
0001
1000
0001
,
1000
0100
1000
0000
0001
0100
0001
0000
,
1001
2000
3000
0002
,
0003
2000
3010
0100
,
0001
0020
0030
0020
,
0030
0020
0031
1000
,
0001
0200
0300
0200
,
0300
0200
0301
0010
,
0100
1000
0001
0100
,
0001
1000
2002
3003
,
1000
0000
0010
1000
0010
0000
0100
0001
,
0100
0000
0001
0010
0001
1000
0001
0000
,
0100
0000
0010
0100
0010
0000
1000
0010
,
1000
0000
0001
0100
0010
1000
0001
0000
,
1000
0000
0001
0010
0001
0000
0100
0001
,
0010
0000
0001
1000
0010
0000
0100
0000
,
0001
1000
0010
0100
,
2002
0000
3003
0000
,
0001
0000
0100
0010
0100
0000
0001
0010
,
0001
0000
0100
0010
0100
0000
0001
0000
,
1000
0000
0010
0100
0010
0000
1000
0100
,
1000
0000
0001
0100
0001
0000
1000
0000
,
1100
0100
0020
0030
,
0101
0100
0020
0030
,
1000
0000
0010
0000
0100
0001
0100
0000
,
0001
0000
0010
0000
0100
1000
0100
0000
,
1000
0000
0001
0000
0100
0010
0100
0000
,
0002
0023
0230
2300
,
3001
0100
1000
0100
,
0001
0010
1000
0010
,
0001
0010
0100
0000
1000
0010
0100
0000
,
1001
0000
0002
2003
,
3001
0000
0100
0001
0010
0000
0001
1000
,
0001
0100
0110
0000
,
1000
0000
0010
1000
0100
0000
1000
0001
,
0100
0010
0110
0000
,
0100
0000
0001
0000
0010
0001
0010
0000
,
0001
0000
1000
0000
0010
1000
0010
0000
,
0200
0302
2003
3020
,
1030
0001
2002
3003
,
0001
0000
0100
0010
0100
0000
0001
0010
,
0100
1000
1010
0000
,
1000
0000
0010
0100
0001
0000
0010
0001
,
1000
0001
1001
0000
,
0001
0100
0110
0000
,
1000
0100
0110
0000
,
0010
0000
0001
1000
0010
0000
1000
0001
,
0200
0320
2030
3200
,
1300
0000
0010
0100
0010
0000
1000
0000
,
0100
0000
0010
0000
0001
1000
0001
0000
,
0100
0000
0001
0010
0001
0000
1000
0000
,
1001
0000
0000
0000
0000
0000
0001
1000
,
0001
0000
0100
0000
0001
0010
0100
0000
,
1000
0000
0010
1000
0100
0000
1000
0000
,
0100
1000
0010
0000
0100
0001
0010
0000
,
1001
0000
0000
0000
;

//--------------- dance-single - Fred-104 ----------------
#NOTES:
     dance-single:
     Fred-104:
     Hard:
     12:
     :
0000
0000
0000
0000
,
0000
0000
0000
0000
,
0000
0000
0000
0000
,
0000
0000
0000
0000
,
0000
0000
0000
0000
0000
0000
1000
0001
,
2000
0000
0000
0000
3200
0000
0000
0000
0310
0000
0001
1000
0001
0000
0000
0000
,
0100
0000
0000
0010
0100
0000
0001
0000
0010
0000
0001
0000
0001
0000
1000
0000
,
0002
0000
0000
0000
0203
0000
0000
0000
0310
0000
1000
0100
1000
0000
0001
0000
,
1000
0100
0010
0001
0100
0100
0001
1000
,
1001
0001
0000
1000
,
0000
0000
0001
0000
0100
0010
0100
0000
,
0001
0010
0000
0100
,
0000
0000
0000
0000
1000
0000
0000
0000
0010
0000
0100
0001
0100
0000
0010
0000
,
0100
0010
0000
1000
,
0000
0000
0000
0000
0100
0000
0000
0000
0010
0000
0001
1000
0001
0000
0100
0000
,
0001
0010
1000
0100
,
0101
1010
2002
3003
,
1100
0000
0000
1000
0100
0000
0010
0000
0001
0000
0000
0001
0100
0000
0010
0000
,
0100
0000
0000
0100
0001
0000
0010
0000
0100
0000
1000
0100
1000
0000
0001
0000
,
0101
0000
0000
0100
0010
0000
0100
0000
0001
0000
0000
0001
0010
0000
0100
0000
,
1000
0000
0000
1000
0001
0000
0100
0000
0001
0000
0010
0100
0010
0000
0001
0000
,
0101
0000
0000
0100
0010
0000
1000
0000
0100
0000
0000
0100
0010
0000
0001
0000
,
0010
0000
0000
0010
0100
0000
1000
0000
0001
0000
1000
0100
1000
0000
0001
0000
,
1001
1010
0101
1100
,
0001
0000
0100
0010
0100
0000
0001
0000
2002
0000
0000
0000
3003
0000
0000
0000
,
1000
0100
1000
0001
1000
0100
1000
0010
,
1000
0000
0100
0000
0010
0000
0001
0000
0100
0000
0001
1000
0001
0000
0010
0000
,
0001
0100
0001
0010
0001
1000
0001
0100
,
0001
0000
0010
0000
0100
0000
1000
0000
0010
0000
0100
0001
0100
0000
0010
0000
,
1010
0000
0000
1000
0100
0000
0010
0000
0001
0000
0100
0000
0100
0000
0000
0000
,
0110
0000
0000
0010
1000
0000
0001
0000
1000
0000
0100
0000
0100
0000
0000
0000
,
0110
0000
0000
0010
0001
0000
1000
0000
0001
0100
0000
0001
0100
0000
0010
0000
,
0100
0000
0000
0100
0001
0000
0010
0000
0100
1000
0000
0100
1000
0000
0010
0000
,
0100
0000
0000
0100
0001
0000
1000
0000
0100
0010
0000
0100
0010
0000
0001
0000
,
0101
0011
1100
1010
,
1000
0000
0001
0100
0001
0000
2000
0000
0000
0000
3001
0010
0001
0000
2000
0000
,
0000
0000
3001
0100
0001
0000
1000
0000
0001
0000
0010
0000
0200
0000
0000
0000
,
1300
0000
0010
0100
0010
0000
1000
0000
0100
0000
0010
0001
0010
0000
0001
0000
,
1001
0110
2000
3002
,
1003
0000
0000
0100
0010
0000
0001
0000
0100
0000
0000
0001
0010
0000
0001
0000
,
0100
0000
0000
0010
1000
0000
0010
0000
0100
0000
0001
0000
1000
0000
0000
0000
,
0001
0000
0000
0010
0100
0000
1000
0000
0001
0000
0000
0100
0010
0000
1000
0000
,
0010
0000
0100
0000
0010
0000
0100
0000
0000
0001
0000
0000
1000
0000
0000
0100
0000
0000
0010
0000
0000
0000
0000
0000
,
0001
0000
0100
0000
0001
0000
0100
0000
0010
0000
0000
0010
0100
0000
0001
0000
,
1000
0000
0000
0100
1000
0000
0100
0000
0010
0000
0000
0010
0001
0000
0100
0000
,
0002
0203
2300
3020
,
0031
0000
0000
1000
0001
0000
0100
0000
0010
0000
1000
0000
0001
0000
0010
0000
,
0001
0000
0000
0010
0001
0000
1000
0000
0001
0000
0000
0100
0010
0000
0100
0000
,
0001
0000
0000
0010
0100
0000
1000
0000
0010
0000
0100
0000
0001
0000
0000
0000
,
1000
0000
0000
0100
0010
0000
0001
0000
0010
0000
0000
0100
0010
0000
0001
0000
,
0100
0000
0000
0001
0010
0000
0001
0000
0100
0000
0000
0000
0010
0000
1000
0000
,
1100
0000
0000
1000
0001
0000
0100
0000
0010
0000
0000
0000
0100
0000
0001
0000
,
0011
0000
0000
0010
0001
0000
1000
0000
0001
0000
0000
0000
1000
0000
0001
0000
,
0101
0000
0000
0100
0010
0000
0100
0000
0001
0000
0000
0010
0100
0000
1000
0000
,
0002
0203
2300
3200
,
0310
0000
1000
0001
1000
0000
0001
0000
0010
0000
0100
0000
1000
0000
0001
0000
,
0100
0000
0010
1000
0010
0000
0100
0000
0001
0000
1000
0000
0100
0000
0000
0000
,
1000
0000
0001
0010
0001
0000
1000
0000
0001
0000
0100
0000
0010
0000
0100
0000
,
0110
0000
0000
0000
0000
0000
0000
0000
0000
0000
0001
1000
0002
0000
0203
0000
,
0310
0000
1000
0100
1000
0000
0001
0000
0100
0000
0000
0010
0100
0000
0001
0000
,
0010
0000
0100
1000
0100
0000
0010
0000
0001
0000
1000
0000
0001
0000
0100
0000
,
0010
0000
1000
0100
1000
0000
0001
0000
0100
0000
0010
1000
0010
0000
1000
0000
,
1001
0000
0000
0000
;

//--------------- dance-single - Fred-104 ----------------
#NOTES:
     dance-single:
     Fred-104:
     Challenge:
     15:
     :
0000
0000
0000
0000
,
0000
0000
0000
0000
,
0000
0000
0000
0000
,
0000
0000
0000
0000
,
0000
0000
0000
0000
0000
0000
0001
0020
,
1000
0000
0000
0000
0100
0000
0000
0000
0031
0000
1000
0010
1000
0000
0001
0000
,
0010
0000
0100
1000
0100
0000
0001
0000
0100
0000
1000
0001
0100
0000
0010
0000
,
2000
0000
0010
0000
3002
0000
0100
0000
1003
0000
0010
0100
0001
0000
1000
0000
,
0001
0000
0100
0010
0001
0000
0010
1000
0100
0000
0010
0100
1000
0000
0001
0000
,
1001
0000
0000
0001
1000
0000
0001
0000
0100
0000
0000
0100
0010
0000
1000
0000
,
0100
0000
0000
0100
0010
0000
0001
0000
1000
0000
0010
0001
0010
0000
1000
0000
,
0001
0000
0000
0001
0010
0000
0100
0000
1000
0000
0000
1000
0001
0000
0100
0000
,
0010
0000
0000
0010
1000
0000
0100
0000
0001
0000
0100
0010
0001
0000
1000
0000
,
0001
0000
0000
0001
0100
0000
1000
0000
0100
0000
0000
0100
0001
0000
0010
0000
,
0100
0000
0000
0100
1000
0000
0001
0000
0100
1000
0100
1000
0100
0000
0001
0000
,
0011
1010
1100
0101
,
1001
0000
0110
0000
2002
0000
0000
3003
,
0110
0000
0000
1000
0100
0000
0010
0000
0011
0000
0000
0100
0010
0000
1000
0000
,
1001
0000
0000
0001
0010
0000
0100
0000
1000
0000
0010
0100
1000
0000
0100
0000
,
0101
0000
0000
1000
0100
0000
0010
0000
0011
0000
0000
1000
0001
0000
0100
0000
,
0110
0000
0000
0010
1000
0000
0001
0000
0010
0000
1000
0010
0001
0000
1000
0000
,
1010
0000
0000
0001
0010
0000
0100
0000
1100
0000
0000
0001
0100
0000
0010
0000
,
1001
0000
0000
1000
0100
0000
0001
0000
0100
0000
0010
0100
1000
0000
0001
0000
,
0101
1100
1010
0011
,
1001
0000
1000
0100
0010
0000
0010
0000
0022
0000
0000
0000
0003
0000
0030
0000
,
0001
0000
1000
0100
0001
0000
0100
1000
0001
0000
1000
0100
0001
0000
0100
1000
,
0001
0000
1000
0100
0001
0000
0100
1000
0001
0000
0100
0010
0100
0000
0001
0000
,
1000
0000
0001
0010
1000
0000
0010
0001
1000
0000
0001
0010
1000
0000
0010
0001
,
1000
0000
0001
0010
1000
0000
0010
0001
1000
0000
0001
0000
0100
0000
0010
0000
,
1010
0000
1000
0100
0010
0000
0001
0000
0011
0000
0110
0000
1100
0000
0000
0000
,
0101
0000
0001
0100
0010
0000
1000
0000
1100
0000
0110
0000
0011
0000
0000
0000
,
1001
0000
1000
0100
0010
0000
0001
0000
1000
0100
0000
0001
0100
0000
0010
0000
,
0011
0000
0001
1000
0010
0000
0001
0000
0010
0100
0000
0001
1000
0000
0100
0000
,
0110
0000
0010
0001
1000
0000
0001
0000
0100
1000
0000
0100
0001
0000
1000
0000
,
0002
0010
2003
0100
3001
1000
1001
0000
,
0001
0000
0100
0010
0100
0000
1000
0000
0001
0000
0010
0100
0010
0000
1000
0000
,
0001
0000
0100
1000
0100
0000
0001
0000
1000
0000
0100
0001
0100
0000
1000
0000
,
0001
0000
0100
0010
1000
0000
0001
0010
0100
0010
0001
0000
1000
0010
0100
0001
,
1000
0000
0100
0000
0010
0000
0001
0100
0110
0000
0000
0000
1001
0000
0000
0000
,
0110
0000
1000
0100
0010
0000
0001
0000
1000
0000
0010
0100
0001
0000
1000
0000
,
0001
0010
0000
0100
1000
0000
0001
0000
1100
0000
0101
0000
1100
0000
0000
0000
,
0001
0000
1000
0001
0010
0000
0100
0000
0010
0000
0001
1000
0010
0000
1000
0000
,
0001
0000
0100
0000
0010
0000
1000
0000
0000
0001
0000
0000
1010
0000
0000
0011
0000
0000
1010
0000
0000
0000
0000
0000
,
0001
0000
0010
0000
1000
0000
0010
0000
0001
1000
0000
0010
0001
0000
0010
0000
,
1000
0000
0001
0100
1000
0000
0100
0000
0001
1000
0000
0100
0010
0000
0001
0000
,
2000
0100
3002
0010
2003
0100
3002
0010
,
1003
0000
0100
0010
0001
0000
0100
0000
0220
0000
0000
0000
0330
0000
0000
0000
,
1001
0000
0001
0010
0100
0000
1000
0000
0001
0000
0100
0010
1000
0000
0001
0000
,
1000
0100
0000
0001
0100
0000
0010
0000
0011
0000
1010
0000
0101
0000
0000
0000
,
1001
0000
0001
0010
0100
0000
1000
0000
0001
0000
0100
0010
1000
0000
0001
0000
,
1000
0010
1000
0010
0001
0000
0010
0000
0100
0001
0100
0001
1000
0000
0100
0000
,
0110
0000
0010
0001
0100
0000
0010
0000
1010
0000
0101
0000
1100
0000
0011
0000
,
1001
0000
1000
0100
0010
0000
0001
0000
0011
0000
1010
0000
0101
0000
1100
0000
,
0120
0000
0001
0130
0020
0000
1000
0130
0020
0000
0001
0130
0010
0000
1000
0000
,
0002
0203
2300
3020
,
0031
0000
1000
0100
0010
0000
0001
0000
1000
0000
0010
0000
0100
0000
0001
0000
,
0010
0000
0100
0010
0001
0000
0100
0000
0010
0000
1000
0000
1001
0000
0000
0000
,
1000
0000
0100
0001
0100
0000
1000
0000
0001
0000
0100
1000
0100
0000
0001
0000
,
1001
0000
0000
0000
0000
0000
0000
0000
0000
0000
1000
0001
1000
0000
0020
0000
,
0001
0000
0000
0000
0100
0000
0000
0000
1030
0000
0001
0010
0100
0000
1000
0000
,
0001
0000
0100
0010
1000
0000
0001
0000
0100
0000
0001
0010
0100
0000
1000
0000
,
0001
0000
0100
0010
1000
0001
0010
0000
0100
0010
0001
1000
0100
0010
0001
1000
,
0001
0000
0000
0000
;

//--------------- dance-double - Fred-104 ----------------
#NOTES:
     dance-double:
     Fred-104:
     Easy:
     4:
     :
00000000
00000000
00000000
00000000
,
00000000
00000000
00000000
00000000
,
00000000
00000000
00000000
00000000
,
00000000
00000000
00000000
00000000
,
00000000
00000000
00000000
00000000
,
00001000
00000000
00010000
00000000
,
00001000
00100000
00001000
00000000
,
00100000
00000000
00010000
00000000
,
10000000
01000000
10000000
00000000
,
10010000
20000000
30000000
02000000
,
03000000
00200000
00301000
00010000
,
00001000
00020000
00030000
00020000
,
00030000
00020000
00030010
00001000
,
00000010
00000200
00000300
00000200
,
00000300
00000200
00000301
00000010
,
00000001
00000001
00001000
00001000
,
00000010
00000100
00000220
00000330
,
00000001
00000200
00000300
00000200
,
00000300
00000200
00000310
00010000
,
00001000
00020000
00030000
00020000
,
00030000
00020000
00031000
00100000
,
00010000
02000000
03000000
02000000
,
03000000
02000000
03100000
10000000
,
01000000
01000000
00100000
00100000
,
00001000
00010000
00022000
00033000
,
00001000
00010000
00001000
00000000
,
00100000
00010000
01000000
00000000
,
00010000
00100000
00001000
00000000
,
00010000
00001000
00010000
00000000
,
00001000
00000000
00010000
00000000
,
01000000
00000000
00100000
00000000
,
00001000
00000000
00010000
00000000
,
00000010
00000000
00000100
00000000
,
00010000
00000000
00001000
00000000
,
00010000
00010000
00001000
00001000
,
00010000
00000000
00001000
00000000
,
01000000
00010000
01000000
00000000
,
00001000
00010000
00000100
00010000
,
00022000
00000000
00033000
00000000
,
00010000
00001000
00000010
00000000
,
00000001
00001000
00000100
00000000
,
00000010
00000001
00001000
00000000
,
00000001
00000100
00000001
00000000
,
00000010
00000000
00000100
00000000
,
00010000
00000000
00001000
00000000
,
00010000
00010000
00001000
00001000
,
00010000
00001000
00022000
00033000
,
00001000
00010000
00100000
00000000
,
10000000
00010000
00100000
00000000
,
01000000
10000000
00100000
00000000
,
10000000
00100000
01000000
00000000
,
00010000
00000000
01000000
00000000
,
00001000
00000000
00010000
00000000
,
00001000
00001000
00010000
00010000
,
00002000
00023000
00032000
00023000
,
00032000
00000000
00000000
00000000
,
01003000
00000000
00010000
00000000
,
20000000
00000000
00000000
30000000
,
10010000
00000000
00000000
00000000
,
10000000
00000000
01000000
00000000
,
10000000
10000000
01000000
00100000
,
00002000
00000000
00023000
00030000
,
00011000
00000000
00000000
00000000
;

//--------------- dance-double - Fred-104 ----------------
#NOTES:
     dance-double:
     Fred-104:
     Medium:
     8:
     :
00000000
00000000
00000000
00000000
,
00000000
00000000
00000000
00000000
,
00000000
00000000
00000000
00000000
,
00000000
00000000
00000000
00000000
,
00000000
00000000
00000000
00000000
,
00020000
00000000
02030000
00000000
03010000
10000000
00010000
00000000
,
20000000
00000000
32000000
00000000
03010000
00000000
00001000
00010000
,
00001000
00000010
00000100
00001000
,
00000001
00000010
00000100
00000000
00010000
00001000
00010000
00000000
,
00011000
00020000
00030000
00000020
,
00000030
00020000
00031000
01000000
,
00001000
00020000
00030000
00020000
,
00030000
00020000
00031000
00100000
,
00001000
00020000
00030000
00020000
,
00030000
00020000
00030100
00001000
,
00000100
00010000
00001000
00100000
,
00001000
00010000
00022000
00033000
,
00001000
00000000
00100000
00010000
10000000
00000000
00010000
01000000
,
00100000
00000000
10000000
01000000
00100000
00001000
00010000
00000000
,
00001000
00000000
00010000
00000010
00001000
00000000
00000100
00001000
,
00000001
00000000
00000100
00000010
00001000
00000010
00000100
00000000
,
00000001
00000000
00000010
00000100
00000010
00000000
00001000
00010000
,
00001000
00000000
00010000
01000000
00100000
00000000
00010000
00000000
,
10000000
00100000
00010000
00001000
,
00022000
00000000
00033000
00000000
,
00001000
00000000
00100000
00010000
01000000
00000000
00001000
00010000
,
00000100
00000000
00001000
00000010
00010000
00000000
00001000
00000000
,
00100000
00000000
00010000
01000000
00001000
00000000
00010000
00001000
,
00100000
00000000
00001000
00010000
00000010
00000000
00001000
00000000
,
00001001
00000010
00020000
00030000
,
00011000
00001000
02000000
03000000
,
00010000
00000000
01000000
00000000
10000000
01000000
00010000
00000000
,
00001000
00000000
00010000
00000000
00100000
10000000
00100000
00000000
,
00010000
00000000
00001000
00000000
00010000
00000010
00010000
00000000
,
00002000
00023000
00032000
00003020
,
00000130
00001000
00000001
00000010
,
00000100
00000000
00010000
00000000
00001000
00100000
00001000
00000000
,
00100000
00010000
00100000
01000000
10000000
01000000
10000000
00000000
,
10010000
00000000
20000000
32000000
,
03100000
00000000
00001000
00010000
00001000
00000000
00100000
00001000
,
00010000
00000010
00001010
00000000
,
00000010
00000000
00010000
00000100
00001000
00000000
00000100
00010000
,
00001000
01000000
01010000
00000000
,
00010000
00000000
00100000
00000000
10000000
00100000
00010000
00000000
,
10000000
00000000
01000000
00000000
00010000
01000000
10000000
00000000
,
00200000
00320000
00032000
00023000
,
00030010
00000100
00002002
00003003
,
00000001
00000000
00000010
00000100
00001000
00000000
00000001
00000100
,
00000010
00010000
00011000
00000000
,
00001000
00000000
00100000
00010000
10000000
00000000
00100000
01000000
,
00010000
10000000
10100000
00000000
,
10000000
01000000
01100000
00000000
,
00010000
01000000
01100000
00000000
,
10000000
00000000
01000000
00100000
00001000
00000000
00010000
00000010
,
00002000
00003020
00020030
00032000
,
00013000
00000000
00100000
01000000
00010000
00000000
10000000
00000000
,
01000000
00000000
00010000
00000000
00001000
00000010
00000100
00000000
,
00001000
00000000
00000001
00000100
00000010
00000000
00001000
00000000
,
00001001
00000000
00000000
00000000
00000000
00000000
00000001
00000100
,
00000010
00000000
00001000
00000000
00000100
00010000
00001000
00000000
,
01000000
00000000
00010000
00100000
01000000
00000000
10000000
00000000
,
01000000
00000000
00010000
00000000
00001000
00010000
00001000
00000000
,
00011000
00000000
00000000
00000000
;

//--------------- dance-double - Fred-104 ----------------
#NOTES:
     dance-double:
     Fred-104:
     Hard:
     12:
     :
00000000
00000000
00000000
00000000
,
00000000
00000000
00000000
00000000
,
00000000
00000000
00000000
00000000
,
00000000
00000000
00000000
00000000
,
00000000
00000000
00000000
00000000
00000000
00000000
00010000
00001000
,
00020000
00000000
00000000
00000000
00032000
00000000
00000000
00000000
00003100
00000000
00000001
00001000
00000001
00000000
00000000
00000000
,
00000010
00000000
00000001
00001000
00000001
00000000
00000010
00000000
00000100
00000000
00010000
00000000
00001000
00000000
00010000
00000000
,
00200000
00000000
00000000
00000000
02300000
00000000
00000000
00000000
03010000
00000000
10000000
00010000
10000000
00000000
01000000
00000000
,
00100000
00001000
00010000
00100000
10000000
01000000
00010000
00001000
,
00011000
00001000
00000000
00000010
,
00000000
00000000
00000001
00000000
00001000
00000001
00000010
00000000
,
00000100
00010000
00000000
00001000
,
00000000
00000000
00000000
00000000
00100000
00000000
00000000
00000000
00010000
00000000
10000000
00100000
10000000
00000000
00010000
00000000
,
01000000
00100000
00000000
10000000
,
00000000
00000000
00000000
00000000
01000000
00000000
00000000
00000000
00100000
00000000
00001000
00010000
00001000
00000000
00000010
00000000
,
00000100
00001000
00000001
00000100
,
00000110
00001001
00002200
00003300
,
00001001
00000000
00000000
00000001
00000010
00000000
00000100
00000000
00010000
00000000
00000000
00010000
00001000
00000000
01000000
00000000
,
00010000
00000000
00000000
00010000
10000000
00000000
00010000
00000000
01000000
00000000
00100000
10000000
00100000
00000000
01000000
00000000
,
00010000
00000000
00000000
00010000
10000000
00000000
01000000
00000000
10000000
00000000
00000000
10000000
01000000
00000000
00010000
00000000
,
00001000
00000000
00000000
00001000
00010000
00000000
00001000
00000000
00010000
00000000
00000100
00000010
00000100
00000000
00000010
00000000
,
00000001
00000000
00000000
00000001
00000010
00000000
00000100
00000000
00000010
00000000
00000000
00000010
00000001
00000000
00000100
00000000
,
00000010
00000000
00000000
00000010
00010000
00000000
00001000
00000000
00100000
00000000
00010000
01000000
00010000
00000000
00100000
00000000
,
00101000
00010010
01001000
00010100
,
00010000
00000000
00001000
01000000
00001000
00000000
00010000
00000000
00022000
00000000
00000000
00000000
00033000
00000000
00000000
00000000
,
00010000
00000000
00000000
00001000
00010000
00000000
00000010
00000000
00001000
00000000
00000000
00000100
00001000
00000000
00000001
00000000
,
00000100
00000000
00000000
00000010
00001000
00000000
00000100
00000000
00010000
00000000
00001000
00000000
00010000
00000000
00000000
00000000
,
00001000
00000000
00000000
00100000
00010000
00000000
10000000
00000000
00010000
00000000
00000000
00100000
01000000
00000000
00100000
00000000
,
00001000
00000000
00000000
00010000
00000010
00000000
00001000
00000000
00000100
00000000
00010000
00000000
00001000
00000000
00010000
00000000
,
00011000
00000000
00000000
00010000
00001000
00000000
00000100
00000000
00000001
00000000
00001000
00000000
00000100
00000000
00000000
00000000
,
00000110
00000000
00000000
00000010
00000001
00000000
00000100
00000000
00001000
00000000
00010000
00000000
00001000
00000000
00000000
00000000
,
00011000
00000000
00000000
00001000
00100000
00000000
00010000
00000000
10000000
00100000
00000000
00100000
01000000
00000000
00100000
00000000
,
10000000
00000000
00000000
10000000
01000000
00000000
00100000
00000000
00001000
00010000
00000000
00010000
00001000
00000000
01000000
00000000
,
00001000
00000000
00000000
00001000
00010000
00000000
00000100
00000000
00001000
00000010
00000000
00000010
00000100
00000000
00000001
00000000
,
00001000
00000101
00001010
00011000
,
00010000
00000000
00000010
00001000
00000010
00000000
00020000
00000000
00000000
00000000
00030100
00001000
00000100
00000000
00020000
00000000
,
00000000
00000000
00030010
00001000
00000010
00000000
00010000
00000000
00001000
00000000
00100000
00000000
00010000
00000000
00100000
00000000
,
00001000
00000000
01000000
00010000
01000000
00000000
00001000
00000000
00100000
00000000
00001000
00010000
00001000
00000000
00010000
00000000
,
00010010
00011000
00002000
02003000
,
03010000
00000000
00000000
00010000
00100000
00000000
01000000
00000000
10000000
00000000
00000000
10000000
00100000
00000000
01000000
00000000
,
00010000
00000000
00000000
00010000
10000000
00000000
01000000
00000000
00010000
00000000
00001000
00000000
00000010
00000000
00000100
00000000
,
00001000
00000000
00000000
00001000
00000001
00000000
00000100
00000000
00000010
00000000
00000000
00000010
00001000
00000000
00000001
00000000
,
00001000
00000000
00000010
00000000
00010000
00000000
00001000
00000000
00000000
00010000
00000000
00000000
00000100
00000000
00000000
00010000
00000000
00000000
00001000
00000000
00000000
00000000
00000000
00000000
,
00010000
00000000
01000000
00000000
00100000
00000000
00010000
00000000
01000000
00000000
00000000
00001000
00010000
00000000
00001000
00000000
,
00100000
00000000
00000000
00001000
00010000
00000000
00001000
00000000
00000010
00000000
00000000
00000100
00001000
00000000
00000001
00000000
,
00000200
00000320
00020030
00032000
,
00013000
00000000
00000000
00000010
00001000
00000000
00000100
00000000
00010000
00000000
00001000
00000000
00100000
00000000
00010000
00000000
,
10000000
00000000
00000000
00010000
00100000
00000000
01000000
00000000
10000000
00000000
00000000
00100000
01000000
00000000
00001000
00000000
,
00010000
00000000
00000000
00001000
00000010
00000000
00000001
00000000
00001000
00000000
00000001
00000000
00000100
00000000
00000010
00000000
,
00001000
00000000
00000000
00000001
00000010
00000000
00000100
00000000
00000010
00000000
00000000
00001000
00010000
00000000
01000000
00000000
,
00100000
00000000
00000000
00010000
01000000
00000000
00100000
00000000
10000000
00000000
00000000
00000000
00010000
00000000
10000000
00000000
,
11000000
00000000
00000000
01000000
00100000
00000000
00001000
00000000
00010000
00000000
00000000
00000000
00000010
00000000
00000000
00000000
,
00001010
00000000
00000000
00001000
00000100
00000000
00000010
00000000
00000001
00000000
00000000
00000000
00001000
00000000
00000000
00000000
,
00001001
00000000
00000000
00000001
00000100
00000000
00000000
00000100
00001000
00000000
00000000
00001000
00010000
00000000
00000000
00010000
,
00200000
02300000
03020000
10030000
,
00100000
00000000
10000000
00010000
10000000
00000000
00100000
00000000
01000000
00000000
00100000
00000000
00010000
00000000
00100000
00000000
,
10000000
00000000
01000000
00100000
01000000
00000000
00010000
00000000
00001000
00000000
00000010
00000000
00000100
00000000
00000000
00000000
,
00001000
00000000
00000001
00001000
00000001
00000000
00000100
00000000
00000010
00000000
00010000
00000000
00001000
00000000
00010000
00000000
,
00011000
00000000
00000000
00000000
00000000
00000000
00020000
20030000
,
30010000
00000000
01000000
00010000
01000000
00000000
00100000
00000000
10000000
00000000
00000000
01000000
00100000
00000000
00010000
00000000
,
01000000
00000000
00001000
00010000
00001000
00000000
00010000
00000000
00000100
00000000
00001000
00000000
00000001
00000000
00000100
00000000
,
00000010
00000000
00001000
00000001
00001000
00000000
00000001
00000000
00000010
00000000
00000100
00001000
00000100
00000000
00010000
00000000
,
00011000
00000000
00000000
00000000
;

//--------------- dance-double - Fred-104 ----------------
#NOTES:
     dance-double:
     Fred-104:
     Challenge:
     15:
     :
00000000
00000000
00000000
00000000
,
00000000
00000000
00000000
00000000
,
00000000
00000000
00000000
00000000
,
00000000
00000000
00000000
00000000
,
00000000
00000000
00000000
00000000
00000000
00000000
00001000
00010000
,
00100000
00000000
10000000
00000000
00010000
00000000
00100000
00000000
01000000
00000000
10000000
00010000
10000000
00000000
00000000
00000000
,
00010000
00000000
00100000
00001000
00100000
00000000
00001000
00000000
00010000
00000000
00000010
00001000
00000100
00000000
00000010
00000000
,
00000001
00000000
00000100
00000000
00001000
00000000
00010000
00000000
00100000
00000000
01000000
00010000
00100000
00000000
01000000
00000000
,
10000000
00100000
00010000
00001000
00000100
00000001
00000010
00000000
,
00000110
00000000
00000000
00001000
00000001
00000000
00000010
00000000
00000100
00000000
00000000
00010000
00001000
00000000
00010000
00000000
,
00100000
00000000
00000000
01000000
00010000
00000000
10000000
00000000
01000000
00000000
00100000
00010000
00100000
00000000
00001000
00000000
,
00010000
00000000
00000000
00000010
00001000
00000000
00000010
00000000
00010000
00000000
00000000
00000100
00001000
00000000
00000100
00000000
,
00000010
00000000
00000000
00000001
00000100
00000000
00000010
00000000
00000100
00000000
00001000
00010000
00001000
00000000
01000000
00000000
,
00010000
00000000
00000000
00100000
10000000
00000000
00100000
00000000
00010000
00000000
00000000
00001000
00000100
00000000
00000010
00000000
,
00000001
00000000
00000000
00001000
00000010
00000000
00000100
00000000
00001000
00000000
00010000
00001000
00010000
00000000
00001000
00000000
,
00101000
00010010
01001000
00010100
,
00000110
00011000
02200000
03300000
,
10010000
00000000
00000000
10000000
01000000
00000000
00100000
00000000
00001000
00000000
00000000
00010000
00000010
00000000
00001000
00000000
,
00000001
00000000
00000000
00000010
00000100
00000000
00010000
00000000
00001000
00000000
00100000
00001000
00010000
00000000
00001000
00000000
,
01000000
00000000
00000000
00010000
00100000
00000000
01000000
00000000
10000000
00000000
00000000
00100000
00010000
00000000
00001000
00000000
,
00000100
00000000
00000000
00000010
00001000
00000000
00000100
00000000
00000010
00000001
00000010
00000001
00000100
00000000
00001000
00000000
,
00010000
00000000
00000000
00100000
01000000
00000000
00010000
00000000
00100000
00000000
00000000
01000000
00100000
00000000
00001000
00000000
,
00010000
00000000
00000000
00000010
00001000
00000000
00000100
00000000
00010000
00000000
00001000
00100000
00001000
00000000
00010000
00000000
,
00010010
00101000
00010100
01001000
,
00010000
00000000
00001000
00000010
00000001
00000000
00000010
00000000
00000220
00000000
00000000
00000000
00000330
00000000
00000000
00000000
,
00010000
00000000
00000010
00010000
00001000
00000000
00010000
00100000
00010000
00000000
00001000
00010000
00000010
00000000
00010000
00001000
,
00010000
00000000
00100000
00010000
00001000
00000000
00010000
00000010
00010000
00000000
00001000
00010000
00001000
00000000
00010000
00000000
,
00001000
00000000
01000000
00001000
00010000
00000000
00001000
00000100
00001000
00000000
00010000
00001000
01000000
00000000
00001000
00010000
,
00001000
00000000
00000100
00001000
00010000
00000000
00001000
01000000
00001000
00000000
00010000
00001000
00010000
00000000
00001000
00000000
,
00011000
00000000
00010000
00000100
00001000
00000000
00000100
00000000
00000110
00000000
00000011
00000000
00001001
00000000
00000000
00000000
,
00000101
00000000
00000001
00000010
00000100
00000000
00010000
00000000
00011000
00000000
01001000
00000000
01010000
00000000
00000000
00000000
,
01100000
00000000
10000000
01000000
00100000
00000000
00001000
00000000
00010000
00100000
00000000
01000000
00100000
00000000
01000000
00000000
,
00010000
00000000
00100000
01000000
00010000
00000000
00001000
00000000
00000010
00000100
00000000
00001000
00000100
00000000
00000010
00000000
,
00000001
00000000
00001000
00000010
00000100
00000000
00001000
00000000
00010000
00000000
00100000
01000000
00010000
00000000
10000000
00000000
,
00020000
00100000
20030000
01000000
30010000
10000000
10010000
00000000
,
10000000
00000000
00100000
01000000
00100000
00000000
00010000
00000000
00001000
00000000
00000100
00000010
00000100
00000000
00000001
00000000
,
00001000
00000000
00000100
00000010
00001000
00000000
00010000
00000000
01000000
10000000
01000000
00100000
00010000
00000000
00000000
00000000
,
01000000
00000000
00001000
00010000
00001000
00000000
00000010
00000100
00001000
00000010
00000100
00000000
00000010
00010000
00001000
01000000
,
00001000
00000000
00010000
00000000
00100000
00000000
10000000
01000000
01100000
00000000
00000000
00000000
10010000
00000000
00000000
00000000
,
11000000
00000000
10000000
01000000
00100000
00000000
00001000
00000000
00010000
00000000
00000100
00001000
00000001
00000000
00000100
00000000
,
00000001
00000010
00000000
00001000
00000010
00000000
00000001
00000000
00000101
00000000
00001100
00000000
00011000
00000000
00000000
00000000
,
00001000
00000000
00010000
00100000
01000000
00000000
00100000
00000000
00010000
00000000
00001000
00010000
00000010
00000000
00001000
00000000
,
00000100
00000000
00000010
00000000
00000001
00000000
00000100
00000000
00000000
00001000
00000000
00000000
00011000
00000000
00000000
01001000
00000000
00000000
00011000
00000000
00000000
00000000
00000000
00000000
,
00001000
00000000
00100000
00010000
10000000
00000000
00010000
00000000
01000000
00100000
00000000
00010000
00001000
00000000
00000100
00000000
,
00000010
00000000
00001000
00000001
00000010
00000000
00000100
00000000
00000010
00000001
00000000
00000100
00001000
00000000
00010000
00000000
,
00002000
00010000
00203000
00010000
00302000
00010000
02003000
00010000
,
03001000
00000000
00010000
00001000
00000100
00000000
00000001
00000000
00002002
00000000
00000000
00000000
00003003
00000000
00000000
00000000
,
00000110
00000000
00001000
00000100
00000010
00000000
00000001
00000000
00000100
00000000
00001000
00010000
00001000
00000000
00010000
00000000
,
00100000
01000000
00000000
00010000
10000000
00000000
00010000
00000000
11000000
00000000
01010000
00000000
00011000
00000000
00000000
00000000
,
00010100
00000000
00010000
00000100
00001000
00000000
00000010
00000000
00010000
00000000
00001000
01000000
00010000
00000000
00100000
00000000
,
00001000
00010000
00001000
00010000
00001000
00000000
00000100
00000000
00000001
00000010
00000001
00000010
00000100
00000000
00001000
00000000
,
00000001
00000000
00000100
00001000
00010000
00000000
00100000
00000000
10100000
00000000
01010000
00000000
11000000
00000000
00010000
00000000
,
10000000
00000000
01000000
00010000
00001000
00000000
00000010
00000000
00000011
00000000
00001010
00000000
00000101
00000000
00001000
00000000
,
00000001
00000000
00000010
00000100
00001000
00000000
00000001
00000010
00000100
00000000
00010000
00001000
00010000
00000000
00001000
00000000
,
00020000
00000010
00100000
00031000
,
00010000
00000000
00001000
00010000
00001000
00000000
00000100
00000000
00000001
00000000
00000010
00000000
00000100
00000000
00000010
00000000
,
00000100
00000000
00010000
00001000
00010000
00000000
00100000
00000000
10000000
00000000
01000000
00000000
00100000
00000000
00000000
00000000
,
00001000
00000000
00010000
00000100
00001000
00000000
00000100
00000000
00000010
00000000
00000001
00000000
00000100
00000000
00001000
00000000
,
00011000
00000000
00000000
00000000
00000000
00000000
00001000
00010000
,
00100000
00000000
01000000
00000000
00100000
00000000
00010000
00000000
00001000
00000000
00010000
00000100
00010000
00000000
00000000
00000000
,
00000010
00000000
00001000
00000100
00001000
00000000
00000001
00000000
00000010
00000000
00000100
00001000
00000100
00000000
00010000
00000000
,
00001000
00000000
00100000
01000000
10000000
00000000
00100000
00000000
00010000
00001000
00010000
00000000
00001000
00000000
00000100
00000001
,
00001000
00000000
00000000
00000000
;
