#VERSION:0.83;
#TITLE:Tropical Love;
#ARTIST:CHEAP CREAM;
#BANNER:Tropical Love.png;
#BACKGROUND:Tropical Love-bg.png;
#CDTITLE:./CDTitles/DANCERUSH STARDOM.png;
#MUSIC:Tropical Love.ogg;
#SAMPLESTART:57.143;
#SAMPLELENGTH:15;
#BPMS:0=105;
#BGSTAGE:17;

//--------------- dance-single - Fred-104 ----------------
#NOTEDATA:;
#STEPSTYPE:dance-single;
#DESCRIPTION:Fred-104;
#DIFFICULTY:Beginner;
#METER:1;
#CREDIT:Fred-104;
#NOTES:
0000
0000
0000
0000
,
0000
0000
0000
0000
,
0000
0000
0000
0000
,
0000
0000
0000
0000
,
0000
0000
0000
0000
,
0001
0000
0000
0000
,
0000
0000
0000
0000
,
0001
0000
0000
0000
,
0000
0000
0000
0000
,
1000
0000
0000
0000
,
0000
0000
0000
0000
,
0001
0000
0000
0000
,
0000
0000
0000
0000
,
1000
0000
0000
0000
,
0000
0000
0000
0000
,
0001
0000
0000
0000
,
0000
0000
0000
0000
,
1000
0000
0000
0000
,
0000
0000
0000
0000
,
0100
0000
0000
0000
,
0000
0000
0000
0000
,
0010
0000
0000
0000
,
0010
0000
0000
0000
,
0010
0000
0000
0000
,
0000
0000
0000
0000
,
0001
0000
0000
0000
,
0000
0000
0000
0000
,
1000
0000
0000
0000
,
0000
0000
0000
0000
,
0001
0000
0000
0000
,
0000
0000
0000
0000
,
1000
0000
0000
0000
,
0000
0000
0000
0000
,
0001
0000
0000
0000
,
0000
0000
0000
0000
,
0001
0000
0000
0000
,
0000
0000
0000
0000
,
1000
0000
0000
0000
,
0000
0000
0000
0000
,
1000
0000
0000
0000
,
0000
0000
0000
0000
,
0001
0000
0000
0000
,
0000
0000
0000
0000
,
1000
0000
0000
0000
,
0000
0000
0000
0000
,
0001
0000
0000
0000
,
0000
0000
0000
0000
,
0001
0000
0000
0000
,
0000
0000
0000
0000
,
0001
0000
0000
0000
;

//--------------- dance-single - Fred-104 ----------------
#NOTEDATA:;
#STEPSTYPE:dance-single;
#DESCRIPTION:Fred-104;
#DIFFICULTY:Easy;
#METER:3;
#CREDIT:Fred-104;
#NOTES:
0000
0000
0000
0000
,
0000
0000
0000
0000
,
0000
0000
0000
0000
,
0000
0000
0000
0000
,
0000
0000
0000
0000
,
0001
0000
0001
0010
,
0100
0000
0100
0100
,
1000
0000
0001
0000
,
1000
1000
1001
0000
,
0001
0000
0010
0000
,
0100
1000
0001
0000
,
0100
0000
0010
0000
,
0100
0000
0001
1000
,
0001
0000
0001
0000
,
0010
0000
0010
0000
,
1000
0000
1000
0000
,
0100
0000
0001
0000
,
2000
0000
0000
3000
,
0002
0000
0000
0003
,
2000
0000
0000
3000
,
0002
0000
1003
1000
,
0001
0000
0100
0000
,
0100
0000
1000
0000
,
0010
0000
0010
0000
,
0002
0000
0003
0000
,
1000
0000
1000
0000
,
0100
0100
0010
0000
,
0001
0000
1000
0000
,
0001
0000
0100
0100
,
0010
0000
0100
0000
,
0001
0001
0001
0000
,
1000
0000
0010
0000
,
1000
1000
1000
0000
,
0001
0001
0010
0000
,
1000
1000
0010
0000
,
0001
1000
0001
0000
,
1000
0001
1000
0000
,
0001
0001
0100
0000
,
0100
1000
1000
0000
,
0100
0100
0001
0000
,
1000
1000
0001
0001
,
0002
0000
0000
0003
,
2000
0000
0000
3000
,
0002
0000
0000
0003
,
2000
0000
3001
1000
,
0020
0000
0000
0030
,
0020
0000
0000
0030
,
0200
0000
0000
0300
,
0200
0000
0301
1000
,
1001
0000
0000
0000
;

//--------------- dance-single - Fred-104 ----------------
#NOTEDATA:;
#STEPSTYPE:dance-single;
#DESCRIPTION:Fred-104;
#DIFFICULTY:Medium;
#METER:7;
#CREDIT:Fred-104;
#NOTES:
0000
0000
0000
0000
,
0000
0000
0000
0000
,
0000
0000
0000
0000
,
0000
0000
0000
0000
,
0000
0000
0000
0000
,
1000
0000
1000
0000
0100
0000
0001
1000
,
0001
0100
0010
0100
,
1000
0000
1000
0000
0001
0100
0001
0000
,
0100
0000
0000
0100
0000
0000
0010
0000
0000
0010
0000
0000
0110
0000
0000
0000
,
1000
0000
0001
0000
1000
0000
0000
0000
0001
0000
0000
0001
0000
0000
0001
0000
,
0100
0010
0100
0000
0001
0010
0100
0000
,
1000
0000
0001
0000
1000
0000
0000
0000
0010
0000
0000
0000
1000
0000
0000
0010
,
0000
0100
0100
0000
0101
0000
1001
0000
,
0001
0100
1000
0000
0100
0000
0001
0000
,
1000
0100
0001
0000
0100
1000
0001
0000
,
1000
0010
1000
0000
0001
0010
0100
0000
,
0010
0000
0000
0010
0000
0000
0100
0000
0000
0100
0000
0000
0110
0000
0000
0000
,
0002
0000
0203
0000
,
2300
0000
3000
0000
,
0002
0000
0023
0000
,
2030
0000
0000
0000
3001
1000
0001
0000
,
1000
1000
0100
0001
0100
1000
1000
0000
,
0001
0001
0100
1000
0100
0001
0001
0000
,
1000
1000
0010
0001
0010
1000
1000
0000
,
0002
0000
0000
0003
1000
0001
1000
0000
,
0001
0000
1000
0000
0001
0000
0000
0000
1000
0000
0000
1000
0000
0000
1000
0000
,
0100
0010
0100
0000
0001
0100
1000
0000
,
0001
0000
1000
0000
0001
0000
0000
0000
0010
0000
0000
0000
0001
0000
0000
0010
,
0000
0100
0100
1000
1100
0000
1001
0000
,
1000
0000
0100
0000
0001
0000
0000
0000
0100
0000
0000
1000
0000
0000
1000
0000
,
0001
0100
1000
0000
0100
0001
1000
0000
,
0001
0010
0001
0000
1000
0010
0100
0000
,
0010
0000
0010
0000
0100
0100
0110
0000
,
0001
1001
0000
0110
0000
1001
0000
1000
,
0000
0010
0100
0000
0001
0000
1000
0000
,
0100
0110
0000
0011
0000
1001
0000
0001
,
0000
0100
0100
0010
0100
0001
1000
0000
,
0001
0011
0000
1010
0000
0011
0000
0001
,
0000
1000
0100
1000
0001
0100
0010
0000
,
1000
1100
0000
0101
0000
1100
0000
1000
,
0001
0100
0010
0000
1000
0100
0010
0000
,
0002
0000
2003
0000
,
3020
0000
0230
0000
,
0302
0000
0000
0000
1003
0001
1000
0000
,
0200
0000
0000
0300
,
0020
0000
0000
0030
,
0002
0000
0000
0003
,
2000
0000
0000
3000
,
0002
0000
0000
0000
1003
0001
1000
0000
,
1001
0000
0000
0000
;

//--------------- dance-single - Fred-104 ----------------
#NOTEDATA:;
#STEPSTYPE:dance-single;
#DESCRIPTION:Fred-104;
#DIFFICULTY:Hard;
#METER:11;
#CREDIT:Fred-104;
#NOTES:
0000
0000
0000
0000
,
0000
0000
0000
0000
,
0000
0000
0000
0000
,
0000
0000
0000
0000
,
0000
0000
0000
0000
,
1000
0000
0000
0010
0000
0000
1000
0000
0000
0000
0001
0000
0000
1000
0000
0000
,
0001
0000
0000
0010
0000
0000
0100
0000
0010
0000
0000
0000
0011
0000
0000
0000
,
0001
0000
0000
1000
0000
0000
0010
0000
0000
0000
0100
0000
0000
0001
0000
0000
,
0010
0000
0000
0010
0000
0000
0010
0000
0100
1000
0000
0001
1000
0000
0000
0000
,
0001
0000
1000
0000
0010
0000
1000
0000
0001
0000
0010
0100
0000
0010
0100
0000
,
0010
0000
0001
0000
1000
0000
0010
0000
0100
0000
0001
1000
0001
0000
0000
0000
,
1000
0000
0001
0010
0001
0000
1000
0000
0001
0000
1000
0100
0000
0010
0000
0001
,
0000
1000
1000
1000
1010
0000
1001
0000
,
0001
0000
0001
0000
0010
0000
0100
0000
1000
0000
0001
0100
0000
0001
0100
0000
,
0010
0000
1000
0000
0001
0000
0010
0000
0100
0000
1000
0100
1000
0000
0000
0000
,
0001
0000
0100
0000
0010
0000
0100
0000
0001
0000
1000
0010
0000
1000
0000
0001
,
0000
1000
0000
1000
0100
0000
0000
0010
0000
0010
0000
0010
0002
0000
2003
0000
,
3001
0000
0000
0100
0000
0000
1000
0000
0000
0000
0100
0000
0000
0001
0000
0000
,
1000
0000
0000
0100
0000
0000
0001
0000
0000
0000
0100
0000
0000
1000
0000
0000
,
0001
0000
0000
0010
0000
0000
1000
0000
0010
0000
0001
0000
0000
0001
0000
0000
,
1000
0000
0000
0010
0000
0000
0001
0000
0010
0000
1000
0000
0001
0000
0000
0000
,
1000
0100
1000
0000
1000
0100
1000
0000
0001
0010
0001
0000
0001
0010
0001
0000
,
1000
0010
1000
0000
1000
0010
1000
0000
0001
0100
0001
0000
0001
0100
0001
0000
,
1000
0100
1000
0000
0001
0010
0001
0000
1000
0010
1000
0000
0001
0100
0001
0000
,
2000
0000
0000
3000
0001
0001
0001
0000
,
1000
0000
0010
0000
1000
0000
0001
0000
0100
0000
0001
1000
0000
0100
0010
0000
,
0001
0000
1000
0000
0010
0000
0001
0000
0010
0000
1000
0001
1000
0000
0001
0000
,
0000
0000
0010
0100
0010
0000
0100
0000
1000
0000
0001
0100
0000
0001
0000
1000
,
0000
0001
0010
0000
0100
0000
0100
0000
1100
0000
0000
0000
1001
0000
0000
0000
,
0001
0000
1000
0000
0010
0000
0100
0000
0010
0000
1000
0001
0000
1000
0001
0000
,
0010
0000
0100
0000
0010
0000
0001
0000
1000
0000
0001
0100
0001
0000
1000
0000
,
0100
0000
0010
0000
0001
0000
1000
0000
0010
0000
1000
0001
0000
1000
0000
0001
,
0000
0010
0100
0010
0100
0000
1000
0001
0000
0001
0000
0001
2000
0000
3002
0000
,
1003
0000
1010
0000
0000
0000
0101
0000
0000
0000
1100
0000
1000
0100
1000
0100
,
0000
0000
0010
0000
0011
0000
0001
0000
1000
0000
0001
0100
0000
0001
0100
0000
,
0001
0000
1001
0000
0000
0000
0110
0000
0000
0000
1001
0000
1000
0100
1000
0100
,
0000
0000
0010
0000
0011
0000
0001
0000
1000
0000
0001
0100
0000
0001
0100
0000
,
0010
0000
1010
0000
0000
0000
0011
0000
0000
0000
1100
0000
1000
0001
1000
0001
,
0000
0000
0100
0000
0101
0000
0001
0000
1000
0000
0001
0010
0000
0100
1000
0000
,
0001
0000
0101
0000
0000
0000
1100
0000
0000
0000
0011
0000
0001
1000
0001
1000
,
0000
0010
1000
0010
1000
0000
0001
1000
0000
1000
0100
0010
0001
1000
0001
0000
,
0020
0000
0000
0100
0000
0000
0100
0000
0000
0000
0100
0000
0000
0130
0000
0000
,
0020
0000
0000
0001
0000
0000
0001
0000
0000
0000
0001
0000
0000
0031
0000
0000
,
0200
0000
0000
0010
0000
0000
0010
0000
0000
0000
0010
0000
0000
0310
0000
0000
,
2000
0000
0000
0001
0000
0000
3001
0000
0010
0000
0100
0000
1000
0000
0000
0000
,
0001
0000
0000
0001
0000
0000
0001
0000
0000
0000
0100
0000
0000
1000
0000
0000
,
1000
0000
0000
1000
0000
0000
1000
0000
0000
0000
0100
0000
0000
0001
0000
0000
,
0001
0000
0000
0001
0000
0000
0010
0000
0000
0000
1000
0000
0000
1000
0000
0000
,
0010
0000
0000
0010
0000
0000
0001
0000
1000
0000
0001
0000
0200
0000
0000
0000
,
0300
0000
0000
0000
;

//--------------- dance-double - Fred-104 ----------------
#NOTEDATA:;
#STEPSTYPE:dance-double;
#DESCRIPTION:Fred-104;
#DIFFICULTY:Easy;
#METER:3;
#CREDIT:Fred-104;
#NOTES:
00000000
00000000
00000000
00000000
,
00000000
00000000
00000000
00000000
,
00000000
00000000
00000000
00000000
,
00000000
00000000
00000000
00000000
,
00000000
00000000
00000000
00000000
,
00000001
00000000
00001000
00000000
,
00000001
00000000
00001000
00000000
,
00000010
00000000
00010000
00000000
,
00011000
00000000
00000000
00000000
,
00001000
00000000
00100000
00000000
,
00001000
00100000
00001000
00000000
,
00100000
00000000
00010000
00000000
,
00100000
00000000
01000000
00000000
,
10000000
00000000
10000000
00000000
,
00100000
00000000
10000000
00000000
,
01000000
00100000
01000000
00000000
,
00100000
00000000
00001000
00000000
,
00020000
00000000
00000000
00030000
,
00002000
00000000
00000000
00003000
,
00020000
00000000
00000000
00030000
,
00002000
00000000
00013000
00010000
,
00001000
00000000
00001000
00000000
,
00010000
00000000
00010000
00000000
,
00000100
00000000
00000100
00000000
,
00000020
00000000
00000030
00000000
,
00000001
00000000
00000001
00000000
,
00000100
00001000
00000100
00000000
,
00001000
00000000
00010000
00000000
,
00001000
00000000
00010000
00001000
,
00010000
00000000
00100000
00000000
,
10000000
00010000
10000000
00000000
,
00010000
00000000
10000000
00000000
,
01000000
00100000
00001000
00000000
,
00010000
00010000
00001000
00000000
,
00000010
00001000
00010000
00000000
,
00001000
00010000
00001000
00000000
,
00010000
00001000
00010000
00000000
,
00001000
00010000
00100000
00000000
,
00010000
00001000
00010000
00000000
,
00001000
00010000
00001000
00000000
,
00010000
00010000
00001000
00001000
,
00020000
00000000
00000000
00030000
,
00002000
00000000
00000000
00003000
,
02000000
00000000
00000000
03000000
,
00020000
00000000
10030000
00010000
,
20000000
00000000
00000000
30000000
,
02000000
00000000
00000000
03000000
,
00200000
00000000
00000000
00300000
,
00002000
00000000
00013000
00001000
,
00011000
00000000
00000000
00000000
;

//--------------- dance-double - Fred-104 ----------------
#NOTEDATA:;
#STEPSTYPE:dance-double;
#DESCRIPTION:Fred-104;
#DIFFICULTY:Medium;
#METER:7;
#CREDIT:Fred-104;
#NOTES:
00000000
00000000
00000000
00000000
,
00000000
00000000
00000000
00000000
,
00000000
00000000
00000000
00000000
,
00000000
00000000
00000000
00000000
,
00000000
00000000
00000000
00000000
,
10000000
00000000
00100000
00000000
00010000
00000000
00001000
00010000
,
00001000
00010000
01000000
00010000
,
00001000
00000000
00000100
00000000
00001000
00010000
00001000
00000000
,
00000010
00000000
00000000
00000010
00000000
00000000
00000001
00000000
00000000
00000001
00000000
00000000
00001001
00000000
00000000
00000000
,
00000001
00000000
00001000
00000000
00000010
00000000
00000000
00000000
00000100
00000000
00000000
00001000
00000000
00000000
00010000
00000000
,
00001000
00100000
00010000
00000000
01000000
00001000
00010000
00000000
,
00001000
00000000
00010000
00000000
00100000
00000000
00000000
00000000
01000000
00000000
00000000
00000000
00010000
00000000
00000000
10000000
,
00000000
01000000
01000000
00000000
01100000
00000000
10010000
00000000
,
10000000
01000000
00010000
00000000
00001000
00010000
01000000
00000000
,
10000000
00100000
00010000
00000000
00001000
00010000
00100000
00000000
,
10000000
01000000
00010000
00000000
00001000
00000100
00000001
00000000
,
00000010
00000000
00000000
00000010
00000000
00000000
00001000
00000000
00000000
00010000
00000000
00000000
00011000
00000000
00000000
00000000
,
00020000
00000000
00032000
00000000
,
00003020
00000000
00002030
00000000
,
00023000
00000000
00230000
00000000
,
00320000
00000000
00000000
00000000
00031000
00010000
00001000
00000000
,
00010000
00001000
00000100
00000000
00000001
00001000
00000001
00000000
,
00000010
00001000
00010000
00000000
01000000
10000000
00010000
00000000
,
10000000
00100000
00010000
00000000
00001000
00000100
00000001
00000000
,
00000020
00000000
00000000
00000000
00001030
00010000
00001000
00000000
,
00010000
00000000
00001000
00000000
01000000
00000000
00000000
00000000
00010000
00000000
00000000
10000000
00000000
00000000
01000000
00000000
,
00100000
01000000
00010000
00000000
01000000
10000000
00010000
00000000
,
10000000
00000000
00100000
00000000
00010000
00000000
00000000
00000000
00001000
00000000
00000000
00000000
00010000
00000000
00000000
00000100
,
00000000
00000010
00000001
00000100
00000110
00000000
00011000
00000000
,
00010000
00000000
00001000
00000000
00000010
00000000
00000000
00000000
00001000
00000000
00000000
00010000
00000000
00000000
00010000
00000000
,
00001000
00010000
00100000
00000000
00010000
00001000
00010000
00000000
,
00001000
00010000
00100000
00000000
01000000
10000000
01000000
00000000
,
00010000
00010000
10000000
10000000
01000000
01000000
01100000
00000000
,
10000000
11000000
00000000
00110000
00000000
10100000
00000000
10000000
,
00000000
00100000
00010000
00000000
00001000
00000000
00010000
00000000
,
00000100
00001100
00000000
00000101
00000000
00001010
00000000
00000001
,
00000000
00000100
00000100
00001000
00010000
00001000
00010000
00000000
,
00001000
00011000
00000000
01001000
00000000
00011000
00000000
00001000
,
00000000
00010000
00001000
01000000
00010000
10000000
00010000
00000000
,
10000000
10100000
00000000
00110000
00000000
00011000
00000000
00010000
,
00000100
00001000
00000010
00000000
00010000
00001000
00010000
00000000
,
00002000
00000000
00023000
00000000
,
02030000
00000000
03200000
00000000
,
00302000
00000000
00000000
00000000
00013000
00001000
00010000
00000000
,
00002000
00000000
00000000
00003000
,
00000200
00000000
00000000
00000300
,
00000002
00000000
00000000
00000003
,
00000020
00000000
00000000
00000030
,
00002000
00000000
00000000
00000000
00013000
00001000
00010000
00000000
,
00011000
00000000
00000000
00000000
;

//--------------- dance-double - Fred-104 ----------------
#NOTEDATA:;
#STEPSTYPE:dance-double;
#DESCRIPTION:Fred-104;
#DIFFICULTY:Hard;
#METER:11;
#CREDIT:Fred-104;
#NOTES:
00000000
00000000
00000000
00000000
,
00000000
00000000
00000000
00000000
,
00000000
00000000
00000000
00000000
,
00000000
00000000
00000000
00000000
,
00000000
00000000
00000000
00000000
,
00010000
00000000
00000000
00001000
00000000
00000000
00010000
00000000
00000000
00000000
00000010
00000000
00000000
00001000
00000000
00000000
,
00000100
00000000
00000000
00000010
00000000
00000000
00000001
00000000
00000000
00000000
00000100
00000000
00000000
00001000
00000000
00000000
,
00010000
00000000
00000000
00001000
00000000
00000000
00100000
00000000
00000000
00000000
00001000
00000000
00000000
00010000
00000000
00000000
,
00001000
00000000
00000000
00100000
00000000
00000000
01000000
00000000
10000000
00010000
00000000
10000000
00010000
00000000
01000000
00000000
,
00100000
00000000
10000000
00000000
00010000
00000000
10000000
00000000
01000000
00000000
00100000
00001000
00000000
00100000
00001000
00000000
,
00010000
00000000
00001000
00000000
00000100
00000000
00000001
00000000
00001000
00000000
00000100
00000010
00000100
00000000
00000000
00000000
,
00001000
00000000
00000001
00000100
00000001
00000000
00000100
00000000
00000010
00000000
00000100
00001000
00000000
00010000
00000000
00001000
,
00000000
00010000
00000100
00000010
00000011
00000000
00001001
00000000
,
00001000
00000000
00001000
00000000
00000001
00000000
00000100
00000000
00001000
00000000
00010000
00001000
00000000
00010000
00001000
00000000
,
00010000
00000000
00001000
00000000
00010000
00000000
00100000
00000000
01000000
00000000
00010000
01000000
00010000
00000000
00000000
00000000
,
10000000
00000000
01000000
00000000
00100000
00000000
01000000
00000000
00010000
00000000
00001000
00010000
00000000
00000100
00000000
00010000
,
00000000
00001000
00000000
00001000
00010000
00000000
00000000
00000010
00000000
00000010
00000000
00000010
00020000
00000000
00032000
00000000
,
00023000
00000000
00001000
00000000
,
00000010
00000000
00031000
00000000
,
00020000
00000000
00001000
00000000
,
00100000
00000000
00000000
00000000
00031000
00001000
00011000
00000000
,
00010000
00001000
00000010
00000001
00001000
00000001
00000100
00001000
,
00010000
00100000
10000000
00010000
10000000
01000000
00010000
00001000
,
00000010
00000001
00001000
00000001
00000100
00001000
00010000
00100000
,
20000000
00000000
00000000
30000000
00010000
00010000
00010000
00000000
,
10000000
00000000
01000000
00000000
00010000
00000000
00001000
00000000
00010000
00000000
00000100
00001000
00000000
00000100
00001000
00000000
,
00000001
00000000
00000100
00000000
00000001
00000000
00001000
00000000
00000100
00000000
00000010
00000100
00000010
00000000
00001000
00000000
,
00000000
00000000
00010000
00001000
00010000
00000000
00001000
00000000
00010000
00000000
00100000
01000000
00000000
00010000
00000000
10000000
,
00000000
01000000
00010000
00000000
00001000
00000000
00010000
00000000
00010100
00000000
00000000
00000000
00001001
00000000
00000000
00000000
,
00001000
00000000
00001000
00000000
00000001
00000000
00000010
00000000
00001000
00000000
00010000
00001000
00000000
00000100
00001000
00000000
,
00010000
00000000
00001000
00000000
00010000
00000000
01000000
00000000
10000000
00000000
00010000
01000000
00010000
00000000
10000000
00000000
,
01000000
00000000
00010000
00000000
00001000
00000000
00010000
00000000
00100000
00000000
00010000
00001000
00000000
00010000
00000000
00000100
,
00000000
00001000
00000010
00001000
00000010
00000000
00000100
00000001
00000000
00000001
00000000
00000001
00000020
00000000
00000230
00000000
,
00001300
00000000
00001100
00000000
00000000
00000000
00000101
00000000
00000000
00000000
00011000
00000000
00010000
00001000
00010000
00001000
,
00000000
01000000
00010000
00000000
10000000
00000000
01000000
00000000
00010000
00000000
01000000
00100000
00000000
01000000
10000000
00000000
,
00010000
00000000
10010000
00000000
00000000
00000000
00101000
00000000
00000000
00000000
00011000
00000000
00010000
00000100
00010000
00000100
,
00000000
00000010
00000001
00000000
00001000
00000000
00000001
00000000
00000100
00000000
00001000
00010000
00000000
00001000
00010000
00000000
,
00001000
00000000
00011000
00000000
00000000
00000000
00010010
00000000
00000000
00000000
00101000
00000000
00001000
00010000
00001000
00010000
,
00000000
00000100
00010000
00000000
00001000
00000000
01000000
00000000
00010000
00000000
00100000
01000000
00000000
10000000
00010000
00000000
,
01000000
00000000
01100000
00000000
00000000
00000000
00011000
00000000
00000000
00000000
00000110
00000000
00000001
00001000
00000001
00001000
,
00000000
00000100
00000010
00000100
00000010
00000000
00000001
00001000
00000000
00001000
00000001
00000010
00000100
00010000
00001000
00000000
,
00020000
00000000
00000000
00001000
00000000
00000000
00001000
00000000
00000000
00000000
00001000
00000000
00000000
00031000
00000000
00000000
,
00002000
00000000
00000000
00010000
00000000
00000000
00010000
00000000
00000000
00000000
00010000
00000000
00000000
00013000
00000000
00000000
,
00000020
00000000
00000000
00010000
00000000
00000000
00020030
00000000
00000000
00000000
00001000
00000000
00000000
00031000
00000000
00000000
,
00200000
00000000
00000000
00001000
00000000
00000000
00301000
00000000
00010000
00000000
00001000
00000000
00010000
00000000
00000000
00000000
,
00001000
00000000
00000000
00010000
00000000
00000000
00100000
00000000
00000000
00000000
10000000
00000000
00000000
00010000
00000000
00000000
,
10000000
00000000
00000000
01000000
00000000
00000000
00010000
00000000
00000000
00000000
00001000
00000000
00000000
00010000
00000000
00000000
,
00001000
00000000
00000000
00000010
00000000
00000000
00000001
00000000
00000000
00000000
00001000
00000000
00000000
00000001
00000000
00000000
,
00000100
00000000
00000000
00001000
00000000
00000000
00010000
00000000
00001000
00000000
00010000
00000000
00002000
00000000
00000000
00000000
,
00003000
00000000
00000000
00000000
;
