#VERSION:0.83;
#TITLE:Tortura;
#ARTIST:MAX MAXIMIZER;
#BANNER:Tortura.png;
#BACKGROUND:Tortura-bg.png;
#CDTITLE:./CDTitles/RB Reflesia.png;
#MUSIC:Tortura.ogg;
#SAMPLESTART:38.446;
#SAMPLELENGTH:15;
#DISPLAYBPM:25.75:206;
#BPMS:0=206,65.5=412,68=206,175=103,176=206,192=103,216=51.5,218=25.75,219=206,291=103;
#STOPS:65.5=0.146,66.5=0.145,67.5=0.073,98=0.073,98.25=0.073,98.5=0.073,98.75=0.072,129=0.073,129.25=0.073,129.5=0.073,129.75=0.072,160=0.072,160.25=0.073,160.5=0.073,160.75=0.073;
#SPEEDS:0=1=0=0,291=0=12=0;
#SCROLLS:0=1,218.0625=1.25,218.125=1.5,218.1875=1.75,218.25=2,218.3125=2.5,218.375=3,218.4375=3.5,218.5=4,218.5625=5,218.625=6,218.6875=7,218.75=8,219=1;
#TIMESIGNATURES:0=4=4,96=3=4,99=4=4,127=3=4,130=4=4,158=3=4,161=4=4,173=3=4,176=4=4,216=3=4,219=6=8,291=3=4;
#BGSTAGE:30;

//--------------- dance-single - Fred-104 ----------------
#NOTEDATA:;
#STEPSTYPE:dance-single;
#DESCRIPTION:Fred-104;
#DIFFICULTY:Beginner;
#METER:9;
#CREDIT:Fred-104;
#NOTES:
0000
0000
0000
0000
,
0000
0000
0000
0000
,
0000
0000
0000
0000
,
0000
0000
0000
0000
,
0000
0000
0000
0000
,
0000
0000
0000
0000
,
0000
0000
0000
0000
,
0000
0000
0000
0000
,
0000
0000
0000
0000
,
1000
0100
1000
0000
0000
0010
0000
0010
,
0100
0001
0100
0000
0000
0001
0000
0001
,
0010
0001
0010
0000
0000
0001
0000
0001
,
1000
0001
0100
0000
0000
0100
0000
0100
,
0010
1000
0010
0000
1000
0000
0100
0000
,
0010
0001
0010
0000
0001
0000
0100
0000
,
0010
0100
0010
0000
1000
0000
0001
0000
,
1000
0001
1000
0001
0000
0001
0000
0000
,
1001
0100
0010
0001
,
1000
0100
1000
0000
1000
0000
0001
0000
,
0100
0010
0100
0001
,
0010
0100
0010
0000
0010
0000
1000
0000
,
0001
1000
0100
0100
,
1000
0010
0100
0000
0001
0000
0100
0000
,
0010
1000
0001
0010
,
0100
0000
0010
0000
0100
0000
0010
0000
0200
0000
0000
0300
0110
0000
0000
0000
,
1000
0000
0100
0000
1000
0000
0001
0010
,
0001
0100
0100
0010
,
0100
0000
0001
0000
1000
0000
0001
1000
,
0001
0100
0100
0010
,
0010
0000
1000
0000
0100
0000
1000
0100
,
1000
0000
0001
0100
0001
0000
1000
0000
,
0100
0000
0010
0000
0001
0000
1000
0001
,
1000
0001
2000
0000
3001
0000
0001
0000
,
0010
0001
1000
0100
,
0100
0010
0001
1000
,
0010
1000
0001
1000
,
0001
0000
1000
0000
0010
1000
0000
1000
,
0000
1000
0000
0001
0000
0001
0000
0001
,
0000
0100
0000
0100
0000
0100
0000
0010
,
0000
0010
0000
0010
1000
0000
0001
0000
,
1001
1000
0100
0100
,
0010
0100
0010
0000
0001
0000
0001
0000
,
0100
0010
1000
0001
,
0010
0001
0010
0000
0001
0000
1001
0000
,
1000
0100
0000
0100
0000
1000
0000
1000
,
0000
0010
0000
0010
0000
0100
0000
0100
,
0000
0001
0000
0001
0000
1000
0000
1000
,
0001
1000
0001
0000
,
2002
0000
0000
3003
0220
0000
0000
0330
,
2002
0000
0000
3003
0220
0000
0000
0330
,
2000
0000
3020
0000
,
0032
0000
0203
0000
,
1300
1000
0010
0010
,
0001
0001
1000
1000
,
0100
0100
0100
0100
0200
0300
0001
0000
,
0000
0001
0000
0000
0010
0000
0000
0001
,
0000
0000
1000
0000
0000
0010
0000
0000
,
1000
0000
0000
0100
0000
0000
0100
0000
,
0000
1000
0000
0000
0010
0000
0000
1000
,
0000
0000
1000
0000
0000
0100
0000
0000
,
0100
0000
0000
0010
0000
0000
0010
0000
,
0000
0100
0000
0000
0100
0000
0000
1000
,
0000
0000
1000
0000
0000
0010
0000
0000
,
0010
0000
0000
1000
0000
0000
1000
0000
,
0000
0100
0000
0000
0100
0000
0000
0010
,
0000
0000
0010
0000
0000
0001
0000
0000
,
0001
0000
0000
0100
0000
0000
0100
0000
,
0000
0010
0000
0000
0010
0000
0000
1000
,
0000
0000
1000
0000
0000
0001
0000
0000
,
0001
0000
0000
1000
0000
0000
1000
0000
,
0000
0010
0000
0000
1000
0000
0000
0001
,
0000
0000
0010
0000
0000
0001
0000
0000
,
1000
0000
0000
0001
0000
0000
2002
0000
,
0000
0000
0000
0000
,
0000
0000
0000
0000
,
0000
0000
0000
3003
;

//--------------- dance-single - Fred-104 ----------------
#NOTEDATA:;
#STEPSTYPE:dance-single;
#DESCRIPTION:Fred-104;
#DIFFICULTY:Easy;
#METER:12;
#CREDIT:Fred-104;
#NOTES:
0000
0000
0000
0000
,
0000
0000
0000
0000
,
0000
0000
0000
0000
,
0000
0000
0000
0000
,
0000
0000
0000
0000
,
0000
0000
0000
0000
,
0000
0000
0000
0000
,
0000
0000
0000
0000
,
0000
0000
0000
0000
,
0010
1000
0001
0000
0000
0100
0000
0100
,
0010
1000
0100
0000
0000
0100
0000
0100
,
0010
0001
0010
0000
0000
0100
0000
0100
,
0010
1000
0010
0000
0000
0100
0000
0100
,
0010
1000
0010
0100
0000
0001
0000
0001
,
0010
0100
1000
0001
0000
0001
0000
0100
,
0010
1000
0010
0100
0000
0001
0000
0001
,
0010
0000
0000
0000
0000
0000
0000
0000
0100
0000
0000
0000
0000
0000
0000
0000
1000
0000
0000
0000
0000
0000
0000
0000
0020
0030
0000
0000
0000
0000
0000
0000
0000
0000
0000
0000
0000
0000
0000
0000
2002
3003
0000
0000
0000
0000
0000
0000
0000
0000
0000
0000
0000
0000
0000
0000
0020
0030
0000
0000
0000
0000
0000
0000
,
1000
0100
1000
0000
0010
0100
0001
0000
,
1000
0000
0100
0010
0000
0001
0100
0000
,
0010
1000
0001
0000
0010
0001
0100
0000
,
0001
0010
0000
0100
0000
0010
0001
0000
,
1000
0001
0100
0000
0010
1000
0100
0000
,
1000
0000
0010
0100
0000
0001
1000
0000
,
0001
0010
0001
0000
1000
0010
1000
0000
,
0011
0000
0000
0000
1100
0000
0000
0000
2002
0000
0000
3003
1000
0000
0010
0000
,
0100
0000
0001
0010
0001
0000
1000
0000
,
0100
0010
0001
1000
0010
0000
0100
0010
,
0100
0000
0001
0100
0001
0000
1000
0010
,
0000
1000
0000
0001
0001
0000
1000
0100
,
0010
0000
0001
1000
0010
0000
0100
0010
,
0100
0010
1000
0010
0100
0000
0001
1000
,
0010
0000
0100
0010
1000
0000
0001
0100
,
1000
0000
1001
0000
1000
0100
0000
0110
,
0000
0010
0000
0001
0000
1000
0000
1010
,
0000
0010
0000
0100
0000
0001
0000
0011
,
0000
0010
0000
0100
0000
1000
0000
1001
,
0000
0001
0000
0100
0010
0100
0000
0101
,
0000
0001
0000
0010
0000
0100
0000
1100
,
0000
1000
0000
0010
0000
1000
0000
0011
,
0000
0001
0000
0100
0010
0100
0010
0100
,
0020
0000
0000
0030
1000
0000
0000
0000
1100
0000
0000
0000
1100
0000
0000
0000
,
0001
0100
0010
0000
0110
0000
0110
0000
,
0001
1000
0010
0000
1010
0000
1010
0000
,
1000
0000
0100
0000
0010
0000
0000
0000
0110
0000
0000
0000
2002
0000
0000
3003
,
0001
0010
0000
0011
0000
0001
0000
0100
,
0000
0010
0000
1010
0000
0100
0000
0010
,
0000
0001
0000
0101
0000
0100
0000
0010
,
1000
0001
1000
0001
0100
0010
0100
0010
,
1000
0000
0000
0100
0000
0000
0010
0000
0001
0000
0000
0010
0000
0000
1000
0000
,
0001
0000
0000
0100
0000
0000
1000
0000
1000
0000
0000
0100
0000
0000
0001
0000
,
1000
0000
0000
0010
0000
0000
0100
0000
1000
0000
0000
0010
0000
0000
0001
0000
,
1000
0000
0000
0010
0000
0000
0100
0000
0001
0000
0000
0010
0000
0000
0100
0000
,
1000
0000
0100
0000
0000
0010
0000
0010
0001
0000
0000
0100
0000
0010
0000
0000
,
1000
0000
0100
0000
0000
0010
0000
0010
0100
0000
0000
1000
0000
0001
0000
0000
,
1000
0000
0100
0000
0000
0010
0000
0010
0001
0000
0000
0100
0000
0010
0000
0000
2002
0000
0000
0000
0000
0000
3003
0000
1000
0000
0000
0000
0000
0000
1000
0000
,
0000
0000
0100
0000
0000
0100
0000
0000
0010
0000
0000
0010
0000
0000
0001
0000
,
0000
0001
0000
0000
0100
0000
0000
0100
0000
0000
0010
0000
0000
0010
0000
0000
,
1000
0000
0000
1000
0000
0000
0100
0000
0000
0100
0000
0000
0001
0000
0000
0001
,
0000
0000
0010
0000
0000
0010
0000
0000
1000
0000
0000
1000
0000
0000
0001
0000
,
0000
0001
0000
0000
0100
0000
0000
0100
0000
0000
0010
0000
0000
0010
0000
0000
,
1000
0000
0000
1000
0000
0000
0100
0000
0000
0100
0000
0000
1000
0000
0000
1000
,
0000
0000
0001
0000
0000
0001
0000
0000
0010
0000
0000
0010
0000
0000
1000
0000
,
0000
1000
0000
0000
0001
0000
0000
0001
0000
0000
0100
0000
0000
0100
0000
0000
,
0010
0000
0000
0010
0000
0000
1000
0000
0000
1000
0000
0000
0100
0000
0000
0100
,
0000
0000
0010
0000
0000
0010
0000
0000
0001
0000
0000
0001
0000
0000
1000
0000
,
0000
1000
0000
0000
0010
0000
0000
0010
0000
0000
0100
0000
0000
0100
0000
0000
,
0001
0000
0000
0001
0000
0000
1000
0000
0000
1000
0000
0000
0001
0000
0000
0010
,
0000
0000
0100
0000
0000
1000
0000
0000
0010
0000
0000
1000
0000
0000
0100
0000
,
0000
1000
0000
0000
0010
0000
0000
0100
0000
0000
0001
0000
0000
0010
0000
0000
,
0100
0000
0000
1000
0000
0000
0100
0000
0000
0010
0000
0000
0001
0000
0000
0100
,
0000
0000
0010
0000
0000
1000
0000
0000
0010
0000
0000
0001
0000
0000
0100
0000
,
0000
0010
0000
0000
1000
0000
0000
0100
0000
0000
0001
0000
0000
0010
0000
0000
,
0100
0000
0000
1000
0000
0000
0001
0000
0000
1000
0000
0000
2002
0000
0000
0000
,
0000
0000
0000
0000
,
0000
0000
0000
0000
,
0000
0000
0000
3003
;

//--------------- dance-single - Fred-104 ----------------
#NOTEDATA:;
#STEPSTYPE:dance-single;
#DESCRIPTION:Fred-104;
#DIFFICULTY:Medium;
#METER:16;
#CREDIT:Fred-104;
#NOTES:
0000
0000
0000
0000
,
0000
0000
0000
0000
,
0000
0000
0000
0000
,
0000
0000
0000
0000
,
0000
0000
0000
0000
,
0000
0000
0000
0000
,
0000
0000
0000
0000
,
0000
0000
0000
0000
,
0000
0000
0000
0000
,
1000
0100
1100
0000
0000
0010
0000
0010
,
0100
0001
0101
0000
0000
0001
0000
0001
,
0010
0100
1100
0000
0000
0010
0000
0010
,
0100
0001
0101
0000
0000
0100
0000
0100
,
0010
1000
0100
0010
0000
0010
0001
1000
,
0001
0100
1000
0100
0000
0100
0001
0010
,
0100
1000
0010
0100
0000
0001
0010
1000
,
0001
0000
0000
0000
0000
0000
0000
0000
0100
0000
0000
0000
0000
0000
0000
0000
0010
0000
0000
0000
0000
0000
0000
0000
2020
3030
0000
0000
0000
0000
0000
0000
0000
0000
0000
0000
0000
0000
0000
0000
0202
0303
0000
0000
0000
0000
0000
0000
0000
0000
0000
0000
0000
0000
0000
0000
2002
3003
0000
0000
0000
0000
0000
0000
,
0100
0010
0001
0100
0010
1000
0010
1000
,
0001
1000
0200
0010
0000
1300
0010
0100
,
0001
0010
0001
0100
0001
0010
0001
1000
,
0100
1000
0100
0000
1000
0000
1010
0000
0000
0000
0010
0000
0100
0000
0001
0000
,
0010
0001
1000
0010
0100
0010
1000
0100
,
0001
1000
0001
0000
0100
0000
0110
0000
0000
0000
0010
0000
0100
0000
0010
0000
,
1000
0001
1000
0000
0100
0000
0010
0000
0001
0000
0100
0000
0010
0000
0100
0000
,
0010
0000
0000
0000
0100
0000
0000
0000
0010
0000
0000
0000
0100
0000
0000
0000
0010
0000
0000
0000
0100
0000
0000
0000
0010
0000
0000
0000
0100
0000
0000
0000
0002
0003
0000
0000
0020
0030
0000
0000
0200
0300
0000
0000
2000
3000
0000
0000
0001
0000
0000
0000
0000
0000
0000
0000
0100
0000
0000
0000
0000
0000
0000
0000
,
0010
0000
1000
0000
0100
0000
0010
0000
0001
0100
0010
0000
1000
0000
0010
0100
,
0020
1000
0000
0031
1000
0100
0010
1000
,
0100
0000
0010
0000
0001
0000
0100
0000
0010
0000
0100
0000
0001
0000
0010
0001
,
0010
0000
0001
0000
1000
0010
0100
0000
0010
0000
0010
0000
1000
0001
1000
0000
,
0100
0000
0010
0000
0100
0000
0010
0000
0001
0000
0100
0000
0001
0000
0100
0010
,
0100
0000
0001
0000
1000
0000
0100
0010
0100
0000
0010
0000
0001
1000
0001
0000
,
0010
0000
0100
0000
0010
0000
0010
0000
1000
0000
0100
0000
1000
0010
1000
0010
,
1000
0000
0000
0000
0010
0000
0000
0000
1000
0000
0000
0000
0010
0000
0000
0000
2000
3000
0000
0000
0002
0003
0000
0000
0200
0300
0000
0000
0020
0030
0000
0000
1000
0000
0000
0000
0000
0000
0000
0000
1100
0000
0000
0000
0000
0000
0000
0000
0000
0000
0000
0000
0000
0000
0000
0000
0110
0000
0000
0000
0000
0000
0000
0000
,
0000
0011
0000
1010
0000
0101
0000
1100
,
0000
1001
0000
0110
0000
1010
0000
0101
,
0000
1100
0000
0011
0000
0110
0000
1001
,
0000
0110
0000
0001
0100
0110
0000
1100
,
0000
0101
0000
1010
0000
0011
0000
1100
,
0000
0101
0000
0110
0000
1001
0000
0110
,
0000
0000
1001
0000
0000
0000
0100
0000
0010
0100
0010
0100
0010
0100
0010
0100
,
0020
0030
0000
0000
0200
0300
0000
0000
0002
0003
0000
0000
2000
3000
0000
0000
1001
0000
0000
0000
0000
0000
0000
0000
0000
0000
0000
0000
0000
0000
0000
0000
1100
0000
0000
0000
0000
0000
0000
0000
0000
0000
0000
0000
0000
0000
0000
0000
1001
0000
0000
0000
0000
0000
0000
0000
0000
0000
0000
0000
0000
0000
0000
0000
,
0100
0010
0001
0100
0101
0000
0100
0010
,
1000
0010
0100
0010
1010
0000
1000
0100
,
0010
0000
0001
0000
0100
0000
0010
0000
0100
0000
0010
0000
0220
0000
0000
0330
,
0001
0011
0000
1010
0000
0001
0100
0010
,
1000
1100
0000
0101
0000
0100
0010
0001
,
1000
1010
0000
0101
0000
0001
0100
0010
,
1000
0010
1000
0000
0001
0100
0001
0000
1000
0100
1000
0000
0001
0010
0001
0000
,
1000
0000
0100
0010
0000
0001
0100
0010
0100
0001
0100
0010
0000
1000
0010
0100
,
0010
1000
0010
0001
0000
0010
1000
0001
0100
0010
1000
0100
0000
0100
0010
0100
,
1000
0010
0100
0010
0000
1000
0010
0001
0010
1000
0001
1000
0000
0010
0100
0001
,
1000
0100
0001
0100
0000
1000
0010
0100
0001
0010
0100
0010
0000
0001
0100
0010
,
1000
0100
0100
0000
0000
0010
0000
0010
0001
0000
1000
0100
0000
0100
0000
0010
,
0001
1000
1000
0000
0000
0010
0000
0010
0100
0000
0001
0100
0000
1000
0000
0100
,
0001
0010
0100
0000
0000
1000
0000
0010
1000
0000
0000
0100
0000
0010
0000
0100
2002
0000
0000
0000
0000
0000
3003
0000
1000
0000
0000
0000
0000
0000
1100
0000
,
0000
0000
0100
0000
0000
0110
0000
0000
0010
0000
0000
0011
0000
0000
0001
0000
,
0000
0101
0000
0000
0100
0000
0000
0110
0000
0000
0010
0000
0000
1010
0000
0000
,
1000
0000
0000
1001
0000
0000
0001
0000
0000
0101
0000
0000
0100
0000
0000
0110
,
0000
0000
0010
0000
0000
1010
0000
0000
1000
0000
0000
1001
0000
0000
0001
0000
,
0000
0101
0000
0000
0100
0000
0000
1100
0000
0000
1000
0000
0000
1010
0000
0000
,
0010
0000
0000
0011
0000
0000
0001
0000
0000
1001
0000
0000
1000
0000
0000
1100
,
0000
0000
1000
0000
0000
1010
0000
0000
1000
0000
0000
1001
0000
0000
1000
0000
,
0000
1010
0000
0000
0001
0000
0000
0101
0000
0000
0001
0000
0000
0011
0000
0000
,
0001
0000
0000
1001
0000
0000
0001
0000
0000
0011
0000
0000
1000
0000
0000
1100
,
0000
0000
1100
0000
0000
0110
0000
0000
0001
0000
0000
0101
0000
0000
0101
0000
,
0000
0110
0000
0000
1000
0000
0000
1010
0000
0000
0110
0000
0000
1010
0000
0000
,
0001
0000
0000
0000
0000
0000
0011
0000
0000
0000
0000
0000
0110
0000
0000
0000
0000
0000
0011
0000
0000
0000
0000
0000
0001
0000
0000
0100
0000
0000
0001
0000
,
0000
0100
0000
0000
0010
0000
0000
1000
0000
0000
0100
0000
0000
0010
0000
0000
0100
0000
0000
0010
0000
0000
0100
0000
0000
0010
0000
0000
0001
0000
0000
0010
,
0000
0000
0100
0000
0000
1000
0000
0000
0001
0000
0000
0010
0000
0000
0001
0000
0000
0010
0000
0000
0001
0000
0000
1000
0000
0000
0010
0000
0000
1000
0000
0000
,
0010
0000
0000
0100
0000
0000
0010
0000
0000
1000
0000
0000
0100
0000
0000
1000
0000
0000
0100
0000
0000
0010
0000
0000
0001
0000
0000
0010
0000
0000
0001
0000
,
0000
0100
0000
0000
0010
0000
0000
0100
0000
0000
0001
0000
0000
0100
0000
0000
0001
0000
0000
1000
0000
0000
0010
0000
0000
1000
0000
0000
0001
0000
0000
0010
,
0000
0000
0001
0000
0000
0100
0000
0000
0001
0000
0000
0100
0000
0000
0010
0000
0000
1000
0000
0000
0100
0000
0000
0010
0000
0000
0001
0000
0000
0010
0000
0000
,
0100
0000
0000
1000
0000
0000
0010
0000
0000
0100
0000
0000
0001
0000
0000
0100
0000
0000
0010
0000
0000
1000
0000
0000
2002
0000
0000
0000
0000
0000
0000
0000
,
0000
0000
0000
0000
,
0000
0000
0000
0000
,
0000
0000
0000
3003
;

//--------------- dance-single - Fred-104 ----------------
#NOTEDATA:;
#STEPSTYPE:dance-single;
#DESCRIPTION:Fred-104;
#DIFFICULTY:Hard;
#METER:18;
#CREDIT:Fred-104;
#NOTES:
0000
0000
0000
0000
,
0000
0000
0000
0000
,
0000
0000
0000
0000
,
0000
0000
0000
0000
,
0000
0000
0000
0000
,
0000
0000
0000
0000
,
0000
0000
0000
0000
,
0000
0000
0000
0000
,
0000
0000
0000
0000
,
1100
0000
0100
0000
0100
0000
0000
0000
0000
0000
0000
0000
0010
0000
0001
0100
,
0010
0000
0100
0000
0100
0000
0000
0000
0000
0000
0000
0000
0001
0000
1000
0010
,
0100
0000
0100
0000
0100
0000
0000
0000
0000
0000
0000
0000
0001
0000
1000
0001
,
0010
0000
0010
0000
0010
0000
0000
0000
0000
0000
0000
0000
0100
0000
0010
1000
,
0001
0000
0010
0000
0001
0000
1000
0000
0000
0000
0100
0010
0100
0000
0010
0000
,
1000
0000
0100
0000
0010
0000
0001
0000
0000
0000
1000
0010
0100
0000
0001
0000
,
1000
0000
0010
0000
0001
0000
0010
0000
0000
0000
1000
0001
1000
0000
0010
0000
,
0100
0000
0000
0000
0000
0000
0000
0000
0001
0000
0000
0000
0000
0000
0000
0000
1000
0000
0000
0000
0000
0000
0000
0000
2200
3300
0000
0000
0000
0000
0000
0000
0000
0000
0000
0000
0000
0000
0000
0000
0202
0303
0000
0000
0000
0000
0000
0000
0000
0000
0000
0000
0000
0000
0000
0000
0220
0330
0000
0000
0000
0000
0000
0000
,
1000
0000
0010
0100
0010
0000
1000
0001
1000
0000
0100
0000
0010
0000
0001
0000
,
0100
0001
1000
0010
0200
0000
0010
0000
0000
0000
0301
0000
0100
0000
0010
0000
,
1000
0100
1000
0010
0100
0000
0001
0010
0001
0000
1000
0000
0010
0100
0010
0000
,
1000
0001
0100
0001
1000
0000
1010
0000
0000
0000
0110
0000
0100
0000
0001
0000
,
0010
0000
0001
0010
0100
0000
0010
0001
1000
0000
0010
1000
0001
1000
0100
0000
,
0010
0001
1000
0000
0010
0100
0010
0000
0100
0000
0100
0000
0010
0000
0010
0000
,
1000
0100
1000
0000
0010
0000
0100
0000
0010
0000
0001
0010
0001
0010
0001
0000
,
0010
0000
0000
0000
0001
0000
0000
0000
0010
0000
0000
0000
0001
0000
0000
0000
1000
0000
0000
0000
0100
0000
0000
0000
1000
0000
0000
0000
0100
0000
0000
0000
2000
3000
0000
0000
0020
0030
0000
0000
0200
0300
0000
0000
0002
0003
0000
0000
0100
0000
0000
0000
0010
0000
0000
0000
1000
0000
0000
0000
0010
0000
0000
0000
,
0100
0000
0001
0010
0100
0000
0010
0001
1000
0001
0100
0000
0010
0100
0010
0000
,
1000
0000
0100
0000
0010
0100
0010
0100
0010
0000
0001
0000
1000
0100
1000
0000
,
0100
0010
0100
0000
0001
0000
0100
0010
0100
0010
0100
0000
1000
0000
0010
1000
,
0001
0000
1000
0100
0010
0000
0001
0100
0010
0100
0001
0000
1000
0001
0100
0000
,
0001
1000
0001
0000
0100
0010
0100
0010
1000
0010
0100
0000
0001
0000
0100
0001
,
0100
0000
0010
0000
1000
0010
0100
0001
0100
0000
0010
0000
1000
0100
0010
0001
,
0010
0000
0100
0000
0100
0000
0010
0100
0010
1000
0001
0000
0001
0100
0010
1000
,
0001
0000
0000
0000
1000
0000
0000
0000
0010
0000
0000
0000
0100
0000
0000
0000
0002
0003
0000
0000
0020
0030
0000
0000
0200
0300
0000
0000
2000
3000
0000
0000
0001
0000
0000
0000
0000
0000
0000
0000
0101
0000
0000
0000
0000
0000
0000
0000
0100
0000
0000
0000
0000
0000
0000
0000
0010
0000
0000
0000
0000
0000
0000
0000
,
1000
1100
0100
0010
0001
0011
0010
0100
,
1000
1010
0010
0100
0001
1001
1000
0100
,
0010
0110
0100
0010
0001
1001
1000
0010
,
0100
0000
0110
0000
0010
0000
0001
0000
1000
0000
0100
1000
0100
0000
0010
0100
,
0010
0000
0001
0010
0001
0000
1000
0001
1000
0000
0010
0100
0010
0000
1000
0010
,
1000
0000
0001
0010
0001
0000
0100
0001
0100
0000
0001
0010
0100
0000
1000
0010
,
0100
0000
0001
0010
0100
0000
1000
0010
0100
0001
0100
0001
1000
0100
1000
0100
,
0020
0030
0000
0000
0020
0030
0000
0000
0020
0030
0000
0000
0020
0030
0000
0000
1001
0000
0000
0000
0000
0000
0000
0000
0000
0000
0000
0000
0000
0000
0000
0000
1100
0000
0000
0000
0000
0000
0000
0000
0000
0000
0000
0000
0000
0000
0000
0000
0101
0000
0000
0000
0000
0000
0000
0000
0000
0000
0000
0000
0000
0000
0000
0000
,
1000
0000
0010
0100
0010
0000
1000
0000
1010
0000
0000
0000
0011
0000
0010
0000
,
0100
0000
1000
0001
1000
0000
0010
0000
0110
0000
0000
0000
0101
0000
0100
0000
,
0010
0000
1000
0001
0100
0000
0010
0000
0100
0000
0010
0000
0220
0000
0000
0330
,
0001
0011
1000
1010
0001
0101
1000
1100
,
0001
0011
0010
0110
0100
1100
1000
1001
,
0001
0101
0100
0110
0010
1010
1000
1001
,
0001
0100
0001
0100
0010
1000
0010
1000
0001
0010
0100
1000
0010
0100
0001
1000
,
0001
0000
0000
0000
1000
0000
0100
0000
0000
0000
0010
0000
0000
0000
0001
0100
0001
0000
0100
0000
0010
0000
1000
0000
0000
0000
0100
0000
0000
0000
0010
0100
,
0010
0000
1000
0000
0010
0000
0001
0000
0000
0000
0100
0000
0000
0000
0010
0100
0010
0000
1000
0000
0100
0000
0010
0000
0000
0000
0100
0000
1000
0000
0001
1000
,
0001
0000
0100
0000
0010
0000
1010
0000
0000
0000
1000
0000
0100
0000
0010
0001
0010
0000
0001
0000
0100
0000
0110
0000
0000
0000
0010
0000
1000
0000
0010
0001
,
0010
0000
0100
0000
0010
0000
1010
0000
0000
0000
1000
0000
0010
0000
0100
0010
0100
0000
0001
0000
0100
0000
0110
0000
0000
0000
0100
0000
0010
0000
0001
1000
,
0100
0000
0100
0000
0110
0000
0000
0000
0000
0000
1001
0000
0000
0000
0001
1000
0001
0000
0100
0000
0010
0000
0110
0000
0000
0000
1100
0000
0000
0000
0100
0010
,
0100
0000
0001
0000
0011
0000
0000
0000
0000
0000
1001
0000
0000
0000
0010
1000
0010
0000
0100
0000
0010
0000
1010
0000
0000
0000
1001
0000
0000
0000
0001
0100
,
0001
0010
0100
0000
0000
1000
0000
0001
1000
0000
0000
0100
0000
0100
0000
0010
0200
0000
0000
0000
0000
0000
0300
0000
0011
0000
0000
0000
0000
0000
1100
0000
,
0000
0000
0101
0000
0000
1010
0000
0000
0101
0000
0000
1100
0000
0000
0011
0000
,
0000
1001
0000
0000
0101
0000
0000
1010
0000
0000
1001
0000
0000
1100
0000
0000
,
1010
0000
0000
0101
0000
0000
1100
0000
0000
0011
0000
0000
1100
0000
0000
0101
,
0000
0000
1010
0000
0000
1001
0000
0000
1100
0000
0000
0011
0000
0000
1001
0000
,
0000
0101
0000
0000
1010
0000
0000
0011
0000
0000
0101
0000
0000
1100
0000
0000
,
0101
0000
0000
0011
0000
0000
1010
0000
0000
0101
0000
0000
1100
0000
0000
0101
,
0000
0000
0011
0000
0000
1010
0000
0000
1100
0000
0000
0101
0000
0000
1100
0000
,
0000
1010
0000
0000
0011
0000
0000
1100
0000
0000
0101
0000
0000
1010
0000
0000
,
0101
0000
0000
1100
0000
0000
0101
0000
0000
1010
0000
0000
0101
0000
0000
1100
,
0000
0000
0011
0000
0000
1100
0000
0000
0101
0000
0000
1010
0000
0000
1100
0000
,
0000
0101
0000
0000
1010
0000
0000
0011
0000
0000
0101
0000
0000
1100
0000
0000
,
0101
0000
0000
0000
0000
0000
0011
0000
0000
0000
0000
0000
1010
0000
0000
0000
0000
0000
1001
0000
0000
0000
0000
0000
0001
0000
0000
0010
0000
0000
0001
0000
,
0000
0100
0000
0000
0010
0000
0000
1000
0000
0000
0010
0000
0000
0100
0000
0000
0001
0000
0000
0010
0000
0000
1000
0000
0000
0010
0000
0000
0001
0000
0000
0100
,
0000
0000
0010
0000
0000
1000
0000
0000
0001
0000
0000
1000
0000
0000
0100
0000
0000
0010
0000
0000
0001
0000
0000
0100
0000
0000
0010
0000
0000
1000
0000
0000
,
0010
0000
0000
0100
0000
0000
0001
0000
0000
0010
0000
0000
0001
0000
0000
0100
0000
0000
0010
0000
0000
0100
0000
0000
0010
0000
0000
1000
0000
0000
0100
0000
,
0000
0010
0000
0000
0100
0000
0000
0001
0000
0000
0100
0000
0000
0010
0000
0000
0100
0000
0000
1000
0000
0000
0010
0000
0000
0100
0000
0000
0001
0000
0000
1000
,
0000
0000
0001
0000
0000
0010
0000
0000
0100
0000
0000
0001
0000
0000
0100
0000
0000
1000
0000
0000
0010
0000
0000
0100
0000
0000
0001
0000
0000
0010
0000
0000
,
0001
0000
0000
0100
0000
0000
0010
0000
0000
1000
0000
0000
0010
0000
0000
0001
0000
0000
1000
0000
0000
0100
0000
0000
2002
0000
0000
0000
0000
0000
0000
0000
,
0000
0000
0000
0000
,
0000
0000
0000
0000
,
0000
0000
0000
3003
;

//--------------- dance-single - Fred-104 ----------------
#NOTEDATA:;
#STEPSTYPE:dance-single;
#DESCRIPTION:Fred-104;
#DIFFICULTY:Challenge;
#METER:19;
#CREDIT:Fred-104;
#NOTES:
0000
0000
0000
0000
,
0000
0000
0000
0000
,
0000
0000
0000
0000
,
0000
0000
0000
0000
,
0000
0000
0000
0000
,
0000
0000
0000
0000
,
0000
0000
0000
0000
,
0000
0000
0000
0000
,
0000
0000
0000
0000
,
1100
0000
0100
0000
0110
0000
0000
0000
0000
0000
0110
0000
0001
0000
0100
0010
,
1000
0000
1001
0000
1001
0000
0000
0000
0000
0000
1100
0000
0010
0000
0100
0001
,
1000
0000
1001
0000
1001
0000
0000
0000
0000
0000
0110
0000
0010
0000
0001
0100
,
0010
0000
1010
0000
1010
0000
0000
0000
0000
0000
0011
0000
1000
0000
0001
0100
,
0010
0000
0100
0000
0010
0000
1010
0000
0000
0000
1000
0001
0100
0000
0010
0000
,
1000
0000
0100
0000
0010
0000
0011
0000
0000
0000
0001
0100
0010
0000
0100
0000
,
0001
0000
0010
0000
0100
0000
0110
0000
0000
0000
0100
1000
0010
0000
0100
0000
,
0001
0000
0000
0000
0000
0000
0000
0000
1000
0000
0000
0000
0000
0000
0000
0000
0100
0000
0000
0000
0000
0000
0000
0000
2200
3300
0000
0000
0000
0000
0000
0000
0000
0000
0000
0000
0000
0000
0000
0000
0202
0303
0000
0000
0000
0000
0000
0000
0000
0000
0000
0000
0000
0000
0000
0000
2002
3003
0000
0000
0000
0000
0000
0000
,
0001
0100
0010
1000
0010
0000
1000
0100
0010
0000
0001
0000
1000
0001
0100
0000
,
0001
0100
0010
1000
0010
0000
1000
0001
0010
0000
0001
0000
1000
0000
0100
0000
,
1000
0100
0010
0001
0010
0000
0001
0100
0010
0000
0100
0000
0001
0100
0010
0000
,
1000
0001
0010
0001
1000
0000
1200
0000
0010
0000
1300
0000
0010
0000
0100
0000
,
0001
0010
0100
0010
0001
0000
1000
0001
0100
0000
0010
0000
0100
1000
0001
0000
,
0100
0010
1000
0010
0100
0000
0001
0000
0011
0000
1001
0000
1000
0010
0100
0000
,
0001
1000
0100
1000
0010
0000
1000
0100
0010
0000
1000
0000
0010
0100
0001
0100
,
0001
0000
0000
0000
0010
0000
0000
0000
0100
0000
0000
0000
1000
0000
0000
0000
0001
0000
0000
0000
0010
0000
0000
0000
0100
0000
0000
0000
1000
0000
0000
0000
0020
0030
0000
0000
0020
0030
0000
0000
0200
0300
0000
0000
0200
0300
0000
0000
0001
0000
0000
0000
0010
0000
0000
0000
0100
0000
0000
0000
0010
0000
0000
0000
,
0001
0000
1000
0010
0100
0010
1000
0000
0001
1000
0100
0000
0010
0100
0001
0100
,
0010
0000
0001
1000
0010
0000
0100
0000
0110
0000
0010
0000
1000
0001
0010
0100
,
0001
0000
1000
0001
1000
0000
0010
0000
0100
0001
0100
0000
0001
1000
0010
0100
,
1000
0000
0001
1000
0001
0000
0010
0000
0100
1000
0100
0000
1000
0001
0100
0010
,
0001
0000
1000
0001
1000
0000
0100
0000
0010
0001
0010
0000
0001
1000
0010
0100
,
1000
0000
0001
1000
0001
0000
0100
0000
0010
1000
0010
0000
1000
0001
1000
0100
,
1000
0000
0010
0100
0001
0000
1000
0100
0010
0001
0010
0000
0001
0100
0010
1000
,
0001
0000
0000
0000
0100
0000
0000
0000
0010
0000
0000
0000
1000
0000
0000
0000
0002
0003
0000
0000
0002
0003
0000
0000
2000
3000
0000
0000
2000
3000
0000
0000
1001
0000
0000
0000
0000
0000
0000
0000
1000
0000
0000
0000
0100
0000
0000
0000
0010
0000
0000
0000
0000
0000
0000
0000
0001
0000
0000
0000
0100
0000
0000
0000
,
0010
0000
1000
0100
0010
0000
0001
0100
0010
0000
1000
0001
0100
0000
0010
1000
,
0100
0000
0010
0001
1000
0000
0001
0010
0100
0000
1000
0001
0100
0000
0010
0100
,
0001
0000
1000
0001
0010
0000
0001
0100
0010
0000
1000
0010
0100
0000
0001
0010
,
0100
0000
1000
0010
0100
0001
0100
0001
1000
0000
0010
1000
0100
0000
0010
0001
,
1000
0000
0001
0100
0010
0000
1000
0100
0001
0000
0100
1000
0010
0000
1000
0100
,
0001
0000
0100
1000
0010
0000
1000
0100
0001
0000
1000
0100
0010
0000
0001
1000
,
0001
0000
0010
0001
1000
0100
1000
0010
0100
0001
1000
0010
0100
0001
1000
0010
,
0200
0300
0000
0000
0200
0300
0000
0000
0020
0030
0000
0000
0020
0030
0000
0000
1001
0000
0000
0000
0000
0000
0000
0000
1001
0000
0000
0000
0000
0000
0000
0000
1100
0000
0000
0000
0000
0000
0000
0000
0000
0000
0000
0000
0000
0000
0000
0000
0101
0000
0000
0000
0000
0000
0000
0000
0000
0000
0000
0000
0000
0000
0000
0000
,
0110
0000
0010
1000
0010
0000
1010
0000
1001
0000
0000
0000
0011
0000
0110
0000
,
1100
0000
0001
1000
0010
0000
0110
0000
0110
0000
0000
0000
0101
0000
0110
0000
,
1010
0000
0100
1000
0001
0000
0011
0000
1000
0000
1010
0000
2002
0000
0000
3003
,
1001
0000
0100
0010
0001
0000
1000
0001
0100
0000
0010
1000
0001
0000
0010
0100
,
1000
0000
0100
0010
0001
0000
0100
0010
1000
0000
0010
0100
0001
0000
1000
0100
,
0001
0000
0100
1000
0010
0000
1000
0001
0010
0000
0001
0010
1000
0000
0010
0001
,
1000
0010
0100
0010
1000
0100
0010
0001
0010
0100
1000
0001
0100
0010
1000
0010
,
1000
0000
0100
0000
0010
0000
0012
0000
0000
0000
0013
0000
0100
0000
0010
1000
0010
0000
1000
0000
0100
0000
0210
0000
0000
0000
0301
0000
0100
0000
0001
1000
,
0001
0000
0010
0000
0100
0000
0210
0000
0000
0000
1300
0000
0001
0000
0010
0100
0010
0000
1000
0000
0100
0000
0210
0000
0000
0000
0310
0000
1010
0000
1000
0001
,
1000
0000
0001
0000
0100
0000
2100
0000
0000
0000
3100
0000
0001
0000
0100
0010
0100
0000
0001
0000
0010
0000
2010
0000
0000
0000
3010
0000
0001
0000
1000
0001
,
1000
0000
0100
0000
0010
0000
0201
0000
0000
0000
0310
0000
0100
0000
0010
0001
0010
0000
0001
0000
0100
0000
1200
0000
0000
0000
0310
0000
0100
0000
0001
1000
,
0001
0000
0101
0000
1001
0000
0000
0000
0000
0000
0110
0000
0000
0000
0100
1000
0010
0000
0100
0000
0110
0000
0110
0000
0000
0000
0011
0000
0001
0000
1000
0001
,
0010
0000
0101
0000
0110
0000
0000
0000
0000
0000
1010
0000
0000
0000
0001
1000
0100
0000
1000
0000
1100
0000
1100
0000
0000
0000
0110
0000
0101
0000
1000
0010
,
0100
0000
0100
0000
0001
0000
0000
0000
0000
0000
0011
0000
0000
0000
0100
0000
0010
0000
0000
0000
1000
0000
0100
0000
0000
0000
1001
0000
0000
0000
0010
0000
0220
0000
0000
0000
0000
0000
0000
0000
0000
0000
0000
0000
0000
0000
0000
0330
1001
0000
0000
0000
0000
0000
0000
0000
0000
0000
0000
0000
0101
0000
0000
0000
,
0000
0000
0011
0000
0000
1001
0000
0000
1100
0000
0000
1010
0000
0000
1001
0000
,
0000
0011
0000
0000
1010
0000
0000
0011
0000
0000
1001
0000
0000
1100
0000
0000
,
0101
0000
0000
1001
0000
0000
1100
0000
0000
1001
0000
0000
0011
0000
0000
1010
,
0000
0000
1100
0000
0000
0101
0000
0000
0011
0000
0000
1010
0000
0000
1100
0000
,
0000
0101
0000
0000
0011
0000
0000
0110
0000
0000
1010
0000
0000
0110
0000
0000
,
1010
0000
0000
0000
0000
0000
0011
0000
0000
0000
0000
0000
0101
0000
0000
0000
0000
0000
1100
0000
0000
0000
0000
0000
1001
0000
0000
0100
0000
0000
0010
0000
,
0000
1000
0000
0000
1100
0000
0000
0100
0000
0000
0010
0000
0000
0001
0000
0000
1000
0000
0000
0010
0000
0000
0100
0000
0000
0010
0000
0000
1010
0000
0000
1000
,
0000
0000
0100
0000
0000
0010
0000
0000
0011
0000
0000
0001
0000
0000
0100
0000
0000
0010
0000
0000
0110
0000
0000
0100
0000
0000
1000
0000
0000
0100
0000
0000
,
0001
0000
0000
0100
0000
0000
1000
0000
0000
0001
0000
0000
1001
0000
0000
1000
0000
0000
0010
0000
0000
0100
0000
0000
1100
0000
0000
1000
0000
0000
0010
0000
,
0000
0100
0000
0000
0101
0000
0000
0001
0000
0000
0010
0000
0000
0100
0000
0000
1000
0000
0000
0010
0000
0000
1000
0000
0000
0001
0000
0000
0011
0000
0000
0010
,
0000
0000
0001
0000
0000
1000
0000
0000
1001
0000
0000
0001
0000
0000
0100
0000
0000
0010
0000
0000
1010
0000
0000
1000
0000
0000
0100
0000
0000
0001
0000
0000
,
1000
0000
0000
0000
0000
0000
0010
0000
0000
0000
0000
0000
0001
0000
0000
0000
0000
0000
1000
0000
0000
0000
0000
0000
1001
0000
0000
0000
0000
0000
0001
0000
0000
0000
0000
0000
1000
0000
0000
0000
0000
0000
0001
0000
0000
0000
0000
0000
1000
0000
0000
0010
0000
0000
0100
0000
0000
0000
0000
0000
0020
0000
0000
0000
,
0000
0000
0130
0000
0000
0000
0000
0000
0001
0000
0000
0000
0000
0000
1000
0000
0000
0000
0000
0000
0100
0000
0000
0000
0000
0000
0010
0000
0000
0000
0000
0000
0100
0000
0000
0010
0000
0000
0001
0000
0000
0000
0000
0000
0100
0000
0000
0000
0000
0000
0010
0000
0000
0000
0000
0000
1000
0000
0000
0000
0000
0000
0001
0000
,
0000
0000
0000
0000
0010
0000
0000
0000
0000
0000
0100
0000
0000
0000
0000
0000
0010
0000
0000
0001
0000
0000
1000
0000
0000
0000
0000
0000
0002
0000
0000
0000
0000
0000
1003
0000
0000
0000
0000
0000
0100
0000
0000
0000
0000
0000
0010
0000
0000
0000
0000
0000
0100
0000
0000
0000
0000
0000
0001
0000
0000
0000
0000
0000
,
1000
0000
0000
0100
0000
0000
0010
0000
0000
0000
0000
0000
0001
0000
0000
0000
0000
0000
1000
0000
0000
0000
0000
0000
0100
0000
0000
0000
0000
0000
0001
0000
0000
0000
0000
0000
0100
0000
0000
0000
0000
0000
1000
0000
0000
0000
0000
0000
0001
0000
0000
1000
0000
0000
0001
0000
0000
0000
0000
0000
0200
0000
0000
0000
,
0000
0000
0310
0000
0000
0000
0000
0000
0001
0000
0000
0000
0000
0000
1000
0000
0000
0000
0000
0000
0010
0000
0000
0000
0000
0000
1000
0000
0000
0000
0000
0000
0100
0000
0000
0010
0000
0000
0100
0000
0000
0000
0000
0000
0001
0000
0000
0000
0000
0000
1000
0000
0000
0000
0000
0000
0100
0000
0000
0000
0000
0000
0001
0000
,
0000
0000
0000
0000
0100
0000
0000
0000
0000
0000
1000
0000
0000
0000
0000
0000
0001
0000
0000
1000
0000
0000
0100
0000
0000
0000
0000
0000
0020
0000
0000
0000
0000
0000
0130
0000
0000
0000
0000
0000
0001
0000
0000
1000
0000
0000
0100
0000
0000
0000
0000
0000
0010
0000
0000
0000
0000
0000
1000
0000
0000
0000
0000
0000
,
0010
0000
0000
0100
0000
0000
0001
0000
0000
0000
0000
0000
1000
0000
0000
0000
0000
0000
0100
0000
0000
0000
0000
0000
1000
0000
0000
0100
0000
0000
0010
0000
0000
0001
0000
0000
0100
0000
0000
0010
0000
0000
1000
0000
0000
0002
0000
0000
2000
0000
0000
0000
0000
0000
0000
0000
0000
0000
0000
0000
0000
0000
0000
0000
,
0000
0000
0000
0000
,
0000
0000
0000
0000
,
0000
0000
0000
3003
;

//--------------- dance-double - Fred-104 ----------------
#NOTEDATA:;
#STEPSTYPE:dance-double;
#DESCRIPTION:Fred-104;
#DIFFICULTY:Easy;
#METER:13;
#CREDIT:Fred-104;
#NOTES:
00000000
00000000
00000000
00000000
,
00000000
00000000
00000000
00000000
,
00000000
00000000
00000000
00000000
,
00000000
00000000
00000000
00000000
,
00000000
00000000
00000000
00000000
,
00000000
00000000
00000000
00000000
,
00000000
00000000
00000000
00000000
,
00000000
00000000
00000000
00000000
,
00000000
00000000
00000000
00000000
,
00001000
00000001
00001000
00000000
00000000
00000100
00000000
00000100
,
00000010
00010000
00001000
00000000
00000000
00010000
00000000
00010000
,
01000000
00100000
01000000
00000000
00000000
10000000
00000000
10000000
,
01000000
00100000
01000000
00000000
00000000
00100000
00000000
00100000
,
00010000
01000000
00001000
00010000
00000000
00010000
00000000
00000010
,
00001000
00000001
00000010
00000100
00000000
00000100
00000000
00000100
,
00000010
00000001
00000100
00000010
00000000
00010000
00000000
00010000
,
00001000
00000000
00000000
00000000
00000000
00000000
00000000
00000000
00010000
00000000
00000000
00000000
00000000
00000000
00000000
00000000
01000000
00000000
00000000
00000000
00000000
00000000
00000000
00000000
00200000
00300000
00000000
00000000
00000000
00000000
00000000
00000000
00000000
00000000
00000000
00000000
00000000
00000000
00000000
00000000
02200000
03300000
00000000
00000000
00000000
00000000
00000000
00000000
00000000
00000000
00000000
00000000
00000000
00000000
00000000
00000000
02000000
03000000
00000000
00000000
00000000
00000000
00000000
00000000
,
10000000
00100000
10000000
01000000
,
00100000
00010000
00100000
00000000
00001000
00010000
00000010
00000000
,
00001000
00000100
00000010
00000001
,
00000100
00000010
00000000
00000100
00000000
00000010
00000100
00000000
,
00000001
00000010
00001000
00010000
,
00001000
00010000
00100000
00000000
10000000
01000000
00100000
00000000
,
00001000
00010000
00001000
00000100
,
00001100
00000000
00000000
00000000
00000101
00000000
00000000
00000000
00002002
00000000
00000000
00003003
00000001
00000000
00000000
00000000
,
00000100
00000000
00000010
00001000
00000100
00000000
00010000
00000000
,
00001000
00010000
00000000
00001000
00010000
00000000
00001000
00000000
,
00100000
00000000
00010000
10000000
01000000
00000000
00100000
01000000
,
00000000
01000000
00000000
00010000
00001000
00000000
00010000
00001000
,
00000100
00000000
00000001
00000100
00000010
00000000
00001000
00000010
,
00000100
00000010
00001000
00000010
00000100
00000000
00000001
00000010
,
00000100
00000000
00000010
00000100
00001000
00000000
00010000
00001000
,
00100000
00000000
00010000
00000000
02000000
00000000
00000000
03000000
00100000
00000000
10000000
00000000
00000000
00000000
11000000
00000000
,
00000000
01000000
00000000
01100000
00000000
00100000
00000000
00101000
,
00000000
00001000
00000000
00011000
00000000
00010000
00000000
00010010
,
00000000
00000010
00000000
00000110
00000000
00000100
00000000
00000010
,
00000000
00000001
00001000
00000000
00000001
00000100
00000000
00000101
,
00000000
00000001
00000000
00001001
00000000
00001000
00000000
00001100
,
00000000
00000100
00000000
00010100
00000000
00010000
00000000
00011000
,
00000000
00001000
00100000
00000000
00010000
10000000
00010000
10000000
,
00020000
00000000
00000000
00030000
01010000
00000000
00000000
00000000
01010000
00000000
00000000
00000000
01010000
00000000
00000000
00000000
,
00001000
00010000
00000100
00000000
00001100
00000000
00000110
00000000
,
00000001
00000100
00000010
00000000
00001010
00000000
00001010
00000000
,
00001000
00000000
00010000
00000000
00100000
00000000
00000000
00000000
01100000
00000000
00000000
00000000
20020000
00000000
00000000
30030000
,
10000000
01000000
00000000
00100000
00000000
00001000
00010000
00001000
,
00000000
00000100
00000000
00000010
00000000
00000001
00000100
00000001
,
00000000
00001000
00000000
00000100
00000000
00000010
00000100
00000010
,
00000001
00000100
00001000
00010000
,
00002000
00000000
00023000
00000000
,
00230000
00000000
20300000
00000000
,
31000000
00000000
00000000
00100000
00000000
00000000
00001000
00000000
00010000
00000000
00000100
00001000
00000000
00001000
00000100
00000000
,
00000010
00000000
00000000
00000001
00000000
00000000
00000100
00000000
00000010
00000000
00001000
00000100
00000000
00010000
00001000
00000000
,
00010000
00000000
00010000
00000000
00000000
00100000
00000000
00100000
01000000
00000000
00000000
00100000
00000000
10000000
00000000
00000000
,
01000000
00000000
00010000
00000000
00000000
00001000
00000000
00001000
00000100
00000000
00000000
00000001
00000000
00000100
00000000
00000000
,
00001000
00000000
00010000
00000000
00000000
00100000
00000000
01000000
00010000
00000000
00000000
00001000
00000000
00000100
00000000
00000000
00000220
00000000
00000000
00000000
00000000
00000000
00000330
00000000
00000001
00000000
00000000
00000000
00000000
00000000
00000001
00000000
,
00000000
00000000
00000010
00000000
00000000
00000010
00000000
00000000
00001000
00000000
00000000
00001000
00000000
00000000
00010000
00000000
,
00000000
00010000
00000000
00000000
00100000
00000000
00000000
00100000
00000000
00000000
10000000
00000000
00000000
10000000
00000000
00000000
,
00010000
00000000
00000000
00010000
00000000
00000000
10000000
00000000
00000000
10000000
00000000
00000000
01000000
00000000
00000000
01000000
,
00000000
00000000
00010000
00000000
00000000
00010000
00000000
00000000
00001000
00000000
00000000
00001000
00000000
00000000
00000100
00000000
,
00000000
00000100
00000000
00000000
00000001
00000000
00000000
00000001
00000000
00000000
00001000
00000000
00000000
00001000
00000000
00000000
,
00000010
00000000
00000000
00000010
00000000
00000000
00000100
00000000
00000000
00000100
00000000
00000000
00001000
00000000
00000000
00001000
,
00000000
00000000
00010000
00000000
00000000
00010000
00000000
00000000
00100000
00000000
00000000
00100000
00000000
00000000
01000000
00000000
,
00000000
01000000
00000000
00000000
10000000
00000000
00000000
10000000
00000000
00000000
00100000
00000000
00000000
00100000
00000000
00000000
,
00010000
00000000
00000000
00010000
00000000
00000000
00001000
00000000
00000000
00001000
00000000
00000000
00000010
00000000
00000000
00000010
,
00000000
00000000
00000001
00000000
00000000
00000001
00000000
00000000
00000100
00000000
00000000
00000100
00000000
00000000
00001000
00000000
,
00000000
00001000
00000000
00000000
00010000
00000000
00000000
00010000
00000000
00000000
00100000
00000000
00000000
00100000
00000000
00000000
,
10000000
00000000
00000000
10000000
00000000
00000000
00010000
00000000
00000000
00010000
00000000
00000000
10000000
00000000
00000000
01000000
,
00000000
00000000
00100000
00000000
00000000
01000000
00000000
00000000
00100000
00000000
00000000
00001000
00000000
00000000
00010000
00000000
,
00000000
00001000
00000000
00000000
00100000
00000000
00000000
00001000
00000000
00000000
00010000
00000000
00000000
00001000
00000000
00000000
,
00000010
00000000
00000000
00000001
00000000
00000000
00000010
00000000
00000000
00001000
00000000
00000000
00010000
00000000
00000000
00001000
,
00000000
00000000
00010000
00000000
00000000
00100000
00000000
00000000
10000000
00000000
00000000
00010000
00000000
00000000
10000000
00000000
,
00000000
01000000
00000000
00000000
00010000
00000000
00000000
00001000
00000000
00000000
00000100
00000000
00000000
00000001
00000000
00000000
,
00001000
00000000
00000000
00000010
00000000
00000000
00010000
00000000
00000000
00100000
00000000
00000000
20020000
00000000
00000000
00000000
,
00000000
00000000
00000000
00000000
,
00000000
00000000
00000000
00000000
,
00000000
00000000
00000000
30030000
;

//--------------- dance-double - Fred-104 ----------------
#NOTEDATA:;
#STEPSTYPE:dance-double;
#DESCRIPTION:Fred-104;
#DIFFICULTY:Medium;
#METER:16;
#CREDIT:Fred-104;
#NOTES:
00000000
00000000
00000000
00000000
,
00000000
00000000
00000000
00000000
,
00000000
00000000
00000000
00000000
,
00000000
00000000
00000000
00000000
,
00000000
00000000
00000000
00000000
,
00000000
00000000
00000000
00000000
,
00000000
00000000
00000000
00000000
,
00000000
00000000
00000000
00000000
,
00000000
00000000
00000000
00000000
,
01000000
00100000
01100000
00000000
00000000
00000000
10000000
01000000
,
00100000
00001000
00011000
00000000
00000000
00000000
00010000
00001000
,
00000100
00000001
00000011
00000000
00000000
00000000
00000001
00000100
,
00001000
00010000
00011000
00000000
00000000
00000000
00010000
00100000
,
10000000
01000000
00100000
00001000
00000000
00001000
00000000
00010000
,
00000100
00000010
00000100
00001000
00000000
00001000
00000000
00000010
,
00000100
00000001
00000010
00000100
00000000
00000100
00000000
00000010
,
00000001
00000000
00000000
00000000
00000000
00000000
00000000
00000000
00000100
00000000
00000000
00000000
00000000
00000000
00000000
00000000
00000010
00000000
00000000
00000000
00000000
00000000
00000000
00000000
00002020
00003030
00000000
00000000
00000000
00000000
00000000
00000000
00000000
00000000
00000000
00000000
00000000
00000000
00000000
00000000
00000202
00000303
00000000
00000000
00000000
00000000
00000000
00000000
00000000
00000000
00000000
00000000
00000000
00000000
00000000
00000000
00002002
00003003
00000000
00000000
00000000
00000000
00000000
00000000
,
00000100
00000010
00000001
00000100
00000010
00001000
00000100
00010000
,
00000010
00000000
00001000
00000100
00000000
00000010
00000100
00000000
,
00000001
00000100
00001000
00000100
00001000
00010000
00100000
10000000
,
00010000
10000000
00000000
01000000
00000000
01000000
10000000
00000000
,
00010000
10000000
00100000
10000000
00100000
00010000
00001000
00100000
,
00001000
00010000
00000010
00001010
00000000
00000010
00000100
00000000
,
00000001
00000100
00001000
00010000
00000100
00001000
00000100
00001000
,
00010000
00000000
00000000
00000000
00001000
00000000
00000000
00000000
00010000
00000000
00000000
00000000
00001000
00000000
00000000
00000000
00010000
00000000
00000000
00000000
00001000
00000000
00000000
00000000
00010000
00000000
00000000
00000000
00001000
00000000
00000000
00000000
00020000
00030000
00000000
00000000
02000000
03000000
00000000
00000000
20000000
30000000
00000000
00000000
00020000
00030000
00000000
00000000
01000000
00000000
00000000
00000000
00000000
00000000
00000000
00000000
00100000
00000000
00000000
00000000
00000000
00000000
00000000
00000000
,
10000000
01000000
00000000
01000000
00100000
00001000
00010000
00001000
,
00000100
00010000
00001000
00000100
00000010
00000000
00000001
00000010
,
00001000
00010000
00000000
00010000
00001000
00100000
00001000
00010000
,
00100000
00010000
00001000
01000000
00100000
00000000
00010000
00100000
,
10000000
00100000
00000000
00001000
00010000
00000010
00000001
00000010
,
00010000
00001000
00100000
10000000
00100000
00000000
00010000
01000000
,
10000000
00000000
01000000
00000000
00000000
00000000
00001000
00000000
00010000
00000000
00000100
00000000
00000010
00000100
00000010
00000100
,
00000010
00000000
00000000
00000000
00000100
00000000
00000000
00000000
00000010
00000000
00000000
00000000
00000100
00000000
00000000
00000000
00000002
00000003
00000000
00000000
00000200
00000300
00000000
00000000
00002000
00003000
00000000
00000000
00020000
00030000
00000000
00000000
00001000
00000000
00000000
00000000
00000000
00000000
00000000
00000000
00011000
00000000
00000000
00000000
00000000
00000000
00000000
00000000
00000000
00000000
00000000
00000000
00000000
00000000
00000000
00000000
00101000
00000000
00000000
00000000
00000000
00000000
00000000
00000000
,
00000000
00010010
00000000
00011000
00000000
00110000
00000000
10100000
,
00000000
11000000
00000000
01010000
00000000
00011000
00000000
00001100
,
00000000
00000101
00000000
00000011
00000000
00001010
00000000
00011000
,
00000000
00001000
00100000
00010000
10000000
10100000
00000000
00110000
,
00000000
00011000
00000000
00001010
00000000
00000011
00000000
00000101
,
00000000
00001100
00000000
00011000
00000000
01010000
00000000
11000000
,
00000000
00000000
10010000
00000000
00000000
00000000
01000000
00000000
00010000
10000000
00010000
10000000
00010000
10000000
00010000
10000000
,
00020000
00030000
00000000
00000000
00200000
00300000
00000000
00000000
00002000
00003000
00000000
00000000
00020000
00030000
00000000
00000000
00011000
00000000
00000000
00000000
00000000
00000000
00000000
00000000
00000000
00000000
00000000
00000000
00000000
00000000
00000000
00000000
00001010
00000000
00000000
00000000
00000000
00000000
00000000
00000000
00000000
00000000
00000000
00000000
00000000
00000000
00000000
00000000
00001001
00000000
00000000
00000000
00000000
00000000
00000000
00000000
00000000
00000000
00000000
00000000
00000000
00000000
00000000
00000000
,
00000001
00000100
00000010
00001000
00011000
00000000
01001000
00000000
,
00010000
00100000
10000000
01000000
01100000
00000000
01010000
00000000
,
00010000
00000000
00001000
00000000
00000100
00000000
00000010
00000000
00000001
00000000
00001000
00000000
00002002
00000000
00000000
00003003
,
00000100
00000110
00000000
00001010
00000000
00001000
00010000
01000000
,
00100000
10100000
00000000
10010000
00000000
01000000
00100000
00010000
,
00001000
00011000
00000000
00001100
00000000
00000100
00000010
00000001
,
00000100
00000001
00000100
00000000
00000010
00001000
00000010
00000000
00010000
00001000
00010000
00000000
00001000
00100000
00001000
00100000
,
00010000
00000000
01000000
00100000
00000000
10000000
01000000
00010000
00001000
00010000
01000000
10000000
00000000
00100000
01000000
00010000
,
00100000
00001000
00010000
00001000
00000000
00000010
00000001
00000010
00001000
00000001
00000100
00001000
00000000
00010000
00001000
00010000
,
00100000
01000000
00100000
00010000
00000000
10000000
00100000
01000000
00100000
00010000
10000000
00100000
00000000
00001000
00010000
00000010
,
00001000
00000100
00000010
00000001
00000000
00000100
00001000
00010000
00001000
00010000
00100000
10000000
00000000
10000000
01000000
00010000
,
00001000
00010000
00011000
00000000
00000000
00010100
00000000
00000100
00000010
00000000
00000001
00000100
00000000
00000110
00000000
00000010
,
00001000
00000100
00001100
00000000
00000000
00011000
00000000
00010000
00100000
00000000
01000000
00100000
00000000
00110000
00000000
00100000
,
10000000
01000000
00010000
00000000
00000000
00001000
00000000
00001000
00010000
00000000
00001000
00000100
00000000
00000001
00000000
00000100
00002002
00000000
00000000
00000000
00000000
00000000
00003003
00000000
00000001
00000000
00000000
00000000
00000000
00000000
00000101
00000000
,
00000000
00000000
00000100
00000000
00000000
00000110
00000000
00000000
00000010
00000000
00000000
00001010
00000000
00000000
00001000
00000000
,
00000000
00011000
00000000
00000000
00010000
00000000
00000000
00110000
00000000
00000000
00100000
00000000
00000000
10100000
00000000
00000000
,
10000000
00000000
00000000
11000000
00000000
00000000
01000000
00000000
00000000
01010000
00000000
00000000
00010000
00000000
00000000
00011000
,
00000000
00000000
00010000
00000000
00000000
00010010
00000000
00000000
00010000
00000000
00000000
00010100
00000000
00000000
00010000
00000000
,
00000000
00011000
00000000
00000000
00001000
00000000
00000000
00011000
00000000
00000000
00001000
00000000
00000000
00101000
00000000
00000000
,
00001000
00000000
00000000
01001000
00000000
00000000
00001000
00000000
00000000
00011000
00000000
00000000
00010000
00000000
00000000
00110000
,
00000000
00000000
10000000
00000000
00000000
11000000
00000000
00000000
00100000
00000000
00000000
01100000
00000000
00000000
00010000
00000000
,
00000000
00011000
00000000
00000000
00000100
00000000
00000000
00000110
00000000
00000000
00000001
00000000
00000000
00000011
00000000
00000000
,
00001000
00000000
00000000
00001100
00000000
00000000
00000010
00000000
00000000
00000110
00000000
00000000
00000001
00000000
00000000
00000101
,
00000000
00000000
00000100
00000000
00000000
00001100
00000000
00000000
00001000
00000000
00000000
00011000
00000000
00000000
00010000
00000000
,
00000000
01010000
00000000
00000000
10000000
00000000
00000000
10100000
00000000
00000000
00100000
00000000
00000000
00110000
00000000
00000000
,
00010000
00000000
00000000
00000000
00000000
00000000
00011000
00000000
00000000
00000000
00000000
00000000
00001000
00000000
00000000
00000000
00000000
00000000
00001010
00000000
00000000
00000000
00000000
00000000
00000010
00000000
00000000
00000001
00000000
00000000
00000010
00000000
,
00000000
00000001
00000000
00000000
00000010
00000000
00000000
00000100
00000000
00000000
00000010
00000000
00000000
00000100
00000000
00000000
00001000
00000000
00000000
00000010
00000000
00000000
00000100
00000000
00000000
00000010
00000000
00000000
00001000
00000000
00000000
00000100
,
00000000
00000000
00010000
00000000
00000000
00001000
00000000
00000000
00010000
00000000
00000000
00001000
00000000
00000000
00100000
00000000
00000000
00010000
00000000
00000000
00100000
00000000
00000000
01000000
00000000
00000000
10000000
00000000
00000000
00010000
00000000
00000000
,
01000000
00000000
00000000
00100000
00000000
00000000
10000000
00000000
00000000
00100000
00000000
00000000
10000000
00000000
00000000
00100000
00000000
00000000
01000000
00000000
00000000
00010000
00000000
00000000
00100000
00000000
00000000
00001000
00000000
00000000
00010000
00000000
,
00000000
00001000
00000000
00000000
00100000
00000000
00000000
00001000
00000000
00000000
00010000
00000000
00000000
00000100
00000000
00000000
00001000
00000000
00000000
00000100
00000000
00000000
00010000
00000000
00000000
00000100
00000000
00000000
00001000
00000000
00000000
00000100
,
00000000
00000000
00001000
00000000
00000000
00000100
00000000
00000000
00000010
00000000
00000000
00000001
00000000
00000000
00001000
00000000
00000000
00000010
00000000
00000000
00000100
00000000
00000000
00000010
00000000
00000000
00001000
00000000
00000000
00000100
00000000
00000000
,
00010000
00000000
00000000
00001000
00000000
00000000
00010000
00000000
00000000
00100000
00000000
00000000
01000000
00000000
00000000
00010000
00000000
00000000
00100000
00000000
00000000
01000000
00000000
00000000
20000000
00000000
00000000
00000000
00000000
00000000
00000000
00000000
,
00000000
00000000
00000000
00000000
,
00000000
00000000
00000000
00000000
,
00000000
00000000
00000000
30000000
;

//--------------- dance-double - Fred-104 ----------------
#NOTEDATA:;
#STEPSTYPE:dance-double;
#DESCRIPTION:Fred-104;
#DIFFICULTY:Hard;
#METER:18;
#CREDIT:Fred-104;
#NOTES:
00000000
00000000
00000000
00000000
,
00000000
00000000
00000000
00000000
,
00000000
00000000
00000000
00000000
,
00000000
00000000
00000000
00000000
,
00000000
00000000
00000000
00000000
,
00000000
00000000
00000000
00000000
,
00000000
00000000
00000000
00000000
,
00000000
00000000
00000000
00000000
,
00000000
00000000
00000000
00000000
,
00010010
00000000
00010000
00000000
00010000
00000000
00000000
00000000
00000000
00000000
00000000
00000000
00001000
00000000
00100000
00010000
,
10000000
00000000
10000000
00000000
10010000
00000000
00000000
00000000
00000000
00000000
00000000
00000000
01000000
00000000
01000000
00010000
,
00100000
00000000
00100000
00000000
00101000
00000000
00000000
00000000
00000000
00000000
00000000
00000000
00001000
00000000
00000010
00000100
,
00000001
00000000
00000001
00000000
00000101
00000000
00000000
00000000
00000000
00000000
00000000
00000000
00010000
00000000
00010000
00001000
,
00100000
00000000
00010000
00000000
10000000
00000000
10010000
00000000
00000000
00000000
01000000
00100000
01000000
00000000
00010000
00000000
,
00100000
00000000
00001000
00000000
00010000
00000000
00011000
00000000
00000000
00000000
00000100
00000010
00000100
00000000
00001000
00000000
,
00000001
00000000
00000100
00000000
00001000
00000000
00011000
00000000
00000000
00000000
00010000
00001000
00010000
00000000
00001000
00000000
,
00100000
00000000
00000000
00000000
00000000
00000000
00000000
00000000
01000000
00000000
00000000
00000000
00000000
00000000
00000000
00000000
00100000
00000000
00000000
00000000
00000000
00000000
00000000
00000000
00220000
00330000
00000000
00000000
00000000
00000000
00000000
00000000
00000000
00000000
00000000
00000000
00000000
00000000
00000000
00000000
20200000
30300000
00000000
00000000
00000000
00000000
00000000
00000000
00000000
00000000
00000000
00000000
00000000
00000000
00000000
00000000
02200000
03300000
00000000
00000000
00000000
00000000
00000000
00000000
,
00010000
00100000
10000000
00100000
00001000
00010000
00000010
00000001
,
00000010
00001000
00010000
00011000
00000000
00010000
00001000
00100000
,
00010000
01000000
10000000
01000000
00001000
00010000
00000100
00000001
,
00000100
00010000
00001000
00011000
00000000
00100000
01000000
00100000
,
00001000
00010000
01000000
00100000
00010000
00001000
00000010
00000100
,
00010000
00001000
00010000
00001000
00100000
01000000
10000000
01000000
,
00010000
01000000
00100000
00010000
00001000
00000100
00000010
00010000
,
00001000
00000000
00000000
00000000
00010000
00000000
00000000
00000000
00001000
00000000
00000000
00000000
00010000
00000000
00000000
00000000
00000010
00000000
00000000
00000000
00001000
00000000
00000000
00000000
00000010
00000000
00000000
00000000
00001000
00000000
00000000
00000000
00000002
00000003
00000000
00000000
00000002
00000003
00000000
00000000
00002000
00003000
00000000
00000000
00002000
00003000
00000000
00000000
00000001
00000000
00000000
00000000
00000000
00000000
00000000
00000000
00000010
00000000
00000000
00000000
00000000
00000000
00000000
00000000
,
00001000
00010000
00100000
10000000
00100000
00010000
00001000
00000100
,
00000001
00000000
00000010
00000000
00000100
00000000
00010000
00000000
00001000
00010000
00001000
00010000
00001000
00000000
00010000
00000000
,
00100000
00010000
00001000
00000010
00000100
00010000
01000000
10000000
,
00100000
00010000
00000100
00000010
00000100
00000010
00000001
00000010
,
00000100
00010000
00001000
00100000
01000000
10000000
00100000
00010000
,
00001000
00000100
00000001
00001000
00000010
00000100
00001000
00010000
,
00001000
00000000
00100000
00000000
00010000
00000000
00100000
00000000
01000000
00000000
10000000
00000000
00010000
01000000
00010000
01000000
,
00100000
00000000
00000000
00000000
10000000
00000000
00000000
00000000
00100000
00000000
00000000
00000000
10000000
00000000
00000000
00000000
00020000
00030000
00000000
00000000
00020000
00030000
00000000
00000000
02000000
03000000
00000000
00000000
02000000
03000000
00000000
00000000
00010000
00000000
00000000
00000000
00000000
00000000
00000000
00000000
10000000
00000000
00000000
00000000
00100000
00000000
00000000
00000000
01000000
00000000
00000000
00000000
00000000
00000000
00000000
00000000
00010000
00000000
00000000
00000000
00100000
00000000
00000000
00000000
,
00001000
00000000
00010000
00001000
00010000
00000000
00001000
00000000
00000010
00000000
00000100
00000001
00000010
00000000
00000100
00001000
,
00000010
00000000
00010000
00001000
00010000
00000000
00000100
00000000
00010000
00000000
00000010
00001000
00000010
00000000
00010000
00001000
,
00100000
00000000
00010000
01000000
00100000
00000000
10000000
00000000
01000000
00000000
00100000
01000000
10000000
00000000
00100000
01000000
,
00010000
00000000
00100000
00001000
00100000
00000000
00001000
00000000
00010000
00000000
00001000
00010000
00000100
00000000
00001000
00000010
,
00000100
00000000
00000001
00000010
00000100
00000000
00000010
00000100
00001000
00000000
00000100
00001000
00010000
00000000
00001000
00010000
,
00100000
00000000
00010000
00100000
01000000
00000000
00100000
01000000
10000000
00000000
00100000
01000000
00010000
00000000
10000000
01000000
,
00100000
00000000
00001000
00010000
00001000
00000000
00000010
00000100
00000001
00000100
00000001
00000100
00000010
00001000
00000010
00001000
,
00000002
00000003
00000000
00000000
00000002
00000003
00000000
00000000
00002000
00003000
00000000
00000000
00002000
00003000
00000000
00000000
00001001
00000000
00000000
00000000
00000000
00000000
00000000
00000000
00000000
00000000
00000000
00000000
00000000
00000000
00000000
00000000
00011000
00000000
00000000
00000000
00000000
00000000
00000000
00000000
00000000
00000000
00000000
00000000
00000000
00000000
00000000
00000000
00001001
00000000
00000000
00000000
00000000
00000000
00000000
00000000
00000000
00000000
00000000
00000000
00000000
00000000
00000000
00000000
,
00000100
00000000
00000010
00000100
00000010
00000000
00010000
00000000
00011000
00000000
00000000
00000000
00101000
00000000
00011000
00000000
,
00001000
00000000
00100000
00010000
00100000
00000000
00010000
00000000
10010000
00000000
00000000
00000000
11000000
00000000
01000000
00000000
,
00010000
00000000
00100000
00001000
00010000
00000000
00001000
00000000
00000100
00000000
00000001
00000000
00002002
00000000
00000000
00003003
,
00000001
00000000
00001000
00000010
00001000
00000000
00000001
00000010
00000001
00000000
00001000
00000100
00001000
00000000
00000010
00010000
,
00000010
00000000
00010000
00001000
00010000
00000000
00001000
01000000
00001000
00000000
01000000
00100000
01000000
00000000
00010000
10000000
,
00010000
00000000
01000000
00010000
01000000
00000000
00010000
00001000
00010000
00000000
00000100
00001000
00000100
00000000
00000010
00000001
,
00001000
00000010
00001000
00000010
00010000
00001000
00010000
00001000
00100000
00010000
00100000
00010000
01000000
00100000
01000000
00100000
,
01000000
00000000
00000000
00000000
00100000
00000000
00200000
00000000
00000000
00000000
01300000
00000000
00010000
00000000
00100000
00010000
00100000
00000000
00001000
00000000
00010000
00000000
00002000
00000000
00000000
00000000
00003010
00000000
00001000
00000000
00000010
00000100
,
00000010
00000000
00001000
00000000
00010000
00000000
00200000
00000000
00000000
00000000
01300000
00000000
00100000
00000000
00001000
00010000
00001000
00000000
00000100
00000000
00000010
00000000
00002000
00000000
00000000
00000000
00013000
00000000
00100000
00000000
01000000
00100000
,
01000000
00000000
00010000
00000000
00100000
00000000
00002000
00000000
00000000
00000000
00013000
00000000
00000010
00000000
00001000
00000100
00001000
00000000
00000010
00000000
00000100
00000000
00002000
00000000
00000000
00000000
00013000
00000000
00100000
00000000
01000000
00100000
,
01000000
00000000
00010000
00000000
01000000
00000000
00200000
00000000
00000000
00000000
01300000
00000000
00100000
00000000
00010000
00001000
00010000
00000000
00001000
00000000
00000100
00000000
00000020
00000000
00000000
00000000
00000130
00000000
00001000
00000000
00000010
00000100
,
00000010
00000010
00000110
00000000
00000000
00000101
00000000
00000100
00000010
00000000
00000100
00010100
00000000
00011000
00000000
00011000
,
00100000
00100000
01100000
00000000
00000000
11000000
00000000
01000000
00100000
00000000
00001000
00011000
00000000
00010010
00000000
00010010
,
00000010
00001000
00000100
00000000
00000000
00000010
00000000
00000001
00000100
00000000
00000000
00001000
00000000
00010000
00000000
00001000
00022000
00000000
00000000
00000000
00000000
00000000
00033000
00000000
00000011
00000000
00000000
00000000
00000000
00000000
00000101
00000000
,
00000000
00000000
00001100
00000000
00000000
00000101
00000000
00000000
00000011
00000000
00000000
00001010
00000000
00000000
00010010
00000000
,
00000000
00011000
00000000
00000000
00010100
00000000
00000000
00101000
00000000
00000000
00011000
00000000
00000000
01010000
00000000
00000000
,
10100000
00000000
00000000
11000000
00000000
00000000
01010000
00000000
00000000
11000000
00000000
00000000
10100000
00000000
00000000
00110000
,
00000000
00000000
00101000
00000000
00000000
00011000
00000000
00000000
01001000
00000000
00000000
00010010
00000000
00000000
00011000
00000000
,
00000000
00010100
00000000
00000000
00001100
00000000
00000000
00000101
00000000
00000000
00000011
00000000
00000000
00001010
00000000
00000000
,
00011000
00000000
00000000
00110000
00000000
00000000
10100000
00000000
00000000
11000000
00000000
00000000
01010000
00000000
00000000
00011000
,
00000000
00000000
00001100
00000000
00000000
00000110
00000000
00000000
00001100
00000000
00000000
00011000
00000000
00000000
01010000
00000000
,
00000000
11000000
00000000
00000000
10100000
00000000
00000000
00110000
00000000
00000000
00011000
00000000
00000000
00001010
00000000
00000000
,
00000011
00000000
00000000
00001010
00000000
00000000
00011000
00000000
00000000
00110000
00000000
00000000
10100000
00000000
00000000
11000000
,
00000000
00000000
01010000
00000000
00000000
01001000
00000000
00000000
00011000
00000000
00000000
00101000
00000000
00000000
00010100
00000000
,
00000000
00011000
00000000
00000000
00010010
00000000
00000000
00001010
00000000
00000000
00000011
00000000
00000000
00000101
00000000
00000000
,
00001100
00000000
00000000
00000000
00000000
00000000
00011000
00000000
00000000
00000000
00000000
00000000
00110000
00000000
00000000
00000000
00000000
00000000
10100000
00000000
00000000
00000000
00000000
00000000
00010000
00000000
00000000
01000000
00000000
00000000
00100000
00000000
,
00000000
10000000
00000000
00000000
01000000
00000000
00000000
00100000
00000000
00000000
00001000
00000000
00000000
00010000
00000000
00000000
00001000
00000000
00000000
00100000
00000000
00000000
00001000
00000000
00000000
00010000
00000000
00000000
00000010
00000000
00000000
00001000
,
00000000
00000000
00000100
00000000
00000000
00010000
00000000
00000000
00000100
00000000
00000000
00001000
00000000
00000000
00000001
00000000
00000000
00000010
00000000
00000000
00000100
00000000
00000000
00000010
00000000
00000000
00000001
00000000
00000000
00001000
00000000
00000000
,
00000001
00000000
00000000
00000010
00000000
00000000
00000100
00000000
00000000
00001000
00000000
00000000
00000100
00000000
00000000
00010000
00000000
00000000
00001000
00000000
00000000
00100000
00000000
00000000
00010000
00000000
00000000
01000000
00000000
00000000
10000000
00000000
,
00000000
01000000
00000000
00000000
00010000
00000000
00000000
01000000
00000000
00000000
00100000
00000000
00000000
10000000
00000000
00000000
01000000
00000000
00000000
00100000
00000000
00000000
00001000
00000000
00000000
00010000
00000000
00000000
00000010
00000000
00000000
00000001
,
00000000
00000000
00000010
00000000
00000000
00010000
00000000
00000000
00001000
00000000
00000000
00100000
00000000
00000000
10000000
00000000
00000000
00100000
00000000
00000000
00001000
00000000
00000000
00010000
00000000
00000000
00000100
00000000
00000000
00000001
00000000
00000000
,
00000100
00000000
00000000
00010000
00000000
00000000
00001000
00000000
00000000
01000000
00000000
00000000
10000000
00000000
00000000
01000000
00000000
00000000
00010000
00000000
00000000
00100000
00000000
00000000
02200000
00000000
00000000
00000000
00000000
00000000
00000000
00000000
,
00000000
00000000
00000000
00000000
,
00000000
00000000
00000000
00000000
,
00000000
00000000
00000000
03300000
;

//--------------- dance-double - Fred-104 ----------------
#NOTEDATA:;
#STEPSTYPE:dance-double;
#DESCRIPTION:Fred-104;
#DIFFICULTY:Challenge;
#METER:19;
#CREDIT:Fred-104;
#NOTES:
00000000
00000000
00000000
00000000
,
00000000
00000000
00000000
00000000
,
00000000
00000000
00000000
00000000
,
00000000
00000000
00000000
00000000
,
00000000
00000000
00000000
00000000
,
00000000
00000000
00000000
00000000
,
00000000
00000000
00000000
00000000
,
00000000
00000000
00000000
00000000
,
00000000
00000000
00000000
00000000
,
00011000
00000000
00010000
00000000
01010000
00000000
00000000
00000000
00000000
00000000
01100000
00000000
00100000
00000000
10000000
01000000
,
00100000
00000000
00101000
00000000
00011000
00000000
00000000
00000000
00000000
00000000
00010100
00000000
00000100
00000000
00001000
00000010
,
00000100
00000000
00000101
00000000
00000110
00000000
00000000
00000000
00000000
00000000
00001010
00000000
00000100
00000000
00010000
00001000
,
01000000
00000000
01100000
00000000
10100000
00000000
00000000
00000000
00000000
00000000
01100000
00000000
00100000
00000000
10000000
01000000
,
00100000
00000000
00001000
00000000
00010000
00000000
00011000
00000000
00000000
00000000
00000010
00000100
00000010
00000000
00001000
00000000
,
00010000
00000000
01000000
00000000
00100000
00000000
01100000
00000000
00000000
00000000
00001000
00010000
00001000
00000000
00000010
00000000
,
00000100
00000000
00000001
00000000
00000100
00000000
00000110
00000000
00000000
00000000
00010000
00001000
00100000
00000000
01000000
00000000
,
00100000
00000000
00000000
00000000
00000000
00000000
00000000
00000000
00010000
00000000
00000000
00000000
00000000
00000000
00000000
00000000
01000000
00000000
00000000
00000000
00000000
00000000
00000000
00000000
02200000
03300000
00000000
00000000
00000000
00000000
00000000
00000000
00000000
00000000
00000000
00000000
00000000
00000000
00000000
00000000
00022000
00033000
00000000
00000000
00000000
00000000
00000000
00000000
00000000
00000000
00000000
00000000
00000000
00000000
00000000
00000000
00000220
00000330
00000000
00000000
00000000
00000000
00000000
00000000
,
00000001
00000100
00000010
00001000
00000010
00000000
00000100
00000010
00000100
00000000
00000001
00000000
00001000
00000000
00000100
00000000
,
00010000
00001000
00100000
00000000
00010000
00000000
01000000
00000000
01000000
00000000
01000000
00000000
00100000
10000000
00100000
00000000
,
01000000
00010000
10000000
00010000
10000000
00000000
01000000
00000000
00100000
00000000
00001000
00010000
00001000
00000000
00010000
00000000
,
00000100
00001000
00000100
00000010
00000001
00000000
00000100
00000000
00001000
00000000
00010000
00000000
00001000
00000000
00010000
00000000
,
01000000
00100000
10000000
00100000
10000000
00000000
00100000
01000000
00010000
00000000
00001000
00000000
00100000
00010000
00001000
00000000
,
00010000
00000100
00001000
00000100
00000010
00000000
00001000
00000010
00000100
00000000
00000001
00000000
00000100
00000010
00001000
00000000
,
00000100
00000010
00000001
00001000
00000010
00000000
00010000
00001000
00100000
00000000
00001000
00000000
00010000
00100000
01000000
00100000
,
00010000
00000000
00000000
00000000
01000000
00000000
00000000
00000000
00010000
00000000
00000000
00000000
01000000
00000000
00000000
00000000
00100000
00000000
00000000
00000000
10000000
00000000
00000000
00000000
01000000
00000000
00000000
00000000
00100000
00000000
00000000
00000000
00002000
00003000
00000000
00000000
00002000
00003000
00000000
00000000
00020000
00030000
00000000
00000000
00020000
00030000
00000000
00000000
00000010
00000000
00000000
00000000
00000100
00000000
00000000
00000000
00000010
00000000
00000000
00000000
00000100
00000000
00000000
00000000
,
00000001
00000000
00000100
00000010
00001000
00000000
00000100
00010000
00001000
01000000
00010000
00000000
00100000
01000000
10000000
00010000
,
01000000
00000000
00100000
01000000
00100000
00000000
10000000
01000000
00100000
00001000
00010000
00000000
00000100
00010000
00001000
00010000
,
00000100
00000000
00001000
00000010
00000100
00000000
00000001
00000000
00000100
00000010
00001000
00000000
00000100
00010000
00001000
00010000
,
00000100
00000000
00010000
00001000
01000000
00000000
00010000
00000000
00100000
00001000
00010000
00000000
00001000
00010000
00000010
00010000
,
00001000
00000000
00100000
00010000
10000000
00000000
00100000
00000000
01000000
00010000
00001000
00000000
00100000
00001000
00010000
00000010
,
00001000
00000000
00000100
00000010
00000001
00000000
00000100
00000000
00000001
00000010
00000100
00000000
00010000
00001000
00100000
00010000
,
10000000
00000000
00100000
01000000
00100000
00000000
10000000
01000000
00010000
01000000
10000000
00000000
00100000
01000000
00100000
01000000
,
00001000
00000000
00000000
00000000
00010000
00000000
00000000
00000000
00001000
00000000
00000000
00000000
00010000
00000000
00000000
00000000
00000020
00000030
00000000
00000000
00000020
00000030
00000000
00000000
00000200
00000300
00000000
00000000
00000200
00000300
00000000
00000000
00000001
00000000
00000000
00000000
00000000
00000000
00000000
00000000
00000010
00000000
00000000
00000000
00000001
00000000
00000000
00000000
00001000
00000000
00000000
00000000
00000000
00000000
00000000
00000000
00000010
00000000
00000000
00000000
00010000
00000000
00000000
00000000
,
00001000
00000000
01000000
00010000
00100000
00000000
01000000
10000000
00100000
00000000
10000000
01000000
00100000
00000000
00001000
00010000
,
00000100
00000000
00001000
00000100
00000010
00000000
00000001
00001000
00000010
00000000
00000100
00000001
00001000
00000000
00000010
00010000
,
00001000
00000000
00100000
01000000
00100000
00000000
00001000
00010000
00100000
00000000
10000000
00010000
01000000
00000000
00100000
10000000
,
01000000
00000000
00100000
00010000
00100000
00001000
00010000
00000010
00001000
00000000
00000100
00000010
00000001
00000000
00000001
00000100
,
00001000
00000000
00010000
01000000
10000000
00000000
00010000
10000000
00010000
00000000
10000000
00100000
00010000
00000000
00001000
00000010
,
00000001
00000000
00001000
00000001
00001000
00000000
00000001
00000100
00000010
00000000
00001000
00000100
00010000
00000000
00001000
00100000
,
00010000
00000000
10000000
00100000
01000000
00010000
10000000
01000000
00100000
00010000
00100000
00001000
00010000
00000010
00001000
00000010
,
00020000
00030000
00000000
00000000
00020000
00030000
00000000
00000000
00002000
00003000
00000000
00000000
00002000
00003000
00000000
00000000
00011000
00000000
00000000
00000000
00000000
00000000
00000000
00000000
00010010
00000000
00000000
00000000
00000000
00000000
00000000
00000000
00011000
00000000
00000000
00000000
00000000
00000000
00000000
00000000
00000000
00000000
00000000
00000000
00000000
00000000
00000000
00000000
00011000
00000000
00000000
00000000
00000000
00000000
00000000
00000000
00101000
00000000
00000000
00000000
00000000
00000000
00000000
00000000
,
00100000
00000000
00010000
10000000
00100000
00000000
01100000
00000000
01100000
00000000
00000000
00000000
01010000
00000000
00110000
00000000
,
00001000
00000000
00010000
00000010
00001000
00000000
00001010
00000000
00001001
00000000
00000000
00000000
00000101
00000000
00000100
00000000
,
00000110
00000000
00000010
00001000
00000100
00000000
00010000
00000000
00001000
00000000
00010000
00000000
00022000
00000000
00000000
00033000
,
00001000
00101000
00100000
01100000
01000000
11000000
10000000
10010000
,
00010000
01010000
01000000
01001000
00001000
00011000
00010000
00010010
,
00000010
00000000
00001000
00000010
00000100
00000000
00000001
00000100
00000010
00000000
00001000
00000100
00010000
00000000
00001000
00100000
,
00010000
00100000
01000000
10000000
00010000
01000000
00001000
00010000
00000100
00001000
00000100
00000010
00000001
00000100
00001000
00000100
,
00001000
00000000
00010000
00000000
00100000
00000000
01100000
00000000
00000000
00000000
00100000
00000000
00010000
00000000
10000000
00100000
01000000
00000000
00100000
00000000
01000000
00000000
01010000
00000000
00000000
00000000
00010000
00000000
00001000
00000000
00000100
00000010
,
00000001
00000000
00001000
00000000
00000100
00000000
00000110
00000000
00000000
00000000
00000010
00000000
00000001
00000000
00000010
00000100
00001000
00000000
00010000
00000000
00001000
00000000
00011000
00000000
00000000
00000000
00010000
00000000
00100000
00000000
10000000
00010000
,
10000000
00000000
00010000
00000000
01000000
00000000
01100000
00000000
00000000
00000000
00100000
00000000
00010000
00000000
00001000
00000100
00000010
00000000
00010000
00000000
00001000
00000000
00011000
00000000
00000000
00000000
00001000
00000000
00000100
00000000
00000001
00000100
,
00000010
00000000
00000100
00000000
00010000
00000000
00011000
00000000
00000000
00000000
00001000
00000000
00010000
00000000
00100000
01000000
10000000
00000000
01000000
00000000
00010000
00000000
00011000
00000000
00000000
00000000
00001000
00000000
00010000
00000000
00000100
00001000
,
00000100
00000000
00000010
00000000
00000110
00000000
00000000
00000000
00000000
00000000
00000110
00000000
00000000
00000000
00000001
00001000
00000100
00000000
00000010
00000000
00001000
00000000
00001010
00000000
00000000
00000000
00011000
00000000
00010000
00000000
01000000
00100000
,
10000000
00000000
10100000
00000000
01100000
00000000
00000000
00000000
00000000
00000000
10010000
00000000
00000000
00000000
10000000
00100000
01000000
00000000
00100000
00000000
00001000
00000000
00011000
00000000
00000000
00000000
00011000
00000000
00010000
00000000
00000100
00000010
,
00000100
00000000
00000001
00000000
00001000
00000000
00000000
00000000
00000000
00000000
00001010
00000000
00000000
00000000
00001000
00000000
00010000
00000000
00000000
00000000
00100000
00000000
10000000
00000000
00000000
00000000
11000000
00000000
00000000
00000000
01000000
00000000
20020000
00000000
00000000
00000000
00000000
00000000
00000000
00000000
00000000
00000000
00000000
00000000
00000000
00000000
00000000
30030000
10100000
00000000
00000000
00000000
00000000
00000000
00000000
00000000
00000000
00000000
00000000
00000000
11000000
00000000
00000000
00000000
,
00000000
00000000
01010000
00000000
00000000
11000000
00000000
00000000
10100000
00000000
00000000
00110000
00000000
00000000
00101000
00000000
,
00000000
00011000
00000000
00000000
01001000
00000000
00000000
00010010
00000000
00000000
00011000
00000000
00000000
00001100
00000000
00000000
,
00000011
00000000
00000000
00000101
00000000
00000000
00001100
00000000
00000000
00000101
00000000
00000000
00000011
00000000
00000000
00001010
,
00000000
00000000
00010010
00000000
00000000
00011000
00000000
00000000
00010100
00000000
00000000
00101000
00000000
00000000
00011000
00000000
,
00000000
01001000
00000000
00000000
01010000
00000000
00000000
11000000
00000000
00000000
10100000
00000000
00000000
00110000
00000000
00000000
,
00011000
00000000
00000000
00000000
00000000
00000000
00001010
00000000
00000000
00000000
00000000
00000000
00000011
00000000
00000000
00000000
00000000
00000000
00000101
00000000
00000000
00000000
00000000
00000000
00001001
00000000
00000000
00001000
00000000
00000000
00000100
00000000
,
00000000
00000010
00000000
00000000
00000001
00000000
00000000
00000001
00000000
00000000
00000100
00000000
00000000
00001000
00000000
00000000
00010000
00000000
00000000
00100000
00000000
00000000
10000000
00000000
00000000
00010000
00000000
00000000
01000000
00000000
00000000
01000000
,
00000000
00000000
00100000
00000000
00000000
10000000
00000000
00000000
11000000
00000000
00000000
01000000
00000000
00000000
00100000
00000000
00000000
00001000
00000000
00000000
00010000
00000000
00000000
00010000
00000000
00000000
00001000
00000000
00000000
00000100
00000000
00000000
,
00000001
00000000
00000000
00001000
00000000
00000000
00000010
00000000
00000000
00000100
00000000
00000000
00000010
00000000
00000000
00000010
00000000
00000000
00001000
00000000
00000000
00010000
00000000
00000000
00100000
00000000
00000000
01000000
00000000
00000000
00100000
00000000
,
00000000
00010000
00000000
00000000
00011000
00000000
00000000
00001000
00000000
00000000
00010000
00000000
00000000
00100000
00000000
00000000
10000000
00000000
00000000
00100000
00000000
00000000
00010000
00000000
00000000
00001000
00000000
00000000
00011000
00000000
00000000
00010000
,
00000000
00000000
00001000
00000000
00000000
00000100
00000000
00000000
00000001
00000000
00000000
00000100
00000000
00000000
00001000
00000000
00000000
00010000
00000000
00000000
00011000
00000000
00000000
00001000
00000000
00000000
00010000
00000000
00000000
01000000
00000000
00000000
,
10000000
00000000
00000000
00000000
00000000
00000000
01000000
00000000
00000000
00000000
00000000
00000000
00010000
00000000
00000000
00000000
00000000
00000000
00001000
00000000
00000000
00000000
00000000
00000000
00011000
00000000
00000000
00000000
00000000
00000000
00010000
00000000
00000000
00000000
00000000
00000000
00001000
00000000
00000000
00000000
00000000
00000000
00010000
00000000
00000000
00000000
00000000
00000000
00001000
00000000
00000000
00100000
00000000
00000000
00010000
00000000
00000000
00000000
00000000
00000000
20000000
00000000
00000000
00000000
,
00000000
31000000
00000000
00000000
00100000
00000000
00000000
01000000
00000000
00000000
00010000
00000000
00000000
10000000
00000000
00000000
01000000
00000000
00000000
00010000
00000000
00000000
00001000
00000000
00000000
00100000
00000000
00000000
00001000
00000000
00000000
00010000
,
00000000
00000000
00000000
00000000
00000100
00000000
00000000
00000000
00000000
00000000
00001000
00000000
00000000
00000000
00000000
00000000
00000100
00000000
00000000
00000010
00000000
00000000
00000100
00000000
00000000
00000000
00000000
00000000
00000002
00000000
00000000
00000000
00000000
00000000
00000103
00000000
00000000
00000000
00000000
00000000
00001000
00000000
00000000
00000000
00000000
00000000
00000100
00000000
00000000
00000000
00000000
00000000
00001000
00000000
00000000
00000000
00000000
00000000
00010000
00000000
00000000
00000000
00000000
00000000
,
00001000
00000000
00000000
00000000
00000000
00000000
00010000
00000000
00000000
00000000
00000000
00000000
00100000
00000000
00000000
00000000
00000000
00000000
10000000
00000000
00000000
00000000
00000000
00000000
00100000
00000000
00000000
00000000
00000000
00000000
00001000
00000000
00000000
00000000
00000000
00000000
00010000
00000000
00000000
00000000
00000000
00000000
00000010
00000000
00000000
00000000
00000000
00000000
00001000
00000000
00000000
00000001
00000000
00000000
00001000
00000000
00000000
00000000
00000000
00000000
00000020
00000000
00000000
00000000
,
00000000
00001030
00000000
00000000
00010000
00000000
00000000
01000000
00000000
00000000
10000000
00000000
00000000
01000000
00000000
00000000
00010000
00000000
00000000
00001000
00000000
00000000
00000100
00000000
00000000
00000001
00000000
00000000
00000100
00000000
00000000
00001000
,
00000000
00000000
00000000
00000000
00010000
00000000
00000000
00000000
00000000
00000000
00100000
00000000
00000000
00000000
00000000
00000000
01000000
00000000
00000000
00100000
00000000
00000000
01000000
00000000
00000000
00000000
00000000
00000000
20000000
00000000
00000000
00000000
00000000
00000000
31000000
00000000
00000000
00000000
00000000
00000000
00010000
00000000
00000000
00001000
00000000
00000000
00010000
00000000
00000000
00000000
00000000
00000000
00000010
00000000
00000000
00000000
00000000
00000000
00001000
00000000
00000000
00000000
00000000
00000000
,
00000001
00000000
00000000
00000100
00000000
00000000
00000001
00000000
00000000
00000000
00000000
00000000
00001000
00000000
00000000
00000000
00000000
00000000
00000100
00000000
00000000
00000000
00000000
00000000
00000010
00000000
00000000
00000100
00000000
00000000
00000010
00000000
00000000
00000100
00000000
00000000
00000010
00000000
00000000
00000100
00000000
00000000
00000010
00000000
00000000
00000200
00000000
00000000
00000020
00000000
00000000
00000000
00000000
00000000
00000000
00000000
00000000
00000000
00000000
00000000
00000000
00000000
00000000
00000000
,
00000000
00000000
00000000
00000000
,
00000000
00000000
00000000
00000000
,
00000000
00000000
00000000
00000330
;
