#TITLE:トリカゴノ鳳凰;
#ARTIST:L.E.D. Vs. 幽閉サテライト;
#TITLETRANSLIT:Torikago no houou;
#ARTISTTRANSLIT:L.E.D. Vs. Yuuhei Satellite;
#GENRE:KAYO DRUM & BASS;
#BANNER:Torikago no houou.png;
#BACKGROUND:Torikago no houou-bg.png;
#CDTITLE:./CDTitles/bm IIDX 20 tricoro.png;
#MUSIC:Torikago no houou.ogg;
#SAMPLESTART:51.891;
#SAMPLELENGTH:15;
#BPMS:0=185;
#BGSTAGE:29;

//--------------- dance-single - Fred-104 ----------------
#NOTES:
     dance-single:
     Fred-104:
     Beginner:
     3:
     :
0000
0000
0000
0000
,
0000
0000
0000
0000
,
0000
0000
0000
0000
,
0000
0000
0000
0000
,
0000
0000
0000
0000
,
0001
0000
0000
0000
,
1000
0000
0000
0000
,
0001
0000
1000
0000
,
1001
0000
0000
0000
,
2000
0000
0000
3000
,
0002
0003
2000
3000
,
0020
0000
0000
0000
,
0000
0000
0030
1000
,
2000
0000
0000
3000
,
0200
0300
2000
3000
,
0002
0000
0000
0003
,
1001
0000
0000
0000
,
0001
0000
0000
0000
,
0100
0000
0001
0000
,
0010
0000
0000
0000
,
0002
0000
0003
0000
,
1000
0000
0001
0000
,
1000
0000
0010
0000
,
1000
0000
0100
0000
,
1000
0000
0000
0000
,
0001
0000
0000
0000
,
1000
0000
0001
0000
,
1000
0000
0000
0000
,
0001
0000
0000
0000
,
0100
0000
0010
0000
,
0100
0000
0001
0000
,
1000
0000
0001
0000
,
1000
0000
1000
0000
,
0002
0000
0000
0003
,
2000
3000
0002
0003
,
0200
0000
0000
0000
,
0000
0000
0300
0000
,
0002
0000
0000
0000
,
0003
0000
0000
0000
,
0020
0000
0000
0030
,
1001
0000
0000
0000
,
0001
0000
1000
0000
,
0001
0000
0100
0000
,
0100
0000
0010
0000
,
0200
0000
0000
0300
,
0001
0000
1000
0000
,
0001
0000
0010
0000
,
0010
0000
0100
0000
,
2000
0000
0000
3000
,
0001
0000
1000
0000
,
0001
0000
0100
0000
,
0001
0000
1000
0000
,
0002
0000
0000
0003
,
1000
0000
0010
0000
,
0001
0000
0100
0000
,
1000
0000
0001
0000
,
1000
0000
0001
0000
,
0002
0000
0000
0000
,
0000
0000
0000
0000
,
0003
0000
0000
0000
,
1000
0000
0010
0000
,
1000
0000
0000
0000
,
0001
0000
0100
0000
,
0001
0000
0000
0000
,
1000
0000
0001
0000
,
2000
0000
0000
3000
,
0020
0030
0200
0300
,
0002
0000
0000
0000
,
0000
0000
0003
0000
,
2000
0000
0000
3000
,
0002
0003
2000
3000
,
0002
0000
0000
0003
,
1001
0000
0000
0000
,
1000
0000
0010
0000
,
1000
0000
0001
0000
,
0002
0003
2000
3000
,
0002
0000
0000
0003
,
0100
0000
0000
0000
,
0100
0000
0010
0000
,
0100
0000
0001
0000
,
2000
0000
0000
3000
,
0001
0000
0100
0000
,
0001
0000
0010
0000
,
0001
0000
1000
0000
,
0002
0000
0000
0003
,
1000
0000
0100
0000
,
0001
0000
0010
0000
,
1000
0000
0001
0000
,
1000
0000
0001
0000
,
0002
0000
0000
0000
,
0000
0000
0000
0003
,
1000
0000
0001
0000
,
1000
0000
0010
0000
,
1000
0000
0000
0000
,
0001
0000
0100
0000
,
0001
0000
1000
0000
,
0001
0000
1000
0000
,
2002
0000
0000
0000
,
0000
0000
0000
0000
,
0000
0000
0000
0000
,
0000
0000
0000
0000
,
3003
0000
0000
0000
;

//--------------- dance-single - Fred-104 ----------------
#NOTES:
     dance-single:
     Fred-104:
     Easy:
     8:
     :
0000
0000
0000
0000
,
0000
0000
0000
0000
,
0000
0000
0000
0000
,
0000
0000
0000
0000
,
0000
0000
0000
0000
,
1000
0000
0010
0000
,
1000
0100
1000
0001
,
0100
0100
0010
0100
,
0001
0001
1001
0000
,
2000
0000
0000
0000
,
3020
1000
2030
0001
,
3002
0000
0023
0000
,
0230
0000
1300
0010
,
2000
0000
3020
0000
,
0032
0000
0103
1000
,
0001
0100
0010
1000
,
2002
0000
0000
3003
,
0001
0100
0001
0001
,
0100
0010
1000
0001
,
1000
0000
0000
0100
0000
0000
0001
0000
,
0100
0000
0000
1001
0000
0000
0000
0000
,
0001
0001
1000
1000
,
0001
0000
0000
0100
0000
0000
0010
0000
,
0100
0000
0000
0001
0000
0000
1000
0000
,
1001
0000
0001
1000
,
0002
0000
0203
0000
,
0301
0010
0001
1000
,
0010
0000
0000
1000
0000
0000
0100
0000
,
1000
0000
0000
0010
0000
0000
1000
0000
,
0001
0001
0100
0100
,
1000
1000
0010
0010
,
0001
0000
1000
0000
,
0001
0000
0100
0000
0001
0000
1000
0001
,
2000
0000
0000
0000
,
3002
0000
2003
0000
,
3020
0000
0000
0000
,
0000
0000
0230
0000
,
0302
0000
0000
0000
,
0003
0010
0100
1000
,
0001
0100
0001
0000
1000
0100
1000
0000
,
2002
0000
0000
3003
,
0001
0100
0002
0000
,
0013
0100
0010
0001
,
1000
0000
0000
0010
0000
0000
0100
0000
,
0001
0100
0010
0000
,
0100
0100
0001
0001
,
1000
0000
1000
0000
0010
0000
1000
0010
,
0100
0000
0100
0010
,
1000
0001
1000
0000
0001
0100
0001
0000
,
1001
1000
0010
0000
,
1000
0100
1000
0010
,
0100
0100
0001
0010
,
0001
0000
0000
1001
0000
0000
0000
0000
,
1000
0100
0100
0100
,
0010
0100
0100
0100
,
1001
0000
0110
0000
,
1000
0010
1000
0001
,
1001
0000
0001
0000
,
0100
0010
0100
0001
,
0100
0000
0010
0000
,
1000
0100
0001
0100
,
1000
0000
0001
0000
,
0100
0010
1000
0010
,
0100
0000
0001
0000
,
1000
0100
0010
0001
,
2002
0000
0000
3003
,
2000
0000
3020
0000
,
0230
0000
0000
0000
,
0000
0000
0302
2003
,
3002
0000
0000
0000
,
2003
0000
3200
0320
,
0031
0100
0001
0000
1000
0010
1000
0000
,
2002
0000
0000
3003
,
0001
0100
1000
0100
,
0001
0000
0010
0000
0001
1000
0001
0000
,
0100
0000
0000
0010
0000
0000
0100
0000
,
0001
0010
0100
1000
,
0010
1000
0100
1000
,
0010
0000
0100
0000
0001
0000
1000
0001
,
2000
0000
0000
0000
3001
0000
1000
0100
,
2000
0000
3001
0000
,
1000
0010
1000
0100
,
1000
0010
0100
0000
,
0001
0010
1000
0010
,
0001
0000
0000
1001
0000
0000
0000
0000
,
2000
3200
0320
0032
,
0203
0000
0320
0000
0230
0000
0301
1000
,
0001
0000
0100
0000
0010
0000
1000
0100
,
1000
0000
0001
0000
1000
0010
1000
0000
,
1001
0000
0001
0000
,
0100
0010
0100
0001
,
1000
0000
0010
0000
,
1000
0100
0001
0100
,
1000
0001
0100
0010
,
0100
0001
1000
0100
,
1000
0010
1000
0010
,
0001
0100
0001
0100
,
2002
0000
0000
0000
,
0000
0000
0000
0000
,
0000
0000
0000
0000
,
0000
0000
0000
0000
,
3003
0000
0000
0000
;

//--------------- dance-single - Fred-104 ----------------
#NOTES:
     dance-single:
     Fred-104:
     Medium:
     12:
     :
0000
0000
0000
0000
,
0000
0000
0000
0000
,
0000
0000
0000
0000
,
0000
0000
0000
0000
,
0000
0000
0000
0000
,
0100
0000
0010
0000
0000
0100
0010
0000
,
1000
0000
0010
0000
1000
0100
1000
0000
,
0001
0010
0100
0000
1000
0100
1000
0000
,
1010
0000
0101
0000
1100
0000
0001
1000
,
0002
0100
0010
0103
,
0020
1030
0200
1300
,
0020
0100
1000
0130
,
0020
0000
1030
0000
0001
1000
0010
0100
,
0002
0010
0100
0013
,
0200
1300
0020
2030
,
3001
0100
0001
0000
1000
0010
0100
0000
,
0220
0000
0000
0330
,
0001
0100
0001
0000
0100
0010
1000
0010
,
0000
1000
0100
1000
0000
0001
0100
0001
,
0010
0000
0100
1000
0000
0001
1000
0000
,
0100
0010
0001
2000
0000
0000
3000
0000
,
0002
0203
2300
3020
,
0031
0000
0100
0100
0000
0001
0010
0100
,
0010
0000
0001
0001
0000
0100
0010
1000
,
0100
1000
0010
0000
1000
0001
0100
0010
,
2000
0100
0001
3010
,
1000
0100
1000
0000
0001
1000
0010
0000
,
1000
0000
0100
0100
0000
0010
0001
1000
,
0001
0100
0010
0200
0001
0000
0301
0000
,
2000
3200
0302
0023
,
1030
0100
1000
0000
0010
0000
1000
0001
,
0010
0000
0100
0000
1000
0010
0100
0001
,
0100
0000
0001
0000
1000
0001
0100
0001
,
0200
0000
0000
0000
,
0320
0000
2030
0000
,
3002
0000
0000
0000
,
0000
0000
2003
0000
,
3020
0000
0000
0000
,
0030
0001
0100
0000
1000
0001
1000
0000
,
0001
0100
0010
0100
0001
1000
0001
0000
,
2002
0000
0000
3003
,
1001
0000
0010
1000
0100
0000
0010
0000
,
0001
0000
1000
0100
0010
0100
1000
0000
,
1010
0000
1000
0100
0000
0010
0100
0000
,
1000
0000
0000
0001
0000
0000
0100
0000
0001
0000
0000
1000
0000
0000
0010
0000
,
0200
0302
2003
3020
,
0032
0000
0203
0000
2300
0000
3001
1000
,
0020
0000
1000
0000
0100
0000
1030
0001
,
1000
0100
0010
0000
0010
0100
1000
0000
,
0001
0010
0100
0010
0001
0000
1000
0000
,
0010
0000
1000
0010
0100
0010
1000
0001
,
1000
0100
1000
0000
0001
0100
0001
0000
,
1000
0000
0100
0200
0000
0000
0300
0000
,
1100
1010
0101
0011
,
1001
0000
0110
0000
1001
0000
0001
0100
,
1000
0000
0100
0000
0101
0000
1000
0100
,
0010
0000
0001
1000
0010
0100
0001
0000
,
1000
0000
0000
1000
0000
0000
0010
0000
0100
0000
0000
0100
0000
0000
0001
0000
,
0010
0000
0000
0010
0000
0000
0001
0000
1000
0000
0000
1000
0000
0000
0001
0000
,
0100
0000
0000
0001
0000
0000
0010
0000
0001
0000
0000
1000
0000
0000
0100
0000
,
1000
0000
0000
0010
0000
0000
0100
0000
0001
0000
0000
1000
0000
0000
0100
0000
,
0010
0000
0000
0001
0000
0000
1000
0000
0001
0000
0000
0100
0000
0000
0010
0000
,
1000
0000
0000
0010
0000
0000
0100
0000
0001
0000
0000
0010
0000
0000
0100
0000
,
1000
0000
0000
0010
0000
0000
1000
0000
0001
0000
0000
0100
0000
0000
0001
0000
,
0100
0010
1000
0001
0010
0100
0010
0100
,
0020
0000
0000
0000
,
0032
0000
2003
0000
,
3200
0000
0000
0000
,
0000
0000
0000
0000
1300
0000
0001
1000
,
0200
0000
0000
0000
,
2300
0000
3020
0230
,
0301
0010
0001
0100
0010
1000
0001
0000
,
2002
0000
0000
3003
,
1000
0000
0010
1000
0010
0000
0100
0000
,
0001
0000
1000
0000
0100
0010
0001
0000
,
1000
0000
0001
0100
0000
0010
0100
0000
,
0001
0000
0000
0001
0000
0000
0001
0000
1000
0000
0000
1000
0000
0000
1000
0000
,
0200
2300
3020
0032
,
0023
0000
2030
0000
3002
0000
1003
0100
,
0020
0000
0032
0000
2003
0000
3001
0100
,
0020
0000
0230
0000
0301
1000
0001
0000
,
1000
0100
1000
0001
0100
0000
0001
0000
,
0010
0000
0001
0100
0010
0100
0001
1000
,
0001
0010
0100
0000
1000
0010
0100
0000
,
0001
0000
1000
0200
0000
0000
0300
0000
,
1010
1100
1010
1100
,
1001
0000
0101
0000
1001
0000
0001
0010
,
0100
0000
1000
0010
0100
0000
0010
1000
,
0001
0000
1000
0100
0010
0001
1000
0000
,
0001
0000
0000
0100
0000
0000
0001
0000
0010
0000
0000
0100
0000
0000
1000
0000
,
0010
0000
0000
1000
0000
0000
0100
0000
1000
0000
0000
0010
0000
0000
0100
0000
,
0001
0000
0000
1000
0000
0000
0100
0000
0010
0000
0000
0001
0000
0000
1000
0000
,
0001
0000
0000
0100
0000
0000
0001
0000
0100
0000
0000
0010
0000
0000
1000
0000
,
0100
0000
0000
0010
0000
0000
0001
0000
0100
0000
0000
0010
0000
0000
1000
0000
,
0100
0000
0000
1000
0000
0000
0010
0000
0100
0000
0000
0001
0000
0000
0010
0000
,
0100
1000
0010
0000
0100
0001
0010
0000
,
0100
1000
0001
1000
0100
0010
0001
1000
,
2002
0000
0000
0000
,
0000
0000
0000
0000
,
0000
0000
0000
0000
,
0000
0000
0000
0000
,
3003
0000
0000
0000
;

//--------------- dance-single - Fred-104 ----------------
#NOTES:
     dance-single:
     Fred-104:
     Hard:
     14:
     :
0000
0000
0000
0000
,
0000
0000
0000
0000
,
0000
0000
0000
0000
,
0000
0000
0000
0000
,
0000
0000
0000
0000
,
0001
0100
0001
0000
0000
0100
0100
0000
,
0010
0000
1001
0000
1000
0010
0100
0000
,
0001
0010
0100
0010
0001
1000
0010
1000
,
0100
1000
0100
0000
0010
0001
0010
0000
0001
1000
0001
0000
0020
0000
0230
0300
,
1001
0000
0001
0001
1000
0010
0100
0001
,
2000
0010
3002
0100
,
1003
0010
1000
0100
1000
0001
0100
0001
,
0010
0100
0010
0001
1000
0001
0200
0302
,
1003
0001
0010
0100
1000
0001
0100
0010
,
0200
0010
0302
0010
,
1003
0000
0010
0000
1000
0000
0100
0000
0010
0000
0001
0000
1000
0001
1000
0000
,
2002
0000
0000
3003
,
0001
0100
0001
0010
0001
1000
0001
0200
,
0000
0301
1000
0020
0000
1030
0100
0010
,
0001
0000
0100
0101
0000
1001
0000
1000
,
0100
0001
0100
1000
0010
0100
0001
0000
,
2000
3200
0302
0023
,
1030
0000
0001
1001
0000
0001
0100
0010
,
1010
0000
1000
1100
0000
0100
0010
0001
,
0100
0010
0100
0000
0001
0000
1000
0000
0010
0000
0100
0000
0001
0000
0010
0000
,
0200
0010
1000
0310
,
0001
1000
0100
1000
0010
1000
0001
0100
,
0010
0000
1000
1100
0000
1000
0001
0100
,
0001
0010
1000
0010
0001
0100
0010
0000
,
2000
3020
0032
0203
,
2300
0000
0010
0000
3002
0000
0103
0001
,
2000
0000
0010
0000
0001
0000
3010
0100
,
0001
0000
0010
0000
0001
0000
1000
0000
0100
0010
0100
0000
1000
0000
0001
0000
,
2001
0000
0000
0000
,
3020
0000
0230
0000
,
0302
0000
0000
0000
,
0000
0000
0023
0000
,
0230
0000
0000
0000
0000
0000
0000
0300
,
0000
1000
0010
1000
0001
0100
0010
0100
,
0001
0010
0100
1000
0001
0100
0010
1000
,
2002
0000
0000
3003
,
0001
1000
0001
0010
0100
1000
0010
0100
,
0002
0000
0203
0000
1300
0100
0002
0000
,
1003
0000
0100
0010
0000
0001
0010
0000
,
0001
0100
0001
0000
0010
0000
0100
0000
0010
0000
0001
0000
1000
0000
0010
0000
,
1000
0100
0110
0000
0001
0100
0110
0000
,
1010
0000
0101
0000
1000
0001
0100
0010
,
2000
0000
3100
1000
0001
1000
0100
0010
,
0100
0000
1000
0000
0001
0000
0100
0000
0001
0010
0001
0000
1000
0000
0010
0000
,
0100
0001
1000
0100
0010
0001
1000
0010
,
0100
0001
0100
0001
0100
1000
0100
0001
,
1000
0100
1000
0100
0001
0100
0001
0100
,
2000
0000
3002
0200
0000
0303
0110
0000
,
1100
0101
0011
1010
,
1100
0000
0000
0000
1001
0000
0000
0000
1000
0010
1000
0000
0001
0000
0100
0000
,
0010
1000
0010
1000
0001
0100
0001
0100
,
0001
0000
0010
0000
0100
0000
1000
0000
0001
0100
0001
0000
1000
0010
1000
0000
,
0001
0100
0001
0010
0001
1000
0010
0100
,
0001
0000
0000
0010
0000
0000
0100
0000
1000
0000
0000
0010
0000
0000
0100
0000
,
0001
0000
0000
0010
0000
0000
1000
0000
0100
0000
0000
0001
0000
0000
1000
0000
,
0002
0000
0000
0100
0000
0000
0103
0000
0020
0000
0000
1000
0000
0000
1030
0000
,
0001
0000
0000
0100
0000
0000
1000
0000
0001
0000
0000
0010
0000
0000
1000
0000
,
0001
0000
0000
0010
0000
0000
0100
0000
1000
0010
0100
0000
0001
0000
1000
0000
,
0100
0000
0000
0001
0000
0000
0100
0000
0010
0000
0000
0001
0000
0000
1000
0000
,
0001
0000
0010
0000
0100
0000
1000
0000
0100
1000
0100
1000
0100
1000
0100
1000
,
0200
0000
0000
0000
,
0320
0000
0032
0000
,
2003
0000
0000
0000
,
0000
0000
0000
0000
3000
0010
0100
0001
,
0200
0000
0000
0000
,
0302
0000
0023
2030
,
3010
0001
1000
0000
0001
0100
0010
1000
,
2002
0000
0000
3003
,
0001
0100
0010
0100
0001
0100
0001
1000
,
0100
0010
0001
1000
0010
0100
0002
0000
,
1003
0100
1000
0001
0100
0001
0010
0100
,
0010
0100
0010
0000
0100
0000
1000
0000
0001
0000
0000
0100
0000
0000
0001
0000
,
1000
0010
0200
0000
0310
0100
0001
0000
,
2000
0000
3020
0000
0032
0000
1003
0100
,
0002
0000
2003
0000
3100
0010
0001
1000
,
0010
0000
0100
0000
0001
0000
1000
0000
0001
0100
0001
0000
0010
0000
0100
0000
,
1000
0010
1000
0100
1000
0010
0100
0001
,
1000
0001
0010
1000
0010
1000
0010
0001
,
1000
0010
1000
0010
0001
0010
0001
0010
,
2000
0000
3002
0020
0000
0033
1001
0000
,
1010
0011
0101
1100
,
1010
0000
0000
0000
1001
0000
0000
0000
0001
1000
0001
0000
0100
0000
0010
0000
,
1000
0100
1000
0100
0010
0001
0010
0001
,
1000
0000
0010
0000
0100
0000
0001
0000
0010
0100
0010
0000
0001
1000
0001
0000
,
0100
0001
0010
0001
1000
0010
0100
0001
,
1000
0000
0000
0100
0000
0000
0010
0000
1000
0000
0000
0010
0000
0000
0001
0000
,
1000
0000
0000
0001
0000
0000
0100
0000
0010
0000
0000
0001
0000
0000
0010
0000
,
2000
0000
0000
0100
0000
0000
3100
0000
0020
0000
0000
0001
0000
0000
0031
0000
,
1000
0000
0000
0100
0000
0000
0010
0000
0001
0000
0000
0100
0000
0000
0010
0000
,
0001
0000
0000
0010
0000
0000
1000
0000
0001
0100
0001
0000
0010
0000
0100
0000
,
1000
0000
0000
0010
0000
0000
1000
0000
0100
0000
0000
0010
0000
0000
0001
0000
,
1000
0000
0010
0000
0100
0000
0001
0000
0100
0001
0100
0001
0100
0001
0100
0001
,
0100
0010
0100
0000
0001
0010
0000
0100
,
0000
1000
0010
0000
1000
0001
0100
0001
,
0000
1000
0100
0000
0010
0100
0000
1000
,
0000
0010
0100
0000
0001
1000
0100
0020
,
0030
0000
0000
0000
;

//--------------- dance-single - Fred-104† ----------------
#NOTES:
     dance-single:
     Fred-104†:
     Challenge:
     17:
     :
0000
0000
0000
0000
,
0000
0000
0000
0000
,
0000
0000
0000
0000
,
0000
0000
0000
0000
,
0000
0000
0000
0000
,
1000
0100
1000
0010
0100
0001
0000
1000
,
0000
0001
0010
0000
0100
0010
0001
1000
,
0010
0000
0100
0000
0010
0000
1000
0001
0100
0001
0010
0000
0100
0000
0010
0000
,
0001
0010
0100
0000
0100
1000
0010
0000
0010
0100
0001
0000
1000
0001
1000
0001
,
1000
0000
0100
0000
0010
0000
0001
0100
0001
0100
0010
0000
0100
0000
0001
0000
,
0010
0000
0100
0000
0010
0000
0001
1000
0001
1000
0010
0000
0100
0000
0001
0000
,
1000
0000
0010
0000
1000
0000
0100
1000
0100
1000
0010
0000
0100
0000
0001
0000
,
0100
0000
0010
0000
1000
0000
0100
0000
1000
0010
0100
0001
1000
0000
0001
0000
,
0010
0000
0100
0000
1000
0000
0010
1000
0001
1000
0100
0000
0010
0000
0100
0000
,
1000
0000
0001
0000
0100
0000
0001
0010
0100
0010
0001
0000
0100
0000
0010
0000
,
0100
0000
0001
0000
0010
0000
0001
1000
0010
1000
0001
0000
0100
0010
0100
0000
,
2002
0000
0000
3003
,
1000
0100
1000
0001
0100
0010
0100
0002
,
0000
0000
0013
0000
1000
0000
0002
0000
0000
0000
0103
1000
0001
0000
0010
0000
,
0002
0000
1003
0010
0001
0010
0100
0010
,
1000
0000
0001
0000
0100
0000
0010
0000
1000
0001
1000
0000
1100
0000
0000
0000
,
2000
0010
0001
0100
,
3001
0000
0011
1001
0000
1100
1000
0100
,
0110
0000
0001
0101
0000
1010
0000
1000
,
0001
1000
0001
0000
0100
0000
0010
1000
0001
1000
0010
0000
0100
0000
0010
1000
,
0002
0100
1000
0010
,
1003
0001
0010
1000
0010
0001
0100
1000
,
0100
0000
0001
0011
0000
0001
1000
0010
,
1000
0000
0100
0000
0010
0000
0001
0000
0100
0001
0010
0000
0110
0000
0000
0000
,
2010
0001
0100
0010
,
3002
0000
0010
0000
2003
0000
3100
1000
,
0002
0000
1000
0000
0013
0000
0100
0010
,
0001
1000
0001
0000
0100
0000
0010
0000
1000
0010
0100
0001
1000
0000
0100
0000
,
0120
0000
0000
0000
,
0032
0000
0203
0000
,
2300
0000
0000
0000
,
0000
0000
3020
0000
,
0032
0000
0000
0000
0000
0000
0000
0003
,
0000
1000
0100
0001
1000
0010
0001
1000
,
0001
0100
0010
1000
0001
1000
0100
0010
,
2002
0000
0000
3003
,
0001
0000
0100
0001
0010
0000
0100
1000
0100
1000
0001
0000
0100
0000
0010
0000
,
1010
1000
1100
0000
0011
0001
0101
0000
,
0001
0010
0100
0000
1000
0000
0001
0010
0100
0000
1000
0000
0001
0010
0100
0000
,
1000
0001
1000
0000
0001
0000
0100
0010
1000
0010
0100
0000
0001
0000
0010
0000
,
0011
0001
0101
0000
1010
1000
1100
0000
,
0110
0000
0010
0000
1001
0000
0000
0000
0001
1000
0001
0000
0100
0000
0010
0000
,
2000
0000
0100
0000
0010
0000
3100
0010
,
0002
0000
0000
0000
0100
0000
0000
0000
1003
0001
0010
0000
0100
0000
0100
0010
,
0100
0000
1000
0010
0100
0000
0001
1000
0100
0000
0010
0000
0001
0000
1000
0000
,
0001
0000
0100
1000
0100
0000
0001
0000
0010
1000
0010
0000
0001
0000
1000
0000
,
0001
0100
1000
0100
0010
1000
0010
0100
,
0002
0000
2003
0200
0000
3300
1001
0000
,
1200
0310
0001
1000
1020
0130
0001
1000
,
0210
0000
1300
0000
0001
0000
0100
0000
0001
0010
0100
0000
1000
0000
0010
0000
,
0110
0001
1000
0000
0110
1000
0001
0100
,
0001
0000
1000
0000
1001
0000
0000
0000
1000
0001
0010
0000
0100
0000
0010
0000
,
0100
0000
1000
0001
0000
0010
0100
0000
0010
0000
0001
1000
0000
0100
1000
0000
,
0001
0000
1000
0100
0000
0100
0001
0000
1000
0001
0010
0000
0100
0000
1000
0000
,
0001
0000
1000
0010
0000
0010
0001
0000
1000
0000
0001
0010
0000
0010
1000
0000
,
0001
0000
1000
0100
0000
0100
0001
0000
1000
0000
0001
0010
0000
0010
1000
0000
,
0001
0000
0010
0100
0000
1000
0010
0000
0100
0000
0001
1000
0000
0010
0100
0000
,
0010
0000
1000
0100
0000
0010
0001
0000
1000
0001
0010
0000
0001
0000
1000
0100
,
0010
0000
0001
0100
0000
0100
1000
0001
0100
0000
0001
0010
0000
0010
1000
0001
,
1000
0000
1010
0000
0001
0000
0101
0000
0010
1000
0100
0010
0001
0100
0010
1000
,
0020
0000
0000
0000
,
2030
0000
3200
0000
,
0302
0000
0000
0000
,
0000
0000
0000
0000
0003
0100
1000
0001
,
1001
0010
1000
0100
0010
0001
1000
0001
,
0100
0010
1000
0001
0010
0100
1000
0001
,
1001
0000
0100
0000
0110
0000
0010
0000
0001
0100
0010
0000
1000
0000
0001
0000
,
2002
0000
0000
3003
,
0001
0000
1000
0001
0010
0000
0100
0010
0001
1000
0010
0000
0100
0000
0001
0000
,
1000
0000
0001
0010
0100
0010
0001
0000
1000
0001
0100
0001
1000
0000
0100
0000
,
1000
0010
0010
0001
0100
0100
1000
0001
,
0100
0001
0010
0000
0100
0000
1000
0010
0100
0001
0100
0000
0010
0000
0100
0000
,
0101
0001
0011
0000
1100
1000
1010
0000
,
0011
0000
0001
0000
1001
0000
1000
0000
0100
0010
0001
0000
1000
0010
0100
0000
,
0002
0000
0010
0000
1000
0000
0103
0010
,
1000
0000
0100
0000
1000
0000
0100
0001
0100
1000
0001
0000
1000
0000
0001
0010
,
0100
0000
1000
0001
0010
0000
0001
1000
0100
0000
0010
0000
0100
0000
1000
0000
,
0001
0000
0100
1000
0100
0000
0001
0000
1000
0100
0001
0100
1000
0000
0001
0000
,
0021
0130
1000
0001
0210
1300
0100
0001
,
0011
0000
0000
0000
0001
0000
1000
0000
0100
0010
0001
0000
0101
0000
0000
0000
,
1001
0000
1000
0100
0010
0000
0010
0001
0100
0000
0100
0010
1000
0000
0001
0000
,
0101
0000
0001
0010
0100
0000
0100
1000
0010
1000
0010
0000
0100
0000
0001
1000
,
0001
0010
0100
1000
1001
0010
0100
0001
,
0100
0001
0010
0000
0100
1000
0010
0000
1000
0001
0100
0001
1000
0001
0010
0001
,
0100
0000
0001
0010
0100
0000
1000
0000
0100
0010
0001
0000
1000
0010
0100
0000
,
0001
0000
0100
0001
0000
0010
0001
1000
0001
0000
1000
0100
0000
0010
0100
1000
,
0010
0000
1000
0100
0000
0010
0001
1000
0001
0000
0100
0001
0000
0010
0100
0010
,
0001
0000
1000
0100
0000
1000
0010
0100
0001
0000
0010
0100
0000
1000
0001
0100
,
0001
0000
1000
0001
0000
0010
0100
1000
0100
0000
0010
0001
0000
1000
0001
0100
,
0010
0000
1000
0100
0000
0010
0001
0000
0100
0010
0001
0000
0010
0000
0100
0001
,
1000
0000
0001
1000
0000
0010
1000
0010
0100
0000
0001
1000
0100
0010
0001
1000
,
0001
0000
1000
0100
0010
0000
0001
1000
0001
0100
0010
1000
0001
0010
0100
0010
,
0002
2003
3020
0000
2030
3200
0000
0320
,
0000
0230
2300
0000
3002
2003
3020
0032
,
0000
0023
0230
0000
0302
2003
0000
3200
,
0000
0302
0203
0000
0320
0032
2003
3002
,
0003
0000
0000
0000
;

//--------------- dance-double - Fred-104 ----------------
#NOTES:
     dance-double:
     Fred-104:
     Easy:
     8:
     :
00000000
00000000
00000000
00000000
,
00000000
00000000
00000000
00000000
,
00000000
00000000
00000000
00000000
,
00000000
00000000
00000000
00000000
,
00000000
00000000
00000000
00000000
,
00001000
00000000
00010000
00000000
,
00001000
00001000
00010000
00010000
,
01000000
01000000
10000000
10000000
,
00010000
10000000
10010000
00000000
,
20000000
00000000
00000000
00000000
,
30200000
00000000
00320000
00000000
,
00032000
00000000
00003200
00000000
,
00000302
00000000
00001003
00000001
,
00000200
00000000
00000320
00000000
,
00002030
00000000
00003001
00001000
,
00000001
00000010
00001000
00010000
,
00022000
00000000
00000000
00033000
,
00001000
00010000
00001000
00010000
,
01000000
00100000
00010000
10000000
,
00010000
00000000
00000000
00010000
00000000
00000000
10000000
00000000
,
00100000
00000000
00000000
10010000
00000000
00000000
00000000
00000000
,
10000000
01000000
00100000
00001000
,
00010000
00000000
00000000
00100000
00000000
00000000
10000000
00000000
,
01000000
00000000
00000000
00010000
00000000
00000000
00001000
00000000
,
00011000
00000000
00001000
00000100
,
00000020
00000000
00002030
00000000
,
00003001
00000100
00000001
00000010
,
00000001
00000000
00000000
00000100
00000000
00000000
00001000
00000000
,
00010000
00000000
00000000
00100000
00000000
00000000
10000000
00000000
,
00010000
00010000
01000000
01000000
,
10000000
10000000
00100000
00100000
,
00001000
00000000
00010000
00000000
,
00001000
00000000
00010000
00000000
00001000
00000000
00010000
00000100
,
00020000
00000000
00000000
00000000
,
00032000
00000000
02003000
00000000
,
03020000
00000000
00000000
00000000
,
00000000
00000000
00230000
00000000
,
00302000
00000000
00000000
00000000
,
00003000
00010000
00001000
00000010
,
00000100
00000000
00001000
00000000
,
00022000
00000000
00000000
00033000
,
00001000
00010000
00002000
00000000
,
00103000
00010000
10000000
00100000
,
01000000
00000000
00000000
00010000
00000000
00000000
01000000
00000000
,
00001000
00100000
00001000
00000000
,
00010000
00010000
00001000
00001000
,
01000000
00000000
01000000
00000000
00001000
00000000
00010000
00001000
,
00010000
00000000
00000100
00001000
,
00000010
00001000
00000010
00000000
00000100
00000001
00000100
00000000
,
00001001
00000001
00000010
00000000
,
00000001
00000100
00000001
00000010
,
00000001
00000100
00000001
00000100
,
00001000
00000000
00000000
00011000
00000000
00000000
00000000
00000000
,
00001000
00010000
00001000
00010000
,
01000000
00010000
01000000
10000000
,
10010000
00000000
01100000
00000000
,
10000000
00100000
00010000
00001000
,
00011000
00000000
00010000
00000000
,
00001000
00000100
00000010
00001000
,
00000001
00000000
00000100
00000000
,
00000001
00000010
00001000
00010000
,
00001000
00000000
00010000
00000000
,
00100000
01000000
00010000
10000000
,
00010000
00000000
10000000
00000000
,
01000000
00100000
00001000
00010000
,
00022000
00000000
00000000
00033000
,
00020000
00000000
00030020
00000000
,
00002030
00000000
00000000
00000000
,
00000000
00000000
00003200
00020300
,
00032000
00000000
00000000
00000000
,
00203000
00000000
00320000
02030000
,
03100000
10000000
01000000
00000000
00010000
00001000
00010000
00000000
,
00022000
00000000
00000000
00033000
,
00010000
00001000
00000010
00001000
,
00010000
00000000
00001000
00000000
00010000
00001000
00010000
00000000
,
00001000
00000000
00000000
00010000
00000000
00000000
01000000
00000000
,
00010000
01000000
00001000
00010000
,
00001000
00010000
00000100
00010000
,
00000100
00000000
00001000
00000000
00000100
00000000
00000010
00000001
,
00000020
00000000
00000031
00001000
,
00000100
00010000
00011000
00000000
,
00001000
00010000
00001000
00010000
,
01000000
00100000
01000000
00000000
,
00010000
10000000
01000000
00010000
,
01000000
00000000
00000000
11000000
00000000
00000000
00000000
00000000
,
20000000
30200000
20300000
30200000
,
02300000
00000000
03020000
00000000
02030000
00000000
03010000
00100000
,
00010000
00000000
00100000
00000000
00001000
00000000
00010000
00001000
,
00010000
00000000
00000010
00000000
00001000
00000100
00001000
00000000
,
00001001
00000000
00000001
00000000
,
00000010
00000100
00000010
00001000
,
00010000
00000000
00100000
00000000
,
01000000
00010000
10000000
00100000
,
01000000
00000000
00100000
00000000
,
10000000
01000000
00100000
01000000
,
10000000
00000000
00010000
00000000
,
10000000
01000000
00100000
00001000
,
00022000
00000000
00000000
00000000
,
00000000
00000000
00000000
00000000
,
00000000
00000000
00000000
00000000
,
00000000
00000000
00000000
00000000
,
00033000
00000000
00000000
00000000
;

//--------------- dance-double - Fred-104 ----------------
#NOTES:
     dance-double:
     Fred-104:
     Medium:
     12:
     :
00000000
00000000
00000000
00000000
,
00000000
00000000
00000000
00000000
,
00000000
00000000
00000000
00000000
,
00000000
00000000
00000000
00000000
,
00000000
00000000
00000000
00000000
,
00010000
00000000
10000000
00000000
00000000
00100000
01000000
00000000
,
00010000
00000000
01000000
00000000
00100000
10000000
00100000
00000000
,
10000000
01000000
00010000
00001000
,
00011000
00000000
00001010
00000000
00000011
00000000
00000001
00000100
,
00000020
00001000
00000100
00001030
,
00000002
00000103
00002000
00013000
,
00002000
00010000
00000010
00013000
,
00002000
00000000
00013000
00000000
00001000
00010000
00100000
10000000
,
00020000
01000000
00100000
01030000
,
00020000
01030000
20000000
30200000
,
00310000
10000000
01000000
00000000
00100000
00001000
00010000
00000000
,
00022000
00000000
00000000
00033000
,
00010000
00001000
00010000
00000000
00001000
00010000
00000010
00001000
,
00000000
00000100
00010000
00000100
00000000
00010000
00001000
00100000
,
00001000
00000000
00100000
00010000
00000000
01000000
00100000
00000000
,
01000000
00001000
00010000
00002000
00000000
00000000
00003000
00000000
,
00000020
00000230
00002300
00003002
,
00000103
00000000
00000001
00000001
00000000
00000010
00000100
00000010
,
00001000
00000000
00010000
00001000
00000000
00000100
00000001
00001000
,
00000100
00000010
00000001
00000000
00000100
00000010
00001000
00000010
,
00000100
00000001
00001000
00000010
,
00000100
00000001
00001000
00000000
00000010
00010000
00001000
00000000
,
00010000
00000000
01000000
00100000
00000000
00010000
10000000
00010000
,
01000000
00100000
01000000
00020000
10000000
00000000
10030000
00000000
,
00020000
02030000
23000000
30200000
,
00310000
10000000
01000000
00000000
00100000
00000000
00010000
01000000
,
10000000
00000000
01000000
00000000
00010000
00100000
00001000
00010000
,
00001000
00000000
00000010
00000000
00000001
00000100
00000010
00001000
,
00000002
00000000
00000000
00000000
,
00002003
00000000
00003020
00000000
,
00020030
00000000
00000000
00000000
,
00000000
00000000
00032000
00000000
,
02003000
00000000
00000000
00000000
,
03000000
00100000
01000000
00000000
00010000
10000000
00100000
00000000
,
10000000
01000000
00010000
00001000
,
00022000
00000000
00000000
00033000
,
00011000
00000000
00010000
00001000
00010000
00000000
00000100
00001000
,
00000010
00000000
00000100
00000001
00001000
00000001
00000010
00000000
,
00000110
00000000
00000001
00000100
00000000
00001000
00010000
00000000
,
00001000
00000000
00000000
00000010
00000000
00000000
00000001
00000000
00000100
00000000
00000000
00000010
00000000
00000000
00001000
00000000
,
00000200
00000320
00000032
00000203
,
00002300
00000000
00023000
00000000
02030000
00000000
13000000
00010000
,
00200000
00000000
00010000
00000000
01000000
00000000
00310000
10000000
,
01000000
00100000
00010000
00000000
01000000
00001000
00010000
00000000
,
00001000
00100000
00001000
00010000
00000010
00000000
00001000
00000000
,
00000100
00000000
00010000
00001000
00100000
00010000
00100000
01000000
,
10000000
01000000
00010000
00000000
00001000
00000100
00000001
00000000
,
00001000
00000000
00000001
00000020
00000000
00000000
00000030
00000000
,
00000011
00001001
00001100
00010010
,
00011000
00000000
01001000
00000000
00110000
00000000
00010000
01000000
,
10000000
00000000
01000000
00000000
01010000
00000000
10000000
01000000
,
00100000
00000000
00010000
01000000
00001000
00010000
00001000
00000000
,
00100000
00000000
00000000
00001000
00000000
00000000
00010000
00000000
00001000
00000000
00000000
01000000
00000000
00000000
00010000
00000000
,
00100000
00000000
00000000
01000000
00000000
00000000
10000000
00000000
00010000
00000000
00000000
10000000
00000000
00000000
01000000
00000000
,
00100000
00000000
00000000
00001000
00000000
00000000
00010000
00000000
00000100
00000000
00000000
00000010
00000000
00000000
00000001
00000000
,
00000100
00000000
00000000
00000001
00000000
00000000
00001000
00000000
00000010
00000000
00000000
00000100
00000000
00000000
00000010
00000000
,
00001000
00000000
00000000
00000001
00000000
00000000
00000010
00000000
00001000
00000000
00000000
00010000
00000000
00000000
00100000
00000000
,
01000000
00000000
00000000
00010000
00000000
00000000
10000000
00000000
00010000
00000000
00000000
00100000
00000000
00000000
01000000
00000000
,
00100000
00000000
00000000
00010000
00000000
00000000
10000000
00000000
00100000
00000000
00000000
01000000
00000000
00000000
00010000
00000000
,
00100000
00001000
00010000
00001000
00000010
00000100
00001000
00000001
,
00000020
00000000
00000000
00000000
,
00000032
00000000
00000203
00000000
,
00002300
00000000
00000000
00000000
,
00000000
00000000
00000000
00000000
00013000
00000000
00100000
10000000
,
02000000
00000000
00000000
00000000
,
03020000
00000000
00032000
00023000
,
00031000
00010000
00000100
00000000
00001000
00000010
00010000
00000000
,
00022000
00000000
00000000
00033000
,
00011000
00000000
00001000
00010000
00001000
00000000
01000000
00010000
,
00100000
00000000
01000000
10000000
00010000
10000000
00100000
00000000
,
01100000
00000000
10000000
01000000
00000000
00010000
00001000
00000000
,
00010000
00000000
00000000
00100000
00000000
00000000
10000000
00000000
01000000
00000000
00000000
00100000
00000000
00000000
00010000
00000000
,
02000000
03200000
20300000
32000000
,
03020000
00000000
00032000
00000000
00003200
00000000
00000301
00001000
,
00000020
00000000
00001000
00000000
00000100
00000000
00001030
00000001
,
00000100
00000010
00001000
00000000
00000100
00010000
00001000
00000000
,
00010000
00000010
00010000
00001000
00100000
00000000
00010000
00000000
,
01000000
00000000
00001000
00010000
00000010
00001000
00000010
00000100
,
00000001
00000100
00001000
00000000
00010000
01000000
10000000
00000000
,
00010000
00000000
10000000
00200000
00000000
00000000
00300000
00000000
,
10100000
10010000
01010000
00101000
,
00011000
00000000
00010100
00000000
00001010
00000000
00001000
00000100
,
00000001
00000000
00000100
00000000
00001100
00000000
00000001
00000100
,
00000010
00000000
00001000
00000100
00010000
00001000
00010000
00000000
,
00000010
00000000
00000000
00010000
00000000
00000000
00001000
00000000
00010000
00000000
00000000
00000100
00000000
00000000
00001000
00000000
,
00000010
00000000
00000000
00000100
00000000
00000000
00000001
00000000
00001000
00000000
00000000
00000001
00000000
00000000
00000100
00000000
,
00000010
00000000
00000000
00010000
00000000
00000000
00001000
00000000
01000000
00000000
00000000
00100000
00000000
00000000
10000000
00000000
,
01000000
00000000
00000000
10000000
00000000
00000000
00010000
00000000
00100000
00000000
00000000
01000000
00000000
00000000
00100000
00000000
,
00010000
00000000
00000000
10000000
00000000
00000000
00100000
00000000
00010000
00000000
00000000
00001000
00000000
00000000
00000010
00000000
,
00000100
00000000
00000000
00001000
00000000
00000000
00000001
00000000
00001000
00000000
00000000
00000010
00000000
00000000
00000100
00000000
,
00000010
00000000
00000000
00001000
00000000
00000000
00000001
00000000
00000010
00000000
00000000
00000100
00000000
00000000
00001000
00000000
,
00000010
00010000
00001000
00010000
00100000
01000000
00010000
10000000
,
20020000
00000000
00000000
00000000
,
00000000
00000000
00000000
00000000
,
00000000
00000000
00000000
00000000
,
00000000
00000000
00000000
00000000
,
30030000
00000000
00000000
00000000
;

//--------------- dance-double - Fred-104 ----------------
#NOTES:
     dance-double:
     Fred-104:
     Hard:
     14:
     :
00000000
00000000
00000000
00000000
,
00000000
00000000
00000000
00000000
,
00000000
00000000
00000000
00000000
,
00000000
00000000
00000000
00000000
,
00000000
00000000
00000000
00000000
,
00000001
00000010
00000001
00000000
00001000
00000010
00000000
00000100
,
00000000
00000001
00000010
00000000
00000100
00010000
00001000
00000000
,
00010000
01000000
00100000
00010000
10000000
00100000
01000000
10000000
,
01000000
00010000
00000000
00000000
10000000
00010000
00000000
00000000
00100000
00001000
00100000
00000000
00001000
00000000
00010000
00000000
,
00011000
00000000
00100000
00001000
00010000
00001000
00000100
00000010
,
00001000
00000001
00000100
00000000
00000001
00001000
00000100
00000000
,
00001000
00000001
00000010
00000001
00000100
00000001
00000010
00000100
,
00000010
00000001
00001000
00000010
00001000
00000010
00010000
00001000
,
00010000
00000000
00001000
01000000
00010000
01000000
00100000
10000000
,
00010000
10000000
01000000
00000000
10000000
00010000
00100000
00000000
,
00010000
10000000
01000000
00010000
00001000
00000100
00000010
00001000
,
00002002
00000000
00000000
00003003
,
00000001
00000100
00000001
00000100
00001000
00000100
00001000
00000200
,
00000000
00001300
00010000
00002000
00000000
00013000
01000000
00100000
,
00020000
00000000
10030000
00200000
00000000
01300000
00010000
10000000
,
01000000
00100000
00001000
00010000
00000100
00000010
00000001
00000000
,
00002000
00003020
00000032
00000203
,
00001300
00000000
00000001
00000010
00000000
00000100
00000010
00000001
,
00001000
00000000
00000001
00000100
00000010
00000100
00001000
00010000
,
00100000
01000000
00010000
00000000
10000000
00010000
00100000
00010000
,
01000000
00010000
00100000
00010000
00100000
00010000
01000000
00000000
,
00001000
00010000
00000100
00010000
00001000
00010000
00000010
00001000
,
00000100
00000000
00010000
00001000
00000000
00010000
00100000
01000000
,
00010000
00100000
01000000
00010000
00001000
00000010
00000100
00000000
,
00002000
00003020
00000230
00000302
,
00001003
00000100
00000001
00000000
00001000
00000010
00000001
00001000
,
00000001
00000000
00000010
00000001
00001000
00000010
00000100
00000001
,
00000010
00000100
00010000
00001000
00000100
00000001
00000010
00000001
,
00002000
00000000
00000000
00000000
,
00003020
00000000
00020030
00000000
,
00032000
00000000
00000000
00000000
,
00000000
00000000
00203000
00000000
,
00320000
00000000
00000000
00000000
00000000
00000000
00000000
00030000
,
00000000
10000000
01000000
00010000
00001000
00000100
00000001
00001000
,
00000001
00000010
00000100
00001000
00000100
00000010
00000001
00001000
,
00002002
00000000
00000000
00003003
,
00000001
00000010
00001000
00000010
00000001
00000100
00000001
00000100
,
00000010
00001000
00000100
00010000
00001000
01000000
00010000
00000000
,
10000000
00000000
01000000
01100000
00000000
00010000
00011000
00000000
,
00010000
00000000
00001000
00000000
00000010
00000000
00000001
00000000
00001000
00000010
00000100
00000000
00000001
00000000
00001000
00000000
,
00001100
00001001
00000011
00001010
,
00011000
00000000
01010000
00000000
11000000
00000000
00010000
01000000
,
01100000
00000000
10100000
00000000
01010000
00000000
10000000
01000000
,
00010000
00000000
00001000
00000000
00000010
00000000
00000100
00000000
00001000
00000001
00001000
00000000
00000001
00000000
00000100
00000000
,
00000010
00001000
00000010
00000001
00000010
00000100
00000001
00001000
,
00000001
00000010
00000100
00010000
00001000
00100000
01000000
10000000
,
00100000
00010000
00001000
01000000
00001000
00010000
00001000
00000010
,
00000200
00000000
00002300
00000002
00000000
00000000
00003003
00000000
,
00001100
00001001
00001010
00010010
,
00011000
00000000
01001000
00000000
00110000
00000000
00010000
10000000
,
11000000
00000000
01000000
00100000
00010000
10000000
00100000
00010000
,
00001000
00000000
00000100
00000000
00000010
00000000
00001000
00000000
00000001
00000010
00000001
00000000
00001000
00000000
00000010
00000000
,
00001000
00000000
00000000
00000010
00000000
00000000
00010000
00000000
00001000
00000000
00000000
00100000
00000000
00000000
00010000
00000000
,
01000000
00000000
00000000
00001000
00000000
00000000
00010000
00000000
00001000
00000000
00000000
00000010
00000000
00000000
00000100
00000000
,
00001000
00000000
00000000
00000010
00000000
00000000
00000100
00000000
00001000
00000000
00000000
00010000
00000000
00000000
00100000
00000000
,
01000000
00000000
00000000
00010000
00000000
00000000
00001000
00000000
00000010
00000000
00000000
00001000
00000000
00000000
00000100
00000000
,
00001000
00000000
00000000
00000010
00000000
00000000
00000100
00000000
00000001
00000000
00000000
00000010
00000000
00000000
00001000
00000000
,
00010000
00000000
00000000
01000000
00000000
00000000
00100000
00000000
00010000
10000000
00100000
00000000
01000000
00000000
00010000
00000000
,
10000000
00000000
00000000
00010000
00000000
00000000
10000000
00000000
01000000
00000000
00000000
00100000
00000000
00000000
00001000
00000000
,
00010000
00000000
00000100
00000000
00001000
00000000
00000100
00000000
00000010
00000001
00000010
00000001
00000010
00000001
00000010
00000001
,
00002000
00000000
00000000
00000000
,
00003002
00000000
00000203
00000000
,
00002300
00000000
00000000
00000000
,
00000000
00000000
00000000
00000000
00000000
00013000
01000000
10000000
,
00020000
00000000
00000000
00000000
,
20030000
00000000
30200000
00320000
,
00031000
00000010
00000100
00001000
00000001
00000100
00001000
00010000
,
00022000
00000000
00000000
00033000
,
00010000
00001000
00000100
00001000
00010000
00000010
00010000
00001000
,
00100000
00010000
01000000
00100000
10000000
00100000
01000000
00000000
,
00010000
00000000
10000000
10100000
00000000
00100000
01100000
00000000
,
00010000
10000000
00010000
00000000
01000000
00000000
00001000
00000000
00010000
00000000
00001000
00000000
00000100
00000000
00000010
00000000
,
00001010
00001001
00000011
00001100
,
00010010
00000000
01001000
00000000
00110000
00000000
00100000
01000000
,
11000000
00000000
01010000
00000000
01000000
10000000
00010000
10000000
,
00100000
00000000
01000000
00000000
00010000
00000000
10000000
00000000
01000000
00100000
00010000
00000000
00100000
00000000
00001000
00000000
,
00010000
00000100
00001000
00000000
00000001
00000000
00001000
00000000
00000100
00000000
00000010
00000000
00000100
00000000
00001000
00000000
,
00000010
00001000
00000100
00001000
00000010
00010000
00001000
00010000
,
01000000
00010000
10000000
00100000
00010000
00100000
10000000
01000000
,
00020000
00000000
02030000
20000000
00000000
00000000
33000000
00000000
,
11000000
10010000
01010000
01001000
,
00011000
00000000
00101000
00000000
00010010
00000000
00010000
00001000
,
00000100
00000000
00000010
00001000
00001001
00000001
00000100
00000010
,
00001000
00000000
00000001
00000000
00000010
00000000
00000100
00000000
00010000
00000000
00001000
00010000
00001000
00000000
00100000
00000000
,
00010000
00000000
00000000
01000000
00000000
00000000
00100000
00000000
10000000
00000000
00000000
01000000
00000000
00000000
10000000
00000000
,
00010000
00000000
00000000
10000000
00000000
00000000
00100000
00000000
00010000
00000000
00000000
00001000
00000000
00000000
00000010
00000000
,
00000100
00000000
00000000
00001000
00000000
00000000
00000010
00000000
00000100
00000000
00000000
00001000
00000000
00000000
00010000
00000000
,
00100000
00000000
00000000
01000000
00000000
00000000
00001000
00000000
00010000
00001000
00010000
00000000
00000100
00000000
00001000
00000000
,
00000010
00000000
00000000
00000100
00000000
00000000
00000001
00000000
00000100
00000000
00000000
00001000
00000000
00000000
00000100
00000000
,
00000010
00000000
00000000
00001000
00000000
00000000
00000001
00000000
00000010
00000100
00000010
00000000
00000100
00000000
00010000
00000000
,
00001000
00000000
00000000
00100000
00000000
00000000
00010000
00000000
10000000
00000000
00000000
00100000
00000000
00000000
01000000
00000000
,
00010000
00000000
00100000
00000000
00010000
00000000
01000000
00000000
00010000
10000000
00010000
10000000
00010000
10000000
00010000
10000000
,
00010000
10000000
01000000
00000000
00100000
01000000
00000000
00010000
,
00000000
00001000
00010000
00000000
00100000
10000000
01000000
00100000
,
00000000
00001000
00010000
00000000
00000100
00010000
00000000
00001000
,
00000000
00010000
00001000
00000000
00000100
00000001
00000010
00000200
,
00000300
00000000
00000000
00000000
;

//--------------- dance-double - Fred-104† ----------------
#NOTES:
     dance-double:
     Fred-104†:
     Challenge:
     17:
     :
00000000
00000000
00000000
00000000
,
00000000
00000000
00000000
00000000
,
00000000
00000000
00000000
00000000
,
00000000
00000000
00000000
00000000
,
00000000
00000000
00000000
00000000
,
00010000
00001000
00000010
00000100
00001000
00010000
00000000
00100000
,
00000000
01000000
00010000
00000000
00001000
00000010
00000100
00001000
,
00010000
00000000
00100000
00000000
01000000
00000000
00010000
00001000
00010000
00001000
00010000
00000000
00000100
00000000
00001000
00000000
,
00000010
00001000
00000100
00000000
00000100
00000010
00000001
00000000
00000001
00000100
00000010
00000000
00001000
00000001
00001000
00000001
,
00001000
00000000
00000001
00000000
00000100
00000000
00000001
00000010
00000001
00000010
00000100
00000000
00001000
00000000
00000010
00000000
,
00010000
00000100
00000010
00000001
00000100
00001000
00010000
00000100
,
00010000
00000000
00001000
00000000
01000000
00000000
00001000
00010000
00000100
00010000
00001000
00000000
00010000
00000000
00000010
00000000
,
00001000
00000000
00000100
00000000
00000010
00000000
00000001
00000000
00000100
00000001
00000010
00000001
00000100
00000000
00000001
00000000
,
00001000
00000000
00000001
00000000
00000010
00000000
00001000
00010000
00001000
00010000
00001000
00000000
00010000
00000000
00000100
00000000
,
00010000
00001000
00000100
00000001
00000010
00000100
00010000
00000010
,
00010000
00000000
00001000
00000000
00010000
00000000
00001000
00100000
00010000
10000000
00010000
00000000
01000000
00100000
01000000
00000000
,
20020000
00000000
00000000
30030000
,
10000000
01000000
00010000
00001000
00000100
00000001
00001000
00000002
,
00000000
00000000
00000013
00000000
00000100
00000000
00000020
00000000
00000000
00000000
00000031
00001000
00000010
00000000
00000100
00000000
,
00000002
00000000
00000013
00000100
00000010
00001000
00010000
00100000
,
01000000
00000000
00010000
00000000
10000000
00000000
01000000
00000000
00100000
00001000
00010000
00000000
00011000
00000000
00000000
00000000
,
00021000
00000000
00031000
00010000
00000010
00010000
00001000
00010000
,
00000100
00000000
00001000
00001100
00000000
00000010
00000001
00000100
,
00000101
00000000
00000100
00000110
00000000
00011000
00000000
00100000
,
01000000
00100000
01000000
00000000
00010000
00000000
10000000
00010000
01000000
00010000
00100000
00000000
00001000
00000000
00010000
00001000
,
00020000
00000010
00100000
00030010
,
00010000
00001000
00000010
00000100
00010000
00001000
00100000
01000000
,
00100000
00000000
00010000
10010000
00000000
10000000
00100000
01000000
,
00010000
00000000
10000000
00000000
01000000
00000000
00010000
00000000
00001000
00000100
00000010
00000000
00001000
00000000
00000001
00000000
,
00000200
00000000
00000310
00000100
00000001
00000100
00000010
00000100
,
00000002
00000000
00000013
00000001
00001000
00000001
00000100
00001000
,
00020000
00000000
00030010
00010000
00001000
00010000
00100000
01000000
,
00010000
10000000
00010000
00000000
00100000
00000000
01000000
00100000
00010000
10000000
00100000
00000000
01000000
00000000
00010000
00000000
,
20010000
00000000
00000000
00000000
,
32000000
00000000
03020000
00000000
,
00032000
00000000
00000000
00000000
,
00000000
00000000
00003020
00000000
,
00000032
00000000
00000000
00000000
00000000
00000000
00000000
00000003
,
00000000
00000001
00000100
00010000
00001000
00000010
00010000
00001000
,
01000000
00001000
00000010
00000100
00010000
00001000
01000000
00100000
,
02200000
00000000
00000000
03300000
,
00010000
00000000
10000000
00100000
01000000
00000000
00100000
10000000
00010000
10000000
01000000
00000000
00100000
00000000
00001000
00000000
,
00010000
00100000
01000000
00010000
10000000
00010000
01000000
00000000
,
00010000
00100000
01000000
00010000
00001000
00010000
00000010
00000000
,
00000100
00000001
00001000
00000000
00000100
00000000
00001000
00000010
00000100
00000010
00001000
00000000
00000001
00000000
00000010
00000000
,
00000110
00000010
00000011
00000000
00000101
00000100
00000110
00000000
,
00001010
00000000
00001000
00000000
00001100
00000000
00000000
00000000
00010000
00001000
00010000
00000000
00000010
00000000
00010000
00000000
,
00002000
00000000
00013000
00001000
01000000
00001000
00010000
00001000
,
00200000
00000000
00000000
00000000
00310000
00000000
00100000
00000000
01000000
10000000
00100000
00000000
01000000
00000000
00010000
10000000
,
00100000
00000000
01000000
00001000
00010000
00000000
00000010
00001000
00000100
00000000
00010000
00000000
00001000
00000000
01000000
00000000
,
00010000
00001000
00000010
00000100
00001000
00010000
00100000
01000000
,
00010000
00001000
00000010
00000100
00001000
00010000
00100000
01000000
,
00010000
00000000
00001000
00010000
00000010
00000000
00001000
00000000
00000100
00010000
00001000
00000000
00100000
00000000
00010000
00000000
,
01010000
01000000
01100000
00000000
01001000
00001000
00011000
00000000
,
00010010
00000000
00011000
00000000
00101000
00000000
00000000
00000000
00010000
00001000
00010000
00000000
00000100
00000000
00001000
00000000
,
00000001
00000010
00000100
00001000
00010000
00100000
01000000
10000000
,
00010000
00000000
01000000
00000000
01100000
00000000
00000000
00000000
00100000
10000000
00100000
00000000
01000000
00000000
00010000
00000000
,
10000000
00000000
00100000
01000000
00000000
00100000
10000000
00000000
01000000
00000000
00100000
00010000
00000000
00100000
00001000
00000000
,
00010000
00000000
00000100
00001000
00000000
00000010
00001000
00000000
00000100
00010000
00000010
00000000
00001000
00000000
00000100
00000000
,
00010000
00000000
00001000
00100000
00000000
00010000
01000000
00000000
00001000
00000000
00010000
00000010
00000000
00001000
00000100
00000000
,
00010000
00000000
00000010
00001000
00000000
00000001
00001000
00000000
00000001
00000000
00000010
00000100
00000000
00001000
00000001
00000000
,
00000100
00000000
00000001
00000010
00000000
00000100
00000010
00000000
00000001
00000000
00000100
00001000
00000000
00010000
01000000
00000000
,
00100000
00000000
00010000
10000000
00000000
00100000
01000000
00000000
00010000
10000000
01000000
00000000
10000000
00000000
00100000
01000000
,
00010000
00000000
10000000
01000000
00000000
01000000
00100000
00001000
00010000
00000000
00001000
00010000
00000000
00010000
00000010
00001000
,
00000100
00000000
00000110
00000000
00000010
00000000
00000011
00000000
00000001
00000100
00000010
00001000
00000100
00010000
00001000
00010000
,
00002000
00000000
00000000
00000000
,
00023000
00000000
02030000
00000000
,
03200000
00000000
00000000
00000000
,
00000000
00000000
00000000
00000000
00300000
00010000
10000000
00100000
,
01100000
01000000
00001000
00010000
00000100
00010000
00000010
00010000
,
00100000
01000000
00010000
10000000
01000000
00010000
00000100
00001000
,
00000010
00001000
00000100
00010000
00100000
01000000
00001000
00010000
,
00022000
00000000
00000000
00033000
,
00010000
00000000
00000010
00001000
00000010
00000000
00010000
00001000
00100000
00010000
01000000
00000000
00001000
00000000
00010000
00000000
,
00001000
00000000
00000010
00000100
00001000
00000100
00000010
00000000
00000001
00000100
00000010
00001000
00000100
00000000
00001000
00000000
,
00000001
00000010
00001000
00010000
00100000
01000000
01010000
00000000
,
10000000
00010000
00100000
00000000
00010000
00000000
01000000
00010000
00100000
00010000
01000000
00000000
00001000
00000000
00010000
00000000
,
00011000
00010000
00010010
00000000
00001010
00001000
00001100
00000000
,
00000101
00000000
00000001
00000000
00000011
00000000
00000010
00000000
00000100
00001000
00000010
00000000
00000100
00000000
00000001
00001000
,
00000200
00000000
00010300
00000100
00001000
00000100
00010000
00001000
,
00100000
00000000
00010000
00000000
10000000
00000000
00010000
01000000
10000000
01000000
00010000
00000000
10000000
00000000
01000000
00000000
,
10000000
00000000
00010000
00100000
01000000
00000000
00100000
00010000
01000000
00000000
00100000
00000000
10000000
00000000
01000000
00000000
,
00100000
00000000
00001000
00010000
00001000
00000000
00000010
00000000
00000100
00001000
00000100
00000000
00001000
00000000
00000001
00000000
,
00001000
00000010
00010000
00100000
01000000
00001000
00100000
00010000
,
00110000
00000000
00000000
00000000
00010000
00000000
10000000
00000000
00100000
10000000
01000000
00000000
11000000
00000000
00000000
00000000
,
01100000
00000000
00100000
00010000
10000000
00000000
10000000
00010000
01000000
00000000
00100000
00000000
10000000
00000000
01000000
00000000
,
00100000
00000000
00100000
00001000
00010000
00000000
00010000
00000010
00001000
00000010
00000100
00000000
00000001
00000000
00001000
00000001
,
00001000
00000100
00000010
00000001
00000100
00001000
00010000
00100000
,
10000000
00010000
10000000
00000000
00100000
01000000
00100000
00000000
10000000
00100000
01000000
00010000
10000000
00000000
01000000
00000000
,
00100000
00000000
00001000
00010000
00001000
00000000
01000000
00000000
00001000
00010000
00001000
00000000
00010000
00000010
00001000
00000000
,
00000010
00000000
00000100
00000010
00000000
00001000
00000010
00000000
00000100
00000000
00000001
00000010
00000000
00000100
00000010
00000000
,
00000001
00000000
00001000
00000001
00000000
00000100
00000010
00000000
00001000
00000000
00000100
00010000
00000000
00001000
00010000
00100000
,
01000000
00000000
00010000
10000000
00000000
00010000
00100000
01000000
00100000
00000000
00010000
10000000
00000000
00100000
10000000
00000000
,
00100000
00000000
01000000
00010000
00000000
00100000
00001000
00010000
00001000
00000000
00000010
00000001
00000000
00001000
00000001
00000100
,
00000001
00000000
00000010
00000100
00000000
00000100
00001000
00000001
00000010
00000000
00000001
00000100
00000000
00000100
00000010
00001000
,
00000001
00000000
00000100
00000001
00000000
00000010
00000100
00001000
00000100
00000000
00010000
00001000
00000000
00100000
00010000
00100000
,
01000000
00000000
10000000
01000000
00100000
00000000
00010000
00100000
00001000
00010000
00000100
00001000
00000100
00000010
00000001
00001000
,
00000002
00000203
00000320
00000000
00002030
00003002
00000000
00000023
,
00000000
00000032
00000203
00000000
00002300
00023000
02030000
03200000
,
00000000
00320000
20030000
00000000
30020000
00230000
00000000
20300000
,
00000000
30200000
00320000
00000000
00032000
00023000
00032000
00023000
,
00030000
00000000
00000000
00000000
;
