#VERSION:0.83;
#TITLE:Tomorrow Perfume;
#ARTIST:dj TAKA;
#GENRE:TRANCE;
#BANNER:Tomorrow Perfume.png;
#BACKGROUND:Tomorrow Perfume-bg.png;
#CDTITLE:./CDTitles/bm IIDX 7th style.png;
#MUSIC:Tomorrow Perfume.ogg;
#SAMPLESTART:31.657;
#SAMPLELENGTH:15;
#DISPLAYBPM:144;
#BPMS:0=144.7,4=144;
#BGSTAGE:22;

//--------------- dance-single - Fred-104 ----------------
#NOTEDATA:;
#STEPSTYPE:dance-single;
#DESCRIPTION:Fred-104;
#DIFFICULTY:Beginner;
#METER:1;
#CREDIT:Fred-104;
#NOTES:
0000
0000
0000
0000
,
0000
0000
0000
0000
,
0000
0000
0000
0000
,
1000
0000
0000
0000
,
0000
0000
0000
0000
,
0001
0000
0000
0000
,
0000
0000
0000
0000
,
1000
0000
0000
0000
,
0000
0000
0000
0000
,
0001
0000
0000
0000
,
0000
0000
0000
0000
,
1000
0000
0000
0000
,
0000
0000
0000
0000
,
0001
0000
0000
0000
,
0000
0000
0000
0000
,
1000
0000
0000
0000
,
0000
0000
0000
0000
,
0001
0000
0000
0000
,
0000
0000
0000
0000
,
0001
0000
0000
0000
,
0000
0000
0000
0000
,
1000
0000
0000
0000
,
0000
0000
0000
0000
,
0001
0000
0000
0000
,
0000
0000
0000
0000
,
1000
0000
0000
0000
,
0000
0000
0000
0000
,
0002
0000
0000
0000
,
0003
0000
0000
0000
,
2000
0000
0000
0000
,
3000
0000
0000
0000
,
0002
0000
0000
0000
,
0003
0000
0000
0000
,
2000
0000
0000
0000
,
3000
0000
0000
0000
,
1000
0000
0000
0000
,
0000
0000
0000
0000
,
0001
0000
0000
0000
,
1000
0000
0000
0000
,
0001
0000
0000
0000
,
0001
0000
0000
0000
,
1000
0000
0000
0000
,
0000
0000
0000
0000
,
0010
0000
0000
0000
,
0000
0000
0000
0000
,
0100
0000
0000
0000
,
0100
0000
0000
0000
,
0100
0000
0000
0000
,
0000
0000
0000
0000
,
0001
0000
0000
0000
,
1000
0000
0000
0000
,
0001
0000
0000
0000
,
0000
0000
0000
0000
,
1000
0000
0000
0000
,
1000
0000
0000
0000
,
0001
0000
0000
0000
,
0000
0000
0000
0000
,
1000
0000
0000
0000
,
0001
0000
0000
0000
,
1000
0000
0000
0000
,
0001
0000
0000
0000
,
1000
0000
0000
0000
,
0001
0000
0000
0000
,
1000
0000
0000
0000
,
0000
0000
0000
0000
,
0100
0000
0000
0000
,
0000
0000
0000
0000
,
0010
0000
0000
0000
,
0000
0000
0000
0000
,
0001
0000
0000
0000
,
1000
0000
0000
0000
,
2002
0000
0000
0000
,
0000
0000
0000
0000
,
3003
0000
0000
0000
;

//--------------- dance-single - Fred-104 ----------------
#NOTEDATA:;
#STEPSTYPE:dance-single;
#DESCRIPTION:Fred-104;
#DIFFICULTY:Easy;
#METER:6;
#CREDIT:Fred-104;
#NOTES:
0000
0000
0000
0000
,
0000
0000
0000
0000
,
0000
0000
0000
0000
,
1001
0000
0000
0000
,
0100
0000
0000
0000
,
0010
0000
0000
0000
,
0001
0000
0000
0000
,
1001
0001
0000
0001
,
0100
0001
0000
1000
,
1000
0010
0000
1000
,
1001
0000
0001
0100
,
0010
0000
1000
0100
,
1000
0000
0001
0001
,
0100
0000
0010
0100
,
0010
0000
1000
0001
,
1000
0000
0100
0010
,
0001
0000
1000
0001
,
0100
0000
0001
1000
,
0002
0000
2003
0000
,
3001
0100
0001
0100
,
0010
0100
0010
1000
,
0100
1000
0001
1000
,
0001
0100
0010
0100
,
0001
1000
1001
0000
,
0100
0010
0110
0000
,
0001
0001
1000
1000
,
0001
0100
0010
1000
,
0002
0000
1003
0000
,
0002
0000
0103
0000
,
0002
0000
0013
0000
,
0001
0100
0010
1000
,
1000
0100
0010
0000
,
1000
0100
0010
0000
,
1000
0100
0010
0000
,
1000
0001
0100
0010
,
0110
0000
0000
0000
,
0001
0000
0000
0000
,
1000
0000
0000
0000
,
0010
0000
0100
0000
,
0001
0001
0100
0100
,
0010
0010
1000
1000
,
0002
0000
0000
0000
,
2000
0000
3003
0000
,
0001
0100
0010
0100
,
0001
0010
0100
1000
,
0100
0100
1000
0010
,
0100
0001
1000
1000
,
0001
0001
0100
0010
,
0100
0001
0100
0100
,
1000
0100
0100
0001
,
1000
0001
1000
0010
,
1000
0100
1000
0100
,
0001
0010
0001
0010
,
1000
0100
1000
0010
,
0100
0001
0010
0100
,
1000
0001
0100
0100
,
0010
0100
0001
1000
,
0001
0100
0100
0001
,
2000
0000
0002
3003
,
1000
0000
0010
0100
0010
0000
0000
0000
,
0001
0000
0010
0100
0010
0000
0000
0000
,
1000
0000
0100
0010
0100
0000
0000
0000
,
0001
0100
0010
0000
,
1000
0010
0100
0100
,
0001
0010
1000
0010
,
0001
0001
0100
0010
,
0100
0001
1000
0100
,
0110
0000
0010
0001
,
1000
0010
0100
0001
,
1000
0100
0010
0001
,
1000
0000
0000
0000
0001
1000
0001
0000
,
2002
0000
0000
0000
,
0000
0000
0000
0000
,
3003
0000
0000
0000
;

//--------------- dance-single - Fred-104 ----------------
#NOTEDATA:;
#STEPSTYPE:dance-single;
#DESCRIPTION:Fred-104;
#DIFFICULTY:Medium;
#METER:11;
#CREDIT:Fred-104;
#NOTES:
0000
0000
0000
0000
,
0000
0000
0000
0000
,
0000
0000
0000
0000
,
1001
0000
0001
0000
,
0100
0000
0010
0000
,
1000
0000
0100
0000
,
0010
0001
1000
0001
,
1000
0100
0000
0100
0000
0010
0000
0010
,
0000
0001
0000
1000
0000
0001
0000
0100
,
0000
0100
0000
0010
0000
0100
0000
0001
,
1001
0000
0000
0000
0001
1000
0001
0100
,
0001
0000
1000
0000
0100
0000
0010
0200
0000
0000
0000
0000
0300
0000
0000
0000
,
0001
0000
0100
0000
0001
0000
0010
0002
0000
0000
0000
0000
0003
0000
0000
0000
,
1000
0000
0100
0000
0010
0000
0100
2000
0000
0000
0000
0000
3000
0000
0000
0000
,
0001
0000
0100
0000
0010
0000
0100
0010
0000
0010
0100
0000
0001
0000
1000
0000
,
0100
0000
0010
0000
0001
0000
0100
0020
0000
0000
0000
0000
0030
0000
0000
0000
,
1000
0000
0001
0000
0100
0000
0010
0200
0000
0000
0000
0000
0300
0000
0000
0000
,
0001
0000
0010
0000
0100
0000
0010
0002
0000
0000
0000
0000
0003
0000
0000
0000
,
1000
0000
0100
0000
0010
0000
0001
0100
0000
0100
0010
0000
0100
0000
0001
0000
,
1000
0000
0010
0000
0100
0000
0010
0200
0000
0000
0000
0000
0300
0000
0000
0000
,
0001
0000
0010
0000
0100
0000
0010
0200
0000
0000
0000
0000
0300
0000
0000
0000
,
0010
0000
0001
0000
1000
0000
0100
0020
0000
0000
0000
0000
0030
0000
0000
0000
,
0001
0000
0010
0000
0100
0000
1000
0010
0000
0100
0001
0000
1000
0000
0100
0000
,
1000
0000
0100
0000
0010
0000
0001
0200
0000
0000
0000
0000
0300
0000
0000
0000
,
0010
0000
0100
0000
0001
0000
0100
0020
0000
0000
0000
0000
0030
0000
0000
0000
,
1000
0000
0100
0000
0010
0000
0001
0200
0000
0000
0000
0000
0300
0000
0000
0000
,
0010
0100
0010
0100
0001
0100
0010
1000
,
0001
0000
0000
0000
0000
0000
0000
0000
0020
0030
0000
0000
0000
0000
0000
0000
0020
0030
0000
0000
0000
0000
0000
0000
1000
0000
0000
0000
0002
0000
0000
0000
0000
0000
0000
0000
0000
0000
0000
0000
0000
0000
0000
0000
0000
0000
0000
0000
0003
0000
0000
0000
0000
0000
0000
0000
0000
0000
0000
0000
0000
0000
0000
0000
,
1000
0000
0000
0000
0000
0000
0000
0000
0200
0300
0000
0000
0000
0000
0000
0000
0200
0300
0000
0000
0000
0000
0000
0000
0010
0000
0000
0000
2000
0000
0000
0000
0000
0000
0000
0000
0000
0000
0000
0000
0000
0000
0000
0000
0000
0000
0000
0000
3000
0000
0000
0000
0000
0000
0000
0000
0000
0000
0000
0000
0000
0000
0000
0000
,
0001
0000
0000
0000
0000
0000
0000
0000
0200
0300
0000
0000
0000
0000
0000
0000
0200
0300
0000
0000
0000
0000
0000
0000
1000
0000
0000
0000
0020
0000
0000
0000
0000
0000
0000
0000
0000
0000
0000
0000
0000
0000
0000
0000
0000
0000
0000
0000
0000
0000
0000
0000
0000
0000
0000
0000
0000
0000
0000
0000
0000
0000
0000
0000
,
0130
0000
0001
0000
1000
0000
0100
0010
0000
0010
0001
0000
1000
0000
0001
0000
,
1001
0000
0000
0000
1000
0000
0100
0020
0000
0000
0000
0000
0030
0000
0000
0000
,
0011
0000
0000
0000
0001
0000
1000
0200
0000
0000
0000
0000
0300
0000
0000
0000
,
0101
0000
0000
0000
0100
0000
1000
0002
0000
0000
0000
0000
0003
0000
0000
0000
,
1000
0000
0100
0000
0010
0000
0001
0100
0000
0000
0100
0000
0010
0000
0100
0000
,
0101
0010
2000
3000
,
1100
0010
0002
0003
,
1000
0001
0100
0000
0001
1000
0100
0000
,
1000
0100
0010
0001
0100
0010
1000
0000
,
0001
0100
0001
0000
1000
0100
1000
0000
,
0001
0100
0010
1000
0100
0010
0001
1000
,
0002
0000
0000
0000
,
2000
0000
0000
3003
,
1000
0010
1000
0000
1001
0000
0001
0100
,
0010
0100
0001
0000
1001
0000
1000
0100
,
0010
0001
1000
0000
1100
0000
0010
0100
,
0001
0100
0001
0100
0010
1000
0001
0000
,
0101
0000
0001
0010
0100
0000
0110
0000
,
1000
0100
0001
0000
1000
0010
0001
0000
,
1000
0100
0010
0100
1000
0001
0100
0000
,
0001
0100
0010
0100
0001
1000
0001
0000
,
1000
0000
0100
0000
0010
0000
0001
0020
0000
0000
0000
0000
0030
0000
0000
0000
,
0100
0000
0010
0000
1000
0000
0010
0200
0000
0000
0000
0000
0300
0000
0000
0000
,
0001
0000
0100
0000
0010
0000
1000
0200
0000
0000
0000
0000
0300
0000
0000
0000
,
1000
0000
0100
0000
0010
0000
0100
0010
0000
0010
0100
0000
0001
0000
0100
0000
,
0001
0000
0010
0000
0100
0000
1000
0200
0000
0000
0000
0000
0300
0000
0000
0000
,
1000
0000
0100
0000
0010
0000
0001
0020
0000
0000
0000
0000
0030
0000
0000
0000
,
0001
0000
0100
0000
0001
0000
0010
0002
0000
0000
0000
0000
0003
0000
0000
0000
,
1000
0000
0100
0000
1000
0000
0001
0100
0000
0100
0010
0000
0100
0000
0001
0000
,
1000
0000
0100
0000
1000
0000
0010
0200
0000
0000
0000
0000
0300
0000
0001
0000
,
0010
0000
0010
0000
0100
0000
0010
0002
0000
0000
0000
0000
0000
0000
0103
0000
,
0010
0000
0100
0000
0100
0000
0001
2000
0000
0000
0000
0000
0000
0000
3100
0000
,
1000
0000
0001
0000
1000
0010
1000
0100
0000
0000
0000
0000
0000
0000
0000
0000
,
0100
0010
0001
1000
0010
0100
0001
0000
,
1000
0100
0001
0100
1000
0100
0010
0000
,
0001
0100
0010
1000
0010
0100
0001
0000
,
1000
0010
0001
0010
1000
0001
0100
0000
,
0001
0000
0010
0000
0001
0000
1000
0100
0000
0000
0100
0000
0010
0000
0001
0000
,
1000
0000
0010
0000
0100
0000
0001
0010
0000
0000
0010
0000
0001
0000
1000
0000
,
0001
0000
0100
0000
0010
0000
1000
0001
0000
0000
0001
0000
0010
0000
0001
0000
,
1000
0000
0010
0000
0100
0000
0001
0000
1000
0000
0100
0000
0010
0000
0001
1000
,
0002
0000
0000
0000
,
0000
0000
0000
0000
,
0003
0000
0000
0000
;

//--------------- dance-single - Fred-104 ----------------
#NOTEDATA:;
#STEPSTYPE:dance-single;
#DESCRIPTION:Fred-104;
#DIFFICULTY:Hard;
#METER:15;
#CREDIT:Fred-104;
#NOTES:
0000
0000
0000
0000
,
0000
0000
0000
0000
,
0000
0000
0000
0000
,
1001
0000
0000
0000
,
0010
0000
0000
0000
,
0100
0000
0000
0000
,
0001
0000
0000
0000
1000
0000
0001
1000
,
1001
0001
0000
0001
0000
0100
0000
0100
,
0000
0010
0000
0010
0000
1000
0000
1000
,
0000
0100
0000
0100
0000
1000
0000
1000
,
1001
0000
0000
0000
0000
0000
0000
0000
0000
0000
0000
0000
0000
0000
0000
0000
0000
0000
0000
0000
0000
0000
0000
0000
0000
0000
0000
0000
0000
0000
0000
0000
0001
0000
0000
0000
0010
0000
0000
0000
0100
0000
0000
0000
1000
0000
0000
0000
0020
0030
0000
0000
0000
0000
0000
0000
0020
0030
0000
0000
0000
0000
0000
0000
,
0001
0100
0001
0000
0100
0000
1000
0200
0000
0000
0000
0000
0300
0000
0000
0100
,
0001
0010
0001
0000
0010
0000
1000
0020
0000
0000
0000
0000
0030
0000
0000
0010
,
0001
0100
0001
0000
0100
0000
1000
0200
0000
0000
0000
0000
0300
0000
0000
0100
,
0001
0010
0001
0000
1000
0100
0010
0001
0000
0001
0100
0010
1000
0001
1000
0000
,
1000
0100
1000
0000
0100
0000
0001
0200
0000
0000
0000
0000
0300
0000
0000
0100
,
1000
0010
1000
0000
0010
0000
0001
0020
0000
0000
0000
0000
0030
0000
0000
0010
,
1000
0100
1000
0000
0100
0000
0001
0200
0000
0000
0000
0000
0300
0000
0000
0100
,
1000
0010
1000
0010
0100
0001
0100
0001
1000
0100
0010
0001
1000
0000
0001
0000
,
1000
0100
1000
0010
0100
0000
0001
0020
0000
0000
0031
0000
0100
0000
0010
1000
,
0010
0100
0010
1000
0010
0000
1000
0200
0000
0000
0310
0000
0001
0000
1000
0001
,
0100
0001
1000
0100
0010
0000
0001
0200
0000
0000
1300
0000
0100
0000
0001
0100
,
0001
0010
0001
0100
0010
1000
0010
1000
0000
0001
0100
0010
0100
0001
1000
0000
,
0001
0010
0100
1000
0001
0000
0100
0020
0000
0000
1030
0000
0100
0000
1000
0010
,
0100
0010
1000
0100
0010
0000
0001
0200
0000
0000
0301
0000
0100
0000
0010
1000
,
0100
0000
0000
0000
0010
0000
0000
0000
0001
0000
0000
0000
1000
0000
0000
0000
0001
0000
0000
0000
0000
0000
0000
0000
1000
0000
0000
0000
0200
0000
0000
0000
0000
0000
0000
0000
0000
0000
0000
0000
0320
0030
0000
0000
0000
0000
0000
0000
0020
0030
0000
0000
0000
0000
0000
0000
1000
0000
0000
0000
0000
0000
0000
0000
,
0001
0100
0001
0000
1000
0100
1000
0000
0001
0100
0001
0100
0001
0010
0100
1000
,
0001
0100
0010
0000
0100
0000
0001
0200
0000
0000
0000
0000
0300
0000
0000
0000
,
0010
1000
0001
0000
1000
0000
0001
0020
0000
0000
0000
0000
0030
0000
0000
0000
,
0001
0100
0001
0000
0001
0000
0100
0020
0000
0000
0000
0000
0030
0000
0000
0000
,
1000
0010
1000
0000
0001
0100
0001
0100
0000
0001
0010
0100
1000
0001
1000
0000
,
0001
0100
0010
0000
0100
0000
0001
0200
0000
0000
0000
0000
0000
0000
0000
0000
,
0310
1000
0100
0000
0010
0000
0100
2000
0000
0000
0000
0000
0000
0000
0000
0000
,
3100
0010
0001
0000
0010
0000
0100
0020
0000
0000
0000
0000
0000
0000
0000
0000
,
0031
0100
0001
0000
0100
0010
0100
0010
0000
1000
0100
0010
0001
0000
1000
0000
,
0001
0000
0100
0000
0001
0000
0001
0200
0000
0000
0000
0000
0000
0000
0000
0000
,
1300
0000
1000
0000
0100
0000
1000
0200
0000
0000
0000
0000
0000
0000
0000
0000
,
0301
0000
0001
0000
0010
0000
0001
0020
0000
0000
0000
0000
0000
0000
0000
0000
,
1030
0000
0100
0000
0010
0000
0001
0100
0000
0100
0010
0000
0100
0000
0001
0000
,
1000
0100
0010
0100
0010
0001
1000
0100
,
1000
0010
1000
0010
0100
0001
0100
0001
1000
0100
1000
0100
0010
0001
0010
0001
,
2000
0000
0000
0000
,
0002
0000
0000
3003
,
1000
0000
0100
0000
0010
0000
0001
0010
0001
0000
1000
0000
0001
0000
1000
0010
,
0100
0010
0000
1000
0100
0000
0010
0001
0010
0000
0001
0000
1000
0010
1000
0000
,
1000
0001
0100
0010
1000
0000
0002
0000
0103
0010
0100
0000
0001
0100
0000
0001
,
1000
0001
1000
0001
1000
0001
1000
0000
0001
0100
0001
0100
0010
0100
0010
0000
,
1000
0000
0000
0000
0000
0000
0000
0000
0200
0300
0000
0000
0000
0000
0000
0000
0200
0300
0000
0000
0000
0000
0000
0000
0001
0000
0000
0000
1000
0000
0000
0000
0001
0000
0000
0000
1000
0000
0000
0000
0001
0000
0000
0000
0000
0000
0000
0000
0200
0300
0000
0000
0000
0000
0000
0000
0200
0300
0000
0000
1000
0000
0000
0000
,
0001
0010
0000
0010
0001
0000
1000
0000
0001
0000
0100
0000
0010
0100
0010
0100
,
0001
0100
0001
0100
0001
0000
0200
0000
0320
0000
2030
0000
3001
0000
1001
0000
,
1000
0010
1000
0010
0100
0000
0001
0010
0100
0000
1000
0000
0001
0000
0001
0000
,
1000
0010
1000
0000
0001
0000
0100
0001
0000
1000
0100
0000
0010
0000
0001
0010
,
0001
0100
0000
0100
0010
0000
1000
0010
0100
0000
0001
0000
1000
0010
1000
0000
,
0001
0100
0010
1000
0001
0000
1000
0000
0020
0000
0230
0000
0301
0100
0001
0000
,
1000
0100
1000
0100
0010
0100
0010
0000
0001
0100
0001
0100
0010
0100
0001
0000
,
1000
0100
0010
0000
0001
0000
0100
1000
0000
0100
0010
0000
1000
0000
0000
0100
,
0010
0001
1000
0000
0001
0000
0010
0001
0000
1000
0001
0000
0100
0000
0000
0010
,
1000
0100
0010
0000
0001
0000
0010
1000
0000
0010
0100
0000
1000
0000
0000
0010
,
1000
0000
0000
0000
0010
0000
0000
0000
0100
0000
0000
0000
0000
0000
0000
0000
0001
0000
0000
0000
0100
0000
0000
0000
0010
0000
0000
0000
0100
0000
0000
0000
0000
0000
0000
0000
0001
0000
0000
0000
1000
0000
0000
0000
0000
0000
0000
0000
0200
0300
0000
0000
0000
0000
0000
0000
0200
0300
0000
0000
0000
0000
0000
0000
,
0001
0010
0100
0000
1000
0000
0010
0200
0000
0000
0310
0000
1000
0000
0002
0000
,
1003
0010
0100
0000
0001
0000
1000
0200
0000
0000
0310
0000
0100
0000
2000
0000
,
3001
0010
0000
0010
0100
1000
0000
1000
0010
0100
0000
0100
0001
1000
0000
1000
,
0001
0010
0100
1000
0001
0100
0010
1000
0000
0000
0000
0000
0000
0000
0000
0000
,
1000
0000
0100
0000
0010
0000
0001
0100
0000
0010
0100
0010
0000
1000
0100
0000
,
0010
0000
0001
0000
1000
0000
0001
0100
0000
0010
0100
0001
0000
0100
0010
0000
,
1000
0000
0100
0000
1000
0000
0100
0010
0000
0001
0010
0001
0000
0100
0001
0000
,
0100
0000
0001
0000
0010
0000
0100
1000
0000
0001
1000
0100
0000
0010
0100
0000
,
1000
0010
0100
0000
0001
0100
0010
0100
0000
0010
1000
0010
0000
1000
0001
0000
,
0001
0010
0100
0000
1000
0010
0100
0010
0000
0100
0001
0100
0000
0001
1000
0000
,
1000
0001
0100
0000
0001
1000
0100
0010
0000
0001
0100
0010
0000
1000
0010
0000
,
1000
0000
0000
0100
0000
0000
1000
0000
0000
0000
0000
0000
0001
0000
0000
0100
0000
0000
0010
0000
0000
1000
0000
0000
0100
0000
0000
0000
0000
0000
0010
0000
0000
0000
0000
0000
0100
0000
0000
0000
0000
0000
1000
0000
0001
0000
1000
0000
,
0002
0000
0000
0000
,
0000
0000
0000
0000
,
0003
0000
0000
0000
;

//--------------- dance-double - Fred-104 ----------------
#NOTEDATA:;
#STEPSTYPE:dance-double;
#DESCRIPTION:Fred-104;
#DIFFICULTY:Easy;
#METER:6;
#CREDIT:Fred-104;
#NOTES:
00000000
00000000
00000000
00000000
,
00000000
00000000
00000000
00000000
,
00000000
00000000
00000000
00000000
,
00001001
00000000
00000000
00000000
,
00000100
00000000
00000000
00000000
,
00000010
00000000
00000000
00000000
,
00001000
00000000
00000001
00000000
,
00001001
00000000
00000100
00000000
,
00000010
00010000
00001000
00000000
,
00100000
00000000
00010000
00000000
,
10010000
00000000
10000000
00100000
,
01000000
00000000
00010000
00100000
,
00001000
00000000
00010000
00001000
,
00000010
00000000
00000001
00001000
,
00000001
00000000
00000100
00000010
,
00000100
00000000
00000001
00000010
,
00001000
00000000
00010000
00100000
,
10000000
00000000
00010000
10000000
,
01000000
00000000
00100000
01000000
,
00100000
10000000
01000000
00000000
,
00100000
00010000
00001000
00000000
,
00000010
00000100
00000001
00000000
,
00001000
00000100
00000010
00000001
,
00001000
00000001
00000100
00000000
,
00000001
00000100
00001000
00000000
,
00010000
01000000
10000000
00010000
,
01000000
00100000
01100000
00000000
,
00010000
00000000
10000000
00000000
,
01000000
00000000
00100000
00000000
,
00001000
00000000
00010000
00000000
,
00000010
00000000
00001000
00000001
,
00000100
00000000
00000001
00000000
,
00000010
00000000
00000100
00000000
,
00010000
00000000
00001000
00000000
,
00100000
00010000
10000000
00010000
,
01000000
00000000
00001000
00000000
,
00010000
00000000
00000100
00000000
,
00000010
00000000
00000100
00000000
,
00000001
00001000
00000001
00000100
,
00000010
00001000
00000010
00001000
,
00000100
00010000
00001000
00010000
,
00002000
00000000
00000000
00000000
,
00020000
00000000
00000000
00033000
,
00001000
00100000
00100000
00010000
,
10000000
00100000
01000000
00100000
,
10000000
01000000
00100000
00001000
,
00010000
00010000
00000010
00000000
,
00001000
00000100
00000100
00000001
,
00000100
00001000
00000001
00000010
,
00000100
00010000
00001000
00100000
,
01000000
10000000
00010000
01000000
,
01100000
00000000
00100000
10000000
,
01000000
00100000
00001000
00010000
,
00001000
01000000
00001000
00010000
,
00001000
00000100
00000010
00000001
,
00001000
00000000
00000001
00000100
,
00001000
00010000
00001000
00010000
,
00001000
00000100
00000010
00000001
,
00001000
00000010
00010000
00001000
,
00010000
00010000
01000000
00100000
,
10000000
00100000
01000000
01000000
,
00010000
00001000
00010000
00001000
,
00010000
00001000
00011000
00000000
,
00100000
00010000
10000000
00100000
,
01000000
00100000
10000000
01000000
,
00100000
00001000
00010000
00000100
,
00001000
00000001
00000010
00000000
,
00001001
00000000
00000001
00000100
,
00001000
00010000
00001000
00010000
,
01000000
00100000
10000000
00010000
,
10000000
00000000
00000000
00000000
00010000
01000000
00010000
00000000
,
20020000
00000000
00000000
00000000
,
00000000
00000000
00000000
00000000
,
30030000
00000000
00000000
00000000
;

//--------------- dance-double - Fred-104 ----------------
#NOTEDATA:;
#STEPSTYPE:dance-double;
#DESCRIPTION:Fred-104;
#DIFFICULTY:Medium;
#METER:10;
#CREDIT:Fred-104;
#NOTES:
00000000
00000000
00000000
00000000
,
00000000
00000000
00000000
00000000
,
00000000
00000000
00000000
00000000
,
10010000
00000000
00000000
00000000
,
10000000
00000000
00000000
00000000
,
00010000
00000000
00000000
00000000
,
01000000
00000000
00000000
00000000
00001000
00000000
00000000
00010000
,
00011000
00000000
00000010
00000000
,
00000100
00000001
00000100
00000000
,
00000001
00000010
00000100
00000000
,
00011000
00000000
00000000
00000000
00010000
00001000
00010000
00000000
,
00001000
00100000
00010000
00000000
10000000
00000000
10100000
00000000
,
00010000
10000000
01000000
00000000
00100000
00000000
00110000
00000000
,
00100000
00001000
00010000
00000000
00000100
00000000
00001100
00000000
,
00001000
00000010
00000100
00000000
00000001
00001000
00000100
00000000
,
00000010
00000001
00001000
00000000
00000010
00000000
00011000
00000000
,
00010000
00001000
01000000
00000000
00010000
00000000
10010000
00000000
,
01000000
00010000
00001000
00000000
00000100
00000000
00000110
00000000
,
00000010
00000100
00000001
00000000
00000100
00000010
00001000
00000000
,
00000001
00000000
00000010
00000000
00000100
00000000
00010000
00002000
00000000
00000000
00000000
00000000
00003000
00000000
00000000
00000000
,
00100000
00000000
00010000
00000000
00100000
00000000
01000000
00200000
00000000
00000000
00000000
00000000
00300000
00000000
00000000
00000000
,
10000000
00000000
00100000
00000000
01000000
00000000
00001000
00020000
00000000
00000000
00000000
00000000
00030000
00000000
00000000
00000000
,
00000100
00010000
00001000
00000000
00010000
00000010
00001000
00000000
,
00000001
00000000
00000010
00000000
00000100
00000000
00000010
00000002
00000000
00000000
00000000
00000000
00000003
00000000
00000000
00000000
,
00001000
00000000
00000010
00000000
00000100
00000000
00000010
00002000
00000000
00000000
00000000
00000000
00003000
00000000
00000000
00000000
,
00000100
00000000
00010000
00000000
00001000
00000000
00010000
00002000
00000000
00000000
00000000
00000000
00003000
00000000
00000000
00000000
,
00100000
00010000
10000000
00000000
00010000
01000000
00100000
00000000
,
10000000
00000000
01000000
00000000
00100000
00000000
01000000
00200000
00000000
00000000
00000000
00000000
00300000
00000000
00000000
00000000
,
00001000
00000000
00010000
00000000
00001000
00000000
00100000
00002000
00000000
00000000
00000000
00000000
00003000
00000000
00000000
00000000
,
00010000
00000000
00000100
00000000
00001000
00000000
00000100
00002000
00000000
00000000
00000000
00000000
00003000
00000000
00000000
00000000
,
00000010
00000100
00000001
00000010
00001000
00000010
00000001
00000000
,
00001000
00000010
00000100
00000000
00000001
00000000
00000011
00000000
,
00000100
00001000
00010000
00000000
00001000
00000000
00011000
00000000
,
00100000
00010000
10000000
00000000
00100000
00000000
01100000
00000000
,
00010000
10000000
00100000
01000000
00010000
00100000
10000000
00000000
,
01000000
00000000
00100000
00000000
00010000
00000000
00001000
00020000
00000000
00000000
00000000
00000000
00030000
00000000
00000000
00000000
,
00001000
00000000
00000010
00000000
00000001
00000000
00000010
00000002
00000000
00000000
00000000
00000000
00000003
00000000
00000000
00000000
,
00000100
00000000
00001000
00000000
00000100
00000000
00001000
00020000
00000000
00000000
00000000
00000000
00030000
00000000
00000000
00000000
,
00010000
01000000
00010000
00000000
01000000
10000000
01000000
00000000
,
00010000
10000000
01000000
00000000
00100000
00001000
00010000
00000000
,
00000010
00010000
00001000
00100000
00010000
10000000
00100000
01000000
,
00020000
00000000
00000000
00000000
,
20000000
00000000
00000000
30030000
,
00001000
00010000
00001000
00100000
01000000
10000000
00010000
00000000
,
01000000
00100000
10000000
00100000
01000000
00010000
00100000
00000000
,
10000000
00100000
00010000
00001000
00010000
00100000
01000000
00000000
,
10000000
01000000
00010000
00001000
00000100
00000001
00001000
00000000
,
00000001
00000100
00000010
00000100
00000001
00000010
00000100
00000000
,
00001000
00000100
00001000
00000100
00000010
00000100
00000001
00000000
,
00001000
00000001
00000010
00000100
00010000
00001000
00010000
00000000
,
00001000
00100000
00010000
00000000
10000000
00010000
01000000
00000000
,
00010000
00000000
01000000
00000000
00100000
00000000
10000000
00200000
00000000
00000000
00000000
00000000
00300000
00000000
00000000
00000000
,
01000000
00000000
00100000
00000000
00010000
00000000
00001000
00000200
00000000
00000000
00000000
00000000
00000300
00000000
00000000
00000000
,
00000010
00000000
00000001
00000000
00001000
00000000
00000010
00000200
00000000
00000000
00000000
00000000
00000300
00000000
00000000
00000000
,
00000001
00000100
00000010
00000000
00001000
00000010
00000100
00000000
,
00000010
00000000
00000100
00000000
00001000
00000000
00010000
00002000
00000000
00000000
00000000
00000000
00003000
00000000
00000000
00000000
,
00100000
00000000
00010000
00000000
00001000
00000000
00010000
00200000
00000000
00000000
00000000
00000000
00300000
00000000
00000000
00000000
,
01000000
00000000
00010000
00000000
00100000
00000000
00001000
00020000
00000000
00000000
00000000
00000000
00030000
00000000
00000000
00000000
,
00000010
00010000
00001000
00100000
01000000
10000000
00010000
00000000
,
01000000
00100000
10000000
01000000
00100000
00001000
00001000
00000000
,
00010000
00000100
00001000
00000001
00000100
00000010
00000010
00000000
,
00000001
00000100
00001000
00000000
00010000
01000000
10000000
00000000
,
00010000
00000000
10000000
00000000
00010000
01000000
00100000
01000000
00000000
00000000
00000000
00000000
00000000
00000000
00000000
00000000
,
00010000
01000000
00100000
01000000
10000000
01000000
00100000
10000000
,
00010000
01000000
00100000
00010000
00001000
00000100
00000010
00000000
,
00000001
00000100
00001000
00000100
00000001
00000100
00000010
00001000
,
00000001
00000010
00000100
00010000
00001000
00100000
01000000
00000000
,
00001000
00010000
00100000
10000000
00010000
01000000
00100000
10000000
,
01000000
00100000
00001000
00010000
00100000
10000000
00010000
00000000
,
01000000
00100000
00001000
00000000
00010000
00000100
00000010
00000000
,
00000001
00000000
00000100
00000000
00000010
00000000
00001000
00000000
00000001
00000000
00000010
00000000
00000100
00000000
00001000
00000001
,
00002000
00000000
00000000
00000000
,
00000000
00000000
00000000
00000000
,
00003000
00000000
00000000
00000000
;

//--------------- dance-double - Fred-104 ----------------
#NOTEDATA:;
#STEPSTYPE:dance-double;
#DESCRIPTION:Fred-104;
#DIFFICULTY:Hard;
#METER:15;
#CREDIT:Fred-104;
#NOTES:
00000000
00000000
00000000
00000000
,
00000000
00000000
00000000
00000000
,
00000000
00000000
00000000
00000000
,
00011000
00000000
00100000
00000000
,
10000000
00000000
01000000
00000000
,
00010000
00000000
00001000
00000000
,
00000010
00000000
00000001
00000000
00001000
00000000
00000001
00000100
,
00000110
00000010
00001000
00000100
,
00010000
00001000
01000000
00010000
,
10000000
01000000
00010000
00001000
,
00011000
00000000
00000000
00000000
00000000
00000000
00000000
00000000
00000010
00000100
00000010
00000100
00000001
00000000
00001000
00000000
,
00000001
00000100
00000001
00000000
00000100
00000000
00001000
00020000
00000000
00000000
00000000
00000000
00030000
00000000
00000000
00000000
,
01000000
10000000
01000000
00000000
00010000
00000000
00001000
00020000
00000000
00000000
00000000
00000000
00030000
00000000
00000000
00000000
,
00001000
00000100
00001000
00000000
00000100
00000000
00000001
00000200
00000000
00000000
00000000
00000000
00000300
00000000
00000000
00000000
,
00010000
00001000
00010000
00000000
00001000
00100000
00010000
00100000
00000000
00010000
01000000
00010000
01000000
00100000
10000000
00000000
,
00010000
10000000
00010000
00000000
10000000
00000000
00100000
00020000
00000000
00000000
00000000
00000000
00030000
00000000
00000000
00000000
,
00001000
00010000
00001000
00000000
00000010
00000000
00000001
00000020
00000000
00000000
00000000
00000000
00000030
00000000
00000000
00000000
,
00001000
00010000
00001000
00000000
00010000
00000000
00100000
20000000
00000000
00000000
00000000
00000000
30000000
00000000
00000000
00000000
,
00100000
01000000
00100000
01000000
00010000
10000000
00010000
10000000
01000000
00100000
00001000
00010000
00001000
00000000
00010000
00000000
,
00000010
00001000
00000010
00001000
00000100
00000000
00000010
00000002
00000000
00000000
00000103
00000000
00000010
00000000
00000100
00000001
,
00000100
00000010
00000100
00000010
00000100
00000000
00000001
00000020
00000000
00000000
00000130
00000000
00000010
00000000
00000001
00000100
,
00000010
00001000
00000100
00010000
00000100
00000000
00010000
00002000
00000000
00000000
01003000
00000000
00001000
00000000
00010000
00001000
,
00100000
00010000
10000000
00100000
01000000
00010000
10000000
01000000
00000000
00100000
01000000
10000000
00100000
01000000
00010000
00000000
,
01000000
00100000
10000000
00000000
00010000
00100000
01000000
00200000
00000000
00000000
00301000
00000000
00010000
00000000
00000100
00001000
,
00000100
00000010
00000001
00000000
00001000
00000001
00000100
00000002
00000000
00000000
00001003
00000000
00000010
00000000
00010000
00001000
,
00100000
00001000
00010000
00000000
00001000
00010000
01000000
20000000
00000000
00000000
30010000
00000000
01000000
00000000
00100000
00000000
,
10000000
01000000
10000000
00000000
00100000
01000000
00100000
00000000
01000000
00010000
01000000
00010000
00100000
00001000
00010000
00000000
,
00001000
00000010
00001000
00000000
00000010
00000000
00000001
00000020
00000000
00000000
00000000
00000000
00000030
00000000
00000000
00000000
,
00001000
00010000
00001000
00000000
00010000
00000000
00100000
20000000
00000000
00000000
00000000
00000000
30000000
00000000
00000000
00000000
,
00100000
00010000
00100000
00000000
00010000
00000000
00001000
00000020
00000000
00000000
00000000
00000000
00000030
00000000
00000000
00000000
,
00000001
00000010
00000001
00000000
00000100
00000010
00000100
00000010
00000000
00001000
00000100
00010000
00001000
00010000
00000100
00000000
,
00010000
00001000
00010000
00000000
01000000
00000000
10000000
02000000
00000000
00000000
00000000
00000000
03000000
00000000
00000000
00000000
,
00010000
00001000
00010000
00000000
00001000
00000000
00000100
00000002
00000000
00000000
00000000
00000000
00000003
00000000
00000000
00000000
,
00000100
00001000
00000100
00000000
00001000
00000000
00010000
02000000
00000000
00000000
00000000
00000000
03000000
00000000
00000000
00000000
,
10000000
01000000
10000000
00000000
00100000
01000000
00100000
01000000
00000000
00010000
10000000
00010000
01000000
00100000
10000000
00000000
,
00010000
00000000
10000000
00000000
01000000
00000000
00100000
00002000
00000000
00000000
00000000
00000000
00003000
00000000
00000000
00000000
,
00010000
00000000
00000100
00000000
00001000
00000000
00000001
00000020
00000000
00000000
00000000
00000000
00000030
00000000
00000000
00000000
,
00000001
00000000
00000010
00000000
00000100
00000000
00010000
00002000
00000000
00000000
00000000
00000000
00003000
00000000
00000000
00000000
,
00100000
00000000
00001000
00000000
00010000
00000000
00001000
00100000
00000000
00100000
00010000
00000000
01000000
00000000
00100000
00000000
,
10000000
01000000
10000000
00100000
01000000
00010000
00100000
00001000
,
00100000
00010000
00100000
00010000
00100000
00010000
00100000
00001000
00010000
00001000
00010000
00000100
00001000
00000100
00000010
00000001
,
00002000
00000000
00000000
00000000
,
00000002
00000000
00000000
00003003
,
00000001
00000000
00000100
00000000
00000010
00000000
00000100
00000001
00000100
00000000
00000001
00000000
00000010
00000000
00000100
00001000
,
00000001
00000100
00000000
00000010
00000100
00000000
00000010
00001000
00000010
00000000
00010000
00000000
00001000
00100000
00010000
00000000
,
00100000
00001000
00010000
00001000
00100000
00000000
00020000
00000000
10030000
01000000
10000000
00000000
01000000
00010000
00000000
00010000
,
00001000
00010000
00001000
00000000
00000100
00000010
00000100
00000000
00000001
00000100
00000001
00000100
00000010
00001000
00000010
00000000
,
00001000
00000000
00000100
00000000
00000010
00000000
00000001
00000100
00000001
00000100
00000010
00000000
00001000
00000000
00000100
00010000
,
00001000
00000000
00000100
00000000
00000001
00000000
00000010
00000000
00001000
00000000
00010000
00000000
00001000
00010000
00000010
00001000
,
00000010
00001000
00000001
00000100
00000001
00000000
00000020
00000000
00002030
00000000
00023000
00000000
00230000
00000000
10300000
00000000
,
00010000
01000000
00010000
01000000
00010000
00000000
10000000
01000000
00100000
00000000
00001000
00000000
00010000
00000000
00010000
00000000
,
00000100
00001000
00000100
00000000
00000010
00000000
00000001
00000200
00000000
00000000
00000310
00000000
00001000
00000000
00000100
00000000
,
00000010
00001000
00010000
00000000
00100000
00000000
00001000
00020000
00000000
00000000
00030010
00000000
00010000
00000000
00001000
00000000
,
00100000
00010000
01000000
00000000
00100000
00000000
10000000
02000000
00000000
00000000
03100000
00000000
00001000
00000000
00010000
00001000
,
00010000
00000100
00001000
00000000
00000010
00000100
00000001
00000100
00000000
00000001
00000010
00000001
00001000
00000001
00000100
00000000
,
00000001
00000010
00000100
00000000
00000010
00000000
00000001
00000100
00000000
00000100
00001000
00000000
00010000
00000000
00000000
00010000
,
00100000
00010000
10000000
00000000
00100000
00000000
10000000
01000000
00000000
00010000
01000000
00000000
00100000
00000000
00000000
00010000
,
10000000
01000000
00100000
00000000
00001000
00000000
00010000
00001000
00000000
00010000
00000100
00000000
00001000
00000000
00000000
00000010
,
00000100
00000001
00000100
00000000
00000001
00000010
00000001
00001000
00000000
00000010
00000100
00000000
00000001
00000000
00001000
00000000
,
00000001
00000010
00000100
00000000
00000010
00000000
00000001
00000200
00000000
00000000
00001300
00000000
00010000
00000000
00002000
00000000
,
00003010
00000100
00000010
00000000
00000001
00000000
00000100
00002000
00000000
00000000
00013000
00000000
01000000
00000000
20000000
00000000
,
30010000
01000000
00000000
01000000
00100000
10000000
00000000
10000000
01000000
00010000
00000000
00010000
00001000
00000100
00000000
00000100
,
00000001
00000100
00000001
00000100
00000001
00000100
00000010
00001000
00000000
00000000
00000000
00000000
00000000
00000000
00000000
00000000
,
00001000
00000000
00100000
00000000
00010000
00000000
01000000
00100000
00000000
10000000
01000000
00100000
00000000
01000000
10000000
00000000
,
00010000
00000000
01000000
00000000
00100000
00000000
10000000
01000000
00000000
00100000
00010000
00100000
00000000
00001000
00010000
00000000
,
00000010
00000000
00001000
00000000
00000100
00000000
00010000
00000100
00000000
00001000
00000010
00000100
00000000
00000001
00000010
00000000
,
00001000
00000000
00000010
00000000
00000001
00000000
00001000
00000001
00000000
00000100
00000010
00000100
00000000
00000001
00000010
00000000
,
00000100
00001000
00000001
00000000
00000100
00000010
00001000
00000100
00000000
00000010
00000000
00000001
00000000
00000100
00001000
00000000
,
00010000
00001000
00010000
00000000
00001000
00100000
00010000
01000000
00000000
00100000
00000000
10000000
00000000
00100000
00010000
00000000
,
00001000
00010000
00001000
00000000
00010000
00000100
00001000
00000100
00000000
00000010
00000000
00000100
00000000
00001000
00000001
00000000
,
00000100
00000000
00000000
00000010
00000000
00000000
00000100
00000000
00000000
00000000
00000000
00000000
00000001
00000000
00000000
00000010
00000000
00000000
00000100
00000000
00000000
00001000
00000000
00000000
00000001
00000000
00000000
00000000
00000000
00000000
00000100
00000000
00000000
00000000
00000000
00000000
00001000
00000000
00000000
00000000
00000000
00000000
00010000
00000000
00001000
00000000
00010000
00000000
,
00002000
00000000
00000000
00000000
,
00000000
00000000
00000000
00000000
,
00003000
00000000
00000000
00000000
;
