#VERSION:0.83;
#TITLE:Thunderbolt;
#ARTIST:雷龍;
#ARTISTTRANSLIT:Rairyu;
#GENRE:RAVERS DANCE SPEED;
#BANNER:Thunderbolt.png;
#BACKGROUND:Thunderbolt-bg.png;
#CDTITLE:./CDTitles/bm IIDX 19 Lincle.png;
#MUSIC:Thunderbolt.ogg;
#SAMPLESTART:44.68;
#SAMPLELENGTH:15;
#BPMS:0=188;

//--------------- dance-single - Fred-104 ----------------
#NOTEDATA:;
#STEPSTYPE:dance-single;
#DESCRIPTION:Fred-104;
#DIFFICULTY:Beginner;
#METER:4;
#CREDIT:Fred-104;
#NOTES:
0000
0000
0000
0000
,
0000
0000
0000
0000
,
0000
0000
0000
0000
,
0000
0000
0000
0000
,
2000
0000
3000
0000
,
0002
0000
0003
0000
,
2000
0000
3000
0000
,
0002
0000
0003
0000
,
1000
0000
0001
0000
,
1000
0000
0001
0000
,
1000
0000
0001
0000
,
2002
0000
0000
3003
,
1000
0000
0010
0000
,
1000
0000
0100
0000
,
1000
0000
0001
0000
,
1000
0000
1000
0000
,
0001
0000
1000
0000
,
0001
0000
0100
0000
,
0001
0000
0010
0000
,
0001
0000
0001
0000
,
0100
0100
0100
0000
,
0100
0100
0100
0000
,
0100
0100
0100
0000
,
0100
0100
0100
0000
,
0010
0010
0010
0000
,
0010
0010
0010
0000
,
0010
0010
0010
0000
,
0010
0010
0010
0000
,
2000
0000
0000
0000
,
0000
0000
3000
0000
,
0002
0000
0000
0000
,
0000
0000
0003
0000
,
1000
0000
0000
0000
,
0001
0000
0000
0000
,
1000
0000
0001
0000
,
2002
0000
0000
3003
,
1000
0000
0010
0000
,
1000
0000
0001
0000
,
0001
0000
1000
0000
,
0001
0000
0100
0000
,
0001
0000
1000
0000
,
0010
0000
1000
0000
,
1000
0000
0001
0000
,
0100
0000
0001
0000
,
0001
0000
1000
0000
,
0001
0000
0010
0000
,
0010
0000
0001
0000
,
1000
0000
0001
0000
,
0001
0000
1000
0000
,
0100
0000
1000
0000
,
1000
0000
0001
0000
,
1000
0000
0001
0000
,
2000
0000
3000
0000
,
0002
0000
0003
0000
,
0200
0000
0300
0000
,
0020
0000
0030
0000
,
2000
0000
0000
0000
,
3000
0000
0000
0000
,
0002
0000
0000
0000
,
0003
0000
0000
0000
,
1000
0000
0010
0000
,
1000
0000
0001
0000
,
1000
0000
0001
0000
,
0100
0000
0100
0000
,
0010
0000
0010
0000
,
1000
0000
1000
0000
,
0001
0000
0001
0000
,
2002
0000
0000
3003
,
1000
0000
0001
0000
,
1000
0000
0100
0000
,
1000
0000
0001
0000
,
0010
0000
0010
0000
,
0001
0000
1000
0000
,
0001
0000
0100
0000
,
0001
0000
1000
0000
,
2002
0000
3003
0000
,
2002
0000
3003
0000
,
0001
0000
0100
0000
,
0001
0000
0010
0010
,
0010
0000
0001
0000
,
1000
0000
0010
0010
,
0010
0000
1000
0000
,
0001
0000
0100
0100
,
0100
0000
0001
0000
,
1001
0000
0000
0000
,
0001
0000
1000
0000
,
0001
0000
1000
1000
,
1000
0000
0001
0000
,
1000
0000
0001
0001
,
0001
0000
0100
0000
,
0010
0000
1000
1000
,
1000
0000
0001
0000
,
1000
0000
0001
0000
,
1001
0000
1001
0000
,
2002
0000
0000
0000
,
3003
0000
0000
0000
;

//--------------- dance-single - Fred-104 ----------------
#NOTEDATA:;
#STEPSTYPE:dance-single;
#DESCRIPTION:Fred-104;
#DIFFICULTY:Easy;
#METER:8;
#CREDIT:Fred-104;
#NOTES:
0000
0000
0000
0000
,
0000
0000
0000
0000
,
0000
0000
0000
0000
,
0000
0000
0000
0000
,
0002
0000
0103
0000
,
2000
0000
3100
0000
,
0002
0000
0013
0000
,
2000
0000
3010
0001
,
1001
0000
1000
0000
,
0100
0010
0001
0000
,
1000
0000
0001
0000
,
2002
0000
0000
3003
,
0001
0100
0001
0010
,
0100
1000
0010
0000
,
1000
0001
0100
0010
,
1000
1000
0001
0001
,
0100
0010
1000
0010
,
0100
0001
1000
0000
,
0001
0010
0100
1000
,
2002
3003
0220
0330
,
0100
0000
0100
0000
0010
0100
0010
0000
,
1000
0000
1000
0000
0001
1000
0001
0000
,
0010
0000
0010
0000
0100
0010
0100
0000
,
1000
0001
0100
0010
,
0100
0000
0100
0000
0010
0100
0010
0000
,
0001
0000
0001
0000
1000
0001
1000
0000
,
0010
0000
0010
0000
0100
0010
0100
0000
,
0001
1000
0001
1000
,
0002
0000
2003
0000
,
3020
0000
0230
0000
,
0302
0000
0023
0000
,
0230
0000
2300
0000
,
3001
0001
0100
0100
,
0010
0010
1000
1000
,
0001
0010
0001
0000
1000
0100
1000
0000
,
2002
0000
0000
3003
,
0001
0000
0100
0000
0001
0010
0001
0000
,
0000
0100
0010
0100
,
0001
0000
1000
0000
0100
0010
0100
0000
,
1000
0010
1000
0100
,
1000
0000
0100
0000
0010
0001
0010
0000
,
0000
0001
1000
0001
,
0100
0000
0010
0000
0100
0001
0100
0000
,
0110
0000
1001
0000
,
0001
0000
0100
0000
0010
1000
0010
0000
,
1000
0100
0010
0001
,
1000
0000
0001
0000
0100
0001
0100
0000
,
0010
0100
0001
1000
,
0100
0000
1000
0000
0010
1000
0010
0000
,
0100
0001
1000
0100
,
0010
0000
0001
0000
0100
0010
0100
0000
,
1001
0000
0110
0000
,
2000
0000
3010
1000
,
0200
0000
0320
0000
,
0032
0000
0103
0001
,
0020
0000
0032
0000
,
1003
0000
0010
0000
,
0001
0100
1000
0000
,
0001
0000
1000
0000
,
2002
0000
0000
3003
,
2000
0000
3100
0000
,
0002
0000
0103
0000
,
2000
0000
3010
0000
,
0002
0000
0013
1000
,
1001
0000
0001
0000
,
0100
0010
1000
0000
,
0001
0000
1000
0000
,
2002
0000
0000
3003
,
1000
0010
1000
1000
,
0100
1000
0001
0000
,
0100
0001
0010
0001
,
0100
0000
0100
0000
0010
0100
0010
0000
,
0100
0001
1000
0001
,
0010
0100
0100
0000
,
1000
0010
0100
0010
,
1000
0100
2200
3300
,
0001
0100
0202
0303
,
1000
0000
0010
0000
1000
0100
1000
0000
,
0010
0100
0001
0001
,
0100
0000
0001
0000
0010
0100
0010
0000
,
0001
0000
1000
0000
0100
1000
0010
0000
,
0100
0000
0001
0000
1000
0001
1000
0000
,
0100
0000
0010
0000
0001
0001
0001
0000
,
0100
0010
1000
0010
,
1001
0000
0110
0000
,
1000
0000
0010
0000
1000
0100
1000
0000
,
0001
0000
0100
0000
0010
0010
0010
0000
,
0100
0001
1000
0100
,
1001
0000
0110
0000
,
1000
0000
0010
0000
0100
0010
0100
0000
,
0001
0000
1000
0000
0100
0100
0100
0000
,
1000
0010
0100
0001
,
1000
0010
0001
0000
,
0001
0100
1000
0001
,
2002
0000
0000
0000
,
3003
0000
0000
0000
;

//--------------- dance-single - Fred-104 ----------------
#NOTEDATA:;
#STEPSTYPE:dance-single;
#DESCRIPTION:Fred-104;
#DIFFICULTY:Medium;
#METER:12;
#CREDIT:Fred-104;
#NOTES:
0000
0000
0000
0000
,
0000
0000
0000
0000
,
0000
0000
0000
0000
,
0000
0000
0000
0000
,
0001
0000
0010
0000
0001
0000
0000
0001
0000
0000
0001
0000
0100
0000
0000
0000
,
0010
0000
1000
0000
0100
0000
0000
0100
0000
0000
0100
0000
1000
0000
0001
0000
,
0100
0000
0010
0000
1000
0000
0000
1000
0000
0000
1000
0000
0100
0000
0010
0000
,
0002
0000
1000
0000
1003
0001
1001
0000
,
1001
0000
0110
0000
1000
0100
0010
0000
,
1001
0000
0110
0000
0001
0100
0010
0000
,
1000
0100
1000
0010
0100
0001
1000
0001
,
0200
0000
0000
0300
,
0001
0000
0010
0000
0001
0000
1000
0000
0010
0000
0000
0100
0000
0000
0001
0000
,
1000
0000
0100
0000
0010
0000
0001
0000
1000
0000
0000
0001
0000
0000
1000
0000
,
0010
0000
0100
0000
0010
0000
1000
0000
0100
0000
0000
0010
0000
0000
0001
0000
,
1000
0000
0010
0000
0100
0100
1001
0000
,
1000
0000
0001
0000
0100
0000
0010
0000
1000
0000
0000
0010
0000
0000
0100
0000
,
0010
0000
1000
0000
0100
0000
0010
0000
0001
0000
0000
1000
0000
0000
0010
0000
,
0100
0000
0001
0000
0010
0000
0001
0000
1000
0000
0000
0001
0000
0000
0100
0000
,
0220
0330
2002
3003
,
0001
0100
0001
0100
0001
0000
0101
0000
,
1000
0100
1000
0100
1000
0000
1100
0000
,
0001
1000
0001
1000
0001
0000
1001
0000
,
0000
1010
0000
0101
0000
0001
1000
0000
,
1000
0010
1000
0010
1000
0000
1010
0000
,
0001
0010
0001
0010
0001
0000
0011
0000
,
0100
0010
0100
0010
0100
0000
0110
0000
,
0000
1001
0000
1000
0001
0010
0100
0000
,
1002
0000
2003
0000
,
3020
0000
0230
0000
,
0302
0000
0023
0000
,
0230
0000
2300
0000
,
3001
0100
0001
0010
,
0100
1000
0010
0100
,
0001
0010
0001
0000
1000
0100
1000
0000
,
2002
0000
0000
3003
,
0001
0000
0100
0000
0001
0000
0000
1000
0000
0000
0100
0000
0010
0000
0001
0000
,
0000
1000
0001
0100
0010
1000
0001
0000
,
1000
0000
0010
0000
0100
0000
0000
0010
0000
0000
1000
0000
0100
0000
0010
0000
,
0000
0001
1000
0001
0000
0101
0000
0100
,
0010
0000
1000
0000
0001
0000
0000
0010
0000
0000
0100
0000
0010
0000
0001
0000
,
0000
1000
0100
1000
0001
0001
0001
0000
,
1000
0000
0010
0000
1000
0000
0000
0100
0000
0000
1000
0000
0001
0000
0100
0000
,
0110
1001
0110
1001
,
0001
0000
0010
0000
0100
0000
0000
0010
0000
0000
0001
0000
1000
0000
0010
0000
,
0000
0100
0001
0100
0010
1000
0001
0000
,
0010
0000
0100
0000
0010
0000
0000
0001
0000
0000
1000
0000
0010
0000
0000
0000
,
1000
0001
0100
0001
0000
1001
0000
1000
,
0100
0000
0010
0000
0001
0000
0000
0100
0000
0000
0010
0000
0100
0000
0001
0000
,
0000
0010
0001
0100
0010
0010
0010
0000
,
1000
0000
0001
0000
0010
0000
0000
0001
0000
0000
0100
0000
0010
0000
0100
0000
,
0000
0001
1000
0001
0000
0100
0010
0000
,
1010
0000
0010
0000
1000
0010
0100
0000
,
0001
0100
0001
0000
0100
1000
0100
0000
,
0001
0000
0010
0000
0100
1000
0010
0000
,
1000
0010
1000
0000
0010
0001
0010
0000
,
2001
0000
3020
0000
,
0032
0000
0203
0000
,
2300
0000
0002
3003
,
2002
0000
0000
3003
,
1000
0000
0010
0000
1000
0000
0000
1000
0000
0000
1000
0000
0100
0000
0000
0000
,
0010
0000
0001
0000
0100
0000
0000
0100
0000
0000
0100
0000
0001
0000
1000
0000
,
0100
0000
0010
0000
0001
0000
0000
0001
0000
0000
0001
0000
0100
0000
0010
0000
,
2000
0000
0001
0000
3001
1000
1001
0000
,
0001
0000
0100
0000
0010
0000
0000
1000
0000
0000
0100
0000
0010
0000
0000
0000
,
0001
0000
0100
0000
1000
0000
0000
0010
0000
0000
1000
0000
0100
0000
0001
0000
,
1000
0000
0100
0000
0010
0000
0000
0001
0000
0000
1000
0000
0010
0000
0100
0000
,
0220
0000
0000
0330
,
0001
0000
1000
0000
0001
0000
0100
0000
0010
0000
0000
1000
0000
0000
0100
0000
,
0010
0000
0001
0000
1000
0000
0010
0000
0100
0000
0000
0001
0000
0000
0010
0000
,
0001
0000
1000
0000
0001
0000
0100
0000
0010
0000
0000
1000
0000
0000
0100
0000
,
1000
0010
0001
0000
1000
0100
0001
0000
,
1000
0000
0010
0000
0100
0000
0010
0000
1000
0000
0000
0100
0000
0000
0010
0000
,
0001
0000
1000
0000
0010
0000
1000
0000
0001
0000
0000
0100
0000
0000
0010
0000
,
0100
0000
0001
0000
0010
0000
0100
0000
1000
0000
0000
0001
0000
0000
0100
0000
,
0010
1000
2200
3300
,
0010
0001
0202
0303
,
0001
0000
0010
0000
0100
0000
0000
0010
0000
0000
0001
0000
1000
0000
0000
0000
,
0001
1000
0001
0000
0100
0010
1000
0000
,
0010
0000
1000
0000
0100
0000
0000
1000
0000
0000
0001
0000
0100
0000
0000
0000
,
0010
1000
0010
1000
0000
1001
0000
0001
,
1000
0000
0001
0000
0100
0000
0000
0001
0000
0000
1000
0000
0010
0000
0000
0000
,
0100
0010
1000
0000
0100
0100
0100
0000
,
1000
0000
0001
0000
0010
0000
0000
0001
0000
0000
1000
0000
0100
0000
0000
0000
,
1100
0101
0110
1001
,
1000
0000
0001
0000
0100
0000
0000
0010
0000
0000
0100
0000
0001
0000
1000
0000
,
0000
0100
1000
0010
1000
1000
1000
0000
,
0001
0000
1000
0000
0010
0000
0000
1000
0000
0000
0100
0000
1000
0000
0010
0000
,
0000
0100
0001
1000
0010
0100
0001
0000
,
1000
0000
0001
0000
1000
0000
0000
0010
0000
0000
1000
0000
0001
0000
1000
0000
,
0000
0100
0010
0100
0010
0010
0010
0000
,
0001
0000
0100
0000
0001
0000
0000
0010
0000
0000
0100
0000
0010
0000
0001
0000
,
1000
0100
1000
0100
0000
0010
0001
0010
,
0000
0001
1000
0001
0000
0100
0010
1000
,
2002
0000
0000
0000
,
3003
0000
0000
0000
;

//--------------- dance-single - Fred-104 ----------------
#NOTEDATA:;
#STEPSTYPE:dance-single;
#DESCRIPTION:Fred-104;
#DIFFICULTY:Hard;
#METER:17;
#CREDIT:Fred-104;
#NOTES:
0000
0000
0000
0000
,
0000
0000
0000
0000
,
0000
0000
0000
0000
,
0000
0000
0000
0000
,
1000
0000
0100
0000
0010
0000
0000
0001
0000
0000
1000
0000
1010
0000
0000
0000
,
0001
0000
1000
0000
0010
0000
0000
0100
0000
0000
0001
0000
1000
0010
1000
0010
,
0100
0000
0001
0000
0010
0000
0000
0100
0000
0000
1000
0000
0001
0000
0100
0000
,
0010
0000
1000
0001
0000
0001
0000
0001
0010
0000
0100
0000
1001
0000
0000
0000
,
1100
0000
1010
0000
1000
0100
0010
0001
,
0011
0000
0101
0000
0001
1000
0010
0100
,
0001
0010
0100
0010
0001
0010
0100
0000
1000
0010
0100
0010
1000
0010
0100
0000
,
0001
0000
0100
0010
0000
0010
0000
0010
1000
0000
0001
0000
1001
0000
0000
0000
,
0001
0000
0100
0000
0001
0010
0000
0010
0100
0000
0100
1000
0000
1000
0010
0000
,
0100
0000
0001
0000
1000
0100
0000
0100
0010
0000
0010
0001
0000
0001
1000
0000
,
0010
0000
0100
0000
0001
1000
0000
1000
0001
0000
0001
0100
0000
0100
0010
0000
,
1000
0000
0001
0010
0000
0010
0000
0010
0100
0000
1000
0000
1001
0000
0000
0000
,
0001
0000
1000
0000
0100
0010
0000
0010
0001
0000
0100
0010
0000
0010
1000
0000
,
0001
0000
0010
0000
0100
1000
0000
1000
0010
0000
0100
0001
0000
0001
1000
0000
,
0001
0000
1000
0000
0100
0010
0000
0010
0001
0000
1000
0001
0000
0001
0100
0000
,
0001
0000
1000
0100
0000
0100
0000
0100
0010
0000
0100
0000
1001
0000
0000
0000
,
1000
0000
0001
0100
0001
0000
0100
0001
0100
0000
0010
0000
2000
0000
3100
0000
,
0010
0000
0100
1000
0100
0000
1000
0100
1000
0000
0010
0000
0200
0000
0301
0000
,
1000
0000
0100
0010
0100
0000
0010
0100
0010
0000
0100
0000
2000
0000
3001
0000
,
0000
0102
0003
2100
3000
0102
0103
0010
,
1000
0000
0010
1000
0010
0000
1000
0010
1000
0000
0001
0000
0200
0000
0320
0000
,
0130
0000
0001
0010
0001
0000
0010
0001
0010
0000
0001
0000
2000
0000
3010
0000
,
0100
0000
0001
1000
0001
0000
1000
0001
1000
0000
0010
0000
2000
0000
3001
0000
,
0000
0000
0110
0000
0000
0000
2001
0000
3001
0010
0001
0000
0010
0000
0100
0000
,
1000
0000
0001
0000
0000
0010
0000
0000
0001
0000
0000
1000
0000
0000
0100
0000
,
0000
0010
0000
0000
0001
0000
0000
0100
0000
0000
1000
0000
0001
0000
0010
0000
,
1000
0000
0001
0000
0000
1000
0000
0000
0100
0000
0000
0010
0000
0000
0100
0000
,
0000
0001
0000
0000
0100
0000
0000
1000
0000
0000
0010
0000
0100
0000
0001
0000
,
1000
0000
0100
0000
0000
0001
0000
0000
1000
0000
0000
0010
0000
0000
0001
0000
,
0000
0100
0000
0000
1000
0000
0000
0001
0000
0000
0010
0000
1000
0000
0001
0000
,
1000
0100
1000
0001
0100
0001
1000
0000
0001
0010
0001
1000
0010
1000
0100
0000
,
1000
0010
0001
1000
0100
0001
1001
0000
,
0001
0000
0100
0000
0001
0000
0010
0100
0000
0100
0010
0000
0001
0000
0200
0000
,
0000
1300
0100
0001
0010
0100
1100
0000
,
1000
0000
0001
0000
0100
0000
0010
1000
0000
1000
0010
0000
0100
0000
0002
0000
,
0000
1003
0100
0010
0000
1010
0000
0011
,
0001
0000
1000
0000
0001
0000
0100
0010
0000
0010
1000
0000
0010
0000
0200
0000
,
0000
1300
0100
0001
1000
0001
1001
0000
,
0001
0000
0010
0000
0100
0000
1000
0001
0000
0001
0100
0000
0010
0000
1000
0000
,
1010
0101
1100
0011
,
1000
0000
0100
1000
0001
0000
0100
0010
0000
1000
0010
0000
0100
0000
0001
0000
,
1000
0100
0001
0100
0010
0001
1001
0000
,
0001
0000
1000
0001
0100
0000
0001
0010
0000
0100
0010
0000
0001
0000
1000
0000
,
0001
0100
1000
0010
0000
0011
0000
1001
,
0001
0000
1000
0001
0100
0000
0010
1000
0000
0100
0010
0000
0001
0000
0100
0000
,
0010
0001
0010
1000
1010
1010
1001
0000
,
0001
0000
1000
0001
0010
0000
0001
0100
0000
0010
0100
0000
0001
0000
1000
0000
,
0100
0000
1000
0010
0100
0000
0001
0000
1000
0100
0010
0001
0100
0010
1000
0000
,
0001
0000
0010
0100
0000
0010
0001
0000
0100
0001
0000
0010
0100
0000
1000
0000
,
0001
0100
0010
0000
1000
0010
0000
0000
0100
0001
0010
0000
0001
1000
0000
0000
,
0100
0000
1000
0010
0000
0100
0010
0000
1000
0001
0000
0100
0010
0000
1000
0000
,
0001
0010
0100
0000
0010
0001
0000
0000
1000
0001
0100
0000
0010
1000
0000
0000
,
0002
0203
0020
0330
,
1000
0100
0002
0000
1003
0010
0002
0000
,
2003
3200
0020
0330
,
2002
0000
0000
3003
,
0001
0000
0100
0000
0010
0000
0000
1000
0000
0000
0001
0000
0011
0000
0000
0000
,
1000
0000
0001
0000
0010
0000
0000
0100
0000
0000
1000
0000
0001
0010
0001
0010
,
0100
0000
1000
0000
0010
0000
0000
0100
0000
0000
0001
0000
1000
0000
0100
0000
,
0010
0000
0001
1000
0000
1000
0000
1000
0010
0000
0100
0000
1001
0000
0000
0000
,
0101
0000
0001
0000
0010
0000
0100
1000
0000
1000
0010
0000
0110
0000
0000
0000
,
1001
0000
0001
0000
0100
0000
0001
0010
0000
0010
0100
0000
1000
0001
0100
0001
,
1000
0000
0100
0000
0010
0000
0001
0100
0000
0100
0010
0000
0100
0000
0001
0000
,
1000
0000
0001
0010
0000
0010
0000
0010
0100
0000
0010
0000
0001
1000
0001
1000
,
0001
0000
0010
0000
0001
1000
0000
0010
0100
0000
0010
1000
0000
0001
1000
0000
,
0100
0000
0010
0000
0001
0100
0000
0010
0100
0000
0001
0010
0000
0100
1000
0000
,
0010
0000
1000
0000
0001
0010
0000
0100
0010
0000
0001
1000
0000
0010
1000
0000
,
0100
0000
0010
0100
0000
0100
0000
0100
1000
0000
0001
0000
1001
0000
0000
0000
,
1000
0000
0100
0000
1000
0010
0000
0100
0001
0000
0010
0100
0000
1000
0001
0000
,
0100
0000
0001
0000
0010
0001
0000
1000
0001
0000
0100
0010
0000
1000
0010
0000
,
0100
0000
0001
0000
1000
0100
0000
0010
0001
0000
1000
0001
0000
0100
0010
0000
,
1000
0000
0100
0001
0000
0100
0000
1000
0001
0000
0100
0000
0110
0000
0000
0000
,
0001
0000
0100
1000
0000
0100
0000
0001
0010
0000
0100
0000
0110
0000
0000
0000
,
1000
0001
0100
0001
1000
0000
0010
0100
0000
0100
0001
0000
1000
0000
0002
0000
,
0000
0000
1003
0000
0010
0000
0001
0000
1000
0000
0100
0001
1000
0000
0001
0000
,
0100
0010
1000
0010
0100
0000
0001
0010
0000
0100
1000
0000
0001
0000
0100
0000
,
1002
0103
0001
0020
0030
1100
0000
1001
,
1000
0100
1000
0010
1000
0000
0001
1000
0000
0010
1000
0000
0100
0000
0010
0000
,
0001
1000
0010
0100
0101
0101
1001
0000
,
0001
1000
0100
0010
0001
0000
0100
0010
0000
1000
0010
0000
0100
0000
0001
0000
,
0011
0000
1010
0000
0101
1100
1001
0000
,
1000
0100
0010
0001
1000
0000
0001
0100
0000
0010
1000
0000
0100
0000
0010
0000
,
0001
0000
0100
1000
0100
0000
0001
0000
0010
0000
1000
0010
0002
0000
0000
0000
,
1003
0001
0100
0001
0010
0000
0001
0100
0000
0010
1000
0000
0100
0000
0010
0000
,
1000
0000
0010
0000
0001
0000
1000
0000
0001
0000
0100
0000
0010
1000
0010
0000
,
1000
0001
0100
0010
1000
0000
0100
0010
0000
0100
0001
0000
0100
0000
1000
0000
,
0001
1000
0010
0100
0101
0101
1001
0000
,
0001
1000
0001
0100
0010
0000
1000
0100
0000
0010
0001
0000
1000
0000
0010
0000
,
1000
0100
0001
0100
1000
0010
0001
0010
,
1000
0000
0100
0000
0010
0000
0001
0000
0100
0010
0100
0010
0100
0010
0100
0010
,
0200
0000
0000
0000
,
0300
0000
0000
0000
;

//--------------- dance-single - Fred-104† ----------------
#NOTEDATA:;
#STEPSTYPE:dance-single;
#DESCRIPTION:Fred-104†;
#DIFFICULTY:Challenge;
#METER:18;
#CREDIT:Fred-104†;
#NOTES:
0000
0000
0000
0000
,
0000
0000
0000
0000
,
0000
0000
0000
0000
,
0000
0000
0000
0000
,
1000
0000
0100
0000
1000
0000
0000
0010
0000
0000
0100
0000
MMMM
0000
0000
0000
,
0001
0000
0010
0000
0100
0000
0000
0010
0000
0000
0001
0000
1000
0010
0100
0001
,
1000
0000
0100
0000
0010
0000
0000
0001
0000
0000
1000
0000
0010
0000
0100
0000
,
0001
0000
0010
0100
0000
0100
0000
0100
1000
0000
0001
0000
MMMM
0000
0000
0000
,
1100
0000
1000
0000
0010
0100
0000
0100
0001
0000
0010
0000
0110
0000
MMMM
0000
,
1010
0000
1000
0000
0001
0100
0000
0100
0010
0000
1000
0000
0100
0010
0001
1000
,
0010
0000
1000
0000
0001
0010
0000
0001
1000
0100
0010
0001
0100
0010
1000
0000
,
0001
0000
1000
0010
0000
0001
0000
0010
0100
0000
0001
0000
1001
0000
MMMM
0000
,
0001
0000
0100
0000
0010
1000
0000
0010
0100
0000
0001
0010
0000
0100
0010
0000
,
0001
0000
1000
0000
0001
0010
0000
0100
1000
0000
0001
0100
0000
0010
1000
0001
,
1000
0000
0100
0000
0010
0001
0000
1000
0010
0000
0100
0001
0000
1000
0100
0000
,
0010
0000
0001
0100
0000
0100
0000
1000
0001
0000
1000
0000
1001
0000
MMMM
0000
,
1000
0000
0100
0000
1000
0001
0000
0010
0100
0000
1000
0010
0000
0100
0001
0000
,
1000
0000
0001
0000
0010
0001
0000
1000
0001
0000
0100
0001
0000
0010
0100
0010
,
0001
0000
1000
0000
0001
0010
0000
0100
1000
0000
0001
0100
0000
0010
1000
0000
,
1001
0000
1000
0100
0000
0100
0000
0001
1000
0000
0100
0000
0110
0000
MMMM
0000
,
1001
0000
0001
0100
0001
0000
0001
0100
0001
0000
0010
0000
0110
0000
MMMM
0000
,
1010
0000
1000
0100
1000
0000
1000
0100
1000
0000
0001
0000
0101
0000
MMMM
0000
,
0110
0000
0010
1000
0010
0000
0010
1000
0010
0000
1000
0000
1001
0000
MMMM
0000
,
1000
1010
MMMM
0101
MMMM
1100
0110
0011
,
1001
0000
0001
0010
0100
0000
1000
0010
0100
0000
0010
0000
1010
0000
MMMM
0000
,
1100
0000
1000
0001
0010
0000
0001
1000
0010
0000
0100
0000
0101
0000
MMMM
0000
,
0110
0000
0010
1000
0001
0000
0100
0001
1000
0000
0100
0000
0110
0000
MMMM
0000
,
0001
0000
0101
0000
MMMM
0000
1010
0000
0001
1000
0010
0000
0100
0000
0001
0000
,
2000
0000
3020
0000
0000
2030
0000
0000
3200
0000
0000
0320
0000
0000
0032
0000
,
0000
0203
0000
0000
2300
0000
0000
3020
0000
0000
0032
0000
0203
0000
0320
0000
,
2030
0000
3002
0000
0000
0023
0000
0000
0230
0000
0000
0302
0000
0000
0203
0000
,
0000
2300
0000
0000
3020
0000
0000
0230
0000
0000
0302
0000
2003
0000
3200
0000
,
1300
0000
0010
0000
0100
0001
0000
1000
0001
0000
0010
0100
0000
1000
0100
0000
,
0010
0001
0000
1000
0010
0000
0100
0001
0000
1000
0001
0000
0010
0000
0100
0000
,
1000
0010
0100
0001
0010
0100
1000
0100
0010
0001
0100
0010
1000
0001
0100
0001
,
1000
0100
0001
1000
0010
0001
1001
MMMM
,
1000
0001
0100
0001
1000
0000
0001
0010
0000
0010
0100
0000
0010
0000
0002
0000
,
0000
0000
0103
0000
1000
0000
0100
0000
0010
0000
1000
0001
1000
0000
0100
0000
,
1000
0100
0010
0100
1000
0000
0010
0100
0000
0100
0001
0000
0100
0000
0020
0000
,
0000
0031
0010
2000
3000
1001
MMMM
1010
,
1000
0001
0010
0001
0100
0000
0001
0100
0000
0010
0001
0000
0010
0000
2000
0000
,
0000
3001
1000
0100
0110
0110
1001
0000
,
1000
0100
0010
0001
1000
0000
0100
0010
0000
1000
0010
0000
0001
0000
1000
0000
,
MMMM
1100
0100
0110
MMMM
0101
0100
0110
,
0010
1000
0001
1000
0100
0000
0001
0100
0000
0010
0001
0000
1000
0010
0100
0000
,
0001
0000
0100
0000
1000
0000
0001
0000
0010
0000
1000
0001
0100
0000
0010
0000
,
1000
0001
0010
0001
0100
0000
0001
1000
0000
0010
0001
0000
0010
0100
0001
0000
,
1000
0100
0001
0010
MMMM
1010
MMMM
1001
,
1000
0001
0010
0100
1000
0000
0010
0100
0000
1000
0100
0000
0001
1000
0010
0000
,
0100
0001
0010
0100
1100
1100
1001
0000
,
0010
1000
0001
0100
0010
0000
1000
0100
0000
0001
0100
0000
0010
0001
1000
0000
,
0001
0000
0010
0100
1000
0000
0010
0000
0100
0001
1000
0100
0010
0001
1000
0000
,
0001
0000
0100
0010
0000
1000
0100
0000
0010
0001
0000
0001
0100
0000
0010
0000
,
1000
0000
0100
0000
1000
0010
0000
0010
0001
0000
0010
0000
0001
0100
0000
0100
,
1000
0000
0001
0100
0000
0010
0100
0000
0001
0010
0000
0010
0100
0000
1000
0000
,
0001
0000
0100
0000
0001
0010
0000
0010
1000
0000
0010
0000
1000
0100
0000
0100
,
0002
1000
0200
0303
,
0010
1000
0100
MMMM
0010
0001
0100
MMMM
,
0002
0100
2000
3003
,
2002
0000
0000
0000
0000
3003
MMMM
0000
,
1000
0000
0010
0000
0100
0000
0000
0001
0000
0000
1000
0000
MMMM
0000
0000
0000
,
0001
0000
0010
0000
1000
0000
0000
0001
0000
0000
0100
0000
1000
0001
1000
0010
,
0100
0000
1000
0000
0100
0000
0000
0001
0000
0000
1000
0000
0001
0000
0010
0000
,
0001
0000
1000
0100
0000
0100
0000
0001
0010
0000
0100
0000
MMMM
0000
0000
0000
,
1100
0000
1000
0000
0001
0100
0000
0100
1000
0000
0001
0000
0011
0000
MMMM
0000
,
0110
0000
0010
0000
1000
0010
0000
0010
0001
0000
0100
0000
0001
0010
0001
1000
,
0100
0000
1000
0000
0001
0100
0000
0100
1000
0000
0001
0000
0100
0000
0010
0000
,
1000
0000
0001
0010
0000
0010
0000
1000
0001
0000
1000
0000
0001
0100
0010
1000
,
0001
0000
0010
0000
0100
1000
0000
0001
0100
0000
0010
1000
0000
0010
0100
0000
,
0001
0000
1000
0000
0100
0010
0000
0001
0100
0000
0010
1000
0000
0001
1000
0010
,
0100
0000
0001
0000
1000
0100
0000
0010
0100
0000
1000
0010
0000
0100
0001
0000
,
1000
0000
0001
0100
0000
0100
0000
1000
0001
0000
0010
0000
0110
0000
MMMM
0000
,
1000
0000
0100
0000
0010
0001
0000
0100
0010
0000
0001
0010
0000
0100
0001
0000
,
0010
0000
0100
0000
1000
0001
0000
0100
1000
0000
0100
0010
0000
1000
0001
1000
,
0100
0000
0010
0000
0100
0001
0000
0100
1000
0000
0001
0100
0000
0001
1000
0000
,
0001
0000
0100
1000
0000
0010
0000
0001
1000
0000
0110
0000
1001
0000
MMMM
0000
,
1000
0000
0010
0001
0000
0100
0000
1000
0001
0000
0110
0000
1001
0000
MMMM
0000
,
1000
0100
0001
0100
1000
0000
0001
0010
0000
0010
1000
0000
0001
1000
0010
0000
,
1000
0000
0100
0010
0001
0000
1000
0000
0001
1000
0010
1000
0001
0000
MMMM
0000
,
1000
0010
0001
0010
1000
0000
0001
0100
0000
0100
1000
0000
0001
1000
0010
0000
,
1000
0100
0001
0010
MMMM
1010
MMMM
1001
,
0001
0100
1000
0100
0010
0000
1000
0100
0000
0010
0001
0000
1000
0001
0100
0000
,
0001
0000
0100
0010
0001
0000
0010
0000
1010
0000
1010
0000
1001
0000
MMMM
0000
,
1000
0010
0001
0010
0100
0000
0010
1000
0000
0001
1000
0000
0100
0010
0001
0000
,
MMMM
0101
1100
0101
MMMM
1010
0011
1010
,
1000
0100
0001
0100
1000
0000
0001
0010
0000
0010
1000
0001
1000
0000
0100
0000
,
MMMM
0000
1001
0000
0110
0000
1001
0000
1000
0010
0100
0001
1000
0000
MMMM
0000
,
0001
0010
1000
0010
0001
0000
1000
0100
0000
0100
0001
0010
0100
0000
1000
0000
,
MMMM
0000
1100
0000
1010
0000
0101
0000
0011
0000
1001
0000
1000
0100
0010
0001
,
0100
0010
0001
0010
1000
0000
0001
0100
0000
1000
0100
0010
1000
0000
0100
0000
,
MMMM
0010
0001
1000
1010
0101
1001
MMMM
,
0001
0100
1000
0100
0001
0000
0010
1000
0000
0010
0001
1000
0001
0000
1000
0000
,
0001
1000
0010
1000
0100
0010
0001
0100
1000
0100
0010
1000
0010
0001
0010
0100
,
0001
0000
0100
0000
0010
0000
1000
0000
0100
0001
0100
0010
0001
0010
1000
0010
,
0200
0000
0000
0000
,
0300
0000
0000
0000
;

//--------------- dance-double - Fred-104 ----------------
#NOTEDATA:;
#STEPSTYPE:dance-double;
#DESCRIPTION:Fred-104;
#DIFFICULTY:Easy;
#METER:8;
#CREDIT:Fred-104;
#NOTES:
00000000
00000000
00000000
00000000
,
00000000
00000000
00000000
00000000
,
00000000
00000000
00000000
00000000
,
00000000
00000000
00000000
00000000
,
00002000
00000000
00013000
00000000
,
02000000
00000000
03010000
00000000
,
00002000
00000000
00013000
00000000
,
00002000
00000000
00003010
00000000
,
00011000
00000000
00001000
00000000
,
00010000
01000000
00010000
00000000
,
00001000
00000000
00010000
00000000
,
00022000
00000000
00000000
00033000
,
00001000
00100000
00010000
00000000
,
10000000
00100000
01000000
00000000
,
00100000
10000000
00100000
01000000
,
00010000
00010000
00001000
00000000
,
00010000
00001000
00000010
00000000
,
00000001
00001000
00000001
00000000
,
00000100
00001000
00000100
00000001
,
00002002
00003003
00000220
00000330
,
00000001
00000000
00000001
00000000
00000100
00000010
00000100
00000000
,
00000010
00000000
00000010
00000000
00010000
00001000
00010000
00000000
,
00001000
00000000
00001000
00000000
00100000
00010000
00100000
00000000
,
00010000
10000000
00010000
01000000
,
00100000
00000000
00100000
00000000
10000000
01000000
10000000
00000000
,
01000000
00000000
01000000
00000000
00010000
00001000
00010000
00000000
,
00001000
00000000
00001000
00000000
00000010
00000001
00000010
00000000
,
00000001
00001000
00000001
00000100
,
00000020
00000000
00002030
00000000
,
00003200
00000000
00020300
00000000
,
00032000
00000000
00203000
00000000
,
00320000
00000000
20030000
00000000
,
31000000
01000000
00100000
00100000
,
00001000
00001000
00010000
00010000
,
00001000
00001000
00010000
00010000
,
00022000
00000000
00000000
00033000
,
00001000
00000000
01000000
00000000
00010000
00100000
00010000
00000000
,
00000000
10000000
01000000
00100000
,
01000000
00000000
10000000
00000000
00010000
01000000
00010000
00000000
,
01000000
00100000
01000000
00100000
,
10000000
00000000
01000000
00000000
00010000
00001000
00010000
00000000
,
00000000
00010000
00000100
00000100
,
00001000
00000000
00000010
00000000
00000100
00000010
00000100
00000000
,
00000110
00000000
00001001
00000000
,
00000001
00000000
00000100
00000000
00000010
00001000
00000010
00000000
,
00000100
00000001
00001000
00000000
,
00000001
00000000
00000010
00000000
00001000
00010000
00001000
00000000
,
00010000
01000000
00100000
00000000
,
00010000
00000000
10000000
00000000
01000000
10000000
01000000
00000000
,
00100000
01000000
10000000
10000000
,
00100000
00000000
01000000
00000000
00001000
00100000
00001000
00000000
,
00011000
00000000
00000110
00000000
,
00000002
00000000
00000013
00000100
,
00000020
00000000
00000032
00000000
,
00000203
00000000
00001300
00010000
,
00200000
00000000
20300000
00000000
,
30010000
00000000
01000000
00000000
,
10000000
00100000
00010000
00000000
,
00001000
00000000
00010000
00000000
,
00022000
00000000
00000000
00033000
,
00020000
00000000
00031000
00000000
,
00000200
00000000
00001300
00000000
,
00020000
00000000
00031000
00000000
,
00020000
00000000
00130000
00001000
,
00011000
00000000
00010000
00000000
,
00001000
00000100
00001000
00000000
,
00010000
00010000
00001000
00001000
,
00022000
00000000
00000000
00033000
,
00001000
00100000
00001000
00100000
,
00010000
10000000
00010000
00000000
,
10000000
00100000
10000000
00100000
,
01000000
00000000
00010000
00000000
01000000
00100000
01000000
00000000
,
00010000
01000000
00001000
00010000
,
00001000
00100000
00001000
00000000
,
00010000
00000010
00001000
00000010
,
00000100
00000010
00002002
00003003
,
00010000
00001000
00022000
00033000
,
00001000
00000000
00100000
00000000
00010000
01000000
00010000
00000000
,
00100000
01000000
10000000
10000000
,
00100000
00000000
01000000
00000000
00010000
01000000
00010000
00000000
,
10000000
00000000
01000000
00000000
00100000
01000000
00100000
00000000
,
00001000
00000000
00010000
00000000
00001000
00010000
00001000
00000000
,
00010000
00000000
00000010
00000000
00001000
00001000
00001000
00000000
,
00000100
00010000
00001000
00010000
,
00011000
00000000
01100000
00000000
,
10000000
00000000
00010000
00000000
00100000
01000000
00100000
00000000
,
00001000
00000000
00010000
00000000
00001000
00001000
00001000
00000000
,
00010000
00001000
00000100
00000001
,
00001001
00000000
00000110
00000000
,
00000001
00000000
00000100
00000000
00000010
00000100
00000010
00000000
,
00000100
00000000
00000001
00000000
00000010
00000010
00000010
00000000
,
00001000
00010000
01000000
00000000
,
10000000
00100000
00010000
00000000
,
00001000
00000100
00000001
00001000
,
00002002
00000000
00000000
00000000
,
00003003
00000000
00000000
00000000
;

//--------------- dance-double - Fred-104 ----------------
#NOTEDATA:;
#STEPSTYPE:dance-double;
#DESCRIPTION:Fred-104;
#DIFFICULTY:Medium;
#METER:12;
#CREDIT:Fred-104;
#NOTES:
00000000
00000000
00000000
00000000
,
00000000
00000000
00000000
00000000
,
00000000
00000000
00000000
00000000
,
00000000
00000000
00000000
00000000
,
10000000
00000000
01000000
00000000
00100000
00000000
00000000
00100000
00000000
00000000
00100000
00000000
00010000
00000000
00000000
00000000
,
00100000
00000000
00001000
00000000
00010000
00000000
00000000
00000100
00000000
00000000
00001000
00000000
00000001
00000000
00000100
00000000
,
00000010
00000000
00001000
00000000
00000001
00000000
00000000
00000010
00000000
00000000
00000100
00000000
00010000
00000000
00000000
00000000
,
00001000
00010000
00001000
00000000
01000000
00010000
01000000
00000000
,
01010000
00000000
10100000
00000000
01000000
00010000
00100000
00000000
,
00101000
00000000
00010010
00000000
00010000
00000100
00001000
00000000
,
00000010
00000100
00000001
00001000
00000100
00000010
00000100
00001000
,
00000020
00000000
00000000
00000130
,
00000001
00000000
00000100
00000000
00000010
00000000
00000000
00000000
00000100
00000000
00000000
00000010
00000000
00000000
00001000
00000000
,
00000100
00000000
00000010
00000000
00001000
00000000
00000000
00000000
00100000
00000000
00000000
00010000
00000000
00000000
01000000
00000000
,
00010000
00000000
10000000
00000000
01000000
00000000
00000000
00000000
00100000
00000000
00000000
00010000
00000000
00000000
01000000
00000000
,
00001000
00000000
00001000
00000000
00010000
00001000
00011000
00000000
,
00001000
00000000
00010000
00000000
00100000
00000000
00000000
00000000
01000000
00000000
00000000
00010000
00000000
00000000
10000000
00000000
,
01000000
00000000
00100000
00000000
01000000
00000000
00000000
00000000
10000000
00000000
00000000
00100000
00000000
00000000
00010000
00000000
,
00001000
00000000
00000100
00000000
00000010
00000000
00000000
00000000
00001000
00000000
00000000
00000001
00000000
00000000
00000100
00000000
,
00000220
00000330
00002002
00003003
,
00000001
00000010
00000001
00000010
00001000
00000000
00011000
00000000
,
00010000
01000000
00010000
01000000
10000000
00000000
10010000
00000000
,
10000000
00100000
10000000
00100000
01000000
00000000
10010000
00000000
,
00000000
10100000
00000000
01010000
00000000
01000000
00100000
00000000
,
10000000
00100000
10000000
00100000
00010000
00000000
00011000
00000000
,
00001000
00000100
00001000
00000100
00000001
00000000
00001001
00000000
,
00000001
00001000
00000001
00001000
00000010
00000000
00000110
00000000
,
00000000
00000101
00000000
00000001
00000010
00001000
00010000
00000000
,
00012000
00000000
00023000
00000000
,
02030000
00000000
23000000
30200000
,
00320000
00000000
00032000
00000000
,
00003200
00000000
00000302
00002003
,
00003001
00000001
00000100
00000100
,
00001000
00001000
00010000
00010000
,
00100000
10000000
00100000
00000000
10000000
00010000
10000000
00000000
,
20020000
00000000
00000000
30030000
,
00010000
01000000
00010000
00000000
00100000
00000000
01000000
00000000
,
10000000
00100000
10000000
00000000
01000000
00100000
01000000
00000000
,
00100000
00001000
00100000
00000000
00001000
00000000
00010000
00000000
,
00000010
00001000
00000010
00001000
00000000
00000100
00000000
00000010
,
00000001
00000000
00001000
00000000
00000001
00000100
00000001
00000000
,
00000010
00000000
00000100
00000000
00010000
00010000
00010000
00000000
,
00001000
00100000
00001000
00000000
00100000
00010000
10000000
00000000
,
00010000
00100000
00010000
01000000
00000000
00100000
00000000
00100000
,
10000000
00000000
01000000
00000000
00100000
00000000
00000000
00100000
00000000
00000000
00001000
00000000
00010000
00000000
00000000
00000000
,
00001000
00100000
00001000
00000000
00010000
00000100
00001000
00000000
,
00000100
00000000
00000010
00000000
00000001
00000000
00000000
00001000
00000000
00000000
00001000
00000000
00000010
00000000
00000000
00000000
,
00000100
00000000
00000001
00000000
00001000
00000100
00000010
00000000
,
00000001
00000000
00000100
00000000
00001000
00000000
00000000
00010000
00000000
00000000
00100000
00000000
10000000
00000000
00000000
00000000
,
00010000
10000000
00100000
00000000
10000000
00010000
01000000
00000000
,
00100000
00000000
10000000
00000000
01000000
00000000
00000000
00100000
00000000
00000000
00001000
00000000
00010000
00000000
00000000
00000000
,
00100000
00000000
10000000
00000000
00010000
10000000
00010000
00000000
,
10010000
00000000
10000000
00000000
01000000
00100000
00001000
00000000
,
00020000
00001000
00000010
00031000
,
00010000
00000000
00001000
00000000
00000100
00000001
00001000
00000000
,
00000002
00000010
00000100
00000013
,
00000012
00000000
00000203
00000000
,
00002300
00000000
00023000
00000000
,
00032000
00000000
00003020
00000030
,
00002002
00000000
00000000
00003003
,
00000001
00000000
00000100
00000000
00000010
00000000
00000000
00000010
00000000
00000000
00000010
00000000
00001000
00000000
00000000
00000000
,
00000010
00000000
00010000
00000000
00001000
00000000
00000000
01000000
00000000
00000000
00010000
00000000
10000000
00000000
01000000
00000000
,
00100000
00000000
00010000
00000000
10000000
00000000
00000000
00100000
00000000
00000000
01000000
00000000
00001000
00000000
00000000
00000000
,
00010000
00001000
00010000
00000000
00000100
00001000
00000100
00000000
,
00001100
00000000
00000011
00000000
00000100
00001000
00000010
00000000
,
00010010
00000000
00101000
00000000
00001000
01000000
00010000
00000000
,
00100000
01000000
10000000
00010000
01000000
00100000
01000000
00010000
,
00200000
00000000
00000000
01300000
,
10000000
00000000
00100000
00000000
01000000
00000000
00000000
00000000
00100000
00000000
00000000
00100000
00000000
00000000
01000000
00000000
,
00001000
00000000
00010000
00000000
00000100
00000000
00000000
00000000
00001000
00000000
00000000
00000010
00000000
00000000
00000100
00000000
,
00000001
00000000
00000010
00000000
00000100
00000000
00000000
00000000
00000010
00000000
00000000
00000001
00000000
00000000
00001000
00000000
,
00000001
00000100
00001000
00000000
00010000
00100000
01000000
00000000
,
00010000
00000000
10000000
00000000
00100000
00000000
00000000
00000000
01000000
00000000
00000000
00010000
00000000
00000000
10000000
00000000
,
01000000
00000000
00100000
00000000
00001000
00000000
00000000
00000000
00010000
00000000
00000000
00001000
00000000
00000000
00000100
00000000
,
00000010
00000000
00001000
00000000
00000001
00000000
00000000
00000000
00000100
00000000
00000000
00001000
00000000
00000000
00010000
00000000
,
00100000
10000000
20020000
30030000
,
00100000
00001000
00022000
00033000
,
00001000
00000000
00010000
00000000
00001000
00000000
00000000
00100000
00000000
00000000
00001000
00000000
00010000
00000000
00000100
00000000
,
00000000
00001000
00000001
00000000
00000100
00000100
00000100
00000000
,
00000001
00000000
00000010
00000000
00000001
00000000
00000000
00000100
00000000
00000000
00000010
00000000
00000100
00000000
00001000
00000000
,
00000000
00010000
00100000
01000000
00000000
00010000
00000000
10000000
,
01000000
00000000
00100000
00000000
00001000
00000000
00000000
00010000
00000000
00000000
00001000
00000000
00000010
00000000
00000000
00000000
,
00001000
00010000
00001000
00000000
00010000
00010000
00010000
00000000
,
00001000
00000000
00010000
00000000
00000010
00000000
00000000
00001000
00000000
00000000
00000100
00000000
00010000
00000000
00000000
00000000
,
00101000
00010010
01001000
00010100
,
00010000
00000000
00001000
00000000
00100000
00000000
00000000
00010000
00000000
00000000
10000000
00000000
00010000
00000000
00100000
00000000
,
00000000
01000000
00100000
00000000
00001000
00001000
00001000
00000000
,
00010000
00000000
00000100
00000000
00000010
00000000
00000000
00000001
00000000
00000000
00001000
00000000
00000001
00000000
00000000
00000000
,
00000100
00000001
00000010
00000000
00000100
00001000
00000001
00000000
,
00000100
00000000
00000001
00000000
00000010
00000000
00000000
00001000
00000000
00000000
00010000
00000000
00001000
00000000
00000000
00000000
,
00010000
00100000
10000000
00000000
00010000
10000000
01000000
00000000
,
10000000
00000000
00100000
00000000
01000000
00000000
00000000
00100000
00000000
00000000
10000000
00000000
01000000
00000000
00000000
00000000
,
00100000
00001000
00100000
00000000
00001000
00010000
00000010
00000000
,
00001000
00000100
00000010
00000001
00000100
00001000
00010000
00001000
,
00020000
00000000
00000000
00000000
,
00030000
00000000
00000000
00000000
;

//--------------- dance-double - Fred-104 ----------------
#NOTEDATA:;
#STEPSTYPE:dance-double;
#DESCRIPTION:Fred-104;
#DIFFICULTY:Hard;
#METER:16;
#CREDIT:Fred-104;
#NOTES:
00000000
00000000
00000000
00000000
,
00000000
00000000
00000000
00000000
,
00000000
00000000
00000000
00000000
,
00000000
00000000
00000000
00000000
,
00001000
00000000
00100000
00000000
00010000
00000000
00000000
10000000
00000000
00000000
01000000
00000000
01100000
00000000
00000000
00000000
,
00100000
00000000
00001000
00000000
00010000
00000000
00000000
00001000
00000000
00000000
00000010
00000000
00000100
00001000
00000001
00000000
,
00000100
00000000
00000010
00000000
00001000
00000000
00000000
00000100
00000000
00000000
00000010
00000000
00000100
00000000
00010000
00000000
,
00001000
00000000
00100000
00010000
00000000
00010000
00000000
00010000
01000000
00000000
00100000
00000000
01100000
00000000
00000000
00000000
,
11000000
00000000
01010000
00000000
10000000
01000000
00100000
00000000
,
00011000
00000000
00010010
00000000
00010000
00000100
00001000
00000010
,
00000100
00000001
00000010
00001000
00000010
00000001
00000100
00001000
,
00010000
00000000
00100000
10000000
00000000
10000000
00000000
10000000
01000000
00000000
00100000
00000000
00110000
00000000
00000000
00000000
,
00010000
00000000
01000000
00000000
00100000
10000000
00000000
10000000
01000000
00000000
01000000
00100000
00000000
00100000
00001000
00000000
,
00010000
00000000
00000100
00000000
00001000
00000010
00000000
00000010
00000100
00000000
00000100
00000001
00000000
00000001
00001000
00000000
,
00000001
00000000
00000010
00000000
00000100
00000010
00000000
00000010
00000001
00000000
00000001
00000100
00000000
00000100
00000010
00000000
,
00001000
00000000
00000001
00000010
00000000
00000100
00000000
00010000
00001000
00000000
00010000
00000000
00011000
00000000
00000000
00000000
,
00001000
00000000
00100000
00000000
00010000
10000000
00000000
00010000
01000000
00000000
00010000
00100000
00000000
00010000
10000000
00000000
,
01000000
00000000
00100000
00000000
00010000
00100000
00000000
01000000
00100000
00000000
00001000
00010000
00000000
00001000
01000000
00000000
,
00001000
00000000
00010000
00000000
00001000
00000100
00000000
00001000
00010000
00000000
00001000
00000010
00000000
00000001
00001000
00000000
,
00000001
00000000
00000100
00000010
00000000
00001000
00000000
00000001
00000010
00000000
00000100
00000000
00001100
00000000
00000000
00000000
,
00000001
00000000
00000100
00000010
00000100
00000000
00000010
00000100
00000010
00000000
00001000
00000000
00000200
00000000
00010300
00000000
,
00010000
00000000
00001000
00100000
00001000
00000000
00010000
00000010
00010000
00000000
00001000
00000000
00200000
00000000
00310000
00000000
,
00010000
00000000
10000000
01000000
10000000
00000000
10000000
01000000
10000000
00000000
01000000
00000000
00100000
00000000
00002000
00000000
,
00003000
00101000
00000000
00010100
00000000
01001000
00001000
00010000
,
00000100
00000000
00001000
00000010
00001000
00000000
00000001
00000100
00000001
00000000
00000010
00000000
00000200
00000000
00010300
00000000
,
00010000
00000000
00001000
00010000
00001000
00000000
00010000
00001000
00010000
00000000
00001000
00000000
02000000
00000000
03010000
00000000
,
00010000
00000000
01000000
00010000
01000000
00000000
00100000
10000000
00100000
00000000
01000000
00000000
00020000
00000000
10030000
00000000
,
00000000
01100000
00000000
00011000
00010000
00001000
00000010
00000100
,
00001000
00000000
00000010
00000000
00000000
00000100
00000000
00000000
00000001
00000000
00000000
00000010
00000000
00000000
00000100
00000000
,
00000000
00010000
00000000
00000000
00001000
00000000
00000000
00100000
00000000
00000000
01000000
00000000
10000000
00000000
00010000
00000000
,
01000000
00000000
00100000
00000000
00000000
10000000
00000000
00000000
00100000
00000000
00000000
00001000
00000000
00000000
00010000
00000000
,
00000000
01000000
00000000
00000000
00010000
00000000
00000000
00100000
00000000
00000000
00010000
00000000
00001000
00000000
00000100
00000000
,
00000001
00000000
00000100
00000000
00000000
00001000
00000000
00000000
00000001
00000000
00000000
00000100
00000000
00000000
00001000
00000000
,
00000000
00010000
00000000
00000000
00100000
00000000
00000000
01000000
00000000
00000000
00010000
00000000
00100000
00000000
01000000
00000000
,
10000000
00100000
10000000
00000000
00100000
01000000
00100000
00000000
01000000
00010000
01000000
00010000
00100000
00000000
00001000
00000000
,
00010000
00001000
00000010
00000001
00000100
00001000
00011000
00000000
,
00001000
00000000
00100000
00000000
00010000
00000000
01000000
00100000
00000000
01000000
00100000
00000000
10000000
00000000
02000000
00000000
,
00000000
03100000
00001000
00010000
00100000
10000000
10010000
00000000
,
00010000
00000000
00100000
00000000
10000000
00000000
00100000
00010000
00000000
10000000
01000000
00000000
00100000
00000000
00001000
00000000
,
00010000
00001000
00000100
00000010
00000000
00000101
00000000
00001001
,
00001000
00000000
00000010
00000000
00000100
00000000
00000001
00000010
00000000
00000100
00000010
00000000
00000001
00000000
00000200
00000000
,
00000000
00001300
00010000
00100000
10000000
00010000
10010000
00000000
,
00010000
00000000
00100000
00000000
01000000
00000000
00010000
01000000
00000000
10000000
00010000
00000000
10000000
00000000
01000000
00000000
,
10000000
00100000
00010000
00001000
00000000
00010000
00001000
00000100
,
00000001
00000000
00001000
00000000
00000001
00000000
00000010
00000100
00000000
00000010
00000001
00000000
00000100
00000000
00001000
00000000
,
00010000
00000100
00000010
00000001
00001000
00000001
00001001
00000000
,
00000001
00000000
00000010
00000000
00000100
00000000
00010000
00001000
00000000
00000100
00000001
00000000
00001000
00000000
00000001
00000000
,
00000010
00001000
00010000
00001000
00000000
00000100
00001000
00010000
,
00100000
00000000
10000000
00000000
00010000
00000000
00100000
01000000
00000000
00100000
00001000
00000000
00010000
00000000
00000100
00000000
,
00001000
00000010
00010000
00001000
00100000
00100000
00110000
00000000
,
00010000
00000000
10000000
00000000
01000000
00000000
00100000
00010000
00000000
10000000
00100000
00000000
01000000
00000000
00010000
00000000
,
00100000
00000000
01000000
00100000
00010000
00000000
01000000
00000000
00001000
00000000
00010000
00000100
00010000
00000000
00001000
00000000
,
00100000
00000000
00100000
00010000
00000000
01000000
00010000
00000000
00100000
01000000
00000000
00100000
00001000
00000000
00010000
00000000
,
00001000
00000010
00000001
00000100
00001000
00010000
00001000
00000000
,
00010000
00000000
00000010
00001000
00000000
00000100
00010000
00000000
00001000
01000000
00000000
00010000
00100000
00000000
00001000
00000000
,
00010000
01000000
10000000
00100000
00010000
00001000
00010000
00000000
,
00002000
00000000
00203000
00000000
,
00320000
00000000
00030000
00000000
,
02000000
00000000
03002000
00000000
,
00020000
00000000
00000000
00033000
,
00010000
00000000
00000010
00000000
00001000
00000000
00000000
00000001
00000000
00000000
00000100
00000000
00000110
00000000
00000000
00000000
,
00000010
00000000
00010000
00000000
00001000
00000000
00000000
00010000
00000000
00000000
00100000
00000000
01000000
00010000
10000000
00000000
,
01000000
00000000
00100000
00000000
00010000
00000000
00000000
01000000
00000000
00000000
00100000
00000000
01000000
00000000
00001000
00000000
,
00010000
00000000
00000010
00001000
00000000
00001000
00000000
00001000
00000100
00000000
00000010
00000000
00000011
00000000
00000000
00000000
,
00000001
00000000
00000100
00000000
00000010
00000000
00000000
00001000
00000000
00000001
00000100
00000000
00000010
00000000
00000000
00000000
,
00000001
00000000
00000010
00000000
00010000
00000000
00000000
00100000
00000000
01000000
10000000
00000000
00010000
00000000
10000000
00000000
,
00100000
00000000
00010000
00000000
00001000
00000000
00000000
01000000
00000000
00001000
00010000
00000000
00001000
00000000
00000100
00000000
,
00000001
00000000
00001000
00000100
00000000
00000100
00000000
00000100
00000010
00000000
00000010
00000000
00000001
00001000
00000001
00001000
,
00000100
00000000
00000010
00000000
00000001
00000100
00000000
00000100
00000010
00000000
00000010
00001000
00000000
00001000
00000100
00000000
,
00010000
00000000
00001000
00000000
00100000
00001000
00000000
00001000
00010000
00000000
00010000
00000010
00000000
00000010
00001000
00000000
,
00000100
00000000
00010000
00000000
00001000
01000000
00000000
01000000
00010000
00000000
00010000
00100000
00000000
00100000
01000000
00000000
,
10000000
00000000
00010000
00100000
00000000
01000000
00000000
00100000
00010000
00000000
01000000
00000000
01100000
00000000
00000000
00000000
,
00100000
00000000
10000000
00000000
00100000
01000000
00000000
00010000
01000000
00000000
00100000
10000000
00000000
00100000
01000000
00000000
,
00010000
00000000
00100000
00000000
00001000
00010000
00000000
00001000
01000000
00000000
00001000
00010000
00000000
00000100
00001000
00000000
,
00000100
00000000
00000010
00000000
00000001
00000100
00000000
00000010
00000100
00000000
00000001
00000010
00000000
00000100
00001000
00000000
,
00000001
00000000
00000010
00001000
00000000
00010000
00000000
01000000
10000000
00000000
00010000
00000000
10010000
00000000
00000000
00000000
,
10000000
00000000
00100000
00010000
00000000
00001000
00000000
00000100
00000001
00000000
00001000
00000000
00001001
00000000
00000000
00000000
,
00000001
00000000
00000100
00000001
00000100
00000000
00000001
00000010
00000000
00000010
00000100
00000000
00000010
00000000
00000001
00000000
,
00000100
00001000
00010000
00000100
00000010
00000001
00001001
00000000
,
00000001
00000000
00001000
00000010
00001000
00000000
00000010
00000100
00000000
00000100
00000001
00000000
00000010
00000000
00001000
00000000
,
00010000
01000000
10000000
00010000
00000000
10010000
00000000
00101000
,
00100000
00000000
00001000
00010000
00001000
00000000
00010000
00000100
00000000
00001000
00000100
00000000
00000010
00000000
00000001
00000000
,
00001000
00000010
00000100
00000010
00001010
00001000
00001001
00000000
,
00000010
00000000
00010000
00001000
00010000
00000000
00000100
00010000
00000000
00001000
00010000
00000000
00100000
00000000
10000000
00000000
,
00010000
00100000
01000000
00010000
00001000
00000010
00000100
00010000
,
00001000
00000000
00001000
00010000
00001000
00000000
00100000
00010000
00000000
10000000
00010000
00000000
00100000
00000000
01000000
00000000
,
00100000
00001000
00010000
00001000
00000010
00000001
00001001
00000000
,
00001000
00000000
00000100
00000010
00000100
00000000
00000001
00000100
00000000
00001000
00000010
00000000
00000100
00000000
00000001
00000000
,
00001000
00000100
00000010
00000001
00000100
00001000
00010000
00100000
,
10000000
00000000
00010000
01000000
00010000
00000000
00100000
01000000
00000000
00100000
00010000
00000000
01000000
00000000
00100000
00000000
,
10000000
01000000
00010000
00001000
00011000
00011000
00011000
00000000
,
00010000
00000000
00001000
00000000
00100000
00000000
00001000
00010000
00000000
00001000
01000000
00000000
00010000
00000000
00100000
00000000
,
01000000
10000000
00100000
00010000
00001000
00000100
00000001
00000010
,
00001000
00000000
00010000
00000000
00001000
00000000
00010000
00000000
00001000
00010000
00001000
00010000
00001000
00010000
00001000
00010000
,
00002000
00000000
00000000
00000000
,
00003000
00000000
00000000
00000000
;

//--------------- dance-double - Fred-104† ----------------
#NOTEDATA:;
#STEPSTYPE:dance-double;
#DESCRIPTION:Fred-104†;
#DIFFICULTY:Challenge;
#METER:18;
#CREDIT:Fred-104†;
#NOTES:
00000000
00000000
00000000
00000000
,
00000000
00000000
00000000
00000000
,
00000000
00000000
00000000
00000000
,
00000000
00000000
00000000
00000000
,
00010000
00000000
00001000
00000000
00010000
00000000
00000000
00000100
00000000
00001000
00000001
00000000
MMMMMMMM
00000000
00000000
00000000
,
00000001
00000000
00000010
00000000
00000100
00000000
00000000
00010000
00000000
00001000
00010000
00000000
00001000
00010000
00100000
01000000
,
00100000
00000000
10000000
00000000
00010000
00000000
00000000
00100000
00000000
10000000
00100000
00000000
01000000
00000000
10000000
00000000
,
00100000
00000000
00010000
00001000
00000000
00000100
00000000
00000010
00001000
00000000
00000001
00000000
MMMMMMMM
00000000
00000000
00000000
,
00000011
00000000
00000010
00000000
00000100
00000000
00000000
00010000
00000000
00001000
00100000
00000000
MMMMMMMM
00000000
00000000
00000000
,
10100000
00000000
10000000
00000000
00010000
00000000
00000000
10000000
00000000
00100000
01000000
00000000
00010000
10000000
01000000
10000000
,
00100000
00000000
10000000
00000000
01000000
00000000
00000000
00100000
00000000
00010000
00100000
00010000
10000000
00000000
01000000
00100000
,
00010000
00000000
01000000
00100000
00000000
00010000
00000000
00001000
00000100
00000000
00000001
00000000
MMMMMMMM
00000000
MMMMMMMM
00000000
,
00001000
00000000
00000100
00000000
00000010
00000100
00000000
00010000
00001000
00000000
00100000
00010000
00000000
01000000
00100000
00000000
,
10000000
00000000
00010000
00000000
00100000
00010000
00000000
01000000
00001000
00000000
00010000
00001000
00000000
00000010
00000100
00001000
,
00000001
00000000
00000100
00000000
00000010
00000100
00000000
00001000
00010000
00000000
00100000
01000000
00000000
00010000
10000000
00000000
,
00010000
00000000
00010000
00100000
00000000
10000000
00000000
00100000
00001000
00000000
00010000
00000000
MMMM1000
00000000
0001MMMM
00000000
,
00001000
00000000
00010000
00000000
00000010
00001000
00000000
00000100
00000010
00000000
00000001
00000100
00000000
00001000
00010000
00000000
,
00001000
00000000
00000100
00000000
00000001
00000010
00000000
00000100
00000001
00000000
00000100
00001000
00000000
00000001
00000100
00000010
,
00001000
00000000
00000001
00000000
00000100
00001000
00000000
00010000
00001000
00000000
00100000
01000000
00000000
10000000
00010000
00000000
,
10010000
00000000
10000000
01000000
00000000
01000000
00000000
00010000
00100000
00000000
01000000
00000000
01100000
00000000
MMMMMMMM
00000000
,
10010000
00000000
10000000
01000000
00010000
00000000
00001000
00000010
00000001
00000000
00001000
00000000
MMMM0020
00000000
00000130
00000000
,
00000110
00000000
00000001
00000100
00001000
00000000
00010000
00100000
10000000
00000000
00010000
00000000
0200MMMM
00000000
03100000
00000000
,
10010000
00000000
10000000
00100000
00010000
00000000
00001000
00000100
00000001
00000000
00000010
00000000
MMMM0002
00000000
00000103
00000000
,
MMMMMMMM
00001010
MMMMMMMM
00011000
MMMMMMMM
01010000
02200000
03300000
,
10010000
00000000
10000000
01000000
00010000
00000000
00001000
00010000
00100000
00000000
10000000
00000000
0200MMMM
00000000
03100000
00000000
,
00011000
00000000
00001000
00010000
00100000
00000000
00010000
00001000
00000010
00000000
00001000
00000000
0002MMMM
00000000
00031000
00000000
,
00011000
00000000
00010000
00001000
00000100
00000000
00000001
00001000
00000001
00000000
00000010
00000000
MMMM2000
00000000
00013000
00000000
,
MMMMMMMM
00000000
00011000
00000000
MMMMMMMM
00000000
10010000
00000000
00010000
10000000
00010000
00000000
01000000
00000000
00100000
00000000
,
10000000
00000000
00100000
00000000
00000000
00001000
00000000
00000000
00010000
00000000
00000000
01000000
00000000
00000000
00001000
00000000
,
00000000
00100000
00000000
00000000
00010000
00000000
00000000
00100000
00000000
00000000
00001000
00000000
00010000
00000000
00000010
00000000
,
00001000
00000000
00000001
00000000
00000000
00000100
00000000
00000000
00001000
00000000
00000000
00010000
00000000
00000000
00100000
00000000
,
00000000
01000000
00000000
00000000
00001000
00000000
00000000
00010000
00000000
00000000
00000001
00000000
00001000
00000000
00000100
00000000
,
00010000
00000000
00001000
00000000
00100000
00001000
00000000
00010000
00000010
00000000
00001000
00000100
00000000
00010000
00001000
00000000
,
00100000
00010000
00000000
10000000
00010000
00000000
00100000
01000000
00000000
00100000
00010000
00000000
10000000
00000000
00100000
00000000
,
01000000
00010000
10000000
00100000
00010000
00001000
00000100
00000010
00001000
00000100
00000010
00000001
00000010
00001000
00010000
01000000
,
00100000
00010000
01000000
00010000
00100000
01000000
11000000
MMMMMMMM
,
00010000
00100000
01000000
00100000
00010000
00000000
10000000
01000000
00000000
01000000
00010000
00000000
10000000
00000000
00200000
00000000
,
0000MMMM
00310000
00001000
00000100
00000010
00001000
00001001
00000000
,
00000001
00001000
00000100
00001000
00000001
00000000
00000100
00000010
00000000
00000010
00010000
00000000
00001000
00000000
00200000
00000000
,
0000MMMM
00310000
10000000
01000000
MMMMMMMM
11000000
MMMMMMMM
01010000
,
10000000
00100000
01000000
00010000
01000000
00000000
00100000
10000000
00000000
00100000
01000000
00000000
00001000
00000000
00020000
00000000
,
0000MMMM
00030010
00010000
00001000
00011000
00011000
00011000
00000000
,
00010000
00000100
00001000
00000100
00000010
00000000
00000001
00000100
00000000
00001000
00010000
00000000
00001000
00000000
00010000
00000000
,
00011000
MMMMMMMM
01001000
MMMMMMMM
00010010
MMMMMMMM
00011000
MMMMMMMM
,
00001000
00010000
00100000
01000000
00100000
00000000
00010000
10000000
00000000
01000000
00100000
00000000
00001000
00000000
00010000
00000000
,
00100000
10000000
01000000
00010000
00001000
00000010
00000011
00000000
,
00001000
00000100
00001000
00000001
00001000
00000000
00000001
00000010
00000000
00000100
00000001
00000000
00000100
00000000
00001000
00000000
,
00000001
00000010
00001000
00010000
MMMMMMMM
01010000
MMMMMMMM
11000000
,
00010000
00100000
01000000
00100000
00010000
00000000
10000000
00010000
00000000
01000000
00100000
00000000
01000000
00000000
00010000
00000000
,
00000100
00001000
00010000
00001000
00011000
00011000
00010010
00000000
,
00010000
00000010
00001000
00000100
00010000
00000000
00000100
00001000
00000000
00000100
00000010
00000000
00000001
00000000
00001000
00000000
,
00000001
00000000
00000010
00000100
00000010
00000000
00000001
00000100
00000010
00001000
00000100
00000010
00000001
00000000
00001000
00000000
,
00000001
00000000
00000100
00000010
00000000
00001000
00000010
00000000
00000100
00000001
00000000
00000001
00000010
00000000
00000100
00000000
,
00010000
00001000
00010000
00000000
00001000
01000000
00000000
00000000
00001000
00010000
00001000
00000000
00010000
00000010
00000000
00000000
,
00010000
00000000
00001000
00100000
00000000
00001000
00010000
00000000
00000010
00001000
00000000
00000100
00010000
00000000
00001000
00000000
,
00010000
00001000
00000010
00000000
00001000
00010000
00000000
00000000
00001000
00010000
01000000
00000000
00010000
00001000
00000000
00000000
,
00020000
00001000
00030010
MMMMMMMM
,
00001000
00010000
01000000
MMMMMMMM
00010000
00001000
00000100
MMMMMMMM
,
00002000
00010000
00103000
MMMMMMMM
,
00022000
00000000
00000000
00000000
00000000
00033000
MMMMMMMM
00000000
,
00001000
00000000
00010000
00000000
00001000
00000000
00000000
01000000
00000000
00010000
00100000
00000000
MMMMMMMM
00000000
00000000
00000000
,
10000000
00000000
00100000
00000000
01000000
00000000
00000000
00001000
00000000
00010000
00001000
00000000
00010000
00000010
00001000
00000010
,
00000100
00000000
00000001
00000000
00001000
00000000
00000000
00000010
00000000
00000001
00000010
00000000
00000100
00000000
00000001
00000000
,
00000010
00000000
00001000
00010000
00000000
01000000
00000000
10000000
00010000
00000000
10000000
00000000
MMMMMMMM
00000000
00000000
00000000
,
11000000
00000000
00100000
00000000
01000000
00000000
00000000
00001000
00000000
00010000
00000010
00000000
MMMMMMMM
00000000
00000000
00000000
,
00001100
00000000
00000100
00000000
00000010
00000000
00000000
00000001
00000000
00000010
00000100
00000000
00001000
00000001
00000100
00000001
,
00000010
00000000
00000001
00000000
00000100
00000000
00000010
00001000
00000000
00000010
00000100
00000000
00000001
00000000
00000100
00000010
,
00000100
00000000
00000001
00000010
00000000
00001000
00000000
00010000
01000000
00000000
00100000
00000000
00010000
10000000
00010000
10000000
,
00010000
00000000
01000000
00000000
00100000
10000000
00000000
00010000
00100000
00000000
01000000
00010000
00000000
00100000
00001000
00000000
,
00010000
00000000
00001000
00000000
00000010
00000100
00000000
00010000
00001000
00000000
00000100
00000010
00000000
00001000
00000100
00000010
,
00000001
00000000
00001000
00000000
00000001
00000010
00000000
00000100
00000010
00000000
00001000
00000010
00000000
00000001
00001000
00000000
,
00000001
00000000
00000001
00000010
00000000
00001000
00000000
00010000
00001000
00000000
00000100
00000000
MMMM1000
00000000
0001MMMM
00000000
,
00001000
00000000
00100000
00000000
00001000
00010000
00000000
00001000
00100000
00000000
00010000
10000000
00000000
01000000
00100000
00000000
,
00010000
00000000
01000000
00000000
00100000
10000000
00000000
00100000
01000000
00000000
00010000
00100000
00000000
01000000
10000000
00010000
,
01000000
00000000
00100000
00000000
01000000
00001000
00000000
00001000
00010000
00000000
00001000
00000010
00000000
00000001
00001000
00000000
,
00000100
00000000
00000010
00000001
00000000
00000100
00000000
00001000
00010000
00000000
00001000
00000000
MMMMMMMM
00000000
00000000
00000000
,
01000000
00000000
00100000
10000000
00000000
01000000
00000000
00010000
00001000
00000000
00010000
00000000
MMMMMMMM
00000000
00000000
00000000
,
00010000
00001000
00000010
00001000
00010000
00000000
00001000
00010000
00000000
00100000
00010000
00000000
00001000
00000000
00000200
00000000
,
00000000
00000000
00000301
00000000
00001000
00000000
00000001
00000000
00001000
00000100
00000010
00000001
00001000
00000000
MMMMMMMM
00000000
,
00000001
00001000
00000100
00001000
00000001
00000000
00000010
00000100
00000000
00000010
00001000
00000000
00010000
00000000
01000000
00000000
,
10000000
00010000
10000000
00100000
MMMMMMMM
01100000
MMMMMMMM
00011000
,
00010000
00000010
00001000
00000100
00010000
00000000
00001000
00100000
00000000
00010000
01000000
00000000
00100000
00000000
00010000
00000000
,
00001000
00000100
00000010
00010000
00011000
00011000
00011000
MMMMMMMM
,
00001000
00010000
00100000
01000000
00010000
00000000
10000000
01000000
00000000
00100000
00001000
00000000
00010000
00000000
00000010
00000000
,
0001MMMM
00001000
MMMM1000
00010000
0001MMMM
00010000
MMMM1000
00001000
,
00010000
00000100
00001000
00000100
00000010
00000000
00000001
00000010
00000000
00000100
00000001
00000000
00000100
00000000
00000010
00000000
,
00000001
00000000
00000100
00000000
00001000
00000000
00010000
00000000
00100000
01000000
00100000
10000000
00010000
00000000
MMMMMMMM
00000000
,
00010000
10000000
01000000
10000000
00100000
00000000
01000000
00100000
00000000
10000000
00100000
00000000
01000000
00000000
00010000
00000000
,
00100000
00000000
01000000
00000000
00010000
00000000
00001000
00000000
00000010
00000000
00000100
00000000
00001000
00000001
00000100
00000000
,
00000010
00010000
00001000
00010000
01000000
00000000
00100000
00010000
00000000
10000000
01000000
00100000
00001000
00000000
00010000
00000000
,
00001000
00000100
00000010
00001000
00000001
00000101
00001001
MMMMMMMM
,
00000001
00000100
00000001
00000100
00001000
00000000
00000100
00000001
00000000
00000100
00000001
00000010
00000001
00000000
00001000
00000000
,
00000001
00000010
00000100
00000000
00000010
00000001
00000100
00000000
00001000
00010000
00100000
00000000
10000000
00010000
01000000
00000000
,
00010000
00000000
00100000
00000000
01000000
00000000
10000000
00000000
00010000
00100000
00010000
10000000
00010000
01000000
00100000
10000000
,
00020000
00000000
00000000
00000000
,
00030000
00000000
00000000
00000000
;
