#TITLE:The Wind of Gold -HΔPPY MIX-;
#ARTIST:sky_delta;
#TITLETRANSLIT:The Wind of Gold -HAPPY MIX-;
#BANNER:The Wind of Gold -HAPPY MIX-.png;
#BACKGROUND:The Wind of Gold -HAPPY MIX--bg.png;
#CDTITLE:./CDTitles/SDVX III GRAVITY WARS.png;
#MUSIC:The Wind of Gold -HAPPY MIX-.ogg;
#SAMPLESTART:33.333;
#SAMPLELENGTH:15;
#DISPLAYBPM:180;
#BPMS:0=180,84=360,85=180,228=360,229=180;
#STOPS:84=0.167,228=0.166;
#BGSTAGE:16;

//--------------- dance-single - Fred-104 ----------------
#NOTES:
     dance-single:
     Fred-104:
     Beginner:
     3:
     :
0000
0000
0000
0000
,
0000
0000
0000
0000
,
0000
0000
0000
0000
,
0000
0000
0000
0000
,
0000
0000
0000
0000
,
0000
0000
0000
0000
,
0000
0000
0000
0000
,
0000
0000
0000
0000
,
0000
0000
0000
0000
,
1000
0000
0000
0000
,
0000
0000
0000
0000
,
0001
0000
0000
0000
,
0100
0000
0010
0000
,
1000
0000
1000
0000
,
0001
0000
0001
0000
,
0100
0000
0010
0000
,
0110
0000
0000
0000
,
1000
0000
0001
0000
,
1000
0000
0001
0000
,
0001
0000
0100
0000
,
1000
0000
0010
0000
,
0002
0003
0000
0000
,
1000
0000
0001
0000
,
1000
0000
0010
0000
,
2000
0000
0000
3000
,
1000
0000
0001
0000
,
1000
0000
0010
0000
,
1000
0000
0001
0000
,
0100
0000
0100
0000
,
0010
0000
0000
0000
,
1000
0000
0001
0000
,
2000
0000
3000
0000
,
0002
0000
0000
0003
,
1000
0000
1000
0000
,
0001
0000
1000
0000
,
0001
0000
0000
0000
,
0100
0000
0010
0000
,
0100
0000
0000
0000
,
0001
0000
0000
0000
,
1000
0000
0001
0000
,
1000
1000
1000
1000
,
2000
0000
0000
0000
,
3000
0000
0000
0000
,
0001
0000
0000
0000
,
0000
0000
0000
0000
,
0200
0000
0000
0000
,
0300
0000
0000
0000
,
0010
0000
0000
0000
,
0000
0000
0000
0000
,
1000
0000
0001
0000
,
1000
0000
0010
0000
,
0100
0000
0100
0000
,
0001
0000
1000
0000
,
0001
0000
0000
0000
,
1000
0000
0000
0000
,
0010
0000
0010
0000
,
0100
0000
0000
0000
,
2000
3000
0000
0000
,
0001
0000
1000
0000
,
0001
0000
0000
0000
,
0100
0000
0010
0000
,
0100
0000
0000
0000
,
0001
0000
1000
0000
,
0002
0000
0003
0000
,
1000
0000
0001
0000
,
1000
0000
0010
0000
,
1000
0000
0001
0001
,
0001
0000
1000
0000
,
0001
0000
0100
0100
,
0100
0000
0010
0000
,
1000
0000
0001
0000
,
1000
0000
0001
0000
,
1000
1000
1000
1000
,
1000
0000
0000
0000
,
0000
0000
0000
0000
,
0000
0000
0000
0000
,
0000
0000
0000
0000
,
1001
0000
0000
0000
;

//--------------- dance-single - Fred-104 ----------------
#NOTES:
     dance-single:
     Fred-104:
     Easy:
     7:
     :
0000
0000
0000
0000
,
0000
0000
0000
0000
,
0000
0000
0000
0000
,
0000
0000
0000
0000
,
0000
0000
0000
0000
,
0000
0000
0000
0000
,
0000
0000
0000
0000
,
0000
0000
0000
0000
,
0000
0000
0000
0000
,
1001
0000
0000
0000
,
0000
0000
0000
0000
0000
0100
0000
0100
,
0010
0000
0000
0000
,
0001
0000
0000
1000
0000
0000
0001
0000
,
1000
0000
0010
0100
,
0001
0000
0100
0010
,
1000
1000
0001
0001
,
2002
0000
0000
3003
,
1000
0010
0100
0100
,
0001
1000
0001
0001
,
0100
0100
0010
0100
,
0001
1000
0001
1000
,
2002
3003
1000
0010
,
0100
0100
0001
1000
,
0001
0000
1000
0000
,
0001
1000
0001
1001
,
1000
0000
0000
1000
0000
0000
0010
0000
,
0100
0000
0000
0100
0000
0000
0001
0000
,
1000
0000
0000
0001
0000
0000
1000
0000
,
0001
0000
0000
0100
0000
0000
0010
0000
,
0100
0000
0000
0001
0000
0000
0100
0000
,
0001
0000
0000
0010
0000
0000
0100
0000
,
1000
0000
0000
0010
0000
0000
0100
0000
,
0001
0000
1000
0000
0001
1000
0001
0000
,
0000
1000
0000
1000
0000
0010
0000
0010
,
0000
0100
0000
0100
0000
0001
0100
0000
,
0000
0001
0000
0001
0000
0100
0000
0010
,
0000
1000
0001
1000
0000
0001
1000
0000
,
1001
0000
0000
1000
0000
0000
0010
0000
,
0100
0000
0000
0001
0000
0000
1000
0000
,
0001
0001
0100
0010
,
1000
0001
1000
0001
,
2002
0000
0000
0000
,
3003
0000
0000
0000
,
1000
0000
0000
0001
0000
0000
0000
0000
,
0000
0000
0100
0100
,
0020
0000
0000
0000
,
0030
0000
0000
0000
,
0100
0000
0000
0100
0000
0000
0000
0000
,
0000
0000
0000
0001
0000
1000
0000
0000
,
1001
0001
0100
0010
,
1000
1000
0010
0100
,
0001
1000
0001
0100
,
0010
0010
0100
0001
,
1001
0000
0001
0100
,
0110
0000
1000
0100
,
0110
0000
1001
0000
,
0100
0100
0010
0010
,
0220
0330
1000
0010
,
0100
0000
0000
0001
0000
0000
0100
0000
,
0010
0000
0000
1000
0000
0000
0001
0000
,
1000
0000
0000
0100
0000
0000
1000
0000
,
0010
0010
0100
0001
,
1000
0000
0000
0001
0000
0000
0100
0000
,
0010
0000
0000
0110
0000
0000
0000
0000
,
1000
0000
1000
0000
0001
0100
0001
0000
,
0000
0100
0000
0100
0000
0010
0000
0010
,
0000
1000
0000
1000
0000
0001
1000
0000
,
0000
0010
0000
0010
0000
1000
0000
0001
,
0000
0100
0010
0100
0000
0001
1000
0000
,
1001
0001
0100
0010
,
0100
0100
0001
1000
,
0001
0000
0000
1000
0000
0000
0010
0000
,
0100
0010
0100
0000
0001
1000
0001
0000
,
1001
1000
0010
0000
,
0100
0001
1000
0000
,
0001
0010
1000
0000
,
0100
0001
1000
0000
,
1001
0000
0000
0000
;

//--------------- dance-single - Fred-104 ----------------
#NOTES:
     dance-single:
     Fred-104:
     Medium:
     10:
     :
0000
0000
0000
0000
,
0000
0000
0000
0000
,
0000
0000
0000
0000
,
0000
0000
0000
0000
,
0000
0000
0000
0000
,
0000
0000
0000
0000
,
0000
0000
0000
0000
,
0000
0000
0000
0000
,
0000
0000
0000
0000
,
1001
0000
0000
0000
,
0000
0000
0000
0000
0000
1000
0000
0001
,
0100
0000
0000
0000
0000
0000
0000
0001
,
0100
0000
0000
0010
0000
1000
0001
0000
,
1000
0000
0000
0010
0000
0000
1000
0000
0000
0000
0001
0000
0000
0000
0000
0000
,
0100
0000
0000
0010
0000
0000
0100
0000
0000
0001
0000
0000
1000
0000
0000
0000
,
0001
0000
0000
0010
0000
0000
0100
0000
0000
1000
0000
0000
0001
0000
0000
0000
,
1000
0000
0010
0000
0100
0001
1000
0000
,
1010
0000
0101
0000
0100
0010
0100
0000
,
0001
0100
0001
0000
0100
0010
1000
0000
,
0001
0100
0100
0000
1000
0100
0100
0000
,
0001
0000
0000
0011
0000
0000
1000
0000
0000
1010
0000
0000
1001
0000
0000
0000
,
0220
0330
0000
0000
0000
0000
0000
0000
0000
0000
0000
0000
0000
0000
0000
0000
0010
0000
0000
0000
0000
0000
0000
0000
0010
0000
0000
0000
0000
0000
0000
0000
1000
0000
0000
0000
0000
0000
0000
0000
0001
0000
0000
0000
0000
0000
0000
0000
0100
0000
0000
0000
0000
0000
0000
0000
0000
0000
0000
0000
0000
0000
0000
0000
,
0001
0010
0010
0000
1000
0010
0010
0000
,
0001
0100
0010
0000
1000
0100
0010
0000
,
0002
0000
0000
0003
2000
0000
3000
0000
0002
0003
0000
0000
1001
0000
0000
0000
,
1000
0000
0000
0010
0000
0000
0100
0000
0000
0000
0002
0000
0003
0000
0000
0000
,
0001
0000
0000
0001
0000
0000
0100
0000
0000
0010
0000
0000
1000
0000
0000
0000
,
0010
0000
0000
1000
0000
0000
0100
0000
0000
1000
0000
0000
0001
0000
0000
0000
,
1000
0000
0000
0100
0000
0000
0010
0000
0000
0001
0000
0000
1000
0000
0000
0000
,
0001
0100
0010
0100
0000
0002
0003
0000
,
1000
0000
0000
0010
0000
0000
1000
0000
0000
0100
0000
0000
1000
0000
0010
0000
,
0100
0000
0000
0001
0000
0000
2002
0000
0000
0000
0000
0000
3003
0000
0000
0000
,
1000
1000
0100
0001
0001
0100
1000
0000
,
0000
1010
0000
1001
0000
0011
0000
1001
,
0000
1010
0000
1001
0000
0100
0010
0000
,
0000
0101
0000
1001
0000
1100
0000
1001
,
0000
0100
0010
0100
0000
0001
1000
0000
,
1000
0000
0000
0010
0000
0000
0100
0000
0000
0000
0101
0000
0000
0000
0000
0000
,
0001
0000
0000
0100
0000
0000
0010
0000
0000
0100
0000
0000
1100
0000
0000
0000
,
0010
1000
0010
0100
0010
1000
0001
0001
,
1000
0000
0000
0001
0000
0001
1000
0000
1000
0100
0000
0000
,
2002
0000
0000
0000
,
0000
0000
0000
3003
,
1000
0000
0010
0100
0000
0000
0000
0000
,
0000
0001
0010
0001
1000
0000
0001
0000
,
0200
0000
0000
0000
,
0000
0000
0000
0300
,
0010
0000
0100
0010
0000
0000
0000
0000
,
0000
0000
0000
1000
0000
0001
0000
0000
,
1010
0000
1000
0000
0010
0100
0001
0000
,
1000
0000
0100
0010
0000
0001
1000
0000
,
1100
0000
0010
0000
0001
1000
0001
0000
,
0010
0000
0100
0010
0000
0001
1000
0000
,
1001
0000
0000
0000
0100
0000
0000
0010
0000
0010
0000
0000
0100
0000
0001
0000
,
1000
0000
0000
0000
0100
0000
0000
1000
0000
1000
0000
0000
0001
0000
0100
0000
,
0010
0000
0100
0000
0010
0100
0010
0100
,
0000
0001
1000
0010
0100
0100
0010
0000
,
2002
3003
0000
0000
0000
0000
0000
0000
0000
0000
0000
0000
0000
0000
0000
0000
1000
0000
0000
0000
0000
0000
0000
0000
0000
0000
0000
0000
0000
0000
0000
0000
0010
0000
0000
0000
0000
0000
0000
0000
1000
0000
0000
0000
0000
0000
0000
0000
0001
0000
0000
0000
0000
0000
0000
0000
1000
0000
0000
0000
0000
0000
0000
0000
,
0100
0000
0000
0010
0000
0000
0001
0000
0000
1000
0000
0000
0010
0000
0000
0000
,
1000
0000
0000
0100
0000
0000
1000
0000
0000
0010
0000
0000
0100
0000
0000
0000
,
0001
0000
0000
0001
0000
0000
1000
0000
0000
0001
0000
0000
0100
0000
0000
0000
,
0001
0000
0000
0010
0000
0000
0001
0000
0000
0000
1000
0000
0010
0000
0000
0000
,
1000
0000
0000
1000
0000
0000
0010
0000
0000
0100
0000
0000
0001
0000
1000
0000
,
0001
0000
0000
0100
0000
0000
0020
0000
0000
0000
0000
0000
0030
0000
1010
0000
,
0000
0101
0000
0110
0000
0010
0100
0000
,
0000
1100
0000
1010
0000
1100
0000
1010
,
0000
0101
0000
1001
0000
0001
1000
0000
,
0000
1100
0000
0110
0000
1100
0000
0101
,
0000
1000
0010
0100
0000
0001
1000
0000
,
0001
0100
0001
0100
0000
0010
1000
0000
,
0001
0000
0000
0100
0000
0000
1000
0000
0000
0100
0000
0000
0001
0000
0000
0000
,
1000
0010
0100
0000
0001
1000
0100
0000
,
1000
0100
1000
0010
0100
0010
1000
0001
,
1000
0100
1000
0100
,
0001
0010
0001
0010
,
1000
0010
1000
0010
,
0001
0100
0001
0100
,
1001
0000
0000
0000
;

//--------------- dance-single - Fred-104 ----------------
#NOTES:
     dance-single:
     Fred-104:
     Hard:
     15:
     :
0000
0000
0000
0000
,
0000
0000
0000
0000
,
0000
0000
0000
0000
,
0000
0000
0000
0000
,
0000
0000
0000
0000
,
0000
0000
0000
0000
,
0000
0000
0000
0000
,
0000
0000
0000
0000
,
0000
0000
0000
0000
,
1001
0000
0000
0000
,
0000
0000
0000
0000
0000
1100
0000
0101
,
0110
0000
0000
0000
0000
0000
0000
0000
0000
0000
0000
0000
0000
0000
0001
1000
,
0001
0100
0010
0110
0100
1100
1001
0000
,
0001
0100
0010
1000
0010
0100
0010
1000
,
0100
0010
0001
1000
0001
0010
0001
1000
,
0001
0000
0000
0100
0000
0000
0010
0000
0000
1000
0000
0000
1001
0000
0000
0000
,
0001
0010
0000
0010
0001
0000
0000
0000
0100
0010
0100
0010
0100
0000
0000
0000
,
1010
0000
0101
0000
0100
0010
0110
0000
,
0001
0100
0001
0100
0010
1000
0010
1000
0001
1000
0001
1000
0002
0000
0000
0000
,
1003
0100
0010
0001
1000
0000
0000
0000
0001
0100
0010
1000
0001
0000
0000
0000
,
2200
3300
0000
0202
0303
0000
2020
3030
0000
0022
0033
0000
2002
0000
3003
0000
,
0220
0330
0000
0000
0000
0000
0000
0000
0000
0000
0000
0000
0000
0000
0000
0000
0001
0000
0000
0000
0100
0000
0000
0000
0001
0000
0000
0000
0100
0000
0000
0000
0010
0000
0000
0000
1000
0000
0000
0000
0010
0000
0000
0000
1000
0000
0000
0000
0020
0000
0000
0000
0000
0000
0000
0000
0000
0000
0000
0000
0000
0000
0000
0000
,
1030
0100
1000
0100
0010
0100
0010
0001
1000
0001
1000
0001
2000
0000
0000
0000
,
3001
0100
1000
0100
0001
0100
0010
1000
,
2002
0000
0000
3003
0220
0000
0330
0000
2002
3003
0000
0000
2010
0000
0000
0000
,
3001
0000
0100
0010
0000
0010
0100
0000
0001
0000
0100
0000
0010
0000
1000
0000
,
0001
0000
1000
0100
0000
0100
1000
0000
0010
0100
0000
0100
0001
0000
1000
0000
,
0001
0000
1000
0001
0000
0001
0100
0000
0010
0100
0000
0100
0001
0000
0001
0000
,
1000
0000
0001
0010
0000
0010
0100
0000
1000
0010
0000
0010
0200
0000
0000
0000
,
0301
0000
0000
0000
0000
0000
0000
0000
0020
0030
0000
0000
0000
0000
0000
0000
0020
0030
0000
0000
0000
0000
0000
0000
1000
0000
0000
0000
0000
0000
0000
0000
0001
0000
0000
0000
1000
0000
0000
0000
0001
0000
0000
0000
0000
0000
0000
0000
0100
0000
0000
0000
0010
0000
0000
0000
0100
0000
0000
0000
0000
0000
0000
0000
,
0001
0000
1000
0100
0000
0010
0001
0000
1000
0010
0000
0100
0001
0000
0001
0000
,
1000
0000
0010
1000
0000
0010
0100
0000
0001
0000
1000
0000
0001
1000
0001
1000
,
0001
0100
1000
0001
0010
1000
0001
0000
,
1000
1001
0000
0110
0000
1001
0000
0110
,
0000
1010
0000
0101
0000
0001
1001
0000
,
1000
1010
0000
0011
0000
1100
0000
0101
,
0000
0000
0110
0000
0100
0000
0010
0000
0000
0000
0010
0000
0200
0000
0000
0300
,
1001
0000
0000
0000
1000
0000
1100
0000
0000
0000
0010
0000
0100
0001
0100
0000
,
0202
0303
0000
0022
0033
0000
2200
3300
0000
0202
0303
0000
2020
0000
3030
0000
,
1000
0000
1000
0000
0001
0000
0100
0010
0100
0000
0001
0000
1000
0100
1000
0100
,
1000
0000
0000
0001
0100
0010
1000
0001
0010
0100
0000
0000
,
2002
0000
0000
0000
,
0000
0000
0000
3003
,
1000
0100
0010
0001
0000
0000
0000
0000
,
0000
0001
0100
0010
1000
0000
0010
0000
,
0200
0000
0000
0000
,
0000
0000
0000
0000
,
0301
0100
1000
0100
0000
0000
0000
0000
,
0000
0000
0000
0000
0000
0000
0000
0000
0000
0000
0000
0000
0000
0000
0000
0000
0000
0000
0000
0000
0000
0000
0000
0000
0000
0000
0000
0000
0000
0000
0000
0000
0000
0000
0000
0000
0000
0000
0000
0000
0000
0000
0000
0000
0000
0000
0000
0000
0000
0000
0000
0000
0000
0000
0000
0000
0000
0000
0000
0000
0000
0000
0000
0000
0000
0000
0000
0000
0000
0000
0000
0000
0001
0000
0000
0000
0000
0000
0000
0000
0000
0000
0000
0000
0000
0000
0000
0000
0000
0000
0000
0000
0000
0000
0000
0000
0000
0000
0000
0000
0000
0000
0000
0000
0000
0000
0000
0000
0000
0000
0000
0000
0000
0000
0000
0000
0000
0000
0000
0000
2000
3000
0000
0000
0000
0000
0000
0000
0000
0000
0000
0000
0000
0000
0000
0000
0000
0000
0000
0000
0000
0000
0000
0000
0000
0000
0000
0000
0000
0000
0000
0000
0000
0000
0000
0000
0000
0000
0000
0000
0000
0000
0000
0000
0000
0000
0000
0000
0000
0000
0000
0000
0000
0000
0000
0000
0000
0000
0000
0000
0000
0000
0000
0000
0000
0000
0000
0000
0000
0000
0000
0000
,
1000
0000
1001
0000
1000
0010
0100
0000
,
0001
0000
0010
0011
0000
0001
1001
0000
,
0002
0023
0230
0302
0103
1000
0001
0000
,
0100
0020
0032
0023
0230
0000
0302
0003
,
1001
0000
0000
0000
1000
0000
0010
0100
0000
0100
0000
0100
0001
0000
1000
0000
,
1100
0000
0000
0000
0100
0000
0010
0001
0000
0001
0000
0001
1000
0000
0010
0000
,
0100
0000
0010
0000
0100
0000
0010
0000
0100
0010
0100
0010
0100
0010
0100
0010
,
0000
0000
1000
0000
0010
0000
0100
0000
0001
1000
0001
1000
0001
0000
0000
0000
,
2002
3003
0000
0000
0000
0000
0000
0000
0000
0000
0000
0000
0000
0000
0000
0000
1000
0000
0000
0000
0000
0000
0000
0000
0100
0000
0000
0000
0000
0000
0000
0000
0010
0000
0000
0000
0000
0000
0000
0000
0001
0000
0000
0000
0000
0000
0000
0000
1000
0000
0000
0000
0000
0000
0000
0000
0001
0000
0000
0000
0000
0000
0000
0000
,
0100
0000
0001
0010
0000
0100
0010
0000
0001
0100
0000
0010
1000
0000
0001
0000
,
0100
0000
0010
0100
0000
0001
0100
0000
0010
1000
0000
0001
1000
0000
0001
0100
,
0001
0000
1000
0100
0000
1000
0100
0000
0010
0001
0000
1000
0001
0000
0100
0010
,
0200
0300
0000
2200
3300
0000
0022
0000
0033
0000
1001
0000
0001
0000
0100
0010
,
0100
0000
0010
0100
0000
0100
1000
0000
1000
0010
0000
0010
0100
0000
0001
1000
,
0001
0000
1000
0010
0000
0100
0020
0000
0000
0000
1030
0000
0001
0100
0002
0000
,
0003
1100
0100
0110
0000
0001
1001
0000
,
1000
0000
0100
0010
0001
0000
1000
0000
0001
0000
0100
0010
1000
0000
0001
0000
,
0100
0000
0010
1000
0100
0000
1000
0000
0010
0000
0100
0001
1000
0000
0000
0000
,
2020
3030
0000
0202
0303
0000
2200
3300
0000
0022
0033
0000
2002
0000
3003
0000
,
1000
0000
0001
0100
0010
0000
0110
0000
0000
0000
0100
0000
1001
0000
0000
0000
,
1000
0000
0010
0000
0100
0001
0100
0000
0000
0100
0010
0000
1000
0100
1000
0100
,
0010
0001
0010
0001
0000
0100
0010
0000
1000
0001
0100
0000
0010
0000
0010
0000
,
0100
0000
0001
0100
0000
0010
1000
0000
0001
0000
0001
0000
0100
0010
0100
0010
,
1000
0001
1000
0001
1000
0001
1000
0001
1000
0100
0010
0001
2000
0000
0000
0000
,
3001
0100
0001
0100
0010
0100
0001
0100
,
1000
0100
0010
0100
0010
0100
0001
0100
,
0001
0010
1000
0010
0100
1000
0100
0010
,
1000
0001
0100
0010
0001
1000
0001
0000
,
1001
0000
0000
0000
;

//--------------- dance-single - Fred-104 ----------------
#NOTES:
     dance-single:
     Fred-104:
     Challenge:
     16:
     :
0000
0000
0000
0000
,
0000
0000
0000
0000
,
0000
0000
0000
0000
,
0000
0000
0000
0000
,
0000
0000
0000
0000
,
0000
0000
0000
0000
,
0000
0000
0000
0000
,
0000
0000
0000
0000
,
0000
0000
0000
0000
,
0110
0000
0000
0000
,
MMMM
0000
0000
0000
0000
1100
0000
0011
,
2020
0000
0000
0000
0000
0000
0000
0000
0000
0000
0000
0000
3030
0000
0001
0010
,
0100
1000
0010
1010
0100
0001
1001
0000
,
0001
0000
0010
0000
0100
0000
1000
0000
0001
0000
1000
0000
0010
0100
0010
0100
,
0010
0000
1000
0000
0100
0000
0010
0000
0001
0100
0001
0000
1000
0010
1000
0000
,
0001
0010
0100
1000
0010
0100
0001
0010
0100
1000
0010
0100
0002
0000
0000
0000
,
1003
0010
0100
0001
1000
0000
0000
0000
1001
0000
0000
0000
MMMM
0000
0000
0000
,
1100
0000
0100
0010
0011
1000
1001
0000
,
0001
0100
0001
0100
0010
1000
0010
1000
0001
0100
0010
1000
0002
0000
0000
0000
,
1003
0100
0001
0100
2000
0000
0000
0000
3001
0100
1000
0100
0002
0000
0000
0000
,
1003
0000
0001
0010
0000
0100
2000
0000
0000
3020
0000
0000
0130
0001
1000
0001
,
2000
3000
0000
0000
0000
0000
0000
0000
0000
0000
0000
0000
0000
0000
0000
0000
0001
0000
0000
0000
0100
0000
0000
0000
0010
0000
0000
0000
1000
0000
0000
0000
0001
0000
0000
0000
0100
0000
0000
0000
0010
0000
0000
0000
1000
0000
0000
0000
0002
0000
0000
0000
0000
0000
0000
0000
0000
0000
0000
0000
0000
0000
0000
0000
,
1003
0100
1000
0100
0010
0001
0010
0001
1000
0100
0010
0001
1000
0001
1000
0000
,
1100
MMMM
0101
MMMM
0011
MMMM
1010
MMMM
,
2001
3100
1002
0013
2001
3100
0110
MMMM
,
1001
0000
0001
0010
0000
0100
0010
0000
0001
0000
1000
0001
0010
0000
0100
0000
,
1000
0000
0010
0100
0000
0010
1000
0000
0001
1000
0000
0100
0010
0000
0001
0000
,
0100
0000
0010
0001
0000
0010
0100
0000
1000
0000
0100
0010
1000
0100
0010
0001
,
1000
0000
0001
0010
0000
1000
0010
0000
0001
0100
0000
0010
1000
0100
0010
0001
,
0010
0000
0001
0100
0000
0010
1000
0000
0001
0000
0100
0000
0001
0010
0100
0000
,
1000
0000
0001
1000
0000
0010
0100
0000
0001
1000
0000
0100
0010
0000
0001
0000
,
0101
0000
0000
1010
0000
0000
0022
0000
0000
0000
0033
0000
1000
0001
1000
0001
,
1000
0000
0000
1010
0000
0000
0101
0000
MMMM
0000
1100
0000
0011
0000
MMMM
0000
,
1000
1100
MMMM
1010
MMMM
1100
MMMM
1010
,
MMMM
0101
MMMM
0011
MMMM
0101
1001
MMMM
,
0100
0110
MMMM
1001
MMMM
0110
MMMM
1001
,
MMMM
1100
0101
1100
MMMM
1010
2002
3003
,
1010
0000
0000
0110
0000
0000
0101
0000
0000
0000
0001
0000
1000
0001
1000
0000
,
0001
0000
0000
0101
0000
0000
1000
0000
0010
2000
0000
0000
3001
0100
0001
0100
,
0020
0000
0000
2030
0000
0000
3200
0000
0000
0320
0000
0000
0031
0000
1000
0100
,
0010
0000
0000
0001
0100
0100
1000
0010
0010
0001
0000
0000
,
0120
0000
0000
0000
,
0000
0000
0000
0000
0000
0030
MMMM
0000
,
1000
1000
0001
2000
0000
0000
0000
3000
,
MMMM
0010
1000
0100
0001
0000
0100
0000
,
0002
0000
0000
0000
,
0000
0000
0000
0000
0000
0003
MMMM
0000
,
0100
1000
0001
0200
0000
0000
0000
0000
,
0000
0000
0000
0001
0000
1300
MMMM
0000
,
1000
0000
0100
0000
0010
0001
0000
1000
0100
0000
0010
0001
0000
1000
0100
0000
,
1000
0000
0001
0000
0100
0010
0000
1000
0001
0000
0100
0010
0000
1000
0001
0000
,
2000
3020
0032
2003
3100
0001
0010
1000
,
0001
0200
2300
3002
1003
0001
1001
0000
,
1010
0000
0000
0000
1010
0000
0000
1000
0010
1000
0000
0000
1000
0000
0010
0100
,
0101
0000
0000
0000
0101
0000
0000
0100
0001
0100
0000
0000
0100
0000
0001
0000
,
0100
0000
0010
0000
0100
0000
0010
0000
1000
0100
0010
0001
0100
0010
1000
0100
,
0000
0000
1001
0000
0100
0000
1000
0000
0010
1000
0100
0010
0001
0000
1000
0000
,
MMMM
0000
0000
0000
0001
0000
0100
0000
0001
0010
0100
0000
1000
0010
0100
0000
,
0010
0000
1000
0010
0000
0100
0001
0000
0010
0100
0000
1000
0001
0000
0100
0001
,
0010
0000
0001
0100
0000
0010
1000
0000
0001
0100
0010
0100
0001
1000
0001
0010
,
0100
0000
0001
0100
0000
1000
0001
0000
1000
0010
0000
0001
0010
0100
0010
0100
,
0001
0000
1000
0100
0000
0010
0001
0000
1000
0000
0010
0100
0001
0000
1000
0001
,
0010
0000
0100
1000
0000
0010
0100
0000
0010
1000
0000
0001
1000
0000
0100
0000
,
0001
0000
0000
0000
0000
0000
1000
0000
0000
0010
0000
0000
0000
0000
0000
0001
0000
0000
2000
0000
0000
0000
0000
0000
0000
0000
0000
0000
0000
0000
3001
0000
0000
0000
0000
0000
0100
0000
0001
0000
1000
0000
0001
0000
0000
0000
0000
0000
,
MMMM
0010
1000
0100
MMMM
0001
2002
3003
,
1000
1100
MMMM
0101
MMMM
0011
MMMM
1010
,
MMMM
1100
MMMM
1010
MMMM
0101
1001
MMMM
,
0001
0101
MMMM
1100
MMMM
1010
MMMM
0011
,
MMMM
0000
1100
0000
0101
0000
1100
0000
MMMM
0000
0110
0000
1000
0001
1000
0001
,
1000
0000
0100
0000
0010
1000
0001
0000
0000
0100
0010
0000
0001
1000
0001
1000
,
0001
1000
0100
0010
0000
0100
1000
0000
0010
1000
0001
0010
0100
0000
1000
0000
,
1010
0000
0000
0101
0000
0000
0001
1000
0001
0000
1000
0000
0100
0010
0001
1000
,
0100
0010
0001
0100
0010
1000
0100
0010
0001
0100
0010
1000
0001
0000
0000
0000
,
2002
0000
0000
0000
,
0000
0000
0000
0000
,
0000
0000
0000
0000
,
0000
0000
0000
0000
,
3003
0000
0000
0000
;

//--------------- dance-double - Fred-104 ----------------
#NOTES:
     dance-double:
     Fred-104:
     Easy:
     6:
     :
00000000
00000000
00000000
00000000
,
00000000
00000000
00000000
00000000
,
00000000
00000000
00000000
00000000
,
00000000
00000000
00000000
00000000
,
00000000
00000000
00000000
00000000
,
00000000
00000000
00000000
00000000
,
00000000
00000000
00000000
00000000
,
00000000
00000000
00000000
00000000
,
00000000
00000000
00000000
00000000
,
10010000
00000000
00000000
00000000
,
00000000
00000000
00000000
00000000
00000000
00100000
00000000
00100000
,
01000000
00000000
00000000
00000000
,
00010000
00000000
00000000
01000000
00000000
00000000
00010000
00000000
,
00001000
00000000
00000100
00000000
,
00000010
00000010
00000001
00000000
,
00001000
00000010
00010000
00001000
,
00022000
00000000
00000000
00033000
,
00001000
00100000
00010000
00000000
,
00010000
10000000
00010000
00000000
,
01000000
01000000
00100000
01000000
,
00010000
00010000
10000000
10000000
,
20020000
30030000
01000000
01000000
,
00100000
00001000
00010000
00001000
,
00010000
00000000
00000010
00000000
,
00001000
00001000
00000001
00001001
,
00001000
00000000
00000000
00000010
00000000
00000000
00000100
00000000
,
00000001
00000000
00000000
00000010
00000000
00000000
00000100
00000000
,
00000010
00000000
00000000
00000001
00000000
00000000
00001000
00000000
,
00000010
00000000
00000000
00010000
00000000
00000000
00001000
00000000
,
00100000
00010000
00010000
10000000
,
00100000
00000000
00000000
01000000
00000000
00000000
00100000
00000000
,
10000000
00000000
00000000
01000000
00000000
00000000
00100000
00000000
,
00010000
00001000
00010000
00010000
,
01000000
00100000
00100000
00001000
,
00010000
00000000
00000000
00000100
00000000
00000000
00000010
00000000
,
00000001
00000000
00000000
00001000
00000000
00000000
00000010
00000000
,
00000100
00000001
00001000
00000001
,
00001001
00000000
00000000
00000010
00000000
00000000
00001000
00000000
,
00000100
00000000
00000000
00010000
00000000
00000000
00001000
00000000
,
00100000
00010000
10000000
01000000
,
00100000
00010000
10000000
00100000
,
20020000
00000000
00000000
00000000
,
30030000
00000000
00000000
00000000
,
01000000
00000000
00000000
00001000
00000000
00000000
00000000
00000000
,
00000000
00000000
00010000
00001000
,
00000020
00000000
00000000
00000000
,
00000030
00000000
00000000
00000000
,
00000100
00000000
00000000
00000001
00000000
00000000
00000000
00000000
,
00000000
00000000
00000000
00000100
00000000
00000100
00000000
00000000
,
00001001
00000000
00000010
00001000
,
00010000
00000000
00010000
01000000
,
00100000
00000000
00100000
00010000
,
00001000
00000000
00000100
00001000
,
00001001
00000000
00001000
00000100
,
00000110
00000000
00000001
00000100
,
00000110
00000000
00011000
00000000
,
00100000
00100000
01000000
01000000
,
02200000
03300000
10000000
00100000
,
01000000
00000000
00000000
00100000
00000000
00000000
00100000
00000000
,
00001000
00000000
00000000
00010000
00000000
00000000
00010000
00000000
,
00001000
00000000
00000000
00000100
00000000
00000000
00000100
00000000
,
00000010
00000010
00000001
00000100
,
00001000
00000000
00000000
00001000
00000000
00000000
00010000
00000000
,
01000000
00000000
00000000
01100000
00000000
00000000
00000000
00000000
,
00100000
00000000
10000000
00000000
00100000
01000000
00100000
00000000
,
10000000
10000000
01000000
00100000
,
00001000
00000000
00000000
00010000
00000000
00000000
00001000
00000000
,
00010000
00000000
00000000
00000010
00000000
00000000
00001000
00000000
,
00000001
00000000
00000000
00000100
00000000
00000000
00000010
00000000
,
00001001
00000000
00000001
00000100
,
00001000
00000000
00010000
01000000
,
10000000
00000000
00000000
00010000
00000000
00000000
01000000
00000000
,
00100000
01000000
00100000
00000000
10000000
00010000
10000000
00000000
,
10010000
10000000
01000000
00000000
,
00100000
00001000
00010000
00000000
,
00000010
00001000
00000100
00000000
,
00000010
00000001
00000100
00000000
,
00001001
00000000
00000000
00000000
;

//--------------- dance-double - Fred-104 ----------------
#NOTES:
     dance-double:
     Fred-104:
     Medium:
     10:
     :
00000000
00000000
00000000
00000000
,
00000000
00000000
00000000
00000000
,
00000000
00000000
00000000
00000000
,
00000000
00000000
00000000
00000000
,
00000000
00000000
00000000
00000000
,
00000000
00000000
00000000
00000000
,
00000000
00000000
00000000
00000000
,
00000000
00000000
00000000
00000000
,
00000000
00000000
00000000
00000000
,
00011000
00000000
00000000
00000000
,
00000000
00000000
00000000
00000000
00000000
01000000
00000000
01000000
,
00100000
00000000
00000000
00000000
00000000
00000000
00000000
10000000
,
01000000
00000000
00000000
00100000
00000000
00100000
01000000
00000000
,
00010000
00010000
00100000
00100000
,
00001000
00010000
00001000
00000000
00010000
00000010
00010000
00000000
,
00000010
00000000
00000000
00001000
00000000
00000000
00000001
00000000
00000000
00000100
00000000
00000000
00000010
00000000
00000000
00000000
,
00001000
00000000
00000100
00000000
00010000
00001000
00010000
00000000
,
00011000
00000000
01001000
00000000
00010000
01000000
00100000
00000000
,
10000000
01000000
00100000
00000000
00001000
00010000
00001000
00000000
,
00010000
00001000
00000100
00000000
00000001
00000100
00000010
00000000
,
00001000
00000000
00000000
00001100
00000000
00000000
00000001
00000000
00000000
00000011
00000000
00000000
00000110
00000000
00000000
00000000
,
00002002
00003003
00000000
00000000
00000000
00000000
00000000
00000000
00000000
00000000
00000000
00000000
00000000
00000000
00000000
00000000
00000001
00000000
00000000
00000000
00000000
00000000
00000000
00000000
00000100
00000000
00000000
00000000
00000000
00000000
00000000
00000000
00000010
00000000
00000000
00000000
00000000
00000000
00000000
00000000
00001000
00000000
00000000
00000000
00000000
00000000
00000000
00000000
00000100
00000000
00000000
00000000
00000000
00000000
00000000
00000000
00000000
00000000
00000000
00000000
00000000
00000000
00000000
00000000
,
00000100
00000100
00001000
00000000
00000100
00000100
00000001
00000000
,
00000100
00001000
00010000
01000000
,
00200000
00000000
00000000
00300000
02000000
00000000
03000000
00000000
00200000
00300000
00000000
00000000
10010000
00000000
00000000
00000000
,
10000000
00000000
00000000
01000000
00000000
00000000
00010000
00000000
00000000
00000000
00002000
00000000
00003000
00000000
00000000
00000000
,
00010000
00000000
00000000
00001000
00000000
00000000
00000100
00000000
00000000
00000001
00000000
00000000
00001000
00000000
00000000
00000000
,
00000001
00000000
00000000
00000100
00000000
00000000
00000010
00000000
00000000
00000100
00000000
00000000
00000001
00000000
00000000
00000000
,
00000100
00000000
00000000
00000010
00000000
00000000
00001000
00000000
00000000
00000100
00000000
00000000
00000010
00000000
00000000
00000000
,
00000001
00000100
00001000
00000100
00000000
00000002
00000003
00000000
,
00000100
00000000
00000000
00001000
00000000
00000000
00010000
00000000
00000000
01000000
00000000
00000000
00010000
00000000
00001000
00000000
,
00010000
00000000
00000000
00001000
00000000
00000000
00022000
00000000
00000000
00000000
00000000
00000000
00033000
00000000
00000000
00000000
,
00010000
00001000
00000010
00001000
00010000
00100000
01000000
00000000
,
00000000
11000000
00000000
00100000
00000000
01010000
00000000
00100000
,
00000000
00011000
00000000
00000010
00000000
00000100
00000001
00000000
,
00000000
00000101
00000000
00000010
00000000
00001100
00000000
00010000
,
00000000
00001000
00100000
00010000
00000000
10000000
01000000
00000000
,
10000000
00000000
00000000
01000000
00000000
00000000
00100000
00000000
00000000
00000000
00101000
00000000
00000000
00000000
00000000
00000000
,
00001000
00000000
00000000
00010000
00000000
00000000
00000100
00000000
00000000
00000010
00000000
00000000
00000110
00000000
00000000
00000000
,
00000100
00000100
00000001
00001000
00000010
00000100
00000001
00000010
,
00000100
00000000
00000000
00000001
00000000
00000100
00000010
00000000
00001000
00000100
00000000
00000000
,
00022000
00000000
00000000
00000000
,
00000000
00000000
00000000
00033000
,
00001000
00000000
01000000
00100000
00000000
00000000
00000000
00000000
,
00000000
10000000
01000000
00100000
00001000
00000000
00010000
00000000
,
00000020
00000000
00000000
00000000
,
00000000
00000000
00000000
00000030
,
00001000
00000000
00000001
00000100
00000000
00000000
00000000
00000000
,
00000000
00000000
00000000
00001000
00000000
00010000
00000000
00000000
,
00011000
00000000
00001000
00000000
00100000
00010000
01000000
00000000
,
00100000
00000000
10000000
01000000
00000000
00100000
01000000
00000000
,
11000000
00000000
00100000
00000000
00010000
10000000
00010000
00000000
,
00100000
00000000
01000000
00100000
00000000
00010000
10000000
00000000
,
10010000
00000000
00000000
00000000
01000000
00000000
00000000
00100000
00000000
00100000
00000000
00000000
01000000
00000000
00010000
00000000
,
00100000
00000000
00000000
00000000
00001000
00000000
00000000
00010000
00000000
00010000
00000000
00000000
00001000
00000000
00000100
00000000
,
00000010
00000000
00000001
00000000
00001000
00000010
00000100
00000010
,
00000000
00001000
00000010
00000100
00000001
00001000
00000100
00000000
,
00000220
00000330
00000000
00000000
00000000
00000000
00000000
00000000
00000000
00000000
00000000
00000000
00000000
00000000
00000000
00000000
00000010
00000000
00000000
00000000
00000000
00000000
00000000
00000000
00000000
00000000
00000000
00000000
00000000
00000000
00000000
00000000
00000001
00000000
00000000
00000000
00000000
00000000
00000000
00000000
00001000
00000000
00000000
00000000
00000000
00000000
00000000
00000000
00000010
00000000
00000000
00000000
00000000
00000000
00000000
00000000
00000100
00000000
00000000
00000000
00000000
00000000
00000000
00000000
,
00000001
00000000
00000000
00000100
00000000
00000000
00001000
00000000
00000000
00000100
00000000
00000000
00000001
00000000
00000000
00000000
,
00000100
00000000
00000000
00000010
00000000
00000000
00001000
00000000
00000000
00000100
00000000
00000000
00010000
00000000
00000000
00000000
,
01000000
00000000
00000000
00010000
00000000
00000000
00001000
00000000
00000000
00000100
00000000
00000000
00000010
00000000
00000000
00000000
,
00001000
00000000
00000000
00010000
00000000
00000000
00100000
00000000
00000000
00000000
01000000
00000000
01000000
00000000
00000000
00000000
,
00100000
00000000
00000000
10000000
00000000
00000000
00010000
00000000
00000000
01000000
00000000
00000000
00100000
00000000
10000000
00000000
,
01000000
00000000
00000000
00100000
00000000
00000000
00002000
00000000
00000000
00000000
00000000
00000000
00003000
00000000
01001000
00000000
,
00000000
00011000
00000000
00010100
00000000
00001000
00010000
00000000
,
00100000
00100000
00000000
10000000
00000000
01000000
00000000
00100000
,
00000000
00001000
00000000
00010000
00000000
00001000
00011000
00000000
,
00001000
00001000
00000000
00000010
00000000
00000100
00000000
00000001
,
00000000
00000100
00001000
00010000
00000000
00010000
00011000
00000000
,
01000000
00100000
01000000
00100000
00000000
10000000
01000000
00000000
,
00100000
00000000
00000000
00010000
00000000
00000000
00100000
00000000
00000000
01000000
00000000
00000000
00100000
00000000
00000000
00000000
,
10000000
01000000
00100000
00000000
00001000
00010000
00001000
00000000
,
00100000
00001000
00010000
00001000
00000010
00000001
00001000
00000010
,
00000100
00000001
00000010
00001000
,
00010000
00100000
10000000
01000000
,
00010000
00001000
00000100
00000001
,
00000010
00001000
00010000
01000000
,
01100000
00000000
00000000
00000000
;

//--------------- dance-double - Fred-104 ----------------
#NOTES:
     dance-double:
     Fred-104:
     Hard:
     14:
     :
00000000
00000000
00000000
00000000
,
00000000
00000000
00000000
00000000
,
00000000
00000000
00000000
00000000
,
00000000
00000000
00000000
00000000
,
00000000
00000000
00000000
00000000
,
00000000
00000000
00000000
00000000
,
00000000
00000000
00000000
00000000
,
00000000
00000000
00000000
00000000
,
00000000
00000000
00000000
00000000
,
00001001
00000000
00000000
00000000
,
00000000
00000000
00000000
00000000
00000000
00011000
00000000
00010000
,
10000000
00000000
00000000
00000000
00000000
00000000
00000000
00000000
00000000
00000000
00000000
00000000
00000000
00000000
00100000
10000000
,
00100000
00000000
00000000
10100000
00000000
00100000
01000000
00000000
,
00100000
00010000
10000000
00010000
01000000
00100000
10000000
01000000
,
00100000
00001000
00010000
00000100
00010000
00001000
00000100
00000001
,
00001000
00000000
00000000
00000010
00000000
00000000
00000100
00000000
00000000
00000001
00000000
00000000
00001001
00000000
00000000
00000000
,
00000010
00000100
00000000
00000100
00000010
00000000
00000000
00000000
00000001
00001000
00000001
00001000
00000001
00000000
00000000
00000000
,
00000101
00000000
00001100
00000000
00010000
00001000
00011000
00000000
,
00001000
00100000
00001000
00000000
00100000
00010000
00100000
00000000
00010000
10000000
00010000
10000000
00020000
00000000
00000000
00000000
,
10030000
01000000
00100000
00010000
01000000
00000000
00000000
00000000
00001000
00010000
00000010
00001000
00000100
00000000
00000000
00000000
,
00002200
00003300
00000000
00000202
00000303
00000000
00002020
00003030
00000000
00000022
00000033
00000000
00002002
00000000
00003003
00000000
,
00000220
00000330
00000000
00000000
00000000
00000000
00000000
00000000
00000000
00000000
00000000
00000000
00000000
00000000
00000000
00000000
00000100
00000000
00000000
00000000
00000010
00000000
00000000
00000000
00000100
00000000
00000000
00000000
00000000
00000000
00000000
00000000
00000001
00000000
00000000
00000000
00000100
00000000
00000000
00000000
00000001
00000000
00000000
00000000
00000100
00000000
00000000
00000000
00000020
00000000
00000000
00000000
00000000
00000000
00000000
00000000
00000000
00000000
00000000
00000000
00000000
00000000
00000000
00000000
,
00001030
00000100
00001000
00000000
00000100
00010000
00000100
00000000
00010000
00001000
00010000
00001000
00020000
00000000
00000000
00000000
,
00031000
00010000
00100000
10000000
00010000
01000000
10000000
00100000
,
02200000
00000000
00000000
03300000
00022000
00000000
00033000
00000000
00000220
00000330
00000000
00000000
00002001
00000000
00000000
00000000
,
00003001
00000000
00000100
00000010
00000000
00001000
00000010
00000000
00000000
00000000
00000100
00000000
00000001
00000000
00001000
00000000
,
00000100
00000000
00000010
00000001
00000000
00001000
00000001
00000000
00000000
00001000
00000000
00000000
00000100
00000000
00000000
00000000
,
00010000
00000000
00001000
00010000
00000000
00000010
00010000
00000000
00000000
00001000
00000000
00000000
00100000
00000000
00001000
00000000
,
00010000
00000000
00001000
00100000
00000000
00010000
10000000
00000000
00000000
00100000
00000000
00000000
02000000
00000000
00000000
00000000
,
03100000
00000000
10000000
00000000
00010000
00000000
01000000
00000000
00100000
00000000
10000000
00000000
01000000
00100000
01000000
00000000
,
00100000
00000000
00001000
00010000
00000000
00001000
00010000
00000000
00000000
00000100
00000000
00000000
00000010
00000000
00000100
00000000
,
00001000
00000000
00000001
00000100
00000000
00000010
00000100
00000000
00000000
00000000
00000001
00000000
00001000
00000001
00001000
00000000
,
00000001
00000100
00001000
00010000
01000000
10000000
10010000
00000000
,
00000000
11000000
00000000
01010000
00000000
11000000
00000000
01010000
,
00000000
00011000
00000000
00001100
00000000
00000001
00001001
00000000
,
00000000
00000011
00000000
00001010
00000000
00011000
00000000
00110000
,
00000000
00000000
00100000
00000000
10000000
00000000
00010000
00000000
00000000
00000000
01000000
00000000
02100000
00000000
00000000
03000000
,
11000000
00000000
00000000
00000000
00100000
00000000
01100000
00000000
00000000
00000000
00001000
00000000
00010000
00001000
00010000
00000000
,
00202000
00303000
00000000
00022000
00033000
00000000
00020020
00030030
00000000
00002020
00003030
00000000
00002002
00000000
00003003
00000000
,
00001000
00000000
00000010
00000000
00000100
00000000
00000001
00000100
00000001
00000000
00000100
00000000
00000010
00000100
00000010
00000100
,
00000010
00000000
00000000
00001000
00000100
00000010
00000001
00000100
00000010
00001000
00000000
00000000
,
00002002
00000000
00000000
00000000
,
00000000
00000000
00000000
00003003
,
00000001
00000100
00001000
00010000
00000000
00000000
00000000
00000000
,
00000000
00001000
00010000
01000000
10000000
00000000
00010000
00000000
,
02000000
00000000
00000000
00000000
,
00000000
00000000
00000000
03000000
,
00100000
10000000
01000000
00010000
00000000
00000000
00000000
00000000
,
00000000
00000000
00000000
00000000
00000000
00000000
00000000
00000000
00000000
00000000
00000000
00000000
00000000
00000000
00000000
00000000
00000000
00000000
00000000
00000000
00000000
00000000
00000000
00000000
00000000
00000000
00000000
00000000
00000000
00000000
00000000
00000000
00000000
00000000
00000000
00000000
00000000
00000000
00000000
00000000
00000000
00000000
00000000
00000000
00000000
00000000
00000000
00000000
00000000
00000000
00000000
00000000
00000000
00000000
00000000
00000000
00000000
00000000
00000000
00000000
00000000
00000000
00000000
00000000
00000000
00000000
00000000
00000000
00000000
00000000
00000000
00000000
00001000
00000000
00000000
00000000
00000000
00000000
00000000
00000000
00000000
00000000
00000000
00000000
00000000
00000000
00000000
00000000
00000000
00000000
00000000
00000000
00000000
00000000
00000000
00000000
00000000
00000000
00000000
00000000
00000000
00000000
00000000
00000000
00000000
00000000
00000000
00000000
00000000
00000000
00000000
00000000
00000000
00000000
00000000
00000000
00000000
00000000
00000000
00000000
00000002
00000003
00000000
00000000
00000000
00000000
00000000
00000000
00000000
00000000
00000000
00000000
00000000
00000000
00000000
00000000
00000000
00000000
00000000
00000000
00000000
00000000
00000000
00000000
00000000
00000000
00000000
00000000
00000000
00000000
00000000
00000000
00000000
00000000
00000000
00000000
00000000
00000000
00000000
00000000
00000000
00000000
00000000
00000000
00000000
00000000
00000000
00000000
00000000
00000000
00000000
00000000
00000000
00000000
00000000
00000000
00000000
00000000
00000000
00000000
00000000
00000000
00000000
00000000
00000000
00000000
00000000
00000000
00000000
00000000
00000000
00000000
,
00001001
00000000
00000001
00000000
00000100
00000010
00001000
00000000
,
00000100
00000000
00010000
00011000
00000000
00001000
01001000
00000000
,
00020000
00230000
20300000
30020000
01030000
00000000
00100000
00000000
,
10000000
02000000
03200000
00302000
00023000
00000000
00030200
00000300
,
00000110
00000000
00000000
00000000
00001100
00000000
00000000
00000010
00000000
00000010
00000000
00000000
00000100
00000000
00000001
00000000
,
00000011
00000000
00000000
00000000
00001010
00000000
00000000
00010000
00000000
00010000
00000000
00000000
00000100
00000000
00010000
00000000
,
00001000
00000000
00100000
00000000
00001000
00000000
00010000
00000000
00001000
00010000
00001000
00010000
00001000
00010000
00001000
00010000
,
00000000
00000000
00001000
00000000
00100000
00000000
00010000
00000000
10000000
00010000
10000000
00010000
10000000
00000000
00000000
00000000
,
20020000
30030000
00000000
00000000
00000000
00000000
00000000
00000000
00000000
00000000
00000000
00000000
00000000
00000000
00000000
00000000
01000000
00000000
00000000
00000000
00000000
00000000
00000000
00000000
00100000
00000000
00000000
00000000
00000000
00000000
00000000
00000000
10000000
00000000
00000000
00000000
00000000
00000000
00000000
00000000
00100000
00000000
00000000
00000000
00000000
00000000
00000000
00000000
00010000
00000000
00000000
00000000
00000000
00000000
00000000
00000000
00001000
00000000
00000000
00000000
00000000
00000000
00000000
00000000
,
00100000
00000000
00001000
00010000
00000000
00000010
00010000
00000000
00000000
00001000
00000000
00000000
00000100
00000000
00000010
00000000
,
00000001
00000000
00000100
00000010
00000000
00001000
00000010
00000000
00000000
00000100
00000000
00000000
00000001
00000000
00000001
00000000
,
00001000
00000000
00000100
00000010
00000000
00000001
00000010
00000000
00000000
00000100
00000000
00000000
00010000
00000000
00001000
00000000
,
00022000
00033000
00000000
00202000
00303000
00000000
00022000
00000000
00033000
00000000
00001000
00000000
00100000
00000000
00010000
00000000
,
01000000
00000000
00010000
01000000
00000000
00100000
10000000
00000000
00010000
00100000
00000000
01000000
10000000
00000000
00010000
00000000
,
01000000
00000000
00000000
00100000
00000000
00000000
00002000
00000000
00000000
00000000
00013000
00000000
00000010
00001000
00000010
00000000
,
00000000
00001010
00000010
00000110
00000000
00000001
00001001
00000000
,
00000010
00000011
00000000
00001010
00000000
00000101
00000000
00001100
,
00000000
00011000
00000000
01010000
00000000
11000000
10010000
00000000
,
00100000
10100000
00000000
00110000
00000000
00011000
00000000
00001010
,
00000010
00000000
00000100
00000001
00000010
00000000
00000011
00000000
00000000
00000000
00000001
00000000
00001001
00000000
00000000
00000000
,
00000001
00000000
00000100
00000000
00000010
00001000
00000100
00000000
00000000
00010000
00001000
00000000
00010000
00001000
00010000
00000000
,
00001000
00100000
00001000
00100000
00000000
00010000
01000000
00000000
00100000
10000000
01000000
00000000
00100000
00000000
00001000
00000000
,
00010000
00000000
00000000
00001000
00000000
00000000
00000100
00000000
00000000
00000010
00000000
00000000
00000001
00000000
00000100
00000000
,
00000010
00000100
00000010
00000000
00001000
00000100
00001000
00000000
00000001
00000100
00000001
00000100
00000020
00000000
00000000
00000000
,
00001030
00000100
00000010
00000001
00001000
00000010
00000100
00000001
,
00000010
00000100
00010000
00001000
00100000
01000000
10000000
00010000
,
01000000
10000000
01000000
00100000
01000000
00010000
10000000
00100000
,
00010000
00001000
00000010
00000001
00001000
00000010
00000100
00000000
,
00001001
00000000
00000000
00000000
;

//--------------- dance-double - Fred-104 ----------------
#NOTES:
     dance-double:
     Fred-104:
     Challenge:
     17:
     :
00000000
00000000
00000000
00000000
,
00000000
00000000
00000000
00000000
,
00000000
00000000
00000000
00000000
,
00000000
00000000
00000000
00000000
,
00000000
00000000
00000000
00000000
,
00000000
00000000
00000000
00000000
,
00000000
00000000
00000000
00000000
,
00000000
00000000
00000000
00000000
,
00000000
00000000
00000000
00000000
,
00011000
00000000
00000000
00000000
,
MMMMMMMM
00000000
00000000
00000000
00000000
11000000
00000000
01010000
,
00220000
00000000
00000000
00000000
00000000
00000000
00000000
00000000
00000000
00000000
00000000
00000000
00330000
00000000
00010000
00001000
,
00010000
00001000
00000010
00000001
00000100
00001000
00011000
00000000
,
00001000
00000000
00010000
00000000
01000000
00000000
00100000
00000000
00010000
00000000
10000000
00000000
01000000
10000000
01000000
10000000
,
01000000
00000000
00100000
00000000
00010000
00000000
01000000
00000000
00001000
00010000
00000100
00000000
00001000
00000001
00000100
00000000
,
00000001
00000010
00000100
00001000
00000100
00010000
00001000
00100000
00010000
00100000
01000000
10000000
00020000
00000000
00000000
00000000
,
10030000
00100000
01000000
00010000
10000000
00000000
00000000
00000000
0001MMMM
00000000
00000000
00000000
MMMM1000
00000000
00000000
00000000
,
00011000
00000000
00010000
00001000
00000010
00000100
00001000
0000MMMM
,
00000001
00000100
00000010
00001000
00000001
00000010
00000100
00001000
00000010
00000100
00001000
00010000
00001000
00000000
00000000
00000000
,
00010000
00001000
01000000
00001000
00010000
00000000
00000000
00000000
00001000
00010000
00000010
00001000
00000100
00000000
00000000
00000000
,
00010000
00000000
00001000
00100000
00000000
00010000
02000000
00000000
00000000
03200000
00000000
00000000
10300000
01000000
00100000
00010000
,
02000000
03000000
00000000
00000000
00000000
00000000
00000000
00000000
00000000
00000000
00000000
00000000
00000000
00000000
00000000
00000000
0001MMMM
00000000
00000000
00000000
01000000
00000000
00000000
00000000
00010000
00000000
00000000
00000000
01000000
00000000
00000000
00000000
10000000
00000000
00000000
00000000
01000000
00000000
00000000
00000000
10000000
00000000
00000000
00000000
01000000
00000000
00000000
00000000
00010000
00000000
00000000
00000000
00000000
00000000
00000000
00000000
MMMM0000
00000000
00000000
00000000
00000000
00000000
00000000
00000000
,
10000000
00100000
10000000
01000000
00100000
00010000
00100000
00001000
00010000
00000010
00001000
00000010
00000100
00000000
00000001
00000000
,
MMMM0010
00000001
MMMM0100
00001000
0001MMMM
01000000
0010MMMM
00010000
,
10010000
MMMM0000
00011000
MMMMMMMM
00001001
0000MMMM
MMMMMMMM
00000000
,
00000001
00000000
00001000
00000001
00000000
00000010
00000001
00000000
00001000
00000000
00000001
00000010
00000100
00000000
00010000
00000000
,
00001000
00000000
00100000
00010000
00000000
00100000
01000000
00000000
10000000
00010000
00000000
01000000
00010000
00000000
10000000
00000000
,
00010000
00000000
00100000
01000000
00000000
00100000
00010000
00000000
00001000
00000000
00000010
00000100
00000010
00001000
00010000
00001000
,
00010000
00000000
00001000
00100000
00000000
00010000
10000000
00000000
00010000
01000000
00000000
00100000
01000000
00000000
00010000
00000000
,
00001000
00000000
00000100
00000010
00000000
00000100
00001000
00000000
00010000
00000000
00001000
00000000
00010000
00001000
00010000
00000000
,
00000100
00000000
00001000
00000001
00000000
00000100
00000010
00000000
00001000
00000001
00000000
00000010
00000100
00000010
00000001
00000000
,
00000101
00000000
00000000
00001100
00000000
00000000
00012000
00000000
00000000
00000000
00013000
00000000
00100000
10000000
00100000
10000000
,
00010000
10000000
01000000
00010000
00001000
00000010
00000001
MMMMMMMM
,
00000100
00000101
MMMMMMMM
00001100
MMMMMMMM
00000101
MMMMMMMM
00000011
,
MMMMMMMM
00001010
MMMMMMMM
00011000
MMMMMMMM
00101000
00011000
MMMMMMMM
,
00010000
00010010
MMMMMMMM
01001000
MMMMMMMM
00010100
MMMMMMMM
00011000
,
MMMMMMMM
00110000
10100000
11000000
MMMMMMMM
01010000
00022000
00033000
,
00011000
00000000
00000000
00010100
00000000
00000000
00001001
00000000
00000000
00000000
00000010
00000000
00000200
00000000
MMMM0000
00000000
,
00010300
00000000
00000000
00011000
00000000
00000000
00101000
00000000
00010000
01000000
00000000
00000000
00200000
00000000
0000MMMM
00000000
,
10300000
00000000
01000000
10000000
00000000
00010000
01000000
00000000
00001000
00010000
00000000
00000010
00001000
00000000
00000001
00000100
,
00000010
00000000
00000000
00001000
00000001
00000100
00001000
00010000
00100000
10000000
00000000
00000000
,
02100000
00000000
00000000
0000MMMM
00000000
00000000
0000MMMM
00000000
,
0000MMMM
00000000
00000000
0000MMMM
00000000
00000000
0000MMMM
00000000
,
13000000
01000000
00010000
00002000
00000000
MMMM0000
00000000
MMMM0000
,
00000000
00013000
00100000
10000000
01000000
00000000
00010000
00000000
,
00002000
00000000
00000000
MMMM0000
00000000
00000000
MMMM0000
00000000
,
MMMM0000
00000000
00000000
MMMM0000
00000000
00000000
MMMM0000
00000000
,
00013000
00001000
00000100
00000002
00000000
00000000
MMMM0000
00000000
,
MMMM0000
00000000
00000000
MMMM0100
00000000
00000010
MMMM0003
00000000
,
00001000
00000000
00000100
00000000
00000010
00000001
00000000
00001000
00000010
00000000
00010000
00001000
00000000
01000000
00010000
00000000
,
00100000
00000000
01000000
00000000
10000000
00010000
00000000
00100000
01000000
00000000
00010000
01000000
00000000
10000000
00010000
00000000
,
20000000
32000000
03200000
00302000
00013000
00100000
10000000
01000000
,
00010000
00002000
00003200
00000320
00002030
00003001
00000200
00000300
,
00000101
00000000
00000000
00000000
00000010
00000000
00000000
00000001
00000100
00000001
00000000
00000000
00000100
00000000
00000010
00001000
,
00001010
00000000
00000000
00000000
00010000
00000000
00000000
00001000
00010000
00001000
00000000
00000000
01000000
00000000
00010000
00000000
,
10000000
00000000
00010000
00000000
00100000
00000000
01000000
00000000
00100000
00010000
00100000
00001000
00010000
00001000
00010000
00001000
,
00000000
00000000
00010000
00000000
00001000
00000000
00000100
00000000
00000001
00001000
00000001
00001000
00000001
00000000
00000010
00000000
,
MMMMMMMM
00000000
00000000
00000000
00001000
00000000
00000100
00000000
00001000
00000010
00000001
00000000
00001000
00000100
00000001
00000000
,
00001000
00000000
00000001
00000010
00000000
00000100
00000010
00000000
00000001
00000100
00000000
00000001
00000010
00000000
00000001
00001000
,
00000010
00000000
00000100
00000010
00000000
00001000
00000010
00000000
00000100
00000001
00000010
00000001
00001000
00000010
00000100
00000001
,
00001000
00000000
00000001
00000010
00000000
00000010
00001000
00000000
00010000
01000000
00000000
01000000
00100000
00000000
00010000
10000000
,
00010000
00000000
00100000
01000000
00000000
10000000
00100000
00000000
01000000
00010000
10000000
00000000
00010000
00000000
00100000
01000000
,
00100000
00000000
00010000
10000000
00000000
01000000
00010000
00000000
00010000
00001000
00000000
00001000
00000010
00000000
00000100
00001000
,
00000001
00000000
00000000
00000000
00000000
00000000
00000000
00000000
00000000
00000101
00000000
00000000
00000000
00000000
00000000
00000000
00000000
00000000
00001002
00000000
00000000
00000000
00000000
00000000
00000000
00000000
00000000
00000000
00000000
00000000
00000103
00000000
00000000
00000000
00000000
00000000
00000001
00000000
00001000
00000000
00000100
00000000
00000010
00000000
00000000
00000000
00000000
00000000
,
MMMMMMMM
00000001
00000100
00001000
00010000
00100000
20020000
3003MMMM
,
10000000
11000000
MMMMMMMM
01010000
MMMMMMMM
00011000
MMMMMMMM
00001010
,
MMMMMMMM
00000011
MMMMMMMM
00000101
MMMMMMMM
00001100
00011000
MMMMMMMM
,
00010000
00010010
MMMMMMMM
00101000
MMMMMMMM
00010100
MMMMMMMM
01001000
,
MMMMMMMM
00000000
00011000
00000000
00001010
00000000
00011000
00000000
MMMMMMMM
00000000
00101000
00000000
00001000
00010000
00001000
00010000
,
00001000
00000000
00010000
00000000
00100000
01000000
00010000
00000000
00000000
10000000
00010000
00000000
10000000
01000000
00100000
00010000
,
01000000
00100000
01000000
00100000
00000000
01000000
00010000
00000000
10000000
00010000
01000000
00100000
10000000
00000000
01000000
00000000
,
01100000
00000000
00000000
00011000
00000000
00000000
00000100
00000010
00000100
00000000
00000001
00000000
00001000
00000010
00000100
00000001
,
00000100
00000010
00001000
00000100
00010000
00001000
00100000
00010000
10000000
00100000
01000000
00010000
10000000
00000000
00000000
00000000
,
20020000
00000000
00000000
00000000
,
00000000
00000000
00000000
00000000
,
00000000
00000000
00000000
00000000
,
00000000
00000000
00000000
00000000
,
3003MMMM
00000000
00000000
00000000
;
