#TITLE:The Sampling Paradise;
#ARTIST:Mamonis;
#GENRE:HARD TRANCE;
#BANNER:The Sampling Paradise.png;
#BACKGROUND:The Sampling Paradise-bg.png;
#CDTITLE:./CDTitles/bm IIDX 19 Lincle.png;
#MUSIC:The Sampling Paradise.ogg;
#SAMPLESTART:65.605;
#SAMPLELENGTH:15;
#DISPLAYBPM:31.25:300;
#BPMS:0=150,64.5=300,65.5=150,66.5=300,66.75=150,66.875=75,67=150,67.5=300,67.75=150,67.875=75,68=150,95=225,98=300,102=150,130=118.75,130.791667=93.75,131.416667=56.25,131.791667=31.25,132=150,134=75,135=150,137=75,138=150,144=75,145=150,157=75,159=150,194=300,195=150,198=237.5,198.395833=187.5,198.708333=112.5,198.895833=62.5,199=118.75,199.791667=93.75,200.416667=56.25,200.791667=31.25,201=125,201.416667=225,202.166667=375,203.416667=475,205=600,211=475,211.395833=375,211.708333=225,211.895833=125,212=150,251=300,252=150;
#STOPS:64.5=0.05,64.75=0.100,65.25=0.05,90=0.05,90.125=0.05,90.25=0.05,90.375=0.05,90.5=0.05,90.625=0.05,90.75=0.05,90.875=0.05,194=0.05,194.25=0.05,194.5=0.05,194.75=0.05,251=0.05,251.25=0.05,251.5=0.05,251.75=0.05;
#TIMESIGNATURES:0=4=4,88=3=4,91=4=4,95=7=4,102=4=4,130=2=4,132=3=4,138=4=4,142=3=4,145=4=4,157=2=4,159=4=4,199=2=4,201=11=4,212=4=4;
#BGSTAGE:14;

//--------------- dance-single - Fred-104 ----------------
#NOTES:
     dance-single:
     Fred-104:
     Beginner:
     5:
     :
0000
0000
0000
0000
,
0000
0000
0000
0000
,
0000
0000
0000
0000
,
1000
0000
0001
0000
,
0100
0100
0100
0000
,
0001
0000
0010
0000
,
0100
0000
1000
0000
,
0001
0001
1000
1000
,
2002
0000
3003
0000
,
2000
3000
0002
0003
,
0100
0000
0010
0010
,
0020
0030
0200
0300
,
0001
0000
1000
1000
,
2000
3000
0002
0003
,
1000
0000
0010
0010
,
0010
0000
0100
0000
,
0002
0003
2000
3000
,
0001
0000
1000
0000
,
0100
0100
0100
0000
,
1000
0000
0001
0000
,
0100
0100
0100
0000
,
1001
0000
0001
0000
,
1001
0000
0000
0001
,
0000
1000
0000
2002
,
0000
0000
0000
0000
,
3003
0000
1001
0000
,
0000
0000
0000
0000
,
0000
0000
0000
0000
,
0000
0000
0000
0000
,
0000
0000
0110
0000
,
0000
0000
0000
0000
,
0000
0000
0001
0000
,
1000
0000
2002
3003
,
2000
0000
3000
0002
,
0000
0003
2000
0000
,
3000
0000
0002
0000
,
0003
1000
0000
1000
,
0000
0001
0000
0001
,
0000
1000
1000
1000
,
1000
2002
3003
0002
,
0000
0003
0000
1000
,
0000
0001
0000
0200
,
0000
0300
0000
0001
,
0000
1000
0000
0002
,
0000
0003
0000
1000
,
0000
0001
0000
0020
,
0000
0030
0000
0001
,
0000
1000
0000
0002
,
0000
0000
0003
2000
,
0000
0000
3000
2002
,
0000
0000
0000
0000
,
0000
0000
0000
0000
,
0000
0000
0000
0000
,
3003
0000
0001
0001
,
0001
0000
1000
0001
,
1000
0000
0001
0000
,
0100
0000
0110
0000
,
0100
0000
0010
0000
,
0100
0000
0001
0001
,
0001
0000
1000
0000
,
1001
0000
0000
0000
,
0002
0000
0000
0000
,
0000
0000
0000
0003
,
2000
0000
3000
0000
,
0001
0000
1000
0000
,
0020
0000
0030
0000
,
1000
0000
0001
0000
,
0200
0000
0300
0000
,
0001
0000
1000
0000
,
0001
0000
1000
0000
,
2002
0000
0000
0000
0000
0000
0000
0000
0000
0000
0000
0000
0000
0000
0000
3003
;

//--------------- dance-single - Fred-104 ----------------
#NOTES:
     dance-single:
     Fred-104:
     Easy:
     9:
     :
0000
0000
0000
0000
,
0000
0000
0000
0000
,
0000
0000
0000
0000
,
0001
0010
0200
1300
,
0001
1000
0010
0000
,
1000
0100
0001
0000
,
1000
0010
0001
0000
,
1000
0001
0100
0010
,
1000
0100
0010
0000
0002
0003
2002
3003
,
0001
0010
0100
1000
,
0001
0000
0100
0000
0010
0010
0010
0000
,
0100
0001
1000
0100
,
0010
0001
2000
3000
,
0001
0010
1000
0010
,
0001
0000
1000
0000
0100
0100
0100
0000
,
1000
0000
0000
0010
0000
0000
1000
0000
0001
0000
0000
0100
0000
0000
0010
0000
,
1000
0000
0000
0001
0000
0000
1000
0000
0200
0000
0000
0000
0320
0000
0000
0000
,
0031
0000
1000
0000
0001
0010
0001
0000
,
0100
0000
0010
0000
1000
0001
0010
0000
,
0100
0000
1000
0000
0001
0100
0010
0000
,
1000
0000
0001
0000
0010
0100
1000
0000
,
1100
1000
0011
0001
,
1010
0000
0000
0000
1000
0000
0000
0000
0202
0000
0000
0303
0001
0000
0000
0000
,
1000
0000
0001
0100
0010
0100
0220
0000
,
0000
0000
0000
0000
,
0000
0330
1001
0000
,
0000
0000
0000
0000
,
0000
0000
0000
0000
,
0000
0000
0000
0000
,
0000
0000
0001
1000
1001
0000
0000
0000
,
0000
0000
0000
1000
,
0100
1000
0001
0100
,
1000
0100
0001
0000
2002
0000
3003
0000
,
1000
0100
0110
0001
,
0100
0110
1000
0010
,
0001
0010
0100
0001
,
1001
1100
0000
0101
,
0000
0011
0000
1010
,
0000
0000
1000
0100
0001
0000
1000
0010
,
0001
0000
2002
0000
0000
3003
1000
0000
,
0100
1000
0001
0100
,
0010
0000
0100
0001
0100
0000
0001
0000
,
0010
1000
0100
0001
,
1000
1001
0000
1000
,
0010
0000
0100
0001
0100
0000
0010
0000
,
1000
0001
0010
0100
,
1000
0000
0000
0000
0001
0000
1000
0000
0001
0000
0000
0000
1000
0000
0000
0100
,
0000
0000
0010
0000
0000
0001
0000
0000
1000
0000
0000
0000
0001
0000
0000
0000
,
0100
0202
0303
1000
,
0100
2200
3300
2002
,
0000
0000
0000
0000
,
0000
0000
0000
0000
,
0000
0000
0000
3003
,
1000
0001
0100
1000
,
0100
0000
0001
0000
1000
0100
0010
0000
,
0001
0000
1000
0000
0001
0100
0010
0000
,
0100
0000
0000
0100
0000
0000
0100
0000
2002
0000
0000
0000
3003
0000
0000
0000
,
1000
0000
0010
0000
0100
0010
0100
0000
,
0001
0000
0010
0000
0100
1000
0001
0000
,
0100
0000
0010
0000
0100
0001
1000
0001
,
1001
0000
0000
0000
,
0110
0000
0000
0000
,
0002
0000
0000
0003
,
1000
0000
0100
0000
1000
0001
1000
0000
,
0001
0000
0100
0000
0010
1000
0001
0000
,
0010
0000
0100
0000
0010
0001
1000
0000
,
0001
0100
0001
0000
1000
0100
1000
0000
,
0001
0000
0010
0000
0001
1000
0010
0000
,
0100
0000
0001
0000
1000
0100
0010
0000
,
0001
1000
0001
0000
0100
0010
0100
0000
,
0001
0000
0000
0011
0000
0000
1000
0000
0000
1010
0000
1000
0000
0001
0000
1001
;

//--------------- dance-single - Fred-104 ----------------
#NOTES:
     dance-single:
     Fred-104:
     Medium:
     13:
     :
0000
0000
0000
0000
,
0000
0000
0000
0000
,
0000
0000
0000
0000
,
0001
0100
0001
0010
0002
2003
3001
0100
,
0010
1000
0100
0000
0010
0000
2002
3003
,
0001
0100
0001
1000
0001
0010
0001
1000
,
0001
0010
0100
1000
0001
0100
0010
1000
,
0001
0010
0100
0010
0002
0000
2003
0000
,
3001
1000
0001
1000
0001
0000
0000
0000
0110
0000
0000
0000
2002
3003
0000
0000
,
0001
0010
0001
0000
1000
0000
0100
0000
0010
0000
0001
0000
1000
0000
1000
0000
,
0001
0000
0100
0000
0010
0000
1000
0000
0100
1000
0100
0000
0010
0000
0000
0000
,
0001
0010
0001
0000
0010
0000
0100
0000
1000
0000
0001
0000
0100
0000
0100
0000
,
0001
0010
0001
0000
0010
0000
0100
0000
1000
0100
1000
0000
1001
0000
0000
0000
,
1000
0100
1000
0000
0010
0000
0100
0000
0001
0000
1000
0000
0010
0000
0100
0000
,
0001
0010
0001
0000
0010
0000
0100
0000
1000
0000
0001
0000
0100
0000
0010
0000
,
1010
0000
0000
1000
0000
0000
0100
0000
0110
0000
0000
0010
0000
0000
0001
0000
,
1000
0000
0001
1000
0000
0001
1000
0000
0200
0000
0000
0000
0320
0000
0000
0000
,
0031
0000
0100
0000
0010
0000
1000
0000
0100
0000
0010
0000
0001
1000
0001
0000
,
0100
0000
0001
0000
0010
0000
0100
0000
1000
0000
0010
0000
0100
0001
0100
0000
,
0010
1000
0010
0100
0001
0010
0100
0010
,
0001
0001
0100
0100
1010
0000
1001
0000
,
1100
0000
0000
0010
0000
0000
0001
0000
0101
0000
0000
0010
0000
0000
1000
0000
,
1001
0000
0000
0001
0000
0000
0100
0000
0002
0000
2003
0000
3001
0000
0100
0000
,
0010
0000
0000
1000
0000
0000
0001
0010
0000
0100
0010
0000
0002
0000
0000
0000
,
0000
0000
2000
0000
,
0000
3003
1001
0000
,
0000
0000
0000
0000
,
0000
0000
0000
0000
,
0000
0000
0000
0000
0000
0000
0000
0000
0000
0000
0000
0000
0000
0000
0000
0001
,
0000
1000
0001
0100
0110
0000
0000
0000
,
0000
0000
0000
0000
0000
0000
0000
0000
0000
0000
0000
0000
0001
0000
0000
0100
,
0000
0100
0000
0010
0000
1000
0100
0000
1000
0000
0001
0000
0100
0000
0010
0000
,
1000
0100
0010
0001
2002
0000
3003
0000
,
1001
0000
0000
0000
1100
0000
0000
0220
0000
0000
0000
0330
1001
0000
0000
0000
,
0101
0000
0000
0220
0000
0000
0000
0330
1001
0000
0000
0000
1010
0000
0000
0110
,
0000
0000
0001
0100
0000
0001
1000
0000
0001
0000
0100
0010
0000
1000
0001
0000
,
1000
1000
2000
0000
3001
0000
0010
0000
1000
0000
0000
0000
0001
0000
0100
0000
,
1000
0000
0001
0100
1000
0000
0001
0010
,
1000
0000
0000
0000
0001
0100
0000
0000
0100
0010
0000
0000
0010
1000
0000
0000
,
1000
0001
0000
0000
0002
0000
1003
0000
0110
0000
1001
0000
0001
0000
1000
0000
,
0001
0100
0010
1000
0010
0100
0001
0010
,
0100
1000
0010
0100
0001
0000
1000
0100
,
1000
0000
0001
0000
0100
0000
0010
0000
1000
0000
0010
0000
0100
0000
0001
0010
,
0000
0010
0001
0000
0100
0000
0010
0000
2000
0000
0000
0000
3001
0000
1000
0000
,
0100
1000
0001
0100
0010
1000
0010
0100
,
0001
1000
0100
0010
0001
0000
0100
0010
,
0100
0000
0001
1000
0000
1000
0001
0000
0010
0000
0100
0000
1000
0000
0000
1100
,
0000
0000
1001
0000
0000
0001
0000
0100
0000
0001
0010
0000
0100
0000
1000
0000
,
0001
0100
0000
0020
0000
0000
0000
0000
0000
0000
0000
0000
1030
0000
0100
0000
,
0010
0001
0000
2000
0000
0000
0000
0000
3001
0000
0000
0000
2002
0000
0000
0000
,
0000
0000
0000
0000
,
0000
0000
0000
0000
,
0000
0000
0000
3003
,
2000
0000
3010
1000
0002
0000
0103
0001
,
0020
0000
0130
1000
0001
0100
0010
0000
,
0110
0000
0100
0001
1000
0001
0010
0001
,
1000
0000
0001
0100
0000
0001
0100
0000
0220
0000
0000
0000
0330
0000
0000
0000
,
0001
0010
0001
1000
0001
0100
0010
0000
,
1000
0000
0100
0000
0010
0000
0001
0000
0100
0010
0000
0100
0010
0000
0100
0000
,
0001
0000
1000
0001
0010
0001
0100
0010
,
0110
0000
0000
0000
,
1001
0000
0000
0000
,
0002
0000
0000
0003
,
1000
0100
1000
0001
0100
0010
1000
0010
,
0100
0001
1000
0100
0010
0001
1000
0000
,
0001
0010
0100
0010
0001
1000
0010
0100
,
0001
0000
1000
0100
0000
0100
0010
0000
0001
0000
1000
0000
1001
0000
0000
0000
,
0001
0010
0001
1000
0001
0100
0010
1000
,
0100
1000
0001
0100
0010
1000
0001
0000
,
1000
0000
0100
0000
0010
0000
0001
0100
0000
0010
0100
0000
0001
0000
0100
0000
,
0110
0000
0000
1010
0000
0000
0101
0000
0000
1000
0000
0001
0000
0100
0000
0110
;

//--------------- dance-single - Fred-104 ----------------
#NOTES:
     dance-single:
     Fred-104:
     Hard:
     16:
     :
0000
0000
0000
0000
,
0000
0000
0000
0000
,
0000
0000
0000
0000
,
1000
0100
0000
0100
0010
0001
0000
0001
0100
0010
0100
0010
0100
0000
0001
0000
,
1000
0000
0010
1000
0001
1000
0100
0000
1000
0001
0100
0001
2000
0000
3020
0000
,
0130
0001
1000
0100
0010
0100
1000
0001
,
0100
0010
1000
0000
0010
0100
0001
0000
1000
0100
0010
0000
0001
0010
0100
0000
,
1000
0010
1000
0010
0100
0001
0100
0001
1000
0100
0010
0001
1000
0000
0000
0000
,
0001
0000
0100
0000
0010
0000
1000
0000
0001
0000
0000
0000
0000
0000
0000
0000
0110
0000
0000
0000
0000
0000
0000
0000
2002
3003
0000
0000
0000
0000
0000
0000
,
0001
0100
0010
1000
0010
0000
0100
0001
0000
1000
0100
0000
0010
0000
0100
0000
,
1000
0001
0100
0010
1000
0000
0001
0010
0000
0100
0010
0000
0001
0000
1000
0001
,
0010
0001
1000
0001
0100
0000
0001
1000
0000
0100
1000
0000
0001
1000
0010
0000
,
1000
0001
1000
0100
1000
0000
0001
0100
0000
0010
1000
0010
0100
0000
0001
1000
,
0100
0010
0001
1000
0100
0010
0001
1000
0000
0001
0100
0000
0010
0000
0100
0001
,
1000
0001
0100
0010
1000
0010
0100
0001
0000
1000
0100
0010
0000
0001
0010
0100
,
0010
0000
0001
1000
0000
0010
1000
0000
0001
0100
0010
1000
0001
0010
0100
0000
,
1001
0000
0000
0000
1000
0000
0100
0000
0000
0000
0100
0000
0001
0000
0000
0000
1000
0000
0100
0000
0002
0000
0000
0003
1000
0000
0010
0000
0002
0000
0000
0003
,
1000
0001
0100
0010
0100
0000
0001
0010
0000
0001
1000
0001
0100
0000
0010
1000
,
0000
0010
0100
0010
1000
0000
0100
0010
0000
0001
0100
0010
0100
0001
1000
0001
,
0010
0000
0100
1000
0100
0000
1000
0001
0000
0010
0001
1000
0000
0010
1000
0100
,
1000
0000
0001
0010
0000
0001
1000
0001
0100
0010
0100
0000
0001
0000
1000
0000
,
1100
0000
1000
0010
0000
0100
0001
0000
0011
0000
0001
0100
0000
0010
1000
0000
,
1001
0000
0000
0000
0001
0000
0100
0000
0000
0000
0010
0000
1000
0000
0000
0000
0001
1000
0001
1000
0001
1000
0001
1000
0001
0000
0000
0000
1000
0000
0100
0000
,
1000
0001
0100
0001
0000
1000
0100
0010
0000
0001
1000
0000
0002
0000
0000
0000
,
0000
0000
2000
0000
,
0000
3003
1001
0000
,
0000
0000
0000
0000
,
0000
0000
0000
0000
,
0000
0000
0000
0000
0000
0000
0000
0000
0000
0000
0000
0000
0000
0000
1000
0100
,
0000
0010
0001
0000
0100
0001
1000
0001
0010
0000
0000
0000
0000
0000
0000
0000
,
0000
0000
0000
0000
0000
0000
0000
0000
0000
0000
0000
0000
0100
1000
0000
1010
,
0000
0101
0000
1001
0000
1000
0100
0010
0001
0000
1000
0000
0001
1000
0001
1000
,
0100
0010
0001
1000
0010
0100
0001
0000
2002
0000
0000
0000
3003
0000
0000
0000
,
1100
0000
1100
0000
1000
0100
0000
0220
0000
0000
0330
0000
0101
0000
0101
0000
,
0001
0100
0000
0220
0000
0000
0330
0000
1010
0000
1000
0000
1001
0000
0001
0100
,
0000
0010
1000
0010
0000
1000
0001
0010
0001
0000
1000
0001
0000
0100
0010
0000
,
1000
0100
1000
0100
0010
0001
0010
0001
1000
0000
0000
0000
0100
0000
0000
0000
0001
0000
0100
0000
0000
0000
0000
0000
0001
0000
0000
0000
0100
0000
0000
0000
,
1000
0100
0000
0000
1000
0000
0010
0000
0001
0010
0000
0000
0001
0000
0010
0000
,
1000
0010
0000
0000
1000
0100
0000
0100
0010
0001
0000
0001
0100
0010
0100
0010
,
1000
0001
1000
0001
2000
0000
3001
0000
0110
0000
2002
3003
0001
0000
1000
0000
,
0010
0100
0000
0001
0000
1000
0000
0001
0000
1000
0100
0010
0100
0000
1000
0000
,
0001
0100
0000
0001
0000
1000
0000
0010
0000
0100
0001
1000
0001
0000
1000
0000
,
0100
0000
0010
0001
0000
1000
0001
1000
0000
0010
0100
0001
1000
0000
0001
0010
,
0000
0100
0010
0001
0000
1000
0010
0100
0001
1000
0100
0000
1000
0000
0001
0000
,
1000
0100
0000
0010
0000
0001
0000
1000
0000
0001
0100
0010
0100
0000
0001
0000
,
1000
0001
0000
0010
0000
0001
0000
1000
0000
0100
1000
0001
0100
0000
0010
0000
,
1000
0000
0000
0000
0001
0000
0100
0000
0000
0000
0100
0000
1000
0000
0000
0000
0002
0000
0000
0000
0023
0000
0000
0030
0110
0000
0000
0000
1000
0000
0100
0000
,
0000
0010
0001
0000
1000
0010
0000
0100
0000
0001
0010
0100
0010
0001
0010
0001
,
0010
0000
0000
0000
0001
0000
0000
0000
0000
0000
0000
0000
1000
0000
0000
0000
0000
0000
0000
0000
0001
0000
0000
0000
0000
0000
0000
0000
0100
0000
0000
0000
0020
0030
0000
0000
2000
3000
0000
0000
0020
0030
0000
0000
2000
3000
0000
0000
0010
0000
0000
0000
0000
0000
0000
0000
1000
0000
0000
0000
0000
0000
0000
0000
,
0100
0010
0000
0001
0000
1000
0000
0001
0200
0000
0000
0300
0220
0000
0000
0000
,
0000
0000
0000
0330
0002
0000
0000
0000
0000
0000
0000
0000
0000
0000
0000
0000
,
0000
2000
0000
0000
,
0000
0000
0000
3003
,
0110
0000
0000
1000
0100
0000
0020
0030
0110
0000
0000
0001
0100
0000
0020
0030
,
1010
0000
0000
1000
0001
0000
0100
0000
0001
0010
0100
1000
0001
0000
0100
0000
,
0110
0000
0000
0010
1000
0000
0100
0000
0110
0000
0010
0001
1000
0000
0001
0000
,
0100
0000
0001
1000
0000
0100
0010
0001
2000
0000
0010
0000
3002
0000
0100
0000
,
1003
0000
0001
1000
0010
0000
0100
0001
0000
1000
0000
0001
0100
0000
0010
0000
,
1000
0100
1000
0001
1000
0010
0100
0000
0001
0010
0000
0100
0010
0000
0011
0000
,
0001
0000
1001
0000
1000
0010
0100
0001
1000
0100
0010
0001
1000
0000
0001
0100
,
0010
0000
0000
0000
0000
0000
0000
0000
0000
1000
0000
0000
0000
0000
0000
1000
0000
0000
0000
0000
0000
1000
0000
0000
0000
0000
0000
0000
0001
0000
0000
0000
1000
0000
0000
0000
0100
0000
0000
0000
0010
0000
0000
0000
0001
0000
0000
0000
,
1001
0000
0000
0000
,
1000
0010
1000
0000
0001
0100
0001
0000
1000
0100
0010
0001
2000
0000
0000
0000
,
3001
0000
0100
0000
0001
1000
0000
0001
0000
0010
0000
0100
0000
0010
0001
1000
,
0010
0000
0100
0000
0001
1000
0000
0100
0000
0010
0000
0001
0000
1000
0010
0100
,
0010
0000
1000
0000
0001
0000
1000
0100
0000
0010
0100
1000
0000
0001
0100
0010
,
1000
0000
0001
0010
0000
0100
0010
0001
0000
1000
0010
0100
0001
1000
0100
0010
,
0100
0000
1000
0000
0001
0100
0010
1000
0000
0001
0000
0010
0000
0100
0010
0001
,
1000
0000
0010
0000
1000
0001
1000
0100
0000
0010
0000
0001
0000
0100
0001
1000
,
0001
0000
0100
0010
1000
0000
0001
0010
0000
0100
1000
0000
0010
1000
0001
0000
,
1001
0000
1000
0100
0000
0010
0001
0000
1000
0010
0000
0100
0001
1000
0100
0110
;

//--------------- dance-single - Fred-104† ----------------
#NOTES:
     dance-single:
     Fred-104†:
     Challenge:
     18:
     :
0000
0000
0000
0000
,
0000
0000
0000
0000
,
0000
0000
0000
0000
,
0001
0010
0000
0010
1000
0010
0000
0010
0002
2003
3002
2003
3001
0100
0010
1000
,
0001
0000
1000
0100
0010
0001
1000
0000
0010
0100
0001
0100
0002
0000
2003
0000
,
3001
0000
0010
0000
0100
0000
1000
0001
0100
0000
0010
0000
1000
0100
0010
0001
,
1000
0100
1000
0001
0100
0000
0001
1000
0010
1000
0001
0010
0100
1000
0001
0100
,
0001
1000
0100
1000
0001
0100
0010
1000
0001
0010
0100
1000
0001
0100
0010
1000
,
0001
0000
0000
0000
0010
0000
0000
0000
1000
0000
0000
0000
0010
0000
0000
0000
0001
0000
0000
0000
0000
0000
0000
0000
0000
0000
0000
0000
0000
0000
0000
0000
0110
0000
0000
0000
0000
0000
0000
0000
0000
0000
0000
0000
0000
0000
0000
0000
2002
3003
0000
0000
0000
0000
0000
0000
0000
0000
0000
0000
0000
0000
0000
0000
,
1000
0100
0010
0001
1000
0010
0100
0001
0000
1000
0100
0000
0010
0000
0001
1000
,
0010
0100
0001
1000
0010
0100
0001
1000
0000
0001
0010
0100
1000
0000
0010
1000
,
0001
1000
0100
0010
0001
1000
0010
0100
0000
0001
0010
0100
0010
0000
0001
1000
,
0001
0100
0100
1000
0001
0000
1000
0010
0000
0100
0001
0010
0100
0001
0100
0010
,
0001
0100
0010
1000
0001
0010
0100
0010
0000
1000
0010
0001
1000
0000
0100
1000
,
0010
1000
0001
0100
0001
0100
0010
0100
0000
1000
0100
0010
1000
0001
0010
0100
,
1000
0000
0000
0000
0000
0000
0001
0000
0000
1000
0000
0000
1010
0000
0000
0000
0000
0000
1000
0000
0000
0001
0000
0000
0100
0000
0001
0000
1000
0000
0001
0000
0000
0010
0000
0000
0100
0000
0000
1000
0000
0000
0001
0000
0000
0100
0000
0000
,
0001
0000
0000
0000
0000
0000
0000
0000
0200
0300
0000
0000
2000
3000
0000
0000
0000
0000
0000
0000
0200
0300
0000
0000
0001
0000
0000
0000
0000
0000
0000
0000
1000
0000
0000
0000
0100
0000
0000
0000
0120
0000
0000
0000
0000
0000
0030
0000
0001
0000
0000
0000
0100
0000
0000
0000
0120
0000
0000
0000
0000
0000
0030
0000
,
1000
0001
0100
0001
1000
0001
0010
0001
0000
1000
0100
0010
0001
0000
1000
0001
,
0000
0010
0100
0010
1000
0000
0010
0100
0000
1000
0010
0100
0010
0001
1000
0100
,
0010
1000
0001
0010
0100
0010
1000
0010
0001
0100
0100
1000
0001
0010
0010
0100
,
0001
1000
0010
0100
0001
1000
0100
0000
1000
0100
0120
0030
0001
0010
0210
0300
,
1100
0000
0000
0000
0000
0000
1000
0000
0000
0100
0000
0000
0010
0000
0000
0001
0000
0000
0100
0000
0000
0010
0000
0000
1010
0000
0000
0000
0000
0000
1000
0000
0000
0001
0000
0000
0010
0000
0000
0100
0000
0000
0010
0000
0001
0000
1000
0000
,
0001
0000
0000
0000
0000
0000
0000
0000
1000
0000
0000
0000
0001
0000
0000
0000
0010
0000
0000
0000
0001
0000
0000
0000
0100
0000
0000
0000
0010
0000
0000
0000
2000
3000
0200
0300
0020
0030
0002
0003
2000
3000
0200
0300
0020
0030
0002
0003
1000
0000
0000
0000
0001
0000
0000
0000
0100
0000
0000
0000
0010
0000
0000
0000
,
1000
0001
0010
0100
0000
0001
0100
1000
0000
0001
0100
0010
2000
0000
0000
0000
,
0000
0000
0002
0000
,
0000
3003
1001
0000
,
0000
0000
MMMM
0000
,
0000
0000
MMMM
0000
,
0000
0000
0000
0000
0000
0000
0000
0000
0000
0000
0000
0000
0000
0000
0000
0000
MMMM
0000
0000
0000
0000
0000
0000
0000
0000
0000
0000
0000
0001
1000
0001
0000
,
0000
0000
0000
0100
0000
0000
0010
0000
0000
0000
0000
0000
1000
0000
0100
0000
1000
0000
0001
0000
1000
0000
0100
0000
1000
0000
0000
0000
0000
0000
0000
0000
0000
0000
0000
0000
0000
0000
0000
0000
0000
0000
0000
0000
0000
0000
0000
0000
,
MMMM
0000
0000
0000
0000
0000
0000
0000
MMMM
0000
0000
0000
0001
0100
0000
1100
,
0000
0101
0000
1001
0000
0001
0010
0100
1000
0000
0001
0000
0100
0010
0100
0010
,
1000
0000
0100
0000
0010
0000
0001
0000
0000
1000
0000
0000
0010
0000
0100
0000
0001
0000
1000
0000
0000
0100
0000
0000
0220
0000
0000
0000
0000
0000
0000
0000
0000
0000
0000
0000
0000
0000
0000
0000
0000
0000
0330
0000
0000
0000
0000
0000
,
1100
0000
0000
0000
0000
0000
0000
0000
0000
0000
0000
0000
0110
0000
0000
0000
0000
0000
0000
0000
0000
0000
0000
0000
1000
0000
0000
0000
0000
0000
0100
0000
0000
0000
0000
0000
0000
0000
0000
0000
0000
0000
0011
0000
0000
0000
0000
0000
0000
0000
0000
0001
0000
0000
0100
0000
0000
0010
0000
0000
0000
0000
0000
1000
0000
0000
0001
0000
0010
0000
0100
0000
1000
0000
0000
0000
0000
0000
0000
0000
0000
0000
0000
0000
1010
0000
0000
0000
0000
0000
0000
0000
0000
0000
0000
0000
,
1000
0000
0000
0000
0000
0000
0010
0000
0000
0000
0000
0000
0000
0000
0000
0000
0000
0000
0101
0000
0000
0000
0000
0000
0000
0000
0000
0011
0000
0000
0000
0000
0000
1001
0000
0000
0000
0000
0000
1000
0000
0000
0100
0000
1000
0000
0001
0000
0100
0000
0000
0000
0000
0000
0000
0000
0000
0000
0000
0000
0110
0000
0000
0000
0000
0000
0000
0000
0000
0000
0000
0000
1001
0000
0000
0000
0000
0000
0000
0000
0000
0000
0000
0000
0001
0000
0000
0000
0000
0000
0010
0000
0000
0000
0000
0000
,
0000
0000
0000
0100
0000
0000
0010
0000
0001
0000
1000
0000
0001
0000
0000
1000
0000
0000
0010
0000
0000
0100
0000
0000
0001
0000
0000
0000
0000
0000
1000
0000
0000
0100
0000
0000
0000
0000
0000
0010
0000
0000
0001
0000
0000
1000
0000
0000
,
0001
0000
0000
0010
0000
0000
0100
0000
0000
1000
0000
0000
0001
0000
0100
0000
0001
0000
0100
0000
0001
0000
0100
0000
0001
0000
0000
0000
0000
0000
0010
0000
0000
0000
0000
0000
0001
0000
0000
0000
0000
0000
1000
0000
0000
0000
0000
0000
0001
0000
0000
0000
0000
0000
0100
0000
0000
0000
0000
0000
0000
0000
0000
0000
0000
0000
0000
0000
0000
0000
0000
0000
0001
0000
0000
0000
0000
0000
0100
0000
0000
0000
0000
0000
0001
0000
0000
0000
0000
0000
1000
0000
0000
0000
0000
0000
,
0001
0010
0000
0000
0001
0010
0100
1000
0001
0100
0000
0000
0001
0100
0010
1000
,
0001
0000
0000
0010
0000
0000
0000
0000
0000
0000
0000
0000
0001
0000
0010
0000
0100
0000
1000
0000
0000
0001
0000
0000
0100
0000
0010
0000
1000
0000
0010
0000
0000
0100
0000
0000
0001
0000
1000
0000
0100
0000
0010
0000
0000
0001
0000
0000
,
1000
0000
0000
0000
0010
0000
0000
0000
0100
0000
0000
0000
0001
0000
0000
0000
1000
0000
0000
0000
0100
0000
0000
0000
1000
0000
0000
0001
0000
0000
1000
0000
0000
0001
0000
0000
1000
0000
0000
0000
0000
0000
0000
0000
0000
0000
0000
0000
0110
0000
0000
0000
0000
0000
0000
0000
0000
0000
0000
0000
MMMM
0000
0000
0000
0000
0000
0000
0000
0000
0000
0000
0000
1000
0000
0000
0000
0000
0000
0000
0000
0000
0000
0000
0000
0010
0000
0000
0000
0000
0000
1000
0000
0000
0000
0000
0000
,
0001
1000
0000
0100
0000
0010
0000
1000
0010
0100
1000
0001
0100
0000
0001
0100
,
0010
0001
0000
0010
0000
0100
0000
0001
1000
0100
0010
0001
0100
0000
0010
0000
,
0110
0000
0100
0001
0000
1000
0010
0001
0000
1000
0100
0001
1000
0000
0001
0100
,
0010
0000
0000
1000
0000
0000
0001
0000
0000
0010
0000
0000
0100
0000
0000
1000
0000
0000
0010
0000
0000
0100
0000
0000
0001
0000
1000
0000
0100
0000
1000
0000
0001
0000
0010
0000
0001
0000
0000
0000
0000
0000
1000
0000
0000
0100
0000
0000
,
0010
0001
0000
0100
0000
0010
0000
0001
0010
0100
0001
1000
0001
0000
1000
0001
,
0100
0001
0000
1000
0000
0001
0000
1000
0100
0010
1000
0010
0100
0000
1000
0000
,
1001
0000
0001
0010
0000
0100
0010
0000
0001
0100
0010
1000
0001
0000
0010
0001
,
1000
0001
0100
0000
0001
0010
0100
1000
0001
0100
0010
1000
0001
1000
0100
1000
,
0001
0000
0000
0000
0100
0000
0000
0000
0000
0000
0000
0000
0110
0000
0000
0000
0000
0000
0000
0000
1010
0000
0000
0000
0000
0000
0000
0000
0001
0000
0000
0000
2000
3000
0000
0000
0200
0300
0000
0000
2000
3000
0000
0000
0200
0300
0000
0000
1000
0000
0000
0000
0010
0000
0000
0000
0100
0000
0000
0000
0001
0000
0000
0000
,
1000
0001
0000
0011
0000
1001
0000
1000
0200
0000
0000
0300
2002
0000
0000
0000
,
0000
0000
0000
3003
0002
0000
0000
0000
0000
0000
0000
0000
0000
0000
0000
0000
,
0000
2000
0000
0000
,
0000
0000
0000
3003
,
1100
0000
0000
0100
0001
0000
MMMM
0000
0101
0000
0000
0100
1000
0000
MMMM
0000
,
0110
0000
0000
1000
0001
0000
MMMM
0000
0001
0100
1000
0100
0001
0000
MMMM
0000
,
1001
0000
0001
1000
0100
0000
MMMM
0000
1100
0000
0100
0010
0001
1000
0010
0000
,
0110
0000
0001
0100
0000
1000
0100
0001
0010
0100
0001
1000
0010
0100
1000
0000
,
0101
0000
0001
1000
0100
0000
1000
0001
0000
MMMM
0000
0010
0002
0000
2003
0000
,
3001
0000
0100
0000
0001
0000
0100
0000
0001
0000
0100
0000
0001
0000
0000
1000
0000
0000
0001
0000
0000
0000
0000
0000
1000
0000
0000
0010
0000
0000
0000
0000
0000
0001
0000
0000
0010
0000
0000
0100
0000
0000
0001
0000
0000
0000
0000
0000
,
1100
0000
0000
0000
0000
0000
0101
0000
0000
0000
0000
0000
1000
0000
0000
0001
0000
0000
0100
0000
0000
0001
0000
0000
1000
0000
0100
0000
0010
0000
0001
0000
0000
1000
0000
0000
0001
0000
0000
0000
0000
0000
0010
0000
0100
0000
0010
0000
,
0001
0000
0000
0000
0000
0000
0000
0000
0000
1000
0000
0000
0000
0000
0000
1000
0000
0000
0000
0000
0000
1000
0000
0000
0000
0000
0000
0000
1001
0000
0000
0000
0001
0000
0100
0000
0010
0000
0000
0000
1000
0000
0000
0000
0100
0000
0000
0000
,
0110
MMMM
MMMM
MMMM
,
0001
0010
0100
1000
0001
0010
0100
1000
0001
0100
0010
1000
0002
0000
0000
0000
,
1003
0010
1000
0001
1000
0100
0000
0110
0000
0011
0000
0001
0100
0010
1000
0001
,
0010
0100
0010
0001
0010
0100
0000
1100
0000
1010
0000
1000
0001
0100
0010
1000
,
0001
1000
0100
1000
0001
1000
0010
0100
0000
0001
0100
1000
0000
0001
0010
0100
,
0001
0000
0000
0000
0000
0000
1000
0000
0000
0010
0000
0000
0100
0000
0000
1000
0000
0000
0001
0000
0000
0010
0000
0000
0100
0000
0000
0001
0000
0000
1000
0000
0000
0100
0000
0000
0010
0000
0001
0000
1000
0000
0001
0000
0010
0000
0100
0000
,
1000
0001
0100
0010
1000
0001
0100
0010
0000
1000
0010
1000
0001
0010
0100
1000
,
0001
1000
0100
1000
0001
1000
0010
1000
0000
0001
0010
0100
0010
0001
1000
0001
,
0100
0000
0010
1000
0001
0000
1000
0100
0001
1000
0010
0100
0010
0001
1000
0000
,
1001
0000
0000
0000
0000
0000
0001
0000
0000
0010
0000
0000
0000
0000
0000
0100
0000
0000
1000
0000
0000
0000
0000
0000
0001
0000
0100
0000
0010
0000
1000
0000
0000
0001
0000
0000
0000
0000
0000
1000
0000
0000
0100
0000
0000
0110
0000
0000
;

//--------------- dance-double - Fred-104 ----------------
#NOTES:
     dance-double:
     Fred-104:
     Easy:
     9:
     :
00000000
00000000
00000000
00000000
,
00000000
00000000
00000000
00000000
,
00000000
00000000
00000000
00000000
,
00001000
00010000
00200000
01300000
,
00001000
00010000
00100000
00000000
,
10000000
00010000
00100000
00000000
,
00001000
00010000
01000000
00000000
,
10000000
00100000
00010000
00001000
,
00000100
00000010
00001000
00000000
00000020
00000030
00022000
00033000
,
00010000
00000000
00001000
00000000
00000100
00000010
00001000
00000000
,
00000001
00000000
00000100
00000000
00000010
00001000
00000010
00000000
,
00010000
00000000
00001000
00000000
00010000
00001000
01000000
00000000
,
00010000
10000000
02000000
03000000
,
00100000
00000000
00010000
00000000
01000000
10000000
01000000
00000000
,
00010000
00000000
10000000
00000000
01000000
00100000
00001000
00000000
,
00010000
00000000
00000000
00010000
00000000
00000000
00000100
00000000
00001000
00000000
00000000
00001000
00000000
00000000
00000001
00000000
,
00000010
00000000
00000000
00000100
00000000
00000000
00010000
00000000
00002000
00000000
00000000
00000000
00023000
00000000
00000000
00000000
,
00130000
00000000
01000000
00000000
00010000
01000000
00100000
00000000
,
10000000
00000000
01000000
00000000
00100000
00010000
01000000
00000000
,
00001000
00000000
00010000
00000000
00001000
00000010
00000100
00000000
,
00001000
00000000
00000001
00000000
00000100
00001000
00010000
00000000
,
00011000
00100000
00011000
00000010
,
00011000
00000000
00000000
00000000
01000000
00000000
00000000
00000000
00022000
00000000
00000000
00033000
00000100
00000000
00000000
00000000
,
00010000
00000000
00001000
00010000
00000010
00010000
00022000
00000000
,
00000000
00000000
00000000
00000000
,
00000000
00033000
00011000
00000000
,
00000000
00000000
00000000
00000000
,
00000000
00000000
00000000
00000000
,
00000000
00000000
00000000
00000000
,
00000000
00000000
00000100
00000010
00000110
00000000
00000000
00000000
,
00000000
00000000
00000000
00000001
,
00000010
00001000
00010000
01000000
,
10000000
01000000
00010000
00000000
00022000
00000000
00033000
00000000
,
00010000
00001000
00000110
00001000
,
00010000
01100000
10000000
00100000
,
00010000
00001000
00000100
00000010
,
00001001
00000011
00000000
00001100
,
00000000
01010000
00000000
10100000
,
00000000
00000000
10000000
01000000
00010000
00000000
00001000
00000010
,
00000001
00000000
00002002
00000000
00000000
00003003
00000001
00000000
,
00000100
00000010
00000100
00001000
,
00010000
00000000
00100000
01000000
00010000
00000000
10000000
00000000
,
01000000
00100000
01000000
00010000
,
00001000
00011000
00000000
00010000
,
00001000
00000000
00000010
00000100
00001000
00000000
00000001
00000000
,
00001000
00000100
00000010
00001000
,
00010000
00000000
00000000
00000000
01000000
00000000
00100000
00000000
00010000
00000000
00000000
00000000
01000000
00000000
00000000
00001000
,
00000000
00000000
00010000
00000000
00000000
00001000
00000000
00000000
00100000
00000000
00000000
00000000
00001000
00000000
00000000
00000000
,
00010000
00022000
00033000
00010000
,
00001000
00022000
00033000
00022000
,
00000000
00000000
00000000
00000000
,
00000000
00000000
00000000
00000000
,
00000000
00000000
00000000
00033000
,
00010000
00001000
00000010
00001000
,
00010000
00000000
00001000
00000000
00000100
00001000
00010000
00000000
,
00001000
00000000
00010000
00000000
00100000
00010000
00001000
00000000
,
00010000
00000000
00000000
00001000
00000000
00000000
00010000
00000000
00022000
00000000
00000000
00000000
00033000
00000000
00000000
00000000
,
00010000
00000000
00001000
00000000
00000100
00000010
00010000
00000000
,
00001000
00000000
00000010
00000000
00000100
00001000
00000010
00000000
,
00000100
00000000
00000001
00000000
00000100
00001000
00010000
00001000
,
00011000
00000000
00000000
00000000
,
00000110
00000000
00000000
00000000
,
00000002
00000000
00000000
00000003
,
00001000
00000000
00000001
00000000
00000010
00000100
00000010
00000000
,
00000001
00000000
00000100
00000000
00001000
00010000
00100000
00000000
,
01000000
00000000
00001000
00000000
00010000
00100000
10000000
00000000
,
00010000
10000000
01000000
00000000
00100000
01000000
10000000
00000000
,
00100000
00000000
00010000
00000000
00001000
00010000
00001000
00000000
,
00010000
00000000
00000010
00000000
00000100
00000001
00001000
00000000
,
00000001
00000100
00001000
00000000
00010000
00100000
01000000
00000000
,
00010000
00000000
00000000
10000000
00000000
00000000
00100000
00000000
00000000
00010000
00000000
00001000
00000000
00000100
00000000
00000110
;

//--------------- dance-double - Fred-104 ----------------
#NOTES:
     dance-double:
     Fred-104:
     Medium:
     13:
     :
00000000
00000000
00000000
00000000
,
00000000
00000000
00000000
00000000
,
00000000
00000000
00000000
00000000
,
00010000
00001000
00000010
00000100
00002000
00003002
00001003
00000000
,
00000001
00000100
00001000
00010000
00100000
10000000
00010000
00000000
,
10000000
01000000
00100000
00001000
00000000
00010000
00001000
00000000
,
00010000
00001000
00000100
00000010
00001000
00000010
00000100
00000001
,
00001000
00000001
00000010
00000100
00020000
00000000
00032000
00000000
,
00003200
00000302
00002003
00003000
00001100
00000000
00000101
00000000
,
00000100
00001000
00000100
00000001
00000010
00000100
00010000
00001000
,
00100000
00010000
01000000
10000000
01000000
00100000
10000000
00000000
,
00010000
00100000
00001000
00010000
01000000
10000000
00100000
00010000
,
00001000
01000000
00001000
00010000
00000100
00000010
00000001
00000000
,
00001000
00000100
00010000
00000010
00000100
00000001
00000010
00001000
,
00010000
00001000
00100000
00010000
01000000
00100000
10000000
00000000
,
10010000
00000000
00000000
10000000
00000000
00000000
01000000
00000000
00100000
00000000
00000000
00001000
00000000
00000000
00010000
00000000
,
00001000
00000000
00100000
00010000
00000000
10000000
00010000
00000000
00200000
00000000
00000000
00000000
02300000
00000000
00000000
00000000
,
03100000
00000000
00001000
00000000
00010000
00000000
00001000
00000000
00000010
00000000
00000100
00000000
00001000
00000100
00001000
00000000
,
00000010
00000000
00000100
00000000
00000001
00000000
00000010
00000000
00000100
00000000
00001000
00000000
00000010
00001000
00000010
00000000
,
00000100
00001000
00010000
00001000
00010000
00100000
00010000
00001000
,
00100000
00100000
00010000
00010000
01010000
00000000
10100000
00000000
,
11000000
00000000
00000000
00100000
00000000
00000000
00001000
00000000
00011000
00000000
00000000
00010000
00000000
00000000
00000010
00000000
,
00001010
00000000
00000000
00000100
00000000
00000000
00010000
00000000
00002000
00000000
02003000
00000000
03010000
00000000
00100000
00000000
,
01000000
00000000
00000000
10000000
00000000
00000000
00000000
00100000
00000000
00010000
00001000
00000000
00022000
00000000
00000000
00000000
,
00000000
00000000
00000000
00000000
,
00000000
00033000
00001001
00000000
,
00000000
00000000
00000000
00000000
,
00000000
00000000
00000000
00000000
,
00000000
00000000
00000000
00000000
00000000
00000000
00000000
00000000
00000000
00000000
00000000
00000000
00000000
00000000
00000000
00010000
,
00000000
00001000
00100000
00000000
00011000
00000000
00000000
00000000
,
00000000
00000000
00000000
00000000
00000000
00000000
00000000
00000000
00000000
00000000
00000000
00000000
00000001
00000000
00000000
00000010
,
00000000
00000010
00000000
00000100
00000000
00000000
00010000
00000000
00001000
00000000
00010000
00000000
01000000
00000000
00100000
00000000
,
00010000
10000000
00100000
01000000
20020000
00000000
30030000
00000000
,
11000000
00000000
00000000
00000000
01100000
00000000
00000000
00202000
00000000
00000000
00303000
00000000
00011000
00000000
00000000
00000000
,
00010010
00000000
00000000
00002020
00000000
00000000
00003030
00000000
00001001
00000000
00000000
00000000
00000101
00000000
00000000
00000110
,
00000000
00000000
00000010
00010000
00000000
00001000
00010000
00000000
00001000
00000000
00000000
00100000
00000000
00000000
01000000
00000000
,
10000000
00010000
20000000
30000000
10000000
00000000
01000000
00000000
00010000
00000000
00000000
00000000
00001000
00000000
00000010
00000000
,
00000001
00000000
00000001
00000100
00001000
00000000
00010000
00100000
,
10000000
00000000
00000000
00000000
10000000
01000000
00000000
00000000
01000000
00100000
00000000
00000000
00100000
00001000
00000000
00000000
,
00001000
00010000
00000000
00000000
00022000
00000000
00000000
00000000
00033000
00000000
00000010
00000000
00001000
00000000
00000100
00000000
,
00000010
00000001
00000100
00000010
00000100
00001000
00010000
00100000
,
01000000
00100000
10000000
00010000
00100000
00000000
01000000
00100000
,
00001000
00000000
00010000
00000000
00001000
00000000
00000100
00000000
00000010
00000000
00001000
00000000
00000010
00000000
00000001
00000010
,
00000000
00001000
00000001
00000000
00000001
00000000
00000100
00000000
00002000
00000000
00000000
00000000
00013000
00000000
00100000
00000000
,
01000000
00010000
00100000
01000000
00100000
00010000
10000000
00100000
,
00010000
00001000
00010000
01000000
00010000
00001000
00000100
00000010
,
00001000
00000000
00000001
00000010
00000000
00000100
00000010
00000000
00000001
00000000
00001000
00000000
00000010
00000000
00000000
00010010
,
00000000
00000000
00011000
00000000
00000000
00001000
00000000
00100000
00000000
00001000
00010000
00000000
00001000
00000000
00100000
00000000
,
00010000
10000000
00000000
02000000
00000000
00000000
00000000
00000000
00000000
00000000
00000000
00000000
13000000
00000000
01000000
00000000
,
00100000
00001000
00000000
00020000
00000000
00000000
00000000
00000000
00031000
00000000
00000000
00000000
00022000
00000000
00000000
00000000
,
00000000
00000000
00000000
00000000
,
00000000
00000000
00000000
00000000
,
00000000
00000000
00000000
00033000
,
00011000
00000000
00001000
00000000
00010000
00000000
00100000
10000000
,
00010000
00000000
10000000
00000000
01000000
00100000
00110000
00000000
,
00101000
00000000
00010000
00001000
00000010
00000100
00001000
00000001
,
00000100
00000000
00000010
00001000
00000000
00000010
00000100
00000000
00000202
00000000
00000000
00000000
00000303
00000000
00000000
00000000
,
00000001
00000000
00000010
00000000
00001000
00000000
00000000
00010000
00000000
01000000
00000000
00000000
00100000
00000000
00010000
00000000
,
01000000
00000000
00001000
00000000
00010000
00000000
00001000
00000000
00000100
00000010
00000000
00001000
00000010
00000000
00000100
00000000
,
00000001
00000010
00000100
00000000
00010000
00001000
00010000
00001000
,
00011000
00000000
00000000
00000000
,
01100000
00000000
00000000
00000000
,
00020000
00000000
00000000
00030000
,
10000000
00100000
00010000
00001000
00010000
01000000
00010000
00001000
,
00000100
00000010
00001000
00000001
00000010
00001000
00010000
00000000
,
00001000
00010000
00100000
01000000
00001000
00010000
01000000
10000000
,
00010000
00000000
01000000
00100000
00000000
10000000
00100000
00000000
01000000
00000000
00010000
00000000
00200000
00000000
00000000
00000000
,
00301000
00010000
00100000
10000000
00010000
01000000
00100000
01000000
,
10000000
01000000
00010000
10000000
00100000
00010000
00001000
00000100
,
00000010
00000000
00001000
00000000
00000100
00000000
00000010
00000001
00000000
00001000
00000001
00000000
00000100
00000000
00000010
00000000
,
00001010
00000000
00000000
00010010
00000000
00000000
00011000
00000000
00000000
00001000
00000000
00100000
00000000
00010000
00000000
10010000
;

//--------------- dance-double - Fred-104 ----------------
#NOTES:
     dance-double:
     Fred-104:
     Hard:
     16:
     :
00000000
00000000
00000000
00000000
,
00000000
00000000
00000000
00000000
,
00000000
00000000
00000000
00000000
,
00001000
00100000
00000000
00100000
00010000
10000000
00000000
10000000
00010000
01000000
00010000
01000000
00100000
00000000
10000000
00000000
,
01000000
00000000
00100000
00010000
00100000
00010000
00100000
00000000
00001000
00010000
00001000
00010000
00002000
00000000
00003020
00000000
,
00000130
00001000
00000001
00001000
00000010
00000100
00000001
00001000
,
00000100
00010000
00000100
00000000
00010000
00000000
00001000
00000000
01000000
00010000
01000000
00000000
00001000
00000000
00010000
00000000
,
00000100
00001000
00000001
00000000
00000100
00000001
00001000
00000000
00000001
00000010
00000100
00001000
00000100
00000000
00010000
00000000
,
00001000
00000000
00010000
00000000
01000000
00000000
10000000
00000000
00010000
00000000
00000000
00000000
00000000
00000000
00000000
00000000
01100000
00000000
00000000
00000000
00000000
00000000
00000000
00000000
20020000
30030000
00000000
00000000
00000000
00000000
00000000
00000000
,
10000000
00010000
01000000
00010000
10000000
00000000
00010000
00100000
00000000
00100000
01000000
00000000
00100000
00000000
00001000
00000000
,
00010000
00000010
00001000
00000010
00010000
00000000
00000010
00001000
00000000
00000100
00000000
00001000
00000001
00000000
00000010
00000100
,
00000010
00000001
00000010
00000100
00000010
00000000
00000001
00001000
00000000
00000010
00010000
00000000
00001000
00000000
00100000
00000000
,
00000000
00010000
10000000
00010000
01000000
00000000
00100000
10000000
00000000
01000000
00100000
00000000
00001000
00000000
00010000
00001000
,
00010000
00000010
00001000
00000010
00010000
00000010
00001000
00000010
00000000
00010000
00001000
00000000
00010000
00000000
00000100
00001000
,
00000100
00000010
00000001
00001000
00000100
00000010
00000001
00001000
00000000
00000001
00000100
00000010
00000000
00001000
00000100
00000000
,
00010000
00000000
00001000
00010000
00000000
00001000
01000000
00000000
00010000
10000000
00010000
01000000
00100000
10000000
01000000
00000000
,
01100000
00000000
00000000
00000000
00100000
00000000
00001000
00000000
00000000
00000000
00001000
00000000
00010000
00000000
00000000
00000000
00001000
00000000
00010000
00000000
00200000
00000000
00000000
00300000
00010000
00000000
00001000
00000000
00000020
00000000
00000000
00000030
,
00001000
00010000
00001000
00010000
00001000
00000000
01000000
00001000
00000000
00010000
00000000
00001000
00100000
00000000
00010000
10000000
,
00000000
00010000
10000000
00100000
01000000
00000000
00100000
10000000
00000000
01000000
00100000
00000000
00001000
00010000
00001000
00010000
,
00001000
00000000
00010000
00000010
00001000
00000000
00000010
00000100
00000000
00001000
00000100
00000010
00000000
00001000
00000001
00000000
,
00001000
00000000
00000100
00000010
00000000
00000001
00001000
00000000
00000001
00000100
00001000
00000000
00010000
00001000
00010000
00000000
,
00011000
00000000
00010000
00001000
00000000
00000010
00000100
00000000
00011000
00000000
00010000
00001000
00000000
00000100
00000010
00000000
,
00001010
00000000
00000000
00000000
00001000
00000000
00000001
00000000
00000000
00000000
00000100
00000000
00000010
00000000
00000000
00000000
00001000
00000001
00001000
00000001
00001000
00000001
00001000
00000001
00001000
00000000
00000000
00000000
00000001
00000000
00000010
00000000
,
00000100
00001000
00000100
00010000
00000000
00001000
01000000
00010000
00000000
00100000
00001000
00000000
00020000
00000000
00000000
00000000
,
00000000
00000000
00002000
00000000
,
00000000
00033000
00011000
00000000
,
00000000
00000000
00000000
00000000
,
00000000
00000000
00000000
00000000
,
00000000
00000000
00000000
00000000
00000000
00000000
00000000
00000000
00000000
00000000
00000000
00000000
00000000
00000000
00000001
00000100
,
00000000
00000010
00001000
00000000
00000100
00010000
00001000
00000000
00011000
00000000
00000000
00000000
00000000
00000000
00000000
00000000
,
00000000
00000000
00000000
00000000
00000000
00000000
00000000
00000000
00000000
00000000
00000000
00000000
10000000
01000000
00000000
00100000
,
00000000
00001000
00000000
00010000
00000000
00100000
10000000
00010000
10000000
00000000
01000000
00000000
10000000
00010000
10000000
01000000
,
00100000
00010000
00100000
00000000
00001000
00010000
00001000
00000000
00022000
00000000
00000000
00000000
00033000
00000000
00000000
00000000
,
00011000
00000000
00011000
00000000
00010000
00000100
00000000
00002200
00000000
00000000
00003300
00000000
00001001
00000000
00001001
00000000
,
00000001
00000100
00000000
00000220
00000000
00000000
00000330
00000000
00010010
00000000
00010000
00000000
00011000
00000000
00001000
00100000
,
00000000
00010000
10000000
00010000
00000000
01000000
00100000
10000000
00010000
00000000
10000000
01000000
00000000
00100000
00001000
00000000
,
00010000
00001000
00010000
00001000
00010000
00001000
00010000
00000000
00011000
00000000
00000000
00000000
00010000
00000000
00000000
00000000
00000100
00000000
00000000
00000000
00000000
00000000
00000000
00000000
00011000
00000000
00000000
00000000
00001000
00000000
00000000
00000000
,
01000000
00000000
00011000
00010000
00000010
00000000
00011000
00001000
,
00100000
00000000
00000000
00000000
00001000
00010000
00000000
00010000
00000010
00001000
00000000
00001000
00000001
00000010
00000100
00001000
,
00000001
00000100
00000010
00000000
00000110
00000000
00011000
00000000
01100000
00000000
20020000
30030000
10000000
00000000
01000000
00000000
,
10000000
00010000
00000000
01000000
00000000
00100000
00000000
10000000
00000000
01000000
00100000
01000000
00010000
00000000
00001000
00000000
,
00000010
00000100
00000000
00001000
00000000
00000100
00000000
00000010
00000000
00000001
00001000
00000001
00000100
00000000
00000001
00000000
,
00000010
00000000
00000100
00000010
00000000
00000001
00000100
00001000
00000000
00010000
00001000
00010000
00100000
00000000
01000000
00010000
,
00000000
10000000
00010000
00100000
00000000
01000000
00100000
00000000
00001000
00010000
00001000
00000000
00010000
00000000
00001000
00000000
,
00000100
00000001
00000000
00001000
00000000
00000100
00000000
00000010
00000000
00000001
00001000
00000001
00000100
00000000
00000010
00000000
,
00001000
00000100
00000000
00010000
00000000
00001000
00000000
01000000
00000000
00001000
00010000
00001000
00100000
00000000
00010000
00000000
,
10000000
00000000
00010000
00100000
00000000
00100000
10000000
00000000
01000000
00000000
00100000
00000000
00110000
00000000
00000000
00101000
,
00000000
00000000
00011000
00000000
00010000
00000100
00000000
00001000
00000000
00000001
00001000
00000001
00000100
00000010
00000100
00000010
,
00000100
00000000
00000000
00000000
00000001
00000000
00000000
00000000
00000000
00000000
00000000
00000000
00001000
00000000
00000000
00000000
00000000
00000000
00000000
00000000
00000100
00000000
00000000
00000000
00000000
00000000
00000000
00000000
00010000
00000000
00000000
00000000
00002000
00003000
00000000
00000000
00020000
00030000
00000000
00000000
00002000
00003000
00000000
00000000
00020000
00030000
00000000
00000000
00001000
00000000
00000000
00000000
00000000
00000000
00000000
00000000
01000000
00000000
00000000
00000000
00000000
00000000
00000000
00000000
,
00001000
00010000
00000000
00100000
00000000
01000000
00000000
00001000
00020000
00000000
00000000
00030000
00022000
00000000
00000000
00000000
,
00000000
00033000
00020000
00000000
00000000
00000000
00000000
00000000
,
00000000
00002000
00000000
00000000
,
00000000
00000000
00000000
00033000
,
00011000
00000000
00000000
00001000
00000010
00000000
00000002
00000003
00001001
00000000
00000000
00000001
00000100
00000000
00000020
00000030
,
00001010
00000000
00000000
00001000
00000100
00000000
00010000
00000000
00011000
00000000
00001000
00000000
01001000
00000000
01000000
00000000
,
01100000
00000000
00000000
00100000
10000000
00000000
02000000
03000000
01100000
00000000
00000000
00100000
00001000
00000000
00010000
00000000
,
00011000
00000000
00010000
00001000
00000000
00000100
00000001
00001000
00000002
00000000
00000010
00000000
00002003
00000000
00000100
00000000
,
00003001
00000000
00001000
00000000
00000001
00000000
00000010
00000100
00000000
00010000
00000000
00001000
01000000
00000000
00001000
00000000
,
00010000
00001000
00100000
00001000
00010000
00001000
01000000
00000000
00010000
10000000
00000000
10000000
01000000
00000000
01100000
00000000
,
00100000
00000000
00101000
00000000
00001000
00010000
00000010
00010000
00001000
00010000
00000010
00000000
00001000
00000000
00000001
00000100
,
00000010
00000000
00000000
00000000
00000000
00000000
00000000
00000000
00000000
00010000
00000000
00000000
00000000
00000000
00000000
00010000
00000000
00000000
00000000
00000000
00000000
00010000
00000000
00000000
00000000
00000000
00000000
00000000
00001000
00000000
00000000
00000000
00100000
00000000
00000000
00000000
00010000
00000000
00000000
00000000
10000000
00000000
00000000
00000000
00010000
00000000
00000000
00000000
,
10010000
00000000
00000000
00000000
,
10000000
01000000
10000000
00000000
00010000
01000000
00010000
00000000
01000000
00001000
00010000
00001000
00020000
00000000
00000000
00000000
,
00031000
00000000
00010000
00000000
00000010
00001000
00000000
00000001
00000000
00001000
00000000
00000100
00000000
00000010
00000001
00000100
,
00001000
00000000
00010000
00000000
00100000
01000000
00000000
00100000
00000000
10000000
00000000
00010000
00000000
10000000
01000000
00100000
,
00010000
00000000
01000000
00000000
00001000
00000000
00000100
00000010
00000000
00001000
00000001
00000010
00000000
00000001
00001000
00000001
,
00000100
00000000
00000001
00000010
00000000
00000100
00000010
00000001
00000000
00001000
00000100
00000000
00010000
00001000
00010000
00000000
,
00011000
00000000
00010000
00000000
00001000
00100000
00010000
10000000
00000000
00010000
00000000
01000000
00000000
00100000
10000000
01000000
,
00100000
00000000
00001000
00000000
00010000
00001000
01000000
00001000
00000000
00010000
00000000
00000010
00000000
00001000
00000100
00000010
,
00000001
00000000
00001000
00000000
00000010
00000000
00000100
00000001
00000000
00000010
00000100
00000000
00010000
00000000
00001000
00000000
,
00011000
00000000
00010000
00001000
00000000
00000010
00001000
00000000
00010000
00001000
00000000
00011000
00000000
00001000
00000000
01001000
;

//--------------- dance-double - Fred-104† ----------------
#NOTES:
     dance-double:
     Fred-104†:
     Challenge:
     18:
     :
00000000
00000000
00000000
00000000
,
00000000
00000000
00000000
00000000
,
00000000
00000000
00000000
00000000
,
00010000
00001000
00000000
00001000
00000010
00000001
00000000
00000001
00002000
00003200
00002300
00003200
00001300
00000000
00000001
00000000
,
00000100
00000000
00000010
00001000
00000001
00000100
00000010
00000000
00001000
00000100
00010000
00001000
00020000
00000000
00032000
00000000
,
00013000
00000000
00100000
00000000
10000000
00000000
00010000
10000000
00010000
00000000
01000000
00000000
00010000
10000000
01000000
10000000
,
01000000
00100000
00001000
00010000
00001000
00000000
00000010
00000100
00001000
00000001
00000010
00000100
00001000
00000010
00000100
00000000
,
00000001
00000100
00000010
00000100
00001000
00010000
00100000
01000000
00010000
10000000
00010000
01000000
00100000
10000000
01000000
00010000
,
00001000
00000000
00000000
00000000
00000010
00000000
00000000
00000000
00000100
00000000
00000000
00000000
00000010
00000000
00000000
00000000
00000001
00000000
00000000
00000000
00000000
00000000
00000000
00000000
00000000
00000000
00000000
00000000
00000000
00000000
00000000
00000000
00000110
00000000
00000000
00000000
00000000
00000000
00000000
00000000
00000000
00000000
00000000
00000000
00000000
00000000
00000000
00000000
00002002
00003003
00000000
00000000
00000000
00000000
00000000
00000000
00000000
00000000
00000000
00000000
00000000
00000000
00000000
00000000
,
00000001
00000100
00000010
00001000
00000001
00000010
00000100
00000010
00000000
00000001
00001000
00000000
00000010
00000000
00010000
00000010
,
00001000
00000010
00010000
00000010
00010000
00001000
00100000
00010000
00000000
10000000
00010000
01000000
00010000
00000000
10000000
00010000
,
00100000
01000000
00100000
00010000
00100000
01000000
00100000
00010000
00000000
10000000
00010000
00000000
01000000
00000000
00100000
10000000
,
00010000
10000000
00100000
00010000
00001000
00000000
00000100
00000010
00000000
00001000
00000100
00000010
00000100
00000000
00010000
00001000
,
00010000
00000010
00001000
00000010
00010000
00001000
00100000
00010000
00000000
01000000
00001000
00000000
00010000
00000000
00001000
00000010
,
00000100
00001000
00000001
00000010
00000100
00000010
00000001
00001000
00000000
00000001
00000100
00001000
00010000
00000000
00100000
01000000
,
00010000
00000000
10000000
01000000
01100000
00000000
00100000
00010000
01000000
00001000
00010000
00001000
00000010
00000001
00001000
00000100
,
00000010
00000000
00000000
00000000
00000000
00000000
00000000
00000000
00000002
00000003
00000000
00000000
00000200
00000300
00000000
00000000
00000000
00000000
00000000
00000000
00020000
00030000
00000000
00000000
01000000
00000000
00000000
00000000
00000000
00000000
00000000
00000000
00010000
00000000
00000000
00000000
10000000
00000000
00000000
00000000
02000000
00000000
00000000
00000000
00000000
00000000
0300MMMM
00000000
00010000
00000000
00000000
00000000
00001000
00000000
00000000
00000000
00000020
00000000
00000000
00000000
00000000
00000000
MMMM0030
00000000
,
00000001
00001000
00000010
00001000
00000001
00000100
00000010
00001000
00000000
00000001
00000010
00001000
00010000
00000000
00001000
01000000
,
00000000
00100000
01000000
00100000
10000000
00000000
00010000
00100000
00000000
01000000
00100000
10000000
00100000
00000000
00010000
10000000
,
00100000
00010000
00001000
00010000
00001000
00000100
00000010
00001000
00000001
00000010
00000100
00000010
00001000
00010000
01000000
00100000
,
00010000
10000000
00100000
00010000
00001000
00010000
00100000
00000000
10000000
00100000
02100000
0300MMMM
00010000
00100000
02100000
0300MMMM
,
11000000
00000000
00000000
00000000
00000000
00000000
10000000
00000000
00000000
01000000
00000000
00000000
00000000
00000000
00000000
00100000
00000000
00000000
00001000
00000000
00000000
00010000
00000000
00000000
00011000
00000000
00000000
00000000
00000000
00000000
00010000
00000000
00000000
00000010
00000000
00000000
00000000
00000000
00000000
00001000
00000000
00000000
00000010
00000000
00000100
00000000
00000001
00000000
,
00000100
00000000
00000000
00000000
00000000
00000000
00000000
00000000
00000010
00000000
00000000
00000000
00001000
00000000
00000000
00000000
00000001
00000000
00000000
00000000
00000010
00000000
00000000
00000000
00001000
00000000
00000000
00000000
00010000
00000000
00000000
00000000
00002000
00003000
00020000
00030000
00002000
00003000
00020000
00030000
00002000
00003000
00020000
00030000
00002000
00003000
00020000
00030000
00001000
00000000
00000000
00000000
00010000
00000000
00000000
00000000
01000000
00000000
00000000
00000000
10000000
00000000
00000000
00000000
,
00010000
01000000
00100000
00010000
00000000
00001000
00000100
00000010
00000000
00001000
00000100
00010000
00002000
00000000
00000000
00000000
,
00000000
00000000
00020000
00000000
,
00000000
00033000
10010000
00000000
,
00000000
00000000
MMMMMMMM
00000000
,
00000000
00000000
MMMMMMMM
00000000
,
00000000
00000000
00000000
00000000
00000000
00000000
00000000
00000000
00000000
00000000
00000000
00000000
00000000
00000000
00000000
00000000
MMMMMMMM
00000000
00000000
00000000
00000000
00000000
00000000
00000000
00000000
00000000
00000000
00000000
01000000
00100000
01000000
00000000
,
00000000
00000000
00000000
00010000
00000000
00000000
10000000
00000000
00000000
00000000
00000000
00000000
01000000
00000000
00100000
00000000
00001000
00000000
00010000
00000000
00000000
00001000
00000000
00000000
00010000
00000000
00000000
00000000
00000000
00000000
00000000
00000000
00000000
00000000
00000000
00000000
00000000
00000000
00000000
00000000
00000000
00000000
00000000
00000000
00000000
00000000
00000000
00000000
,
MMMMMMMM
00000000
00000000
00000000
00000000
00000000
00000000
00000000
MMMMMMMM
00000000
00000000
00000000
00010000
00000100
00000000
00000110
,
00000000
00000011
00000000
00000101
00000000
00000001
00000010
00001000
00010000
00000000
00100000
00000000
01000000
00010000
10000000
00010000
,
00100000
00010000
01000000
00100000
00010000
00001000
00000100
00000001
00002002
00000000
00000000
00000000
00003003
00000000
00000000
00000000
,
00000011
00000000
00000000
00000000
00001001
00000000
00000000
00000000
00000001
00000000
00000100
00000000
00000000
00000000
00000110
00000000
MMMM0000
00001010
00000000
00010010
00000000
00010000
00001000
00100000
00010000
00000000
00000000
00000000
01010000
00000000
00000000
00000000
,
00010000
00000000
00000000
00000000
00000000
00000000
10000000
00000000
00000000
00000000
00000000
00000000
00000000
00000000
00000000
00000000
00000000
00000000
11000000
00000000
00000000
00000000
00000000
00000000
0000MMMM
00000000
00000000
01010000
00000000
00000000
00000000
00000000
00000000
01100000
00000000
00000000
00000000
00000000
00000000
01000000
00000000
00000000
00010000
00000000
01000000
00000000
00001000
00000000
00010000
00000000
00000000
00000000
00000000
00000000
00000000
00000000
00000000
00000000
00000000
00000000
00011000
00000000
00000000
00000000
00000000
00000000
00000000
00000000
00000000
00000000
00000000
00000000
00010100
00000000
00000000
00000000
00000000
00000000
00000000
00000000
00000000
00000000
00000000
00000000
00001000
00000000
00000000
00000000
00000000
00000000
00000001
00000000
00000000
00000000
00000000
00000000
,
00000000
00000000
00000000
00000010
00000000
00000000
00000001
00000000
00001000
00000000
00000001
00000000
00000100
00000000
00000000
00000010
00000000
00000000
00000100
00000000
00000000
00000001
00000000
00000000
00001000
00000000
00000000
00000000
00000000
00000000
00000010
00000000
00000000
00000100
00000000
00000000
00000000
00000000
00000000
00001000
00000000
00000000
00010000
00000000
00000000
00100000
00000000
00000000
,
0100MMMM
00000000
00000000
00010000
00000000
00000000
10000000
00000000
00000000
00010000
00000000
00000000
00100000
00000000
01000000
00000000
10000000
00000000
00010000
00000000
00000000
10000000
00000000
00000000
01000000
00000000
00000000
00000000
00000000
00000000
00000000
00000000
00000000
00000000
00000000
00000000
10000000
00000000
00000000
00000000
00000000
00000000
00000000
00000000
00000000
00000000
00000000
00000000
01000000
00000000
00000000
00000000
00000000
00000000
00100000
00000000
00000000
00000000
00000000
00000000
00000000
00000000
00000000
00000000
00000000
00000000
00100000
00000000
00000000
00000000
00000000
00000000
00001000
00000000
00000000
00000000
00000000
00000000
00000000
00000000
00000000
00000000
00000000
00000000
00010000
00000000
00000000
00000000
00000000
00000000
00000000
00000000
00000000
00000000
00000000
00000000
,
00000010
00001000
00000000
00001000
00000100
00000000
00000010
00000000
00000001
00000100
00000000
00000100
00000010
00000000
00001000
00000000
,
00000001
00000010
00000000
00000100
00000010
00000001
00000100
00001000
00010000
00100000
01000000
00010000
10000000
01000000
00100000
00001000
,
00010000
00000000
00000000
00000000
00001000
00000000
00000000
00000000
00010000
00000000
00000000
00000000
00001000
00000000
00000000
00000000
00010000
00000000
00000000
00000000
00001000
00000000
00000000
00000000
00010000
00000000
00000000
00000100
00000000
00000000
00001000
00000000
00000000
00000001
00000000
00000000
00000100
00000000
00000000
00000000
00000000
00000000
00000000
00000000
00000000
00000000
00000000
00000000
00000110
00000000
00000000
00000000
00000000
00000000
00000000
00000000
00000000
00000000
00000000
00000000
MMMMMMMM
00000000
00000000
00000000
00000000
00000000
00000000
00000000
00000000
00000000
00000000
00000000
00000001
00000000
00000000
00000000
00000000
00000000
00000000
00000000
00000000
00000000
00000000
00000000
00000100
00000000
00000000
00000000
00000000
00000000
00000001
00000000
00000000
00000000
00000000
00000000
,
00000010
00000001
00000000
00001000
00000000
00000100
00000000
00010000
00001000
00010000
01000000
00100000
00010000
00000000
10000000
00100000
,
01000000
00010000
00000000
10000000
00000000
00100000
00000000
00010000
00001000
00000100
00000010
00001000
00000010
00000000
00000100
00000000
,
00000010
00000000
00001000
00000001
00000000
00000010
00000100
00010000
00000000
00001000
00000010
00000001
00001000
00000000
00000001
00000100
,
00000000
00000000
00000000
00000010
00000000
00000000
00000100
00000000
00000000
00001000
00000000
00000000
00010000
00000000
00000000
00100000
00000000
00000000
01000000
00000000
00000000
00010000
00000000
00000000
10000000
00000000
00010000
00000000
10000000
00000000
01000000
00000000
00000000
00100000
00000000
00000000
00010000
00000000
00000000
00000000
00000000
00000000
01000000
00000000
00000000
00100000
00000000
00000000
,
00010000
00100000
00000000
01000000
00000000
00010000
00000000
00100000
01000000
00010000
00001000
00000010
00000100
00000000
00001000
00000100
,
00000001
00000100
00000000
00001000
00000000
00000001
00000000
00000100
00000010
00001000
00010000
01000000
00100000
00000000
01000000
00000000
,
01010000
00000000
00010000
10000000
00000000
01000000
10000000
00010000
10000000
01000000
00100000
00000000
00110000
00000000
00100000
00001000
,
00000000
00010000
00000010
00000000
00001000
00000100
00000010
00000001
00001000
00000010
00000100
00000010
00010000
00001000
00010000
00001000
,
00010000
00000000
00000000
00000000
00001000
00000000
00000000
00000000
00000000
00000000
00000000
00000000
00101000
00000000
00000000
00000000
00000000
00000000
00000000
00000000
10010000
00000000
00000000
00000000
00000000
00000000
00000000
00000000
00010000
00000000
00000000
00000000
02000000
03000000
00000000
00000000
00200000
00300000
00000000
00000000
02000000
03000000
00000000
00000000
00200000
00300000
00000000
00000000
01000000
00000000
00000000
00000000
00010000
00000000
00000000
00000000
10000000
00000000
00000000
00000000
01000000
00000000
00000000
00000000
,
00100000
00001000
00010000
00001000
00000000
00000100
00000000
00000010
00002000
00000000
00000000
00003000
00002200
00000000
00000000
00000000
,
00000000
00000000
00000000
00003300
00020000
00000000
00000000
00000000
00000000
00000000
00000000
00000000
00000000
00000000
00000000
00000000
,
00000000
00002000
00000000
00000000
,
00000000
00000000
00000000
00033000
,
00011000
00000000
00000000
00000000
00000000
00000000
00001000
00000000
01000000
00000000
00000000
00000000
0020MMMM
00000000
00000000
00300000
01100000
00000000
00000000
00000000
00000000
00000000
00100000
00000000
10000000
00000000
00000000
00000000
0200MMMM
00000000
00000000
03000000
,
01100000
00000000
00000000
00100000
00001000
00000000
0002MMMM
00000000
00031000
00000010
00000100
00001000
00000100
00000000
MMMMMMMM
00000000
,
00001100
00000000
00000000
00000000
00000100
00000000
00000010
00000000
00000001
00000000
00000000
00000000
MMMM0200
00000000
00000000
00000300
00000110
00000000
00000000
00000000
00000010
00000000
00010000
00000000
00001000
00000000
00010000
00000000
00001000
00000000
00000000
00000000
,
00011000
00000000
00010000
00001000
00000000
00000100
00000010
00010000
00001000
00010000
00001000
00100000
00010000
10000000
00100000
00000000
,
01100000
00000000
00100000
10000000
00010000
00000000
10000000
01000000
00000000
MMMMMMMM
00000000
00100000
00002000
00000000
00023000
00000000
,
00030010
00000000
00001000
00000000
00000010
00000000
00000100
00000000
00000000
00000001
00000000
00000000
00001000
00000000
00000000
00000100
00000000
00000000
00000010
00000000
00000000
00000000
00000000
00000000
00000001
00000000
00000000
00000100
00000000
00000000
00000000
00000000
00000000
00000100
00000000
00000000
00001000
00000000
00000000
00000100
00000000
00000000
00010000
00000000
00000000
00000000
00000000
00000000
,
MMMM1000
00000000
00000000
00000000
00000000
00000000
0001MMMM
00000000
00000000
00000000
00000000
00000000
00001000
00000000
00000000
00100000
00000000
00000000
00010000
00000000
00000000
10000000
00000000
00000000
00010000
00000000
00100000
00000000
01000000
00000000
10000000
00000000
00000000
00010000
00000000
00000000
01000000
00000000
00000000
00000000
00000000
00000000
00100000
00000000
00000000
10000000
00000000
00000000
,
10010000
00000000
00000000
00000000
00000000
00000000
00000000
00000000
00000000
10000000
00000000
00000000
00000000
00000000
00000000
00001000
00000000
00000000
00000000
00000000
00000000
10000000
00000000
00000000
00000000
00000000
00000000
00000000
11000000
00000000
00000000
00000000
10000000
00000000
01000000
00000000
00100000
00000000
00000000
00000000
00001000
00000000
00000000
00000000
00010000
00000000
00000000
00000000
,
00011000
MMMMMMMM
MMMMMMMM
MMMMMMMM
,
00010000
00000010
00001000
00000000
00000010
00010000
00001000
00000000
00100000
00010000
01000000
00001000
00020000
00000000
00000000
00000000
,
00031000
00010000
00000010
00001000
00000010
00010000
00000000
00001000
00000000
00100000
00000000
00010000
01000000
00001000
00010000
00001000
,
00000010
00000100
00001000
00000001
00000100
00000001
00000000
00000010
00000000
00001000
00000000
00010000
01000000
00100000
00010000
01000000
,
00100000
00000000
10000000
00010000
00100000
00000000
00010000
10000000
00000000
01000000
10000000
01000000
00100000
10000000
00100000
00010000
,
10000000
00000000
00000000
00000000
00000000
00000000
01000000
00000000
00000000
00100000
00000000
00000000
00000000
00000000
00000000
00001000
00000000
00000000
00010000
00000000
00000000
00001000
00000000
00000000
00000100
00000000
00000000
00000010
00000000
00000000
00001000
00000000
00000000
00000001
00000000
00000000
00000010
00000000
00000100
00000000
00000010
00000000
00000001
00000000
00000000
00001000
00000000
00000000
,
00000010
00000100
00000001
00001000
00000010
00000100
00000001
00000010
00000000
00000100
00010000
00001000
00010000
00100000
10000000
00010000
,
01000000
00100000
10000000
00010000
00100000
01000000
00100000
00010000
00000000
10000000
01000000
00100000
00001000
00010000
00001000
01000000
,
00010000
00000000
10000000
00100000
01000000
00000000
00010000
00100000
00000000
00010000
10000000
00010000
00100000
01000000
00100000
00001000
,
00011000
00000000
00000000
00000000
00000000
00000000
00010000
00000000
00000000
00001000
00000000
00000000
00000000
00000000
00000000
00000010
00000000
00000000
00000001
00000000
00000000
00000000
00000000
00000000
00001000
00000000
00000010
00000000
00000100
00000000
00000001
00000000
00000000
00001000
00000000
00000000
00000000
00000000
00000000
00000100
00000000
00000000
00010000
00000000
00000000
00011000
00000000
00000000
;
