#TITLE:The Least 100sec;
#ARTIST:佐々木博史;
#ARTISTTRANSLIT:Hirofumi Sasaki;
#GENRE:PROGRESSIVE;
#BANNER:The Least 100sec.png;
#BACKGROUND:The Least 100sec-bg.png;
#CDTITLE:./CDTitles/GF 5thMIX & dm 4thMIX.png;
#MUSIC:The Least 100sec.ogg;
#SAMPLESTART:0.914;
#SAMPLELENGTH:15;
#BPMS:0=262.5,4=263.600,83=259.5,84=258,85=256.5,86=255,87=253.5,88=252,89=250.4,90=248.8,96=251.7,97=254.7,98=257.6,99=263.6,405=200;
#TIMESIGNATURES:0=4=4,84=3=4,96=4=4,104=3=4,107=4=4,363=3=4,375=4=4,383=3=4,386=4=4;

//--------------- dance-single - Fred-104 ----------------
#NOTES:
     dance-single:
     Fred-104:
     Beginner:
     8:
     :
0000
0000
0000
0000
,
0000
0000
0000
0000
,
0000
0000
0000
0000
,
0000
0000
0000
0000
,
0000
0000
0000
0000
,
0000
0000
0000
0000
,
0000
0000
0000
0000
,
0000
0000
0000
0000
,
0000
0000
0000
0000
,
0001
0000
0000
1000
0000
0000
0001
0000
,
0000
1000
1000
0000
,
0010
0000
1000
0000
,
0001
0000
1000
0000
,
0001
0000
0001
0000
,
1000
0000
0001
0000
,
0010
0000
0100
0000
,
0010
0100
0000
0000
,
0100
0000
0000
0010
0000
0000
0010
0000
,
0000
0001
0001
0000
,
1000
0000
0000
0010
0000
0000
1000
0000
,
0000
0001
0001
0000
,
1000
0000
0000
1000
0000
0000
0001
0000
,
0000
0001
0000
0000
1000
0000
0000
1000
,
0000
0000
0001
0000
0000
0001
0000
0000
,
1000
0000
0001
0000
,
1000
0000
0001
0000
,
0010
0000
0000
0100
0000
0000
1000
0000
,
0000
0001
0000
1000
,
0000
0001
0000
0001
,
0000
1000
0000
0010
,
0000
0100
0000
2002
,
0000
0000
0000
3003
0000
0000
1000
0000
,
0001
1000
0001
1000
,
0000
0001
0000
0100
,
0000
0010
0000
0100
,
0000
0001
0000
1000
,
1000
1000
0000
0001
,
0000
1000
0000
0001
,
0000
0100
0000
0001
,
0000
0100
0000
0010
,
0000
1000
0000
0001
,
0000
1000
0000
0000
0000
0000
0000
0000
,
0000
0000
0000
0100
,
0000
0010
0000
0000
0000
0000
0001
0000
,
0000
1000
0000
0001
,
0000
1000
0000
0010
,
0010
0010
0000
1000
,
0000
0001
0000
1000
,
0001
1000
0000
0001
,
0000
1000
0000
0000
0001
0000
0000
1000
,
0000
0001
1000
0001
,
0000
0001
0000
0000
0001
0000
0010
0000
,
0000
0100
0000
0000
0100
0000
0010
0000
,
0000
0010
0000
0000
0100
0000
1000
0000
,
0000
1000
0000
0000
1000
0000
0001
0000
,
0000
1000
0000
0001
,
0000
0100
0000
0010
,
0000
1000
0000
0001
,
0000
1000
0000
0000
0010
0000
1000
0000
,
0000
1000
0000
0000
0100
0000
0000
0100
,
0000
0000
0010
0000
0000
0010
0000
0000
,
0001
0000
0000
0001
0000
0000
1000
0000
,
0000
1000
0000
0000
0001
0000
1000
0000
,
0000
0001
0000
1000
,
0010
2000
3000
0001
,
0010
0001
0000
1000
,
0001
2000
3000
0001
,
0100
0001
0001
0100
,
0010
0100
0100
0010
,
1000
0001
1000
2002
,
0000
0000
3003
1000
,
0000
0001
0000
1000
,
0100
1000
0100
0010
,
0000
0001
0000
0001
,
0100
0001
0000
1001
,
0000
0001
1000
0001
,
0000
0100
0000
0010
,
0100
0010
0000
1000
,
0010
1000
0001
1000
,
0000
0001
0000
0000
0100
0000
0000
0000
,
0010
1000
0000
0100
,
0010
0001
0000
1000
,
0001
1000
0000
0001
,
0000
1000
0000
0100
,
0000
0001
0000
0010
,
0000
1000
0000
0001
,
0001
0000
0000
1000
,
0000
0010
0000
0000
0100
0000
0000
0000
,
0001
1000
0000
0001
,
0000
0010
0000
0000
0100
0000
0000
0000
,
1000
1000
0000
0001
,
0000
0001
0000
0000
0010
0000
0000
0010
,
0000
0000
0100
0000
0000
0100
0000
0000
,
1000
0000
0000
1000
0000
0000
0010
0000
,
0000
0100
0000
0010
,
0000
1000
0000
0001
,
0000
1000
0000
0000
0001
0000
0000
0000
,
1000
0000
0100
0010
,
0001
0000
1000
0000
,
0001
0000
2002
0000
,
0000
3003
1001
1001
,
0000
0000
0000
0000
,
0000
0010
0010
1000
,
1000
0000
0000
0000
0001
0000
0000
0000
0001
0000
0000
0000
0100
0000
0000
0010
,
0000
0000
0000
0000
0110
0000
0000
0000
0000
0000
0000
0000
0000
0220
0000
0000
0000
0000
0000
0000
0000
0000
0000
0000
0000
0000
0000
0000
0000
0000
0000
0000
,
0000
0000
0000
0000
,
0000
0000
0000
0000
,
0330
0000
0000
0000
;

//--------------- dance-single - Fred-104 ----------------
#NOTES:
     dance-single:
     Fred-104:
     Easy:
     12:
     :
0000
0000
0000
0000
,
0000
0000
0000
0000
,
0000
0000
0000
0000
,
0000
0000
0000
0000
,
0000
0000
0000
0000
,
0000
0000
0000
0000
,
0000
0000
0000
0000
,
0000
0000
0000
0000
,
0000
0000
0000
0000
,
1000
0000
0000
0001
0000
0000
1000
0000
,
0000
0001
1000
0001
,
0100
0010
1000
0001
,
0010
0100
0010
0001
,
1000
0001
0000
0001
0000
0001
0000
1000
,
0000
0001
0000
0100
0000
0010
0100
0000
,
0010
1000
0001
1000
,
0001
2002
0000
3003
,
1000
0000
0000
0010
0000
0000
1000
0000
,
0000
0001
0100
0010
,
0100
0000
0000
0001
0000
0000
0001
0000
,
0000
1000
0100
0010
,
0001
0000
0000
0011
0000
0000
1000
0000
,
0000
1010
0000
0000
0001
0000
0000
0101
,
0000
0000
1000
0000
0000
1100
0000
0000
,
1001
0001
0100
0010
,
1000
0100
0010
0001
,
1000
0000
0000
0010
0000
0000
1000
0000
,
0010
0000
0100
0010
0100
0000
0002
0000
,
0000
0000
1003
0001
1000
0000
0001
0000
,
0010
0100
1000
2200
,
0000
0000
3300
0001
,
0000
1000
0000
1000
0000
0000
0001
0000
,
0100
0110
0010
1000
,
0001
0000
1000
0100
1000
0000
0001
0000
,
1000
1010
0010
0100
,
0001
0000
1000
0001
1000
0000
0001
0100
,
0001
0000
1000
0100
1000
0000
0001
0000
,
0000
0001
1000
0000
0000
1000
0100
0000
,
0000
0100
0010
0000
0000
0010
0001
0000
,
0000
0001
1000
0000
0000
1000
0010
0000
,
0100
0001
1000
1100
,
0000
1001
0000
0000
0000
0000
0002
0000
,
0000
2003
3000
0011
,
0000
0000
0000
1001
0000
0000
0000
0000
0000
0000
0000
0000
0000
0000
0000
0000
0000
0000
1000
0000
0000
0000
0100
0000
,
0000
1000
0000
0001
0000
0100
0000
0001
0000
1000
0000
0000
,
0000
0100
0000
0010
,
0001
0010
1000
0010
,
0000
0001
0000
1000
,
0010
0100
0001
1000
,
0000
1100
0000
0000
0001
0000
0000
0101
,
0000
1000
0001
0100
,
0000
0010
0000
0000
0100
0000
0001
0000
,
0000
1000
0000
0000
0100
0000
0010
0000
,
0000
0001
0000
0000
1000
0000
0001
0000
,
0000
0100
0000
0000
0010
0000
1000
0000
,
0001
1000
0100
1000
,
0010
0100
0100
0001
,
1000
0001
0010
0100
,
0100
1000
0001
1000
,
0000
1010
0000
0000
0001
0000
0000
0101
,
0000
0000
1000
0000
0000
1100
0000
0000
,
0001
0000
0000
0011
0000
0000
1000
0000
,
0010
1000
0001
1001
,
0000
0001
0000
0000
0010
0000
0100
0000
,
1000
0001
0100
0110
,
0000
0010
0000
0000
1000
0000
0001
0000
,
1000
0010
0100
0001
,
0001
1000
0100
0010
,
0001
0010
0100
1000
,
0001
0000
0100
0001
0100
0000
0220
0000
,
0000
0000
0330
1000
,
0000
0010
0000
0000
1000
0000
0001
0000
,
0010
0100
0010
0001
,
1000
0001
0100
0010
,
1000
0000
0001
1000
0001
0000
1000
0000
,
0010
1000
0001
1000
,
0100
0010
0100
1000
,
0001
0100
0001
1000
,
0100
0000
1000
0000
0001
0100
0001
0000
,
0000
1000
0000
0000
0010
0000
0000
0000
,
0100
0001
1000
0001
,
0001
0010
0100
1000
,
1000
0000
0010
0000
0100
0000
0001
0010
,
0000
0010
0000
0100
0000
0010
0000
0001
,
0000
1000
0000
0001
0100
0000
0001
0000
,
1000
1000
0001
0010
,
0220
0000
0330
1000
,
0000
0100
0000
0000
0010
0000
0000
0000
,
0100
0100
1000
0001
,
0000
0100
0000
0000
0001
0000
0000
0000
,
1000
0010
0100
0001
,
0000
0010
0000
0000
1000
0000
0000
0010
,
0000
0000
0001
0000
0000
0100
0000
0000
,
1000
0000
0000
0100
0000
0000
0001
0000
,
1000
0000
0001
0000
1000
0000
0010
0100
,
0010
0000
0100
0010
0100
0000
0100
0000
,
0000
0001
0000
0000
1000
0000
0100
0000
,
1000
0010
0100
0001
,
1000
0000
0001
0000
1000
0100
1000
0000
,
0001
0100
0001
0000
2002
0000
0000
0000
,
0000
3003
0001
2002
,
0000
0000
0000
0000
0000
0000
0000
3003
,
0000
0000
0001
0100
0010
0000
1000
0100
,
1000
0000
0000
0000
0001
0000
0100
0000
0001
0000
0000
0000
0100
0000
0000
0010
,
0000
0000
0000
0000
0110
0000
0000
0000
0000
0000
0000
0000
0000
0220
0000
0000
0000
0000
0000
0000
0000
0000
0000
0000
0000
0000
0000
0000
0000
0000
0000
0000
,
0000
0000
0000
0000
,
0000
0000
0000
0000
,
0330
0000
0000
0000
;

//--------------- dance-single - Fred-104 ----------------
#NOTES:
     dance-single:
     Fred-104:
     Medium:
     15:
     :
0000
0000
0000
0000
,
0000
0000
0000
0000
,
0000
0000
0000
0000
,
0000
0000
0000
0000
,
0000
0000
0000
0000
,
0000
0000
0000
0000
,
0000
0000
0000
0000
,
0000
0000
0000
0000
,
0000
0000
0000
0000
,
0001
0000
0100
0010
0000
1000
0001
0000
,
0000
1000
0100
0010
,
0001
1000
0001
0100
0010
1000
0010
1000
,
0001
0010
0001
0010
0100
1000
0100
1000
,
0001
0100
0010
0100
0000
1000
0000
0100
,
0000
0010
0000
0100
0000
0001
1000
0000
,
0001
0010
0100
0000
1000
0100
0010
0000
,
0001
2002
0000
3003
,
1000
0000
0010
0100
0000
0001
1000
0000
,
0000
0000
0001
1000
0010
1000
0001
0000
,
1000
0000
0001
0100
0000
0010
1000
0000
,
0000
0000
0001
1000
0100
0010
0001
0000
,
1001
0000
1000
0100
0000
0010
0100
0000
,
0001
0100
0000
0010
0100
0000
1000
0001
,
0000
0100
1000
0000
0100
0001
0000
1000
,
0001
0000
0010
0100
0010
0100
0010
0000
,
0001
0100
0001
1000
0100
1000
0001
0000
,
1000
0000
0000
1001
0000
0000
1000
0010
,
0100
0010
1000
0100
0010
0001
1000
0000
,
0000
0001
1000
0001
0100
0010
1000
0100
,
0010
0001
0010
0100
1000
0000
0001
0100
,
0010
1000
0010
0100
0001
0000
1001
0000
,
0000
1000
0000
1000
0000
0000
0001
0000
,
1000
0000
1100
0000
0100
0000
0010
0001
,
1000
0000
0001
0010
0100
0000
0010
0000
,
0001
0000
1001
0000
1000
0000
0001
1000
,
0010
0000
0100
0001
1000
0000
0010
0000
,
0100
0101
0001
1000
,
0001
0010
0100
0000
0010
0001
0100
0000
,
0010
1000
0100
0000
0010
0100
1000
0000
,
0001
0100
0010
0000
1000
0001
0010
0000
,
0100
0010
0001
1001
,
0000
1010
0000
0001
1000
0001
1000
0000
,
0100
0010
0100
1100
,
0000
0000
0000
0101
0000
0000
0000
0000
0000
1000
0000
0000
0100
0000
0000
0010
0000
0000
0001
0000
0000
0000
0010
0000
,
0000
0001
0000
1000
0000
0010
0000
0100
0000
0110
0000
0000
,
0001
0000
1000
0010
1000
0000
0100
0000
,
0010
0000
0001
1000
0001
0000
1000
0010
,
0100
0000
0001
0100
0001
0000
1000
0100
,
1000
0010
0100
0001
1000
0000
0001
0000
,
1000
0100
0000
0001
0100
0000
1000
0010
,
0000
0001
0010
0000
1000
0000
1001
0000
,
1000
0010
0000
0100
0001
0000
1000
0000
,
0001
0010
0000
0100
1000
0000
0001
0000
,
1000
0100
0000
0010
0001
0000
1000
0000
,
0001
0100
0000
0010
1000
0000
0001
0000
,
0100
0010
1000
0010
0100
0000
0001
0100
,
0001
0100
0010
1000
0001
0010
0100
0000
,
1000
0010
1000
0100
1000
0000
0001
0100
,
0001
1000
0000
0100
0010
0000
0001
0000
,
0000
0011
0000
0000
0010
0000
0000
1010
,
0000
0000
1000
0000
0000
1100
0000
0000
,
0100
0000
0000
0101
0000
0000
0001
1000
,
0001
0000
0100
0010
0100
0000
0001
0000
,
1000
0100
0000
0010
0001
1000
0001
0000
,
1000
0000
0001
0100
0002
0000
1003
0000
,
0010
0100
0000
0010
1000
0000
0001
0010
,
0001
0000
1000
0010
0100
0000
0001
0100
,
0010
1000
0001
0010
0100
0000
1000
0001
,
0100
0010
1000
0100
0010
0000
0001
0100
,
0001
0100
1000
0100
0001
0000
2002
0000
,
0000
0000
3003
0002
,
0000
0103
0000
0010
0100
1000
0100
0000
,
0001
1000
0100
0000
0010
0001
1000
0100
,
1000
0001
1000
0010
1000
0001
0100
0001
,
0100
0010
1000
0100
0010
0000
0001
0000
,
1000
0000
0100
0000
0010
0000
0001
1000
,
0010
1000
0001
0010
0100
0000
1000
0010
,
1000
0000
0001
0100
0001
0000
1000
0100
,
0010
0001
0010
0100
1000
0000
0001
0000
,
0100
0010
0000
0010
1000
0000
0000
0000
,
0001
0000
0010
0000
1000
0000
0010
0001
,
0010
0000
0001
0100
0001
0000
0100
1000
,
0100
0000
0001
1000
0001
0000
1000
0100
,
0010
0100
0000
0001
0000
0100
0000
0010
,
0000
0001
0000
1000
0001
0000
0010
1000
,
0010
0000
0001
0100
0010
0000
1000
0000
,
2002
0000
3003
1000
,
0100
0010
0000
0010
0001
0000
0000
0000
,
1000
0010
0100
0010
1000
0000
0001
0000
,
1000
0100
0000
0100
0010
0000
0001
0010
,
0100
0000
1000
0010
0100
0000
0001
0000
,
1000
0100
0000
0100
0010
0000
0010
0001
,
0000
0001
0100
0000
0100
0010
0000
0010
,
1000
0000
1000
0001
0000
0001
0100
0010
,
0100
0000
0010
1000
0001
0000
1000
0100
,
0010
0001
0100
0010
1000
0000
0001
0000
,
0000
1000
0000
0000
0001
1000
0010
0100
,
0010
1000
0001
0010
0100
0000
0000
1000
,
0010
0100
0001
1000
0001
0010
0100
1000
,
0100
0010
0001
0000
2002
0000
0000
0000
,
0000
3003
1010
0202
,
0000
0000
0000
0000
0000
0000
0000
0303
,
0000
0000
1000
0100
0010
0000
0001
0100
,
0010
0000
0000
0000
1000
0000
0001
0000
1000
0000
0000
0000
1100
0000
0000
0011
,
0000
0000
0000
0000
1001
0000
0000
0000
0000
0000
0000
0000
0000
0220
0000
0000
0000
0000
0000
0000
0000
0000
0000
0000
0000
0000
0000
0000
0000
0000
0000
0000
,
0000
0000
0000
0000
,
0000
0000
0000
0000
,
0330
0000
0000
0000
;

//--------------- dance-single - Fred-104 ----------------
#NOTES:
     dance-single:
     Fred-104:
     Hard:
     17:
     :
0000
0000
0000
0000
,
0000
0000
0000
0000
,
0000
0000
0000
0000
,
0000
0000
0000
0000
,
0000
0000
0000
0000
,
0000
0000
0000
0000
,
0000
0000
0000
0000
,
0000
0000
0000
0000
,
0000
0000
0000
0000
,
1100
0000
1000
0010
0000
0100
0001
0000
,
0101
0100
0010
1000
,
0001
1000
0100
0010
0100
0010
1000
0010
,
0001
1000
0100
0010
1000
0001
0100
0010
,
0001
1000
0001
0100
0000
0010
0000
1000
,
0000
0001
0000
1001
0000
1000
0010
0100
,
0010
1000
0100
0010
0100
0001
0100
1000
,
0001
0000
2002
0000
3003
1000
0000
0001
,
1000
0010
0001
1000
0100
0010
1000
0000
,
1001
0000
0001
0100
0010
0100
1000
0100
,
0001
1000
0100
0001
1000
0010
0100
0000
,
1000
0000
0000
0000
0000
0000
0001
0000
1000
0000
0010
0000
1000
0000
0001
0000
1000
0000
0001
0000
0000
0100
0000
0000
,
0001
0000
1000
0100
0000
0001
0100
0000
,
1000
0010
0000
0001
0010
0000
1000
0100
,
0000
0001
1000
0000
0010
0001
0000
1000
,
1001
0000
0001
0010
1000
0010
0001
0000
,
0010
0100
1000
0010
0100
0001
0010
0100
,
1001
0000
0000
0110
0000
0000
1001
0001
,
0100
1000
0100
0010
0100
0001
1000
0001
,
0000
0000
0100
0010
0100
0000
0010
0000
1000
0000
0100
0000
0010
0000
0001
0000
,
0100
0010
0001
0010
1000
0001
1000
0100
,
0010
1000
0001
0100
0010
0001
1000
0000
,
0000
0001
0000
0001
0000
0000
1010
0000
,
0010
1000
0001
0000
0100
0000
0010
1000
,
0100
0010
0100
1000
0100
0010
0001
0000
,
1000
0001
0100
0001
1000
0000
0100
0000
,
0001
0100
1000
0001
0010
0100
0001
0100
,
0010
0001
1000
0001
1000
0000
1000
0100
,
0010
1000
0010
0001
0100
0010
1000
0001
,
0010
0100
0010
0001
1000
0001
0100
0010
,
0001
0010
1000
0001
1000
0010
0100
0010
,
1000
0001
0100
0001
1000
0100
1100
0000
,
0000
0110
0000
0001
0100
0010
1000
0010
,
0100
0001
1000
0100
0010
0001
0101
0000
,
0000
0000
0000
1010
0000
0000
0000
0000
0000
0010
0000
0000
0100
0000
0000
0010
0000
0000
1000
0000
0000
0000
1000
0000
,
0000
0100
0000
0001
0000
0001
0000
0100
0000
1001
0000
0000
,
0001
0010
0100
1000
0001
0100
0001
0100
,
0010
0100
1000
0100
0010
0100
0001
1000
,
0010
0100
0001
1000
0100
0010
1000
0010
,
0001
1000
0010
0100
0001
1000
0001
0000
,
1000
1100
0000
0001
0101
0000
1000
1010
,
0000
0001
0011
0000
1000
0000
1001
0000
,
1000
0100
0000
0100
0001
0000
1001
0000
,
0001
0100
0000
0100
1000
0000
1001
0000
,
1000
0010
0000
0010
0001
0000
1001
0000
,
0001
0010
0000
0010
1000
0000
1001
0000
,
1000
0100
0010
0100
0001
0100
1000
0010
,
0100
0001
1000
0001
0100
0000
0001
0010
,
0100
1000
0010
0100
0001
0000
1100
0100
,
0010
0001
0100
0010
0110
0000
1001
0000
,
1000
0100
0000
0100
0001
0000
1000
0010
,
0000
0010
0001
0000
1000
0100
0000
0100
,
0001
0000
1000
0010
0000
0010
0001
1000
,
0100
0001
0100
1000
0010
0100
0101
0000
,
0100
0010
0000
1000
0100
0010
0001
0100
,
0001
1000
0100
0010
2000
0000
3010
0100
,
1000
0001
0000
0100
0000
0001
0100
0010
,
0001
0010
0100
0001
2000
0000
3001
0100
,
1000
0100
0010
1000
0001
1000
0010
0100
,
1000
0100
0001
1000
0001
0100
0001
0010
,
1000
0000
0000
0010
0000
0000
0100
0000
0000
1000
0000
0000
0001
0000
0000
0000
0000
0000
1000
0000
0100
0000
1000
0000
,
0100
0010
0001
0100
0001
1000
0001
0000
0000
2000
0000
0000
,
0000
3010
0000
0010
1000
0010
0100
0001
,
1000
0001
0100
1000
0100
0010
1000
0100
,
0010
0001
1000
0010
0001
0010
0100
0010
,
1000
0001
0100
0001
1000
0000
0001
0000
,
1000
0000
1010
0000
0101
0000
0001
0010
,
1000
0010
0001
0100
0001
0000
1000
0010
,
0100
0001
0010
0100
1000
0100
0001
1000
,
0010
0001
1000
0001
1000
0000
0100
0010
,
0100
0001
0000
0100
1000
0000
0010
0000
,
1000
0000
0100
0000
1000
0000
0001
0100
,
0010
1000
0100
0010
0100
1000
0001
0100
,
0010
0100
0001
0010
0001
1000
0010
0100
,
0010
1000
0000
1010
0000
0101
0000
1100
,
0000
0011
0000
0001
1000
0010
0100
1000
,
0100
0001
1000
0100
0010
0001
1000
0000
,
2002
0000
3003
1000
,
0001
0100
0000
0100
1000
0000
1001
0000
,
0100
0100
0001
1000
0100
0010
0001
0000
,
1000
0010
0000
0010
0001
0000
1001
0000
,
0001
0000
1000
0000
0001
0000
1000
0000
0000
0010
0000
0000
0100
0000
0000
0000
0000
0000
0001
0000
0000
0100
0000
0000
,
1000
0100
0001
1000
0001
0010
0100
0001
,
0100
0010
0001
0100
0010
0001
0010
0100
,
0001
0010
1000
0001
0100
1000
0001
0010
,
0100
0010
1000
0010
0100
0010
0001
1000
,
0100
0010
0001
0100
0010
0001
0010
0000
,
0000
0110
0000
0000
1001
1000
0010
0100
,
0001
0000
0100
0000
0010
0000
1000
0000
0010
0000
0100
0000
0000
0000
0010
0100
,
0010
1000
0100
0010
0001
0100
0010
1000
,
0001
0000
0000
0010
0000
0000
0100
0000
0000
0000
0000
0000
1000
0000
0001
0000
1000
0000
0001
0000
1000
0000
0001
0000
,
1000
0001
1000
0001
1000
0001
0100
0000
0000
0220
0000
0000
,
0000
0000
0000
0000
0000
0000
0000
0330
,
0000
0000
0000
0000
1000
0100
1000
0100
0010
0000
0000
0000
0001
0100
0001
0100
,
0010
0000
0000
0000
1000
0000
0001
0000
1000
0000
0000
0000
1100
0000
0000
0011
,
0000
0000
0000
0000
1001
0000
0000
0000
0000
0000
0000
0000
0000
0220
0000
0000
0000
0000
0000
0000
0000
0000
0000
0000
0000
0000
0000
0000
0000
0000
0000
0000
,
0000
0000
0000
0000
,
0000
0000
0000
0000
,
0330
0000
0000
0000
;

//--------------- dance-single - Fred-104† ----------------
#NOTES:
     dance-single:
     Fred-104†:
     Challenge:
     18:
     :
0000
0000
0000
0000
,
0000
0000
0000
0000
,
0000
0000
0000
0000
,
0000
0000
0000
0000
,
0000
0000
0000
0000
,
0000
0000
0000
0000
,
0000
0000
0000
0000
,
0000
0000
0000
0000
,
0000
0000
0000
0000
,
0001
0010
1000
0001
0100
1000
0001
0000
,
1000
0100
0010
0001
0000
0000
0011
0000
0000
1001
0000
0000
,
0001
0010
0100
1000
0010
0100
1000
0001
,
0010
0100
0001
0010
0100
1000
0001
0100
,
0001
0010
1000
0001
0100
0010
1000
0001
,
0100
0010
1000
0001
0100
0010
0001
1000
,
0100
0001
0100
0010
0001
1000
0010
0100
,
0101
0000
0000
0000
1001
0000
0000
0000
0000
0000
1000
0000
0000
0000
0001
1000
,
0001
0100
0100
1000
0100
0100
0001
0000
,
1000
0000
0100
0000
0010
0000
0001
0000
1000
0010
1000
0010
0100
0000
0001
0000
,
1000
0100
0100
0001
0100
0100
1000
0000
,
0001
0000
0100
0000
0010
1000
0010
1000
0001
0000
0010
0000
0100
0000
1000
0000
,
0001
0010
0010
1000
0010
0010
0001
0100
,
0100
1000
0100
0100
0001
0010
0010
0100
,
0010
0010
0001
0100
0100
0010
0100
0100
,
0101
0000
0000
0000
0000
0000
0000
0000
0000
0000
0000
0000
1000
0000
0000
0100
0000
0000
1000
0000
0000
0100
0000
0000
0010
0000
0000
0000
0001
0000
0000
0000
0100
0000
0000
0000
0010
0000
0000
0000
1000
0000
0000
0000
0010
0000
0000
0000
,
0100
0000
0010
0100
1000
0001
0010
0100
,
0001
0000
0000
1001
0000
0000
1000
0100
,
0010
1000
0010
0100
1000
0001
0100
1000
,
0100
0000
0000
0000
0000
0000
0001
0000
0000
1000
0000
0000
0001
0000
0000
0000
0000
0000
0010
0000
0000
0000
0000
0000
0100
0000
0000
0000
0000
0000
1000
0000
0000
0000
0000
0000
0001
0000
0000
0000
0100
0000
0000
0000
0010
0000
0000
0000
,
1000
0001
0010
0100
0010
0001
0100
0010
1000
0100
0010
0001
,
0010
0100
1000
0010
0100
0001
0010
0100
1000
0001
0000
0000
,
0000
1010
0000
0101
0000
0000
1000
0010
,
0001
0000
0010
0000
0100
0000
0000
0000
1001
0000
0000
0000
1000
0010
1000
0010
,
1000
0001
1000
0100
0001
0100
1000
0001
,
0100
0010
0100
1000
0100
0010
0001
1000
,
0100
0010
1000
0100
0110
0000
0001
0100
,
0001
0100
1000
0100
1000
0100
0001
1000
,
0100
0100
0001
1000
0010
0010
0001
1000
,
0010
0100
1000
0001
0010
0100
0001
1000
,
0001
0100
1000
0100
0001
0010
0100
0001
,
0100
0010
0001
1000
0100
0010
0011
0000
,
0000
1001
0000
0001
0010
1000
0001
0100
,
0010
0000
0001
0000
1000
0000
0100
0000
0010
0000
0001
1000
0001
0000
0000
0000
,
0000
0000
0000
1010
0000
0000
0000
0000
0000
0001
0000
0000
1000
0000
0000
0010
0000
0000
0100
0000
0000
0000
0100
0000
,
0000
0100
0000
0010
0000
0010
0000
0010
0000
1001
0000
0000
,
0001
1000
0100
0010
0100
0001
1000
0010
,
0100
0010
0001
1000
0010
0100
0001
1000
,
0010
0001
1000
0100
0010
0001
1000
0100
,
0010
1000
0001
0010
0100
0000
1000
0100
,
0100
0001
0100
0100
1000
0010
0010
0001
,
0010
0000
0010
0000
1000
0000
0100
0000
0010
0001
0010
0001
1000
0000
0100
0000
,
0100
0010
0100
0100
1000
0001
0100
0001
,
0001
0010
0001
0001
1000
0001
0010
0100
,
0100
1000
0100
0100
0010
0001
1000
0010
,
0100
1000
0001
0010
1000
0000
0001
0010
,
0100
0000
1000
0001
1000
0000
0010
0000
0100
0001
0100
0000
0001
0000
1000
0000
,
0100
0010
1000
0001
0100
0010
0100
1000
,
0001
0000
0000
0100
0000
0000
0010
0000
1000
0000
0010
0000
1000
0000
0001
0000
1000
0000
0100
0000
0010
0000
0100
0000
,
0010
0000
0001
0000
1000
0000
0001
0000
0000
1000
0000
0000
0001
0000
0000
0000
0000
0000
1000
0000
0000
0100
0000
0000
,
0100
0010
0100
0100
1000
0010
0010
0100
,
0010
0010
1000
0010
0010
0001
0010
0010
,
1000
0000
0100
0000
0100
0000
0001
0000
0100
0000
0100
0000
1000
0000
0001
1000
,
0001
0000
0010
0100
0010
0100
0010
0000
0100
0000
1000
0000
1001
0000
0000
0000
,
1000
0100
0000
0001
0100
0010
0001
0100
,
0010
0001
1000
0100
0010
0000
1001
0000
,
0001
0000
1000
0001
1000
0000
0100
0000
0010
0000
0001
0000
1000
0010
1000
0010
,
0100
0010
0001
0010
1000
0000
0001
0010
,
1000
0001
0100
0010
0001
0000
1000
0001
,
0010
0100
0010
0100
1000
0000
0001
0000
0100
0000
0001
0000
1000
0000
0100
0000
,
0010
0000
0000
0000
0000
0000
0001
0000
0000
1000
0000
0000
0001
0000
0000
0000
0000
0000
0100
0000
0000
0010
0000
0000
0100
0000
0000
0000
0000
0000
0001
0000
0000
0000
0000
0000
1000
0000
0000
0000
0100
0000
0000
0000
1000
0000
0000
0000
,
0010
0100
0001
1000
0100
0010
0001
0100
0010
1000
0000
0000
,
0000
0100
0000
0010
0001
1000
0001
0100
,
0010
0100
1000
0001
0010
0100
0010
1000
,
0001
1000
0100
0010
1000
0001
0100
0010
,
0001
1000
0001
0100
1000
0100
0001
0001
,
0010
0000
0110
0000
1001
0000
1000
0100
,
1000
0010
0001
0010
1000
0001
1000
0100
,
1000
0010
0100
0001
0010
0100
0001
1000
,
0010
0100
0010
0001
1000
0000
0001
0100
,
0100
1000
0100
0100
0001
0000
0010
0000
,
0100
0000
0001
0000
0100
0000
1000
0010
,
0100
1000
0001
0010
0100
1000
0100
0001
,
1000
0100
0010
0001
0100
0010
1000
0010
,
0001
0010
0000
0100
0001
1001
0000
1000
,
0100
0110
0000
0001
1001
1000
0010
0001
,
1000
0100
0010
1000
0001
0100
0110
0000
,
1001
0000
0000
0001
0000
0000
1000
0100
,
0100
0001
0010
0010
1000
0000
0001
1000
,
0100
0100
0001
0010
0100
0010
0001
0100
,
0100
1000
0010
0010
0001
0000
1000
0001
,
0010
0000
0000
0100
0000
0000
0010
0000
0000
0100
0000
0000
1000
0000
0000
0000
0001
0000
0000
0000
0100
0000
0000
0000
0010
0000
0000
0000
1000
0000
0000
0000
0001
0000
0000
0000
1000
0000
0000
0000
0000
0000
0100
0000
0000
0000
0000
0000
,
0001
1000
0010
0100
1000
0001
0100
1000
,
0100
0001
1000
0100
0100
0010
0100
0100
,
0001
0000
0000
0100
0000
0000
0100
0000
0000
0010
0000
0000
0100
0000
0000
0100
0000
0000
1000
0000
0001
0000
0100
0000
,
0010
0000
1000
0000
0010
0000
0100
0000
0001
0000
1000
0000
0100
0000
0010
0000
0001
0000
1000
0000
0000
0001
0000
0000
,
0010
0100
0010
1000
0010
0001
1001
0000
,
0000
0110
0000
0000
1001
0001
0100
0010
,
0001
0000
1000
0000
0100
0000
0001
0000
1000
0000
0001
0000
0010
0000
0100
0010
,
0100
0000
0000
1000
0000
0000
0001
0000
0000
0100
0000
0000
0010
0000
1000
0000
0100
0000
0010
0000
0001
0000
0100
0000
,
0010
1000
0010
0100
0001
1000
0100
0010
0001
0100
0010
1000
,
0010
0100
0001
0010
0100
1000
1001
0000
0000
0220
0000
0000
,
0000
0000
0000
0000
0000
0000
0000
0330
,
0000
0000
0000
0000
1000
0100
0001
0100
1000
0000
0000
0000
0001
0100
1000
0100
,
0001
0000
0000
0000
1000
0100
0010
0001
0010
0000
0000
0000
0011
0000
0000
1100
,
0000
0000
0000
0000
0101
0000
0000
0000
0000
0000
0000
0000
0000
2002
0000
0000
0000
0000
0000
0000
0000
0000
0000
0000
0000
0000
0000
0000
0000
0000
0000
0000
,
0000
0000
0000
0000
,
0000
0000
0000
0000
,
3003
0000
0000
0000
;

//--------------- dance-double - Fred-104 ----------------
#NOTES:
     dance-double:
     Fred-104:
     Easy:
     12:
     :
00000000
00000000
00000000
00000000
,
00000000
00000000
00000000
00000000
,
00000000
00000000
00000000
00000000
,
00000000
00000000
00000000
00000000
,
00000000
00000000
00000000
00000000
,
00000000
00000000
00000000
00000000
,
00000000
00000000
00000000
00000000
,
00000000
00000000
00000000
00000000
,
00000000
00000000
00000000
00000000
,
10000000
00000000
00000000
00010000
00000000
00000000
10000000
00000000
,
00000000
01000000
01000000
00100000
,
00010000
00100000
00001000
00000010
,
00000001
00000010
00000100
00001000
,
00000001
00000100
00000000
00000010
00000000
00000010
00000000
00001000
,
00000000
00000001
00000000
00001000
00000000
00000001
00000100
00000000
,
00001000
00010000
01000000
00010000
,
00001000
00022000
00000000
00033000
,
00001000
00000000
00000000
00010000
00000000
00000000
00100000
00000000
,
00000000
01000000
00010000
10000000
,
01000000
00000000
00000000
00100000
00000000
00000000
00001000
00000000
,
00000000
00010000
00000010
00001000
,
00000010
00000000
00000000
00011000
00000000
00000000
01000000
00000000
,
00000000
00011000
00000000
00000000
00000100
00000000
00000000
00011000
,
00000000
00000000
00100000
00000000
00000000
00011000
00000000
00000000
,
00001000
00010000
01000000
00100000
,
00010000
01000000
00100000
00010000
,
00001000
00000000
00000000
00010000
00000000
00000000
00000010
00000000
,
00010000
00000000
00001000
00010000
00001000
00000000
00000200
00000000
,
00000000
00000000
00000301
00001000
00000001
00000000
00000010
00000000
,
00000100
00001000
00000001
00002002
,
00000000
00000000
00003003
00000001
,
00000000
00001000
00000000
00000100
00000000
00000000
00010000
00000000
,
00000100
00001100
00001000
00000001
,
00000100
00000000
00001000
00010000
00001000
00000000
00010000
00000000
,
00001000
00011000
00001000
00010000
,
01000000
00000000
10000000
00100000
10000000
00000000
00010000
00100000
,
00010000
00000000
10000000
01000000
10000000
00000000
00010000
00000000
,
00000000
10000000
01000000
00000000
00000000
01000000
00100000
00000000
,
00000000
00100000
00001000
00000000
00000000
00001000
00010000
00000000
,
00000000
00010000
00000100
00000000
00000000
00000100
00000010
00000000
,
00000001
00001000
00000001
00000100
,
00000000
00000110
00000000
00000000
00000000
00000000
00020000
00000000
,
00000000
00032000
00000000
01003000
,
00000000
00000000
00000000
01010000
00000000
00000000
00000000
00000000
00000000
00000000
00000000
00000000
00000000
00000000
00000000
00000000
00000000
00000000
10000000
00000000
00000000
00000000
01000000
00000000
,
00000000
10000000
00000000
00010000
00000000
10000000
00000000
00100000
00000000
01000000
00000000
00000000
,
00000000
00001000
00000000
00010000
,
00001000
00010000
00001000
00000100
,
00000000
00000001
00000000
00001000
,
00000001
00000010
00000100
00001000
,
00000000
00001010
00000000
00000000
00000001
00000000
00000000
00000011
,
00000000
00001000
00000010
00000100
,
00000000
00000001
00000000
00000000
00000100
00000000
00001000
00000000
,
00000000
00010000
00000000
00000000
00100000
00000000
10000000
00000000
,
00000000
00010000
00000000
00000000
01000000
00000000
10000000
00000000
,
00000000
01000000
00000000
00000000
00010000
00000000
10000000
00000000
,
00100000
01000000
00100000
00010000
,
00001000
00000100
00000001
00001000
,
00000100
00000010
00000100
00000001
,
00000100
00001000
00000001
00001000
,
00000000
00001001
00000000
00000000
00000100
00000000
00000000
00010100
,
00000000
00000000
00010000
00000000
00000000
00011000
00000000
00000000
,
00001000
00000000
00000000
01001000
00000000
00000000
01000000
00000000
,
00010000
10000000
01000000
00100000
,
00000000
00001000
00000000
00000000
00010000
00000000
00100000
00000000
,
01000000
00100000
10000000
00100000
,
00000000
00010000
00000000
00000000
00001000
00000000
00010000
00000000
,
00001000
00000100
00000001
00001000
,
00000010
00000100
00000001
00000100
,
00000001
00000100
00001000
00010000
,
00001000
00000000
00010000
00001000
00010000
00000000
00022000
00000000
,
00000000
00000000
00033000
00001000
,
00000000
01000000
00000000
00000000
00100000
00000000
01000000
00000000
,
00100000
10000000
01000000
00100000
,
01000000
10000000
00010000
00100000
,
00001000
00000000
00010000
00000010
00010000
00000000
00000010
00000000
,
00001000
00000010
00000001
00000010
,
00000100
00000010
00001000
00000100
,
00010000
00001000
00000100
00000001
,
00001000
00000000
00000001
00000000
00000010
00000100
00000010
00000000
,
00000000
00000001
00000000
00000000
00001000
00000000
00000000
00000000
,
00000001
00000010
00010000
00100000
,
00001000
00010000
01000000
10000000
,
01000000
00000000
00100000
00000000
00001000
00000000
00010000
00001000
,
00000000
00010000
00000000
00000010
00000000
00001000
00000000
00000010
,
00000000
00010000
00000000
00000010
00001000
00000000
00000100
00000000
,
00000010
00000001
00000100
00000010
,
00000220
00000000
00000330
00000001
,
00000000
00000010
00000000
00000000
00001000
00000000
00000000
00000000
,
00010000
00100000
10000000
00010000
,
00000000
00100000
00000000
00000000
01000000
00000000
00000000
00000000
,
10000000
00100000
10000000
01000000
,
00000000
00010000
00000000
00000000
00001000
00000000
00000000
00010000
,
00000000
00000000
00001000
00000000
00000000
00000010
00000000
00000000
,
00000100
00000000
00000000
00001000
00000000
00000000
00000100
00000000
,
00000010
00000000
00000001
00000000
00001000
00000000
00000100
00000010
,
00000100
00000000
00000010
00000100
00000010
00000000
00000001
00000000
,
00000000
00000100
00000000
00000000
00001000
00000000
00010000
00000000
,
00001000
00000100
00000001
00000010
,
00001000
00000000
00010000
00000000
00001000
00010000
00001000
00000000
,
01000000
00010000
01000000
00000000
02200000
00000000
00000000
00000000
,
00000000
03300000
00010000
20020000
,
00000000
00000000
00000000
00000000
00000000
00000000
00000000
30030000
,
00000000
00000000
10000000
00010000
00100000
00000000
00001000
00010000
,
00001000
00000000
00000000
00000000
00010000
00000000
00000010
00000000
00010000
00000000
00000000
00000000
00001000
00000000
00000000
00010000
,
00000000
00000000
00000000
00000000
00011000
00000000
00000000
00000000
00000000
00000000
00000000
00000000
00000000
00022000
00000000
00000000
00000000
00000000
00000000
00000000
00000000
00000000
00000000
00000000
00000000
00000000
00000000
00000000
00000000
00000000
00000000
00000000
,
00000000
00000000
00000000
00000000
,
00000000
00000000
00000000
00000000
,
00033000
00000000
00000000
00000000
;

//--------------- dance-double - Fred-104 ----------------
#NOTES:
     dance-double:
     Fred-104:
     Medium:
     15:
     :
00000000
00000000
00000000
00000000
,
00000000
00000000
00000000
00000000
,
00000000
00000000
00000000
00000000
,
00000000
00000000
00000000
00000000
,
00000000
00000000
00000000
00000000
,
00000000
00000000
00000000
00000000
,
00000000
00000000
00000000
00000000
,
00000000
00000000
00000000
00000000
,
00000000
00000000
00000000
00000000
,
00001000
00000000
00100000
00010000
00000000
00100000
00010000
00000000
,
00000000
10000000
00100000
01000000
,
00010000
10000000
00010000
01000000
00100000
10000000
00100000
10000000
,
00010000
10000000
01000000
00100000
00001000
00010000
00001000
00000100
,
00000010
00000100
00000001
00001000
00000000
00000001
00000000
00000010
,
00000000
00001000
00000000
00010000
00000000
00001000
01000000
00000000
,
00010000
00100000
00010000
00000000
10000000
00100000
10000000
00000000
,
00010000
20020000
00000000
30030000
,
00010000
00000000
00100000
00001000
00000000
00010000
00000010
00000000
,
00000000
00000000
00001000
00000100
00000010
00000001
00001000
00000000
,
00000001
00000000
00001000
00000001
00000000
00000100
00000001
00000000
,
00000000
00000000
00001000
00000010
00010000
00001000
00010000
00000000
,
00011000
00000000
00001000
00010000
00000000
00010000
00100000
00000000
,
00100000
10000000
00000000
10000000
01000000
00000000
01000000
00010000
,
00000000
00010000
00001000
00000000
00001000
00000010
00000000
00000010
,
00000001
00000000
00001000
00000001
00001000
00000001
00001000
00000000
,
00000001
00000100
00000010
00001000
00000100
00010000
00001000
00000000
,
00010000
00000000
00000000
00011000
00000000
00000000
00001000
00100000
,
00001000
00100000
00010000
01000000
00100000
01000000
00010000
00000000
,
00000000
10000000
01000000
10000000
00100000
01000000
00100000
10000000
,
00100000
01000000
00010000
01000000
00010000
00000000
00100000
00001000
,
00100000
00001000
00010000
00000010
00010000
00000000
00001000
00000000
,
00000000
00000010
00000000
00000010
00000000
00000000
00000001
00000000
,
00001000
00000000
00000110
00000000
00001000
00000000
00000001
00000100
,
00000001
00000000
00001000
00000100
00001000
00000000
00000010
00000000
,
00010000
00000000
00011000
00000000
00001000
00000000
00010000
00100000
,
01000000
00000000
00100000
10000000
00010000
00000000
10000000
00000000
,
00100000
01010000
10000000
00010000
,
01000000
00010000
01000000
00000000
00100000
01000000
00010000
00000000
,
10000000
01000000
10000000
00000000
00010000
01000000
00100000
00000000
,
01000000
00001000
01000000
00000000
00001000
00010000
00001000
00000000
,
00000100
00000001
00001000
00001001
,
00000000
00000001
00000000
00000100
00000001
00001000
00000001
00000000
,
00000100
00001000
00010000
00011000
,
00000000
00000000
00000000
00000010
00000000
00000000
00000000
00000000
00000000
00010000
00000000
00000000
00001000
00000000
00000000
00010000
00000000
00000000
00001000
00000000
00000000
00000000
00010000
00000000
,
00000000
01000000
00000000
10000000
00000000
00010000
00000000
01000000
00000000
00100000
00000000
00000000
,
00100000
00000000
10000000
01000000
10000000
00000000
01000000
00000000
,
00100000
00000000
00001000
00010000
00001000
00000000
00010000
00000010
,
00010000
00000000
00000010
00001000
00000010
00000000
00000100
00000001
,
00000100
00000000
00000001
00001000
00000100
00000000
00010000
00000000
,
00001000
01000000
00000000
01000000
00010000
00000000
01000000
00100000
,
00000000
00100000
10000000
00000000
00010000
00000000
10010000
00000000
,
10000000
00100000
00000000
00100000
00010000
00000000
00001000
00000000
,
00010000
00001000
00000000
00001000
00000100
00000000
00000010
00000000
,
00001000
00000001
00000000
00000010
00000100
00000000
00001001
00000000
,
00000001
00001000
00000000
00001000
00000100
00000000
00010000
00000000
,
00001000
00100000
00001000
00100000
00010000
00000000
10000000
00100000
,
01000000
00000000
00010000
10000000
01000000
10000000
00010000
00000000
,
10000000
01000000
00100000
00010000
01000000
00000000
00001000
00010000
,
00001000
00010000
00000000
00000100
00000010
00000000
00000001
00000000
,
00000000
00000101
00000000
00000000
00001000
00000000
00000000
00001100
,
00000000
00000000
00010000
00000000
00000000
00010010
00000000
00000000
,
00001000
00000000
00000000
00101000
00000000
00000000
00001000
00010000
,
00001000
00000000
00100000
00010000
00100000
00000000
01000000
00000000
,
10000000
00100000
00000000
00100000
01000000
00010000
10000000
00000000
,
01000000
00000000
00100000
01000000
00200000
00000000
00301000
00000000
,
00010000
00000010
00000000
00010000
00001000
00000000
00010000
00001000
,
00000100
00000000
00000010
00001000
00000001
00000000
00000100
00000001
,
00001000
00000100
00000010
00000001
00001000
00000000
00000001
00000100
,
00000001
00000100
00001000
00000100
00001000
00000000
00001000
00010000
,
00001000
00010000
01000000
10000000
00010000
00000000
20020000
00000000
,
00000000
00000000
30030000
20000000
,
00000000
30010000
00000000
10000000
01000000
00100000
00001000
00000000
,
00010000
00001000
00010000
00000000
00000010
00001000
00000100
00001000
,
00000001
00001000
00000100
00000010
00000100
00000010
00000001
00001000
,
00000010
00000100
00000001
00001000
00000001
00000000
00000010
00000000
,
00001000
00000000
00010000
00000000
00100000
00000000
10000000
00100000
,
10000000
00010000
01000000
00100000
10000000
00000000
00010000
00100000
,
01000000
00000000
10000000
00100000
01000000
00000000
01000000
00010000
,
10000000
01000000
00100000
00001000
00010000
00000000
00001000
00000000
,
00010000
00001000
00000000
00010000
00000010
00000000
00000000
00000000
,
00010000
00000000
00001000
00000000
00000100
00000000
00000001
00000010
,
00000001
00000000
00000010
00001000
00000010
00000000
00001000
00010000
,
00001000
00000000
00010000
00100000
00010000
00000000
00100000
10000000
,
00100000
10000000
00000000
01000000
00000000
00100000
00000000
00001000
,
00000000
00000010
00000000
00000100
00001000
00000000
00000010
00001000
,
00000100
00000000
00000010
00000001
00001000
00000010
00001000
00000000
,
00002002
00000000
00003003
00000001
,
00000100
00001000
00000000
00010000
00001000
00000000
00000000
00000000
,
00010000
00000000
01000000
00000000
00100000
00000000
01000000
10000000
,
01000000
00100000
00000000
00001000
00010000
00000000
00000010
00001000
,
00000010
00000000
00010000
00001000
00010000
00000000
00000010
00000000
,
00001000
00000100
00000000
00000100
00000010
00000000
00000001
00000100
,
00000000
00000100
00000010
00000000
00001000
00000100
00000000
00000100
,
00010000
00000000
00001000
00100000
00000000
00100000
01000000
10000000
,
00010000
00000000
10000000
00010000
10000000
00000000
01000000
00100000
,
00010000
00100000
00001000
00010000
00001000
00000000
00000100
00000000
,
00000000
00000001
00000000
00000000
00001000
00000001
00000010
00000001
,
00001000
00000010
00000100
00000001
00001000
00000000
00000000
00000100
,
00010000
00001000
00100000
00010000
00100000
01000000
10000000
00100000
,
01000000
00010000
10000000
00000000
20020000
00000000
00000000
00000000
,
00000000
30030000
00001000
00022000
,
00000000
00000000
00000000
00000000
00000000
00000000
00000000
00033000
,
00000000
00000000
00100000
00001000
00010000
00000000
00000010
00010000
,
00001000
00000000
00000000
00000000
01000000
00000000
00001000
00000000
00010000
00000000
00000000
00000000
00001100
00000000
00000000
00011000
,
00000000
00000000
00000000
00000000
00110000
00000000
00000000
00000000
00000000
00000000
00000000
00000000
00000000
00022000
00000000
00000000
00000000
00000000
00000000
00000000
00000000
00000000
00000000
00000000
00000000
00000000
00000000
00000000
00000000
00000000
00000000
00000000
,
00000000
00000000
00000000
00000000
,
00000000
00000000
00000000
00000000
,
00033000
00000000
00000000
00000000
;

//--------------- dance-double - Fred-104 ----------------
#NOTES:
     dance-double:
     Fred-104:
     Hard:
     18:
     :
00000000
00000000
00000000
00000000
,
00000000
00000000
00000000
00000000
,
00000000
00000000
00000000
00000000
,
00000000
00000000
00000000
00000000
,
00000000
00000000
00000000
00000000
,
00000000
00000000
00000000
00000000
,
00000000
00000000
00000000
00000000
,
00000000
00000000
00000000
00000000
,
00000000
00000000
00000000
00000000
,
00001001
00000000
00001000
00000001
00000000
00010000
00000010
00000000
,
00000000
01000000
00001000
00010000
,
00001000
00010000
01000000
00100000
01000000
10000000
00100000
00010000
,
00001000
01000000
00001000
00010000
00100000
01000000
00010000
10000000
,
01000000
00100000
00001000
00010000
00000000
00100000
00000000
00001000
,
00000000
00000010
00000000
00000100
00000000
00000001
00001000
00000100
,
00000010
00001000
00010000
01000000
00100000
00010000
01000000
00100000
,
01000000
00000000
20020000
00000000
30030000
00010000
00000000
00010000
,
10000000
01000000
00010000
00001000
00000100
00000001
00001000
00000000
,
00001001
00000000
00000001
00000100
00000010
00000100
00000001
00001000
,
00000001
00000010
00001000
00010000
00100000
10000000
00010000
00000000
,
10010000
00000000
10000000
01000000
00010000
00001000
00010000
00100000
,
10000000
00000000
00010000
10000000
00000000
00001000
01000000
00000000
,
00000010
00010000
00000000
00000001
00001000
00000000
00001000
00000001
,
00000000
00010000
00000010
00000000
01000000
00001000
00000000
10000000
,
00010000
00000000
01000000
10000000
01000000
00001000
00010000
00000000
,
00001000
00010000
00001000
00000010
00000100
00000010
00000001
00001000
,
00000010
00000000
00000000
00000110
00000000
00000000
00001001
00000001
,
00000100
00001000
00010000
00001000
00100000
00001000
00010000
00000000
,
00000000
00000000
00000010
00001000
00000010
00000000
00000100
00000000
00000001
00000000
00000100
00000000
00001000
00000000
00000100
00000000
,
00000010
00001000
00000100
00000010
00000001
00000100
00000010
00000100
,
00001000
00010000
00100000
10000000
01000000
00100000
00010000
00000000
,
00000000
10000000
00000000
00001000
00000000
00000000
00010000
00000000
,
00001000
00000100
00000010
00000000
00001000
00000000
00000001
00000010
,
00001000
00000010
00000100
00010000
00001000
00100000
01000000
00000000
,
10000000
00100000
00010000
00001000
00000100
00000000
00000010
00000000
,
00001000
00000001
00000010
00000100
00000010
00001000
00010000
00100000
,
00010000
00001000
00010000
01000000
10000000
00000000
00010000
01000000
,
00100000
10000000
00010000
00100000
01000000
00100000
00001000
00000010
,
00000100
00001000
00000001
00000100
00001000
00010000
00001000
00000010
,
00001000
00010000
00001000
00100000
00001000
00010000
00100000
00010000
,
00001000
00010000
01000000
10000000
01000000
00100000
00110000
00000000
,
00000000
11000000
00000000
00010000
10000000
00100000
01000000
00100000
,
00010000
00001000
00000100
00000010
00001000
00000001
00000011
00000000
,
00000000
00000000
00000000
00001010
00000000
00000000
00000000
00000000
00000000
00001000
00000000
00000000
00000100
00000000
00000000
00000010
00000000
00000000
00000001
00000000
00000000
00000000
00000010
00000000
,
00000000
00001000
00000000
00010000
00000000
01000000
00000000
10000000
00000000
10010000
00000000
00000000
,
00010000
01000000
00100000
00010000
10000000
01000000
00010000
10000000
,
00100000
00010000
00001000
00000100
00000010
00001000
00000100
00001000
,
00010000
00001000
00000100
00000010
00000001
00001000
00000010
00000100
,
00001000
00010000
00100000
10000000
00010000
00100000
00001000
00000000
,
00010000
00010010
00000000
00001000
01001000
00000000
00010000
00010100
,
00000000
00001000
00101000
00000000
01000000
00000000
10010000
00000000
,
10000000
00100000
00000000
00010000
00001000
00000000
00011000
00000000
,
00001000
00000010
00000000
00000001
00001000
00000000
00001001
00000000
,
00000010
00010000
00000000
00001000
10000000
00000000
10010000
00000000
,
10000000
00100000
00000000
00010000
00001000
00000000
00011000
00000000
,
00010000
00001000
00000010
00000100
00000010
00001000
00010000
00000000
,
00000010
00000100
00001000
00000100
00000010
00001000
00000001
00000100
,
00000010
00000100
00001000
00010000
00001000
00000000
00010000
00001000
,
00000010
00001000
00010000
00100000
10000000
00000000
10010000
00000000
,
10000000
00100000
00000000
00010000
00001000
00000000
00000100
00000001
,
00000000
00000010
00001000
00000000
00010000
01000000
00000000
10000000
,
00100000
00000000
00010000
00001000
00000000
00000100
00000010
00001000
,
00000100
00000010
00000001
00000100
00001000
00010000
00001000
00000000
,
00010000
00000010
00000000
00100000
00001000
00010000
00000100
00010000
,
00001000
00010000
00100000
10000000
00020000
00000000
00130000
00000000
,
00001000
01000000
00000000
00000100
00010000
00001000
00100000
00001000
,
00010000
00001000
00000100
00000001
00002000
00000000
00003100
00000010
,
00000001
00001000
00000010
00010000
00001000
00000000
01000000
00010000
,
00100000
10000000
00100000
00010000
10000000
00000000
00010000
10000000
,
00100000
00000000
00000000
00010000
00000000
00000000
00001000
00000000
00000000
00000100
00000000
00000000
00000001
00000000
00000000
00000000
00000000
00000000
00001000
00000000
00000100
00000000
00001000
00000000
,
00000100
00000010
00000001
00001000
00000001
00000100
00000010
00000000
00000000
00002000
00000000
00000000
,
00000000
00003001
00000000
00000100
00001000
00010000
01000000
10000000
,
01000000
00010000
00001000
00010000
00100000
01000000
00001000
00010000
,
00100000
01000000
00100000
00010000
00001000
00010000
00000100
00000010
,
00000001
00001000
00000010
00000100
00001000
00000000
00010000
00000000
,
00001000
00000000
00010100
00000000
01001000
00000000
00001000
00010000
,
00100000
01000000
10000000
01000000
00010000
00000000
10000000
01000000
,
00010000
00001000
00010000
00100000
00010000
00001000
00000100
00000001
,
00001000
00000100
00000001
00000100
00001000
00000000
00000001
00000100
,
00001000
00010000
00000000
00100000
10000000
00000000
00000000
00000000
,
00001000
00000000
00010000
00000000
00100000
00000000
10000000
00100000
,
01000000
00100000
00010000
00100000
10000000
00010000
01000000
00100000
,
00010000
00001000
00000100
00000010
00001000
00000100
00000010
00000001
,
00000100
00001000
00000000
00010000
00000000
00100000
00000000
10000000
,
00000000
01000000
00000000
00010000
00001000
00010000
00100000
10000000
,
00100000
00010000
00001000
00010000
00100000
01000000
00010000
00000000
,
20020000
00000000
00000000
00000000
30030000
00000000
00010000
10000000
,
01000000
00010000
00001000
00000010
00000100
00000000
00000000
00000000
,
00001000
00000001
00000100
00001000
00010000
00100000
01000000
00010000
,
00100000
10000000
00100000
00001000
00010000
00000000
00000000
00000000
,
00001000
00000000
00010000
00000000
00001000
00000000
00010000
00000000
00000000
00001000
00000000
00000000
00000010
00000000
00000000
00000001
00000000
00000000
00001000
00000000
00000000
00000100
00000000
00000000
,
00000010
00001000
00000001
00000100
00000010
00000001
00001000
00000100
,
00000010
00000001
00000100
00001000
00010000
00001000
00010000
01000000
,
10000000
01000000
00100000
00010000
10000000
00100000
01000000
10000000
,
01000000
00010000
10000000
01000000
00100000
00001000
00010000
00000100
,
00000010
00000001
00001000
00000010
00000100
00000001
00001000
00000000
,
00000000
00001001
00000000
00000000
00000001
00000100
00000010
00000100
,
00001000
00010000
00100000
10000000
00010000
00100000
01000000
00010000
,
00001000
00000010
00000100
00001000
00000001
00000100
00001000
00010000
,
00100000
00000000
00000000
01000000
00000000
00000000
00010000
00000000
00000000
10000000
00000000
00000000
01000000
00000000
00100000
00000000
01000000
00000000
00100000
00000000
01000000
00000000
10000000
00000000
,
00010000
01000000
00010000
01000000
00001000
00010000
00001000
00000000
00000000
00022000
00000000
00000000
,
00000000
00000000
00000000
00000000
00000000
00000000
00000000
00033000
,
00000000
00000000
00000000
00000000
01000000
00001000
00010000
00000100
00001000
00000000
00000000
00000000
00000100
00000010
00000001
00000100
,
00001000
00000000
00000000
00000000
00010000
00000000
01000000
00000000
10000000
00000000
00000000
00000000
01100000
00000000
00000000
00011000
,
00000000
00000000
00000000
00000000
00000110
00000000
00000000
00000000
00000000
00000000
00000000
00000000
00000000
00002002
00000000
00000000
00000000
00000000
00000000
00000000
00000000
00000000
00000000
00000000
00000000
00000000
00000000
00000000
00000000
00000000
00000000
00000000
,
00000000
00000000
00000000
00000000
,
00000000
00000000
00000000
00000000
,
00003003
00000000
00000000
00000000
;

//--------------- dance-double - Fred-104† ----------------
#NOTES:
     dance-double:
     Fred-104†:
     Challenge:
     18:
     :
00000000
00000000
00000000
00000000
,
00000000
00000000
00000000
00000000
,
00000000
00000000
00000000
00000000
,
00000000
00000000
00000000
00000000
,
00000000
00000000
00000000
00000000
,
00000000
00000000
00000000
00000000
,
00000000
00000000
00000000
00000000
,
00000000
00000000
00000000
00000000
,
00000000
00000000
00000000
00000000
,
00000001
00000100
00001000
00010000
00100000
10000000
00010000
00000000
,
00100000
01000000
10000000
00010000
00000000
00000000
01010000
00000000
00000000
01001000
00000000
00000000
,
00010000
00001000
00000010
00000100
00000010
00000001
00001000
00000010
,
00000100
00001000
00010000
00100000
10000000
00010000
00100000
10000000
,
00100000
00001000
00000010
00000001
00000000
00000100
00000000
00001000
,
00000000
00010000
00000000
01000000
00010000
00001000
00010000
00000000
,
00001000
00000100
00000010
00001000
00000001
00000010
00001000
00010000
,
00011000
00000000
00011000
00000000
00000000
00001000
00000000
00001000
,
00010000
00001000
00000010
00000001
00000010
00000100
00001000
00000000
,
00000001
00000100
00000010
00001000
00000100
00000010
00001000
00010000
,
00001000
00010000
00100000
10000000
00010000
00100000
01000000
00000000
,
10000000
00100000
00010000
00001000
00000100
00000010
00001000
00000010
,
00010000
00001000
00000100
00000010
00001000
00000100
00000010
00001000
,
00010000
00001000
00010000
01000000
00100000
00010000
00100000
01000000
,
00010000
00001000
00010000
00001000
00000100
00000010
00001000
00000100
,
00000010
00000000
00000000
00000000
00000000
00000000
00000000
00000000
00000000
00000000
00000000
00000000
00000100
00000000
00000000
00001000
00000000
00000000
00000100
00000000
00000000
00001000
00000000
00000000
00000100
00000000
00000000
00000000
00010000
00000000
00000000
00000000
00000100
00000000
00000000
00000000
00010000
00000000
00000000
00000000
00001000
00000000
00000000
00000000
01000000
00000000
00000000
00000000
,
00001000
00000000
00010000
00000100
00001000
00000100
00010000
00001000
,
01000000
00000000
00000000
10010000
00000000
00000000
00010000
00100000
,
10000000
00100000
00010000
00100000
00001000
00010000
00001000
00010000
,
00000010
00000000
00000000
00000000
00000000
00000000
00001000
00000000
00000000
00000010
00000000
00000000
00001000
00000000
00000000
00000000
00000000
00000000
00000001
00000000
00000000
00000000
00000000
00000000
00000010
00000000
00000000
00000000
00000000
00000000
00000100
00000000
00000000
00000000
00000000
00000000
00001000
00000000
00000000
00000000
00000001
00000000
00000000
00000000
00001000
00000000
00000000
00000000
,
00000010
00000000
00000000
00010000
00000000
00000000
00001000
00000000
01000000
00000000
00010000
00000000
00100000
00000000
00000000
01000000
00000000
00000000
10000000
00000000
01000000
00000000
00100000
00000000
,
00010000
00100000
00001000
00010000
00000010
00001000
00000001
00000010
00000100
00001000
00000000
00000000
,
00000000
01000000
00000000
10000000
00000000
00000000
00010000
01000000
,
10000000
00000000
01000000
00000000
00100000
00000000
00000000
00000000
01010000
00000000
00000000
00000000
10000000
01000000
10000000
01000000
,
00100000
00010000
00100000
01000000
00010000
00001000
00000010
00000100
,
00001000
00000010
00000100
00001000
00010000
00100000
10000000
00010000
,
00100000
01000000
00100000
00001000
00011000
00000000
00001000
00010000
,
00001000
00010000
01000000
10000000
01000000
10000000
00010000
01000000
,
00010000
01000000
10000000
01000000
10000000
01000000
00010000
10000000
,
01000000
00010000
00001000
00010000
00100000
00010000
00001000
00000000
,
00010000
00001000
00010000
00000100
00000010
00000100
00001000
00000001
,
00000100
00001000
00010000
00001000
01000000
00100000
10100000
00000000
,
00000000
01010000
00000000
10000000
01000000
00010000
01000000
10000000
,
00010000
00000000
01000000
00000000
00100000
00000000
00010000
00000000
00001000
00000000
00010000
00000010
00010000
00000000
00000000
00000000
,
00000000
00000000
00000000
00010010
00000000
00000000
00000000
00000000
00000000
00010000
00000000
00000000
00000010
00000000
00000000
00001000
00000000
00000000
00000001
00000000
00000000
00000000
00000001
00000000
,
00000000
00000001
00000000
00001000
00000000
00001000
00000000
00001000
00000000
00001001
00000000
00000000
,
00000001
00000010
00000100
00001000
00000100
00001000
00000001
00000100
,
00000001
00000100
00001000
00010000
00001000
00010000
01000000
00100000
,
01000000
00100000
00010000
10000000
00100000
00010000
00001000
01000000
,
00001000
00000100
00000010
00010000
00001000
00000000
01000000
00001000
,
00001000
00000010
00010000
00010000
00100000
00001000
00001000
00000100
,
00010000
00010000
01000000
00001000
00010000
00001000
00010000
00001000
,
00001000
01000000
00001000
00001000
00010000
00000010
00001000
00000010
,
00000010
00000100
00000010
00000010
00001000
00000001
00000010
00001000
,
00010000
01000000
10000000
00010000
01000000
00100000
10000000
01000000
,
01000000
00010000
01000000
01000000
10000000
00000000
00100000
00010000
,
00001000
00000000
00010000
00001000
00010000
00000000
00000100
00000000
00001000
00000000
00000001
00000000
00000010
00000000
00000100
00000000
,
00000010
00001000
00010000
01000000
00100000
00010000
10000000
00100000
,
00010000
00001000
00000100
00000010
00001000
00000001
00000010
00001000
,
00010000
00001000
00000100
00001000
00010000
00000000
00000010
00010000
,
00010000
00100000
00001000
00001000
00000010
00010000
00010000
00100000
,
00001000
00001000
00000100
00010000
00010000
01000000
00001000
00001000
,
00000100
00010000
00010000
01000000
00001000
00001000
00000100
00010000
,
00001000
01000000
00010000
00100000
00001000
00000000
00011000
00000000
,
00010000
00001000
00000000
00000100
00000010
00001000
00000001
00000010
,
00001000
00010000
00100000
00010000
00001000
00000000
00011000
00000000
,
00010000
00000000
00001000
01000000
00001000
00000000
00010000
00000000
00001000
00000000
00100000
00000000
00010000
10000000
00010000
10000000
,
00100000
01000000
00010000
10000000
00010000
00000000
00100000
01000000
,
00010000
00001000
00000010
00000100
00001000
00000000
00000100
00000010
,
00000001
00001000
00000010
00000100
00001000
00010000
00001000
01000000
,
00010000
00000000
00000000
00100000
00000000
00000000
01000000
00000000
00000000
10000000
00000000
00000000
00100000
00000000
00000000
01000000
00000000
00000000
00100000
00000000
10000000
00000000
01000000
00000000
,
00100000
00001000
00010000
00000100
00000010
00000001
00000100
00000010
00001000
00000001
00000000
00000000
,
00000000
00000010
00000000
00000001
00001000
00000100
00000010
00001000
,
00010000
01000000
10000000
01000000
00010000
00001000
00100000
00010000
,
01000000
10000000
01000000
00001000
00010000
00000100
00000010
00000001
,
00000100
00000010
00000001
00000010
00001000
00000001
00000010
00001000
,
00010000
00000000
00011000
00000000
01100000
00000000
00010000
00100000
,
01000000
10000000
00010000
01000000
00100000
10000000
00100000
00010000
,
00001000
00000100
00000010
00001000
00000001
00000010
00001000
00010000
,
00001000
00000100
00001000
00010000
01000000
10000000
00010000
01000000
,
01000000
10000000
01000000
01000000
00010000
00000000
10000000
00000000
,
00100000
00000000
00001000
00000000
00000010
00000000
00010000
00001000
,
00000100
00000001
00001000
00000100
00000010
00000100
00010000
00001000
,
01000000
00010000
00100000
10000000
00100000
00001000
00010000
00001000
,
00000100
00000001
00000000
00001000
00000100
00000010
00000000
00000001
,
00000100
00001000
00000000
00010000
00001000
01000000
00001000
00010000
,
00100000
01000000
00010000
10000000
01000000
00100000
00010000
00000000
,
10010000
00000000
00000000
00010000
00000000
00000000
10000000
01000000
,
00010000
00001000
00000100
00000001
00001000
00000000
00000001
00000100
,
00000010
00001000
00000100
00000001
00000100
00001000
00000010
00010000
,
00010000
00100000
00001000
00001000
00000010
00000000
00010000
00001000
,
01000000
00000000
00000000
00010000
00000000
00000000
01000000
00000000
00000000
00010000
00000000
00000000
00100000
00000000
00000000
00000000
01000000
00000000
00000000
00000000
10000000
00000000
00000000
00000000
00100000
00000000
00000000
00000000
01000000
00000000
00000000
00000000
00010000
00000000
00000000
00000000
10000000
00000000
00000000
00000000
00000000
00000000
01000000
00000000
00000000
00000000
00000000
00000000
,
00010000
00001000
00010000
00100000
00010000
00001000
00000100
00000001
,
00001000
00000100
00010000
00010000
01000000
00001000
00001000
00000100
,
00010000
00000000
00000000
00010000
00000000
00000000
01000000
00000000
00000000
00001000
00000000
00000000
00001000
00000000
00000000
00000100
00000000
00000000
00010000
00000000
00001000
00000000
01000000
00000000
,
00001000
00000000
01000000
00000000
00010000
00000000
10000000
00000000
01000000
00000000
00100000
00000000
00010000
00000000
10000000
00000000
00010000
00000000
00100000
00000000
00000000
00010000
00000000
00000000
,
10000000
00100000
00010000
00001000
00000100
00000001
00000011
00000000
,
00000000
00001010
00000000
00000000
00000101
00000001
00000010
00000100
,
00010000
00000000
00001000
00000000
01000000
00000000
00010000
00000000
10000000
00000000
01000000
00000000
00100000
00000000
00001000
00010000
,
00001000
00000000
00000000
00000010
00000000
00000000
00000001
00000000
00000000
00001000
00000000
00000000
00000001
00000000
00000010
00000000
00000100
00000000
00001000
00000000
00000100
00000000
00010000
00000000
,
00001000
00100000
00010000
00100000
01000000
10000000
00010000
01000000
00001000
00010000
00000100
00010000
,
00001000
00010000
00000100
00000010
00000001
00001000
00000010
00000000
00000000
00000220
00000000
00000000
,
00000000
00000000
00000000
00000000
00000000
00000000
00000000
00000330
,
00000000
00000000
00000000
00000000
00000001
00000010
00001000
00010000
01000000
00000000
00000000
00000000
10000000
00100000
00010000
00001000
,
00000100
00000000
00000000
00000000
00000001
00000010
00001000
00010000
00001000
00000000
00000000
00000000
00001001
00000000
00000000
00011000
,
00000000
00000000
00000000
00000000
10010000
00000000
00000000
00000000
00000000
00000000
00000000
00000000
00000000
02200000
00000000
00000000
00000000
00000000
00000000
00000000
00000000
00000000
00000000
00000000
00000000
00000000
00000000
00000000
00000000
00000000
00000000
00000000
,
00000000
00000000
00000000
00000000
,
00000000
00000000
00000000
00000000
,
03300000
00000000
00000000
00000000
;
