#VERSION:0.83;
#TITLE:天空の夜明け;
#ARTIST:Cuvelia;
#TITLETRANSLIT:Tenkuu no yoake;
#GENRE:ANTHEM;
#BANNER:Tenkuu no yoake.png;
#BACKGROUND:Tenkuu no yoake-bg.png;
#CDTITLE:./CDTitles/bm IIDX 19 Lincle.png;
#MUSIC:Tenkuu no yoake.ogg;
#SAMPLESTART:27.201;
#SAMPLELENGTH:15;
#BPMS:0=150;
#BGSTAGE:16;

//--------------- dance-single - Fred-104 ----------------
#NOTEDATA:;
#STEPSTYPE:dance-single;
#DESCRIPTION:Fred-104;
#DIFFICULTY:Beginner;
#METER:7;
#CREDIT:Fred-104;
#NOTES:
0000
0000
0000
0000
,
0000
0000
0000
0000
,
0000
0000
0000
0000
,
0000
0000
0000
0000
,
0000
0000
0000
0000
,
0000
0000
0000
0000
,
0000
0000
0000
0000
,
0000
0000
0000
0000
,
0000
0000
0000
0000
,
2000
0000
3002
2003
,
3200
0000
0320
0000
,
0032
0000
2003
0000
,
0002
0000
0000
3003
,
0002
0000
0203
0320
,
2030
0000
3002
0000
,
2003
0000
3002
0000
,
2000
0000
0000
3003
,
0001
0001
0001
1000
,
0001
1000
0200
0000
,
1300
1000
1000
1000
,
0001
1000
0002
0000
,
1003
1000
1000
1000
,
0001
1000
0200
0000
,
1300
0001
0100
0010
,
2002
0000
3003
0000
,
1000
1000
0100
0010
,
0001
1000
0010
0100
,
0001
0001
0010
0001
,
1000
0010
0100
0010
,
1000
0100
0010
0001
,
0100
0010
1000
0100
,
0001
0100
1000
0010
,
0100
0001
1000
1001
,
0001
0100
0010
1000
,
0002
0023
0230
2300
,
3001
0100
0100
0010
,
1000
0100
0010
0001
,
1000
1000
0010
0000
,
0001
0001
0010
0000
,
1000
0010
0001
0010
,
1000
0100
0001
0100
,
1001
0000
0000
0000
,
1000
0000
0010
0000
,
0100
0100
0001
1000
,
0100
0000
0010
0000
,
0001
0001
0010
1000
,
0001
0000
0100
0000
,
0010
0010
1000
0001
,
1000
1000
0001
0001
,
2000
3020
0230
0302
,
1003
0010
0000
0010
,
0001
0010
0000
0010
,
1000
1000
1000
0010
,
0100
0001
1000
0001
,
1001
0000
0100
0100
,
0110
0000
0001
0001
,
1001
0000
0110
0000
,
1001
0010
0010
0100
,
2100
0000
3020
0000
,
0230
0000
0302
0000
,
2003
0000
3020
0000
,
0032
0000
0203
0000
,
1300
0001
0100
0010
,
1000
0100
0010
0001
,
1000
0000
0001
0100
,
0010
0000
1000
0000
,
1001
0001
0100
0010
,
1000
1000
0100
0010
,
0001
1000
1000
0010
,
0100
0001
1000
0001
,
1001
0000
0001
0000
,
1000
0001
1000
0001
,
0200
0000
0310
0100
,
0100
0001
1000
0001
,
1000
0000
0001
0000
,
0100
0000
0010
0000
,
1000
0000
1000
0000
0001
0000
0001
1000
,
1001
0000
0000
0000
;

//--------------- dance-single - Fred-104 ----------------
#NOTEDATA:;
#STEPSTYPE:dance-single;
#DESCRIPTION:Fred-104;
#DIFFICULTY:Easy;
#METER:10;
#CREDIT:Fred-104;
#NOTES:
0000
0000
0000
0000
,
0000
0000
0000
0000
,
0000
0000
0000
0000
,
0000
0000
0000
0000
,
0000
0000
0000
0000
,
0000
0000
0000
0000
,
0000
0000
0000
0000
,
0000
0000
0000
0000
,
0000
0000
0000
0000
,
2001
0000
3200
0320
,
0032
0000
0203
0000
,
0320
0000
2030
0000
,
0002
0000
0000
3003
,
0202
0003
0320
2030
,
3002
0000
0023
0000
,
2030
0000
3200
0300
,
2002
0000
0000
3003
,
0001
0000
0000
1000
0000
0000
1000
0000
0010
0000
0000
0000
0100
0000
0000
0000
,
0010
0000
0000
0010
0000
0000
0010
0000
1000
0000
0000
0000
0002
0000
0000
0000
,
1003
0000
0000
1000
0000
0000
0010
0000
0100
0000
0000
0000
0001
0000
0000
0000
,
1000
0000
0000
0010
0000
0000
0100
0000
0100
0000
0000
0000
0002
0000
0000
0000
,
1003
0100
1000
0000
0010
0100
0010
0000
,
0100
0001
0100
0000
0001
0010
0001
0000
,
1000
0010
0100
0001
1000
0000
0100
0000
,
0220
0000
0000
0330
0001
1000
0001
0000
,
1000
0010
1000
0000
0010
0100
0010
0000
,
0100
0001
0100
0001
0100
0010
0100
0000
,
0001
0010
0100
0000
1000
0010
0100
0000
,
0001
1000
0100
0000
0010
0000
0010
0000
,
0001
1000
0010
0000
1000
0010
0100
0000
,
0001
0100
0001
1000
0001
0010
0001
0000
,
1000
0010
0100
0000
0001
1000
0100
0000
,
1000
0000
0010
0000
0100
0001
1001
0000
,
0001
0010
0100
0100
1000
0010
0100
0100
,
0001
0010
0100
1000
0010
0100
0020
0000
,
1030
0100
1000
0010
0100
0010
0001
0010
,
2000
3200
0320
0032
,
1003
0001
0100
0010
1000
0100
0010
0100
,
1000
0001
0010
0100
1000
0010
0100
0001
,
0100
0100
0010
0100
0001
0001
0010
0100
,
1100
0011
1010
0101
,
1001
0000
0000
0000
0000
0000
0000
0000
0000
0000
0000
0100
0010
0000
0000
0000
,
1000
0010
1000
0010
0100
0010
0100
0010
,
0100
0001
0100
0001
0010
0001
0010
0100
,
1000
0100
0020
0000
0031
0100
0020
0000
,
1030
0010
0200
0000
0301
0010
0200
0000
,
1300
0001
0100
0000
0001
0010
0001
0000
,
1000
0001
0100
0001
1000
0000
0001
0000
,
1000
0010
0001
0100
,
2000
0000
3020
0000
0130
0001
1001
0000
,
0001
0100
0001
0000
0100
0010
1000
0000
,
0001
0010
0001
1000
0100
1000
0001
0100
,
0001
0000
0000
0010
0000
0000
0001
0000
0000
1000
0000
0000
0100
0000
0000
1000
,
0000
0000
0001
0000
0000
1000
0000
0000
0001
0000
0100
0000
0010
0000
0000
0000
,
1010
0000
0010
0000
0100
0001
1000
0000
,
1100
0000
0010
0000
0001
1000
0010
0000
,
1000
0100
0010
0000
0001
1000
0010
0000
,
1000
0001
0100
0010
0100
0001
1000
0000
,
2200
3300
0202
0303
,
2020
3030
0022
0033
,
2200
3300
0202
0303
,
2020
3030
0022
0033
,
2000
3020
0230
0302
,
2003
3002
0010
0013
,
0001
1000
1010
0101
,
0002
0000
2003
0000
3010
0100
0110
0000
,
0001
0100
0001
0000
1000
0100
1000
0000
,
0010
0100
0010
0000
1000
0100
1000
0000
,
0001
0010
0001
0000
1000
0010
1000
0000
,
0001
0100
0010
0000
1000
0100
0010
0000
,
0002
0203
2300
3020
,
0032
0000
1003
1000
0001
0001
0100
0010
,
1000
0010
1100
0011
,
0100
0000
0010
0000
1000
0001
1001
0000
,
0110
0000
0010
1000
0010
1000
0100
0010
,
0001
0100
0010
1000
0001
0010
0100
1000
,
0010
0000
0000
0000
0100
0000
0000
0000
0001
0000
0000
0000
1000
0000
0000
0001
,
1000
0000
0000
0000
;

//--------------- dance-single - Fred-104 ----------------
#NOTEDATA:;
#STEPSTYPE:dance-single;
#DESCRIPTION:Fred-104;
#DIFFICULTY:Medium;
#METER:14;
#CREDIT:Fred-104;
#NOTES:
0000
0000
0000
0000
,
0000
0000
0000
0000
,
0000
0000
0000
0000
,
0000
0000
0000
0000
,
0000
0000
0000
0000
,
0000
0000
0000
0000
,
0000
0000
0000
0000
,
0000
0000
0000
0000
,
0000
0000
0000
0000
,
2001
0000
3020
0230
,
0302
0000
2003
0000
,
3020
0000
0230
0000
,
0302
0000
0000
0000
,
0023
0000
2030
3200
,
0302
0000
2003
0000
,
3020
0000
0230
0000
,
0002
0000
0000
0303
,
0001
0000
0000
1000
0000
0000
1000
0000
0010
0000
0100
0000
0010
0000
1000
0000
,
0100
0000
0000
0100
0000
0000
0010
0000
0001
0000
1000
0000
0001
2000
0000
0000
,
3010
0000
0000
0100
0000
0000
0010
0000
1000
0000
0100
0000
0010
0000
0001
0000
,
1000
0000
0000
0010
0000
0000
0100
0000
0010
0000
1000
0000
0010
2000
0000
0000
,
3001
0010
0001
0010
0100
1000
0010
1000
,
0010
0100
0010
1000
0100
0010
0001
1000
,
0001
0100
0001
1000
0100
0000
0010
0000
,
2002
0000
0000
0000
0000
0000
3003
0000
0001
1000
0001
1000
0001
1000
0000
0000
,
0001
0000
0100
0001
0000
1000
0001
0000
0100
0000
0010
0000
1000
0000
0100
0000
,
0010
0000
0001
0010
0000
0001
1000
0000
0001
0000
0100
0000
0010
0200
0000
0000
,
0301
0000
1000
0001
0000
0100
0010
0000
0100
0000
0010
0000
1000
0000
0100
0000
,
0010
0000
0001
1000
0000
0001
0100
0000
0010
0000
0100
0000
0010
0000
0010
0000
,
1000
0000
0001
0100
0000
0010
0100
0000
0010
0000
1000
0000
0001
0000
0010
0000
,
0100
0000
0010
0001
0000
0010
0001
0000
1000
0000
0001
0000
0100
0002
0000
0000
,
1003
0000
0001
0010
0000
0001
0010
0000
0001
0000
1000
0000
0010
0000
0100
0000
,
0001
0000
1000
0100
0000
1000
0010
0000
0100
0000
0001
0000
1001
0000
0000
0000
,
1000
0000
0100
1000
0100
0000
0010
0000
0001
0000
1000
0001
1000
0000
0010
0000
,
0100
0000
0001
0100
0000
0001
0000
1000
0000
0100
1000
0001
0100
0001
1000
0000
,
0001
0010
0001
0000
0010
0100
0010
0000
0100
1000
0100
0000
1000
0001
1000
0000
,
0001
0100
0001
0100
0001
0100
0001
0000
1000
0100
1000
0100
1000
0100
1000
0000
,
0001
0001
0010
0010
0100
0100
1000
1000
,
0010
0010
0100
0100
0001
0001
1000
1000
,
0001
0100
0001
0000
1000
0100
1000
0000
0001
0010
0001
0000
1000
0010
1000
0000
,
0001
1000
0001
1000
0001
1000
0001
1000
0010
0100
0010
0100
0010
0100
0010
0100
,
0001
0000
0000
0000
0000
0000
0000
0000
0000
0000
0000
0001
1000
0000
0001
0000
,
1001
1000
0010
0100
0001
1000
0100
0010
,
0001
0100
0010
1000
0001
0010
0100
1000
,
0001
0010
0001
0010
1000
0010
1000
0010
,
0001
0100
0001
0100
1000
0100
1000
0100
,
0001
1000
0010
0010
0100
0010
1000
0100
,
1000
0010
0100
0100
0001
1000
0100
0010
,
0001
1000
0001
0100
0001
0100
0010
1000
,
0002
0000
0203
0000
0310
1000
1001
0000
,
1000
0100
1000
0000
0100
0000
0010
0000
0001
0100
0001
0000
0100
0000
0010
0000
,
1000
0000
0001
0100
0001
0000
1000
0100
1000
0000
0100
0000
0010
0000
0001
0000
,
1000
0100
0000
0100
0010
0000
0010
0001
0000
0001
0100
0000
0100
0010
0000
0010
,
1000
0000
0001
0000
0010
0000
0001
0000
1000
0010
1000
0000
0001
0000
0001
0000
,
1000
0010
0100
0001
1000
0100
0010
0001
,
0100
0010
0100
0000
0001
0010
0001
0000
1000
0010
1000
0000
0001
0100
0001
0000
,
1000
0100
1000
0000
0010
0100
0010
0000
1000
0100
1000
0000
0001
0010
0001
0000
,
1000
0000
0000
0001
1000
0000
0000
0010
0100
0000
0010
0000
1000
0000
0001
0000
,
2000
3100
0002
0013
,
2000
3100
0002
0013
,
2000
3010
0002
0103
,
2000
3010
0002
0103
,
2000
3200
0320
0032
,
2003
0000
3001
0001
0100
0010
1000
0001
,
0020
0000
0000
0000
0130
0000
0000
1000
0200
0000
0000
0000
2300
0000
0000
0000
,
3002
0000
0023
0000
0130
1000
1001
0000
,
1000
0000
0000
1000
0100
0000
0010
0000
0001
0000
0000
0001
0100
0000
0010
0000
,
0100
0000
0000
0100
0010
0000
1000
0000
0010
0000
0000
0010
0100
0000
0001
0000
,
1000
0000
0000
1000
0001
0000
0100
0000
0010
0000
0000
0010
0100
0000
0001
0000
,
0100
0000
0000
0100
0010
0000
1000
0000
0001
0000
0000
0001
1000
0000
0010
0000
,
0200
0302
2003
3020
,
0230
0000
0310
0010
1000
0100
0010
0001
,
1000
0000
0000
0000
0001
0000
0000
0001
1000
0000
0000
0000
1010
0000
0000
0000
,
0020
0000
0230
0000
0301
1000
1001
0000
,
0110
0000
0001
1000
0010
0100
0010
1000
,
0001
0100
0001
0000
1000
0100
1000
0000
0001
0010
0001
0010
0001
0010
0001
0010
,
0001
0000
0000
0000
1000
0000
0000
0000
0010
0000
0000
0000
0100
0000
0000
0001
,
1001
0000
0000
0000
;

//--------------- dance-single - Fred-104 ----------------
#NOTEDATA:;
#STEPSTYPE:dance-single;
#DESCRIPTION:Fred-104;
#DIFFICULTY:Hard;
#METER:17;
#CREDIT:Fred-104;
#NOTES:
0000
0000
0000
0000
,
0000
0000
0000
0000
,
0000
0000
0000
0000
,
0000
0000
0000
0000
,
0000
0000
0000
0000
,
0000
0000
0000
0000
,
0000
0000
0000
0000
,
0000
0000
0000
0000
,
0000
0000
0000
0000
,
2000
0000
3020
0032
,
2003
0000
3200
0000
,
0302
0000
2003
0000
,
3020
0000
0230
0000
,
0302
0000
0203
2300
,
3200
0000
0302
0000
,
0023
0000
0230
0000
,
2300
0000
3020
0000
0230
0302
1003
0000
,
1001
0000
1000
0100
0000
0010
0100
0000
1000
0000
0010
0000
0100
0000
0001
0000
,
1000
0000
0001
0010
0000
0100
1000
0000
0001
0010
0100
0010
0001
0002
0000
0000
,
1003
0000
0001
0100
0000
0010
0100
0000
0001
0000
1000
0000
0001
0000
0100
0000
,
0010
0000
1000
0100
0000
0010
0100
0000
1000
0100
0010
0001
0100
0020
0000
0000
,
1030
0100
1000
0010
1000
0100
1000
0010
1000
0100
0010
0001
0100
0001
0010
0001
,
0100
0001
0010
0100
1000
0010
0100
0010
1000
0001
0010
0100
1000
0010
0100
0001
,
1000
0000
0000
0001
0100
0001
0100
0000
0000
0010
1000
0010
1000
0000
0000
0001
0000
0000
0100
0000
0000
0010
0000
0000
,
0220
0000
0000
0000
0000
0000
0000
0330
0100
0010
0100
0010
0100
0010
0000
0000
,
1000
0000
0010
0100
0000
0001
0100
0010
0100
0000
0001
0000
1000
0000
0010
0000
,
0100
0000
0001
0100
0000
0001
0010
0100
1000
0010
0100
0001
1000
2000
0000
0000
,
3001
0000
0010
0001
0000
1000
0001
0100
0001
0000
1000
0000
0100
0000
1000
0000
,
0010
0000
1000
0100
0000
0010
0001
0100
0010
0001
0010
1000
0001
0000
0001
0000
,
1000
0000
0001
0100
0000
0010
1000
0001
0010
0000
0100
0010
0100
0000
1000
0000
,
0001
0000
0010
0100
0000
1000
0010
0100
0001
1000
0100
0010
0001
0000
1000
0000
,
0010
0000
0100
0010
0000
1000
0010
0100
0001
0000
1000
0000
0100
0000
1000
0000
,
0100
0000
0010
0100
0000
0010
0001
0000
1000
0000
0001
0000
1001
0000
0000
0000
,
1100
0000
1000
0010
0100
0001
1000
0100
0010
0000
0001
0100
0010
0100
0001
1000
,
0100
0000
0000
0000
0000
0000
0010
0000
0000
0001
0000
0000
1000
0000
0000
0001
0000
0000
0100
0000
0000
0010
0000
0000
1000
0000
0000
0100
0000
0000
0010
0000
0000
0001
0000
0000
1000
0000
0010
0000
0100
0000
0001
0000
0000
0000
0000
0000
,
0100
0001
1000
0001
0100
0010
1000
0010
0100
0001
0010
0100
1000
0001
0100
0001
,
1000
0100
0010
0100
0001
0100
1000
0001
0100
0010
0001
0010
1000
0100
0010
0001
,
1000
0100
0010
0000
0010
0001
1000
0000
1000
0010
0100
0000
0100
0001
1000
0000
,
0001
0010
1000
0000
0010
0001
0100
0000
0001
0100
1000
0000
0100
0001
0010
0000
,
0001
1000
0100
0000
1000
0001
0100
0000
0001
1000
0010
0000
1000
0001
0010
0000
,
0001
0000
0000
0100
0000
0000
0010
0000
0000
1000
0000
0000
0001
0000
0000
0010
0000
0000
0100
0000
0000
1000
0000
0000
0010
0000
0000
0100
0000
0000
0010
0000
0000
1000
0000
0000
0001
0000
0100
0000
0001
0000
0100
0000
0001
0000
0100
0000
,
0001
0000
0000
0000
0000
0000
0000
0000
0000
0000
0000
0100
0100
0000
1000
0000
,
1001
0000
0001
0010
0100
1000
0010
0100
0001
0000
1000
0100
0010
0001
1000
0001
,
0100
0000
0010
1000
0100
1000
0010
0100
0001
0000
1000
0001
0100
0001
1000
0100
,
0010
0001
0010
0000
0010
1000
0010
0000
0010
0100
0010
0000
0010
0001
0010
0000
,
0100
1000
0100
0000
0100
0001
0100
0000
0100
0010
0100
0000
0100
1000
0100
0000
,
0010
0000
0001
1000
0010
0000
1010
0000
1000
0100
0010
0000
0010
0100
1000
0000
,
0001
0100
0010
1000
0001
0010
0000
0010
0100
0010
0001
0000
1000
0001
1000
0000
,
0001
0000
1000
0100
0010
0000
0001
0100
0010
0000
0001
0010
0100
0000
0001
0000
,
2000
0000
0010
0000
3100
1000
0010
0100
,
0001
0100
0010
1000
0010
0100
0010
1000
0001
0010
0100
1000
0100
0010
0001
1000
,
0001
0100
0001
0000
1000
0010
0100
0000
0001
0010
0100
0000
1000
0100
1000
0000
,
0001
0100
0000
1000
0100
0000
0001
0010
0000
1000
0010
0000
0001
0100
0000
1000
,
0100
0000
0001
0010
0100
1000
0001
0000
1000
0100
1000
0010
0100
0001
0010
0001
,
1000
0000
0001
0000
1000
0100
1000
0000
0010
0100
0001
0100
0010
1000
0001
0000
,
1000
0100
0010
0001
0100
0010
1000
0000
0001
0010
0001
1000
0010
0100
0001
0000
,
1000
0100
0010
0100
1000
0010
0100
0001
0100
0001
0010
0001
1000
0010
0100
0001
,
1000
0000
0000
1000
1100
0000
0000
0001
0101
0000
0100
0000
0001
0010
0100
1000
,
1100
0000
0000
0001
0100
0000
0000
0000
0101
0000
0000
1000
0100
0000
0000
0000
,
1010
0000
0000
0001
0010
0000
0000
0000
0011
0000
0000
1000
0010
0000
0000
0000
,
0110
0000
0000
1000
0100
0000
0000
0000
0110
0000
0000
0001
0100
0000
0000
0000
,
1001
0000
0000
0100
0010
0000
0000
0000
1001
0000
0000
0010
0100
0000
0000
0000
,
2000
3020
0230
0302
,
2003
0000
0000
0000
3001
0100
0010
1000
0001
0010
0100
1000
0001
0100
0010
0100
,
0002
0000
0000
0000
2003
0000
0000
0010
3010
0000
0000
0000
0100
0000
0000
0000
,
0002
0000
0023
0000
1030
0100
1001
0000
,
0101
0000
0001
0100
0001
0000
1000
0000
1100
0000
1000
0100
1000
0000
0010
0000
,
0110
0000
0100
0010
0100
0000
0001
0000
1001
0000
1000
0001
1000
0000
0010
0000
,
0110
0000
0100
0010
0100
0000
0001
0000
0011
0000
0001
0010
0001
0000
1000
0000
,
1010
0000
0010
1000
0010
0000
0100
0000
0101
0000
0001
0100
0001
0000
1000
0000
,
1001
0000
0000
1000
0100
0000
0000
0100
0010
0000
0000
0010
0001
0000
0000
0001
,
1000
0000
0010
1000
0100
0010
0001
0010
0100
1000
0010
0100
0001
0100
0010
1000
,
0001
0000
0000
1000
0100
0000
0000
0001
0100
0000
0000
1000
0010
0000
0000
0100
,
1000
0100
0001
1000
0002
2003
3001
0000
,
1001
0000
0000
0000
0001
0010
0100
1000
0010
0100
0001
1000
0100
0010
0001
0100
,
0010
1000
0010
0100
0001
0010
0100
0001
0100
1000
0010
0100
1000
0100
0010
1000
,
0001
0000
0000
0000
1000
0000
0000
0000
0010
0000
0000
0000
0100
0000
0000
0001
,
1001
0000
0000
0000
;

//--------------- dance-single - Fred-104† ----------------
#NOTEDATA:;
#STEPSTYPE:dance-single;
#DESCRIPTION:Fred-104†;
#DIFFICULTY:Challenge;
#METER:18;
#CREDIT:Fred-104†;
#NOTES:
0000
0000
0000
0000
,
0000
0000
0000
0000
,
0000
0000
0000
0000
,
0000
0000
0000
0000
,
0000
0000
0000
0000
,
0000
0000
0000
0000
,
0000
0000
0000
0000
,
0000
0000
0000
0000
,
0000
0000
0000
0000
,
2020
3000
0230
0302
,
2003
0000
3020
0000
,
0032
0000
0203
0000
,
2300
0000
0000
0000
,
3002
0000
0023
2030
,
3200
0000
0302
0003
,
2020
3030
0202
0303
,
2002
0000
0000
3003
,
0101
0000
0100
0010
0000
1000
0010
0000
0100
0000
0001
0000
1000
0000
0100
0000
,
0110
0000
0010
0001
0000
1000
0001
0000
1000
0010
0001
0010
0100
0002
0000
0000
,
1003
0000
0100
0010
0000
0001
0010
0100
0010
0000
0001
0000
0100
0000
0001
0000
,
1000
0000
0100
0001
0000
0100
1000
0000
0001
0010
0100
0010
0001
2000
0000
0000
,
3001
0010
0100
1000
0010
0100
0001
0010
0100
1000
0100
0010
0001
0100
0010
1000
,
0010
0100
0001
1000
0100
0010
0001
0100
0010
1000
0100
0010
0001
1000
0010
1000
,
0001
0000
0000
1000
0010
0100
0001
0000
0000
1000
0100
0010
0001
1000
0010
0100
0001
0100
0010
1000
0001
0010
0100
0010
,
0002
0000
0000
0000
0000
0000
0000
0003
0001
0100
1000
0001
0010
1000
0000
0000
,
0001
0010
0100
1000
0001
0100
0010
0001
0010
0100
0001
1000
0100
0001
0100
0010
,
0001
0000
1000
0010
0100
0000
0001
0010
0100
1000
0100
0001
0100
1000
0010
0000
,
1000
0001
0010
0100
1000
0010
0100
0001
1000
0100
0010
0001
0100
0010
0001
0010
,
0100
0001
1000
0100
0001
0100
0010
1000
0010
0001
1000
0010
0100
0010
1000
0001
,
1000
0100
0010
0100
0001
0100
1000
0001
0100
0010
0001
0010
1000
0001
0100
1000
,
0100
0000
0010
1000
0100
0000
0010
0001
0100
0010
1000
0001
0010
0001
0100
0000
,
0001
0010
0100
1000
0001
1000
0100
1000
0001
0010
0100
0010
0001
0100
1000
0001
,
0010
0100
0001
1000
0010
0001
1000
0100
0001
0000
1000
0000
1100
0000
0000
0000
,
1001
0000
0100
0100
1000
0010
0100
0001
1000
0000
0100
0100
0001
0100
1000
0100
,
0001
0000
0000
0000
0000
0000
0000
0000
0000
0000
0000
0000
0001
0000
0000
0000
0000
0000
0100
0000
0000
0010
0000
0000
0000
0000
0000
0000
0000
0000
1000
0000
0000
0100
0000
0000
0000
0000
0000
0000
0000
0000
0010
0000
0000
0001
0000
0000
0000
0000
0000
0000
0000
0000
0100
0000
0000
0001
0000
0000
0000
0000
0000
0000
0000
0000
1000
0000
0000
0000
0000
0000
0010
0000
0000
0000
0100
0000
0000
0000
0001
0000
0000
0000
0010
0000
0000
0000
0100
0000
0000
0000
1000
0000
0000
0000
,
0001
0100
0010
1000
0010
1000
0100
0010
0001
1000
0001
0010
0100
0010
0001
0001
,
1000
0100
0010
0001
0100
0010
1000
0100
0010
0001
0100
0010
1000
0010
0100
0001
0010
0100
1000
0010
0100
0001
0010
0100
,
2000
3000
0000
0000
0000
0000
0000
0000
0100
0000
0000
0000
0100
0000
0000
0000
0001
0000
0000
0000
0000
0000
0000
0000
0100
0000
0000
0000
0100
0000
0000
0000
1000
0000
0000
0000
0000
0000
0000
0000
0100
0000
0000
0000
0100
0000
0000
0000
0001
0000
0000
0000
0000
0000
0000
0000
1000
0000
0000
0000
0000
0000
0000
0000
,
0002
0003
0000
0000
0000
0000
0000
0000
0010
0000
0000
0000
0010
0000
0000
0000
1000
0000
0000
0000
0000
0000
0000
0000
0010
0000
0000
0000
0010
0000
0000
0000
0001
0000
0000
0000
0000
0000
0000
0000
0010
0000
0000
0000
0010
0000
0000
0000
1000
0000
0000
0000
0000
0000
0000
0000
0001
0000
0000
0000
0000
0000
0000
0000
,
2000
3000
0000
0000
0100
0000
0000
0000
0001
0000
0000
0000
0000
0000
0000
0000
1000
0000
0000
0000
0010
0000
0000
0000
0001
0000
0000
0000
0000
0000
0000
0000
0002
0003
0000
0000
0010
0000
0000
0000
1000
0000
0000
0000
0000
0000
0000
0000
0001
0000
0000
0000
0100
0000
0000
0000
1000
0000
0000
0000
0000
0000
0000
0000
,
2000
0000
0000
3000
0000
0000
0000
0000
0100
0000
0000
0000
0000
0000
0000
0000
0010
0000
0000
0000
0000
0000
0000
0000
0001
0000
0000
0000
0000
0000
0000
0000
0000
0000
0000
0000
0100
0000
0000
0000
0000
0000
0000
0000
0000
0000
0000
0000
0020
0000
0000
0030
0000
0000
0000
0000
1000
0000
0000
0000
0000
0000
0000
0000
0010
0000
0000
0000
0000
0000
0000
0000
0100
0000
0000
0000
0000
0000
0000
0000
0000
0000
0000
0000
0001
0000
0000
0000
0000
0000
0000
0000
0000
0000
0000
0000
0200
0000
0000
0300
0000
0000
0000
0000
0001
0000
0000
0000
0000
0000
0000
0000
0010
0000
0000
0000
0000
0000
0000
0000
0100
0000
0000
0000
0000
0000
0000
0000
1000
0000
0000
0000
0000
0000
0000
0000
0010
0000
0000
0000
0000
0000
0000
0000
0200
0000
0000
0300
0000
0000
0000
0000
0001
0000
0000
0000
0000
0000
0000
0000
0100
0000
0000
0000
0000
0000
0000
0000
0010
0000
0000
0000
0000
0000
0000
0000
1000
0000
0000
0000
0000
0000
0000
0000
0001
0000
0000
0000
0000
0000
0000
0000
,
2000
3000
0000
0000
0000
0000
0000
0000
0000
0000
0000
0000
0000
0000
0000
0000
0000
0000
0000
0000
0000
0000
0000
0000
0000
0000
0000
0000
0000
0000
0000
0000
0000
0000
0000
0000
0000
0000
0000
0000
0000
0000
0000
0000
0010
0000
0000
0000
0010
0000
0000
0000
0000
0000
0000
0000
1000
0000
0000
0000
0000
0000
0000
0000
,
1100
0000
0100
0010
0001
1000
0001
0100
0010
0000
1000
0100
0001
0100
1000
0100
,
0010
0000
0001
0100
1000
0100
0010
0100
0001
0000
1000
0010
0100
0010
0001
0010
,
1000
0100
0002
0000
1003
0010
0002
0000
1003
0010
0200
0000
0301
0010
0200
0000
,
0310
0001
0100
0001
0010
0100
1000
0010
1000
0001
0010
1000
0001
0100
0010
0100
,
1000
0000
0001
0010
0100
0000
1100
0000
1000
0100
0100
0000
0001
0010
0010
0000
,
1000
0100
1000
0001
0100
0010
0000
0010
1000
0010
0100
0010
1000
0001
0010
0000
,
0001
1000
0100
0010
0001
0000
0100
0010
0001
0000
0010
1000
0001
0000
0100
0000
,
0210
0000
0000
0000
0000
0000
1000
0000
0000
0000
0000
0000
0301
0000
0000
0100
0000
0000
1000
0010
0100
0001
0100
0010
,
1000
0100
0010
0100
0010
0001
0100
0010
1000
0010
0100
1000
0100
0010
0100
0001
,
1000
0100
1000
0001
1000
0100
0010
0100
0001
1000
0010
0001
1000
0010
0100
0001
,
1000
1000
0000
0010
0010
0000
0100
0100
0000
0001
0001
0000
1000
0100
0100
0001
,
1000
0000
0001
0010
0100
1000
0010
0010
0001
1000
0100
0010
0001
0100
0010
1000
,
0001
0000
0001
0000
0100
0001
1000
0001
0100
0010
1000
0010
0100
0001
0010
0100
,
1000
0010
0001
0010
0100
0001
1000
0100
0010
0001
1000
0010
0001
1000
0100
0010
,
1000
0001
0100
0010
1000
0010
0100
1000
0100
0001
1000
0001
0010
0100
0010
0001
,
1000
0010
0100
0002
0013
0100
1000
0002
0103
1000
0100
0010
0100
0001
1000
0001
,
1001
0000
1000
0100
0010
0000
0000
0000
1001
0000
0001
0100
0010
0000
0000
0000
,
1100
0000
0010
0001
0100
0000
0000
0000
0101
0000
0010
1000
0100
0000
0000
0000
,
1010
0000
0100
0001
0010
0000
0000
0000
0011
0000
0100
1000
0010
0000
0000
0000
,
1100
0000
0100
0010
0001
0000
0000
0000
0101
0000
0100
0010
1000
0000
0000
0000
,
1200
0000
0000
0300
0120
0000
0000
0030
0012
0000
0000
0003
2001
0000
0000
3000
,
1020
0000
0000
0000
0130
0001
0100
1000
0100
0010
0100
0001
1000
0100
0010
0100
,
2000
0000
0000
0000
3020
0000
0000
0100
0130
0000
0000
0000
1001
0000
0000
0000
,
0002
0000
0203
0000
1300
0010
1001
0000
,
1100
0000
1000
0100
0010
0001
0100
0010
0001
0000
0010
1000
0001
0100
1000
0100
,
0010
0000
1000
0100
0010
0001
1000
0010
0001
0000
0010
0100
0001
1000
0100
1000
,
0001
0000
1000
0100
0010
1000
0010
0100
1000
0000
0001
0100
0010
0001
0010
0100
,
0001
0000
1000
0100
0001
0100
1000
0001
0100
0000
0001
0010
0100
1000
0010
0100
,
0002
0000
0013
0100
2000
0000
3010
0100
0002
0000
0013
0100
2000
0000
3010
0100
,
0002
0000
1003
0100
0010
1000
0001
0100
0010
0001
1000
0100
0010
0100
1000
0001
,
0100
0000
0001
0100
1000
0000
1000
0100
0001
0000
0001
0100
0010
0000
1000
0001
,
1000
0010
0001
1000
0100
0001
1001
0000
,
1001
0000
0000
0000
1000
0010
0100
1000
0001
0010
1000
0001
0010
0100
0001
1000
,
0010
0001
1000
0100
0010
1000
0001
0100
1000
0001
0100
1000
0001
0010
0100
0010
,
1000
0000
0000
0000
0100
0000
0000
0000
0001
0000
0000
0000
0010
0000
0000
1001
,
1001
0000
0000
0000
;

//--------------- dance-double - Fred-104 ----------------
#NOTEDATA:;
#STEPSTYPE:dance-double;
#DESCRIPTION:Fred-104;
#DIFFICULTY:Easy;
#METER:10;
#CREDIT:Fred-104;
#NOTES:
00000000
00000000
00000000
00000000
,
00000000
00000000
00000000
00000000
,
00000000
00000000
00000000
00000000
,
00000000
00000000
00000000
00000000
,
00000000
00000000
00000000
00000000
,
00000000
00000000
00000000
00000000
,
00000000
00000000
00000000
00000000
,
00000000
00000000
00000000
00000000
,
00000000
00000000
00000000
00000000
,
00021000
00000000
00030020
00002030
,
00003200
00000000
00000320
00000000
,
00000032
00000000
00002003
00000000
,
00000002
00000000
00000000
00003003
,
00002001
00000000
00003020
00020030
,
00032000
00000000
00203000
00000000
,
00320000
00000000
20030000
00000000
,
02000000
00000000
00000000
33000000
,
01100000
00000000
00000000
00100000
00000000
00000000
00100000
00000000
10000000
00000000
01000000
00000000
00100000
00000000
00001000
00000000
,
00010000
00000000
00000000
00001000
00000000
00000000
00010000
00000000
00001000
00000000
00001000
00000000
00020000
00000000
00000000
00000000
,
00030010
00000000
00000000
00001000
00000000
00000000
00000010
00000000
00000100
00000000
00000100
00000000
00000001
00000000
00001000
00000000
,
00000001
00000000
00000000
00000100
00000000
00000000
00000010
00000000
00001000
00000000
00000100
00000000
00020000
00000000
00000000
00000000
,
00031000
00000000
00000000
00100000
00000000
00000000
00010000
00000000
10000000
00000000
00100000
00000000
01000000
00000000
00000000
00000000
,
00010000
00000000
00000000
10000000
00000000
00000000
01000000
00000000
00100000
00000000
00001000
00000000
00010000
00000000
00000000
00000000
,
00010000
00000100
00001000
00000010
00000100
00000001
00001000
00000000
,
00002002
00000000
00000000
00003003
00000001
00001000
00000001
00000000
,
00001000
00000010
00001000
00000000
00000001
00000100
00000001
00000000
,
00000100
00001000
00010000
00100000
01000000
00010000
10000000
00000000
,
00010000
10000000
00100000
00000000
01000000
00010000
00100000
00000000
,
01000000
10000000
00100000
00010000
00001000
00010000
00100000
00000000
,
10000000
01000000
00010000
00000000
00001000
00000010
00000100
00000000
,
00001000
00000001
00000010
00000100
00000010
00000001
00001000
00000000
,
00000100
00010000
00001000
00000000
00010000
00000010
00001000
00000000
,
00000001
00000100
00000010
00001000
00000100
00001000
00001001
00000000
,
00000001
00000010
00000100
00000010
00001000
00010000
01000000
00100000
,
00002000
00203000
00320000
20030000
,
30100000
10000000
01000000
00000000
00100000
00010000
01000000
00000000
,
00020000
00032000
00003020
00000230
,
00000301
00000100
00001000
00000000
00000100
00000001
00001000
00000000
,
00000001
00000010
00001000
00000000
00010000
01000000
10000000
00000000
,
00010000
00100000
10000000
00000000
00010000
01000000
10000000
00000000
,
00100000
10000000
00010000
00100000
00001000
00010000
00000100
00010000
,
00001000
00000000
00000000
00000000
00000000
00000000
00000000
00000000
00000000
00000000
00000000
00001000
00010000
00000000
00000000
00000000
,
00000010
00001000
00000010
00000100
00000010
00001000
00000001
00001000
,
00000010
00000100
00000001
00000100
00000010
00001000
00000001
00000010
,
00000100
00001000
00000100
00010000
00001000
00100000
00010000
10000000
,
00010000
01000000
00200000
00000000
10300000
01000000
00200000
00000000
,
00310000
01000000
10000000
00000000
01000000
00000000
00100000
00000000
,
10000000
00100000
00010000
00000000
00001000
00000100
00000010
00000000
,
00001000
00000001
00000100
00000000
00000010
00001000
00000100
00000000
,
00020000
00000000
00001000
00000000
00031000
00010000
00011000
00000000
,
00002000
00023000
00230000
20300000
,
30010000
10000000
01000000
00000000
00100000
01000000
00010000
00000000
,
00001000
00000000
00000000
00000010
00000000
00000000
00000100
00000000
00000000
00001000
00000000
00000000
00000010
00000000
00000000
00000100
,
00000000
00000000
00000001
00000000
00000000
00001000
00000000
00000000
00000001
00000000
00000010
00000000
00000100
00000000
00000000
00000000
,
00001001
00000000
00000001
00000000
00000010
00000001
00001000
00000000
,
00001100
00000000
00000100
00000000
00010000
00001000
01000000
00000000
,
00010000
00100000
01000000
00000000
10000000
00100000
01000000
00000000
,
00010000
00100000
00010000
00001000
00000100
00010000
00000010
00000000
,
00002020
00003030
00000202
00000303
,
00002200
00003300
00022000
00033000
,
02020000
03030000
22000000
33000000
,
20200000
30300000
00220000
00330000
,
00020000
00032000
00003020
00000032
,
00002003
00000000
00003010
00000100
00000010
00000100
00000010
00001000
,
00000001
00000100
00001100
00011000
,
00020000
00000000
00230000
00000000
10300000
00010000
10010000
00000000
,
10000000
00000000
00000000
00100000
01000000
00000000
00000000
00000000
00001000
00000000
00000000
00010000
00001000
00000000
00000000
00000000
,
00100000
00000000
00000000
00001000
00010000
00000000
00000000
00000000
00000010
00000000
00000000
00001000
00000100
00000000
00000000
00000000
,
00001000
00000000
00000000
00000001
00000010
00000000
00000000
00000000
00000100
00000000
00000000
00000010
00000001
00000000
00000000
00000000
,
00000010
00000000
00000000
00000001
00001000
00000000
00000000
00000000
00000001
00000000
00000000
00000100
00000010
00000000
00000010
00000000
,
00002000
00003020
00000230
00002300
,
00023000
00000000
00130000
01000000
00010000
00100000
00001000
00100000
,
00010000
10000000
10100000
01010000
,
00200000
00000000
00302000
00000000
00013000
00001000
00011000
00000000
,
00002000
00003020
00000032
00000203
,
00002300
00023000
02030000
23000000
,
30100000
00000000
00000000
00000000
00010000
00000000
00000000
00000000
00001000
00000000
00000000
00000000
00010000
00000000
00000000
00001000
,
00010000
00000000
00000000
00000000
;

//--------------- dance-double - Fred-104 ----------------
#NOTEDATA:;
#STEPSTYPE:dance-double;
#DESCRIPTION:Fred-104;
#DIFFICULTY:Medium;
#METER:14;
#CREDIT:Fred-104;
#NOTES:
00000000
00000000
00000000
00000000
,
00000000
00000000
00000000
00000000
,
00000000
00000000
00000000
00000000
,
00000000
00000000
00000000
00000000
,
00000000
00000000
00000000
00000000
,
00000000
00000000
00000000
00000000
,
00000000
00000000
00000000
00000000
,
00000000
00000000
00000000
00000000
,
00000000
00000000
00000000
00000000
,
12000000
00000000
03200000
00320000
,
20030000
00000000
30200000
00000000
,
02300000
00000000
03002000
00000000
,
00020000
00000000
00000000
00033000
,
00020000
00000000
00030020
00002030
,
00003002
00000000
00002003
00000000
,
00003200
00000000
00020300
00000000
,
00002000
00000000
00000000
00033000
,
00011000
00000000
00001000
00010000
00000000
00001000
00010000
00000000
00001000
00000000
00100000
00000000
00010000
00000000
01000000
00000000
,
00100000
00000000
10000000
00010000
00000000
10000000
00100000
00000000
01000000
00000000
00100000
00000000
01000000
00010000
00000000
00000000
,
00100000
00000000
00100000
00001000
00000000
00010000
00001000
00000000
00010000
00000000
00000010
00000000
00001000
00000000
00000010
00000000
,
00000100
00000000
00000010
00000100
00000000
00000010
00001000
00000000
00000001
00000000
00000010
00000000
00000001
00000200
00000000
00000000
,
00000301
00000100
00001000
00000100
00000010
00000100
00000001
00001000
,
00000010
00010000
00001000
00010000
00100000
01000000
00010000
10000000
,
00010000
00000000
10000000
01000000
00100000
00000000
00001000
00010000
00001000
00000000
00001000
00000000
00010000
00000000
00010000
00000000
,
00022000
00000000
00000000
00000000
00000000
00000000
00033000
00000000
00010000
00001000
00010000
00001000
00010000
00001000
00000000
00000000
,
00010000
00000000
00001000
00010000
00000000
00000010
00010000
00000000
00000100
00000000
00001000
00000000
00000001
00000000
00000100
00000000
,
00000010
00000000
00001000
00000010
00000000
00001000
00000001
00000000
00000010
00000000
00000100
00000000
00001000
00000000
00001000
00000000
,
00000001
00000000
00000100
00000001
00000000
00000100
00000010
00000000
00001000
00000000
00000100
00000000
00010000
00000000
00001000
00000000
,
00010000
00000000
00001000
00100000
00000000
00001000
00010000
00000000
00001000
00000000
00001000
00000000
01000000
00000000
01000000
00000000
,
00010000
00000000
00100000
01000000
00000000
10000000
00100000
00000000
01000000
00000000
00100000
00000000
10000000
00000000
01000000
00000000
,
00100000
00000000
00001000
00010000
00000000
00001000
00100000
00000000
00001000
00000000
00010000
00000000
00000010
00000000
00001000
00000000
,
00000001
00000000
00000100
00000010
00000000
00001000
00000010
00000000
00000001
00000000
00000010
00000000
00000100
00000000
00000010
00000000
,
00001000
00000000
00000001
00000010
00000000
00001000
00010000
00000000
00001000
00000000
00010000
00000000
00011000
00000000
00000000
00000000
,
00001000
00100000
00010000
00010000
01000000
00100000
10000000
10000000
,
00010000
00000000
01000000
00100000
00000000
10000000
00000000
01000000
00000000
00100000
00000000
00001000
00010000
00001000
00010000
00000000
,
00000100
00001000
00000100
00000000
00000010
00000000
00000001
00000000
00001000
00000001
00001000
00000000
00000010
00000000
00000100
00000000
,
00000001
00000100
00000001
00000000
00000100
00000010
00000100
00000000
00000010
00001000
00000010
00001000
00000100
00010000
00000100
00010000
,
00001000
00001000
00010000
00010000
01000000
01000000
10000000
10000000
,
00100000
00100000
00010000
00010000
00001000
00001000
00000010
00000010
,
00000100
00001000
00000001
00000000
00000010
00000001
00001000
00000000
00000010
00000100
00000001
00000000
00001000
00000100
00010000
00000000
,
00001000
00010000
00001000
00010000
00001000
00010000
00001000
00010000
00001000
00010000
00001000
00010000
00001000
00010000
00001000
00010000
,
00001000
00000000
00000000
00000000
00000000
00000000
00000000
00000000
00000000
00000000
00000000
10000000
00100000
00000000
01000000
00000000
,
01100000
00100000
10000000
01000000
00100000
00001000
00010000
00001000
,
00100000
00001000
00010000
00001000
00000010
00000100
00001000
00000001
,
00000100
00001000
00000100
00000001
00000100
00000010
00001000
00000001
,
00000010
00001000
00010000
00100000
01000000
00010000
00100000
01000000
,
10000000
01000000
01000000
00100000
00001000
00010000
00001000
00000100
,
00000010
00001000
00000001
00000001
00000010
00000100
00001000
00001000
,
00000010
00000100
00001000
00000100
00000010
00000100
00000001
00001000
,
00000200
00000000
00020300
00000000
00031000
00100000
00110000
00000000
,
10000000
00100000
10000000
00000000
01000000
00000000
00100000
00000000
00010000
01000000
00010000
00000000
00100000
00000000
00001000
00000000
,
00010000
00000000
00000010
00001000
00000010
00000000
00010000
00000000
00000010
00000000
00001000
00000100
00001000
00000000
00000001
00000000
,
00001000
00000010
00000000
00000100
00000001
00000000
00001000
00000100
00000000
00000010
00000001
00000000
00001000
00000001
00000000
00001000
,
00000001
00000000
00000100
00000000
00000010
00000000
00001000
00000000
00000100
00010000
00000100
00000000
00010000
00000000
00001000
00000000
,
00011000
00000000
00001000
00100000
00010000
10000000
00010000
01000000
,
00100000
01000000
00100000
00000000
10000000
01000000
10000000
00000000
00100000
01000000
00100000
00000000
01000000
00010000
01000000
00000000
,
00001000
00010000
00001000
00000000
00010000
00000100
00010000
00000000
00000010
00001000
00000010
00000000
00001000
00000001
00001000
00000000
,
00001001
00000000
00000000
00000001
00000100
00000000
00000000
00000100
00000010
00000000
00001000
00000000
00000100
00000000
00010000
00000000
,
00020000
00100000
00032000
00000010
,
00023000
01000000
00032000
00000100
,
00023000
01000000
00032000
00000010
,
00023000
00100000
00032000
00000100
,
00023000
00032000
00003020
00000032
,
00000203
00000000
00001300
00010000
00001000
00000100
00000001
00001000
,
00000200
00000000
00000000
00000000
00000310
00000000
00000000
00000010
00000002
00000000
00000000
00000000
00002003
00000000
00000000
00000000
,
00003020
00000000
00020030
00000000
00031000
00010000
00011000
00000000
,
00001000
00000000
00000000
01000000
00100000
00000000
10000000
00000000
01000000
00000000
00000000
01000000
00100000
00000000
00001000
00000000
,
00010000
00000000
00000000
00001000
00000100
00000000
00000010
00000000
00001000
00000000
00000000
00001000
00000100
00000000
00000010
00000000
,
00000001
00000000
00000000
00000010
00000100
00000000
00010000
00000000
00001000
00000000
00000000
00000100
00000001
00000000
00000100
00000000
,
00000010
00000000
00000000
00000100
00001000
00000000
00010000
00000000
00100000
00000000
00000000
01000000
00010000
00000000
10000000
00000000
,
02000000
03020000
00032000
00003020
,
00000230
00000000
00001300
00000010
00000100
00000010
00000001
00000010
,
00002000
00000000
00000000
00000000
00013000
00000000
00000000
00001000
01000000
00000000
00000000
00000000
10010000
00000000
00000000
00000000
,
00200000
00000000
20300000
00000000
31000000
00100000
01100000
00000000
,
10010000
00000000
00010000
10000000
01000000
00010000
00001000
00010000
,
00001000
00000100
00000001
00000100
00000001
00000010
00001000
00010000
,
00100000
00000000
00000000
00000000
10000000
00000000
00000000
00000000
01000000
00000000
00000000
00000000
00010000
00000000
00000000
00001000
,
00011000
00000000
00000000
00000000
;

//--------------- dance-double - Fred-104 ----------------
#NOTEDATA:;
#STEPSTYPE:dance-double;
#DESCRIPTION:Fred-104;
#DIFFICULTY:Hard;
#METER:17;
#CREDIT:Fred-104;
#NOTES:
00000000
00000000
00000000
00000000
,
00000000
00000000
00000000
00000000
,
00000000
00000000
00000000
00000000
,
00000000
00000000
00000000
00000000
,
00000000
00000000
00000000
00000000
,
00000000
00000000
00000000
00000000
,
00000000
00000000
00000000
00000000
,
00000000
00000000
00000000
00000000
,
00000000
00000000
00000000
00000000
,
00012000
00000000
00203000
00320000
,
20030000
00000000
30200000
00000000
,
02300000
00000000
03002000
00000000
,
00020000
00000000
00000000
00033000
,
00001200
00000000
00000302
00000023
,
00000230
00000000
00020300
00000000
,
00032000
00000000
00023000
00000000
,
00002000
00000000
00000000
00033000
,
00011000
00000000
00001000
00100000
00000000
00010000
10000000
00000000
00010000
00000000
00100000
00000000
01000000
00000000
00100000
00000000
,
00001000
00000000
00010000
00000100
00000000
00001000
00000001
00000000
00001000
00000010
00000100
00000010
00001000
00000002
00000000
00000000
,
00001003
00000000
00000001
00000100
00000000
00000010
00000100
00000000
00000001
00000000
00000100
00000000
00000010
00000000
00000100
00000000
,
00001000
00000000
00010000
00100000
00000000
01000000
00010000
00000000
10000000
00010000
00100000
00001000
00010000
00000010
00000000
00000000
,
00001000
00000100
00001000
00000100
00000010
00000001
00000010
00000001
00001000
00000010
00001000
00000010
00001000
00000100
00010000
00001000
,
00100000
00010000
00100000
00010000
01000000
00100000
01000000
00100000
10000000
00100000
01000000
00010000
00100000
00001000
00010000
00001000
,
00010000
00000000
00000000
00000010
00001000
00000010
00001000
00000000
00000000
00000001
00000100
00000001
00000100
00000000
00000000
00000001
00000000
00000000
00001000
00000000
00000000
00000100
00000000
00000000
,
00000220
00000000
00000000
00000000
00000000
00000000
00000000
00000330
00000100
00000010
00000100
00001000
00000001
00000100
00000000
00000000
,
00000001
00000010
00000001
00001000
00000010
00010000
00001000
00100000
00001000
00010000
01000000
00100000
00010000
10000000
00100000
01000000
,
00010000
00000000
00100000
00010000
01000000
00000000
00100000
10000000
01000000
00000000
00100000
00010000
01000000
00000000
01000000
00000000
,
00001000
00010000
00001000
00100000
00001000
00010000
00001000
00000000
00010000
00000010
00001000
00000010
00000100
00000010
00001000
00000000
,
00000001
00000010
00000100
00001000
00000100
00000010
00000001
00000000
00000100
00000010
00001000
00000010
00000100
00000001
00001000
00000000
,
00000001
00000100
00000001
00000100
00000010
00001000
00000100
00000010
00000001
00001000
00000010
00000100
00000010
00001000
00000100
00010000
,
00001000
00000000
00010000
00000100
00001000
00000000
00000100
00010000
00001000
00000000
00100000
00001000
00010000
00000000
00001000
00000000
,
00100000
00010000
10000000
00100000
01000000
00100000
10000000
00000000
00010000
00100000
01000000
10000000
00100000
01000000
00010000
00000000
,
00100000
00001000
00010000
00001000
00010000
00000010
00001000
00000000
00000010
00000000
00000100
00000000
00000110
00000000
00000000
00000000
,
00001001
00000000
00000001
00000100
00000010
00001000
00000010
00001000
00000001
00000000
00001000
00000100
00000010
00000001
00000010
00000001
,
00001000
00000000
00000000
00000000
00000000
00000000
00000010
00000000
00000000
00000100
00000000
00000000
00000000
00000000
00000000
00001000
00000000
00000000
00000000
00000000
00000000
00010000
00000000
00000000
00000000
00000000
00000000
00100000
00000000
00000000
00000000
00000000
00000000
01000000
00000000
00000000
00010000
00000000
10000000
00000000
00010000
00000000
10000000
00000000
00000000
00000000
00000000
00000000
,
00010000
10000000
01000000
10000000
00100000
01000000
00010000
00100000
00001000
00010000
00001000
00100000
00001000
00010000
00000100
00001000
,
00000200
00000000
00000000
00000320
00000000
00000000
00000032
00000000
00000000
00002003
00000000
00000000
00003001
00000100
00000001
00000100
00000000
00000000
00000010
00001000
00000010
00001000
00000000
00000000
,
00000001
00000000
00000010
00000100
00001000
00000000
00000010
00000000
00000100
00000000
00000001
00001000
00000100
00000000
00010000
00000000
,
00001000
00000000
00100000
00010000
10000000
00000000
00100000
00000000
01000000
00000000
00010000
10000000
01000000
00000000
00100000
00000000
,
01000000
10000000
01000000
00000000
00100000
00010000
00100000
00000000
00001000
00010000
00001000
00000000
00010000
00000010
00010000
00000000
,
00000010
00000000
00000000
00001000
00000000
00000000
00000010
00000000
00000000
00001000
00000000
00000000
00000001
00000000
00000000
00000100
00000000
00000000
00000001
00000000
00000000
00000100
00000000
00000000
00000010
00000000
00000000
00001000
00000000
00000000
00000100
00000000
00000000
00010000
00000000
00000000
00001000
00000000
00010000
00000000
00001000
00000000
00010000
00000000
00000000
00001000
00000000
00000000
,
00010000
00000000
00000000
00000000
00000000
00000000
00000000
00000000
00000000
00000000
00000000
01000000
01000000
00000000
00100000
00000000
,
10100000
00000000
10000000
00100000
01000000
00000000
00100000
01000000
00010000
00000000
00100000
00001000
00010000
00000000
00001000
00010000
,
00000100
00000000
00001000
00000010
00000100
00000000
00000010
00000100
00000001
00000000
00001000
00000001
00000100
00000000
00000010
00001000
,
00000001
00000000
00001000
00000001
00000010
00000000
00001000
00010000
01000000
00000000
10000000
00010000
00100000
00000000
00001000
00100000
,
00010000
00000000
10000000
00100000
01000000
00000000
00010000
10000000
01000000
00000000
00100000
00001000
00010000
00000000
00001000
00000000
,
00010000
00000000
00001000
00100000
00010000
00000000
10010000
00000000
10000000
00100000
01000000
00000000
00010000
00100000
01000000
00000000
,
10000000
00100000
01000000
00010000
00100000
00010000
00000000
01000000
00001000
00010000
00000100
00000000
00001000
00000010
00000100
00000000
,
00000001
00000000
00000100
00000010
00001000
00000000
00000010
00000100
00000001
00000000
00000010
00000100
00010000
00000000
00001000
00000000
,
00021000
00000000
00000010
00000000
00130000
00010000
10010000
00000000
,
00010000
01000000
00010000
01000000
00100000
10000000
00010000
00000000
10000000
01000000
00100000
00010000
00100000
00001000
00010000
00000000
,
00001000
00100000
00001000
00000000
00010000
00000010
00010000
00000000
00001000
01000000
00001000
00000000
00010000
00000100
00010000
00000000
,
00000100
00001000
00000000
00000010
00000100
00000000
00000001
00000010
00000000
00000100
00010000
00000000
00010000
00001000
00000000
00100000
,
00010000
00000000
10000000
00100000
01000000
00010000
10000000
01000000
00100000
00010000
00100000
01000000
10000000
00100000
01000000
00000000
,
00010000
00000000
00100000
00000000
00010000
10000000
00010000
00100000
00001000
00010000
00001000
00100000
00001000
00010000
00001000
00000000
,
00010000
00000100
00001000
00000100
00000010
00000001
00001000
00000010
00000100
00000001
00001000
00000001
00000100
00000010
00001000
00000000
,
00000001
00000010
00000100
00001000
00000100
00010000
00001000
00100000
00010000
00100000
01000000
10000000
00010000
01000000
00100000
10000000
,
00010000
00000000
00000000
10000000
01000000
00000000
00000000
00010000
00001000
00000000
00000010
00000000
00000100
00001000
00000001
00001000
,
00001001
00000000
00000000
00000001
00000100
00000000
00000000
00000000
00000110
00000000
00000000
00000010
00001000
00000000
00000000
00000000
,
00011000
00000000
00000000
00001000
00100000
00000000
00000000
00000000
00110000
00000000
00000000
00010000
10000000
00000000
00000000
00000000
,
11000000
00000000
00000000
01000000
00100000
00000000
00000000
00000000
00101000
00000000
00000000
00001000
00010000
00000000
00000000
00000000
,
00010010
00000000
00000000
00000010
00001000
00000000
00000000
00000000
00001001
00000000
00000000
00000001
00000100
00000000
00000000
00000000
,
00000020
00002030
00003200
00020300
,
00032000
00000000
00000000
00000000
00103000
00001000
00010000
00001000
00100000
00010000
00100000
01000000
10000000
00010000
01000000
00100000
,
02000000
00000000
00000000
00000000
03200000
00000000
00000000
10300000
00010000
00000000
00000000
00000000
00100000
00000000
00000000
00000000
,
00002000
00000000
00003020
00000000
00000130
00001000
00001001
00000000
,
00001100
00000000
00000100
00000010
00000001
00000000
00001000
00000000
00000010
00000000
00000100
00000001
00000010
00000000
00000100
00000000
,
00010000
00000000
00001000
01000000
00010000
00000000
00100000
00000000
00001000
00000000
00010000
00000100
00001000
00000000
00000100
00000000
,
00000010
00000000
00001000
00010000
01000000
00000000
10000000
00000000
00010000
00000000
01000000
00001000
00010000
00000000
00000100
00000000
,
00001000
00000000
00000100
00000010
00000001
00000000
00000100
00000000
00001000
00000000
00010000
00001000
00000100
00000000
00000001
00000000
,
00002000
00003100
00000002
00000103
00020000
00031000
00000200
00001300
,
00020000
00000000
00000000
00000000
00031000
01000000
00001000
00010000
00001000
00100000
00001000
00010000
00001000
00100000
00010000
00100000
,
01000000
00000000
00000000
00000000
10000000
00000000
00000000
01000000
00100000
00000000
00000000
00000000
00011000
00000000
00000000
00000000
,
00000010
00000000
00001000
00000000
00000001
00001000
00001001
00000000
,
00000110
00000000
00000000
00000000
00000001
00000010
00000100
00000010
00000001
00001000
00000010
00000100
00000010
00001000
00000100
00010000
,
00001000
00100000
00010000
00100000
01000000
10000000
00100000
01000000
00010000
10000000
01000000
00100000
00001000
00010000
00000010
00001000
,
00000100
00000000
00000000
00000000
00000001
00000000
00000000
00000000
00000100
00000000
00000000
00000000
00010000
00000000
00000000
00001000
,
00011000
00000000
00000000
00000000
;

//--------------- dance-double - Fred-104† ----------------
#NOTEDATA:;
#STEPSTYPE:dance-double;
#DESCRIPTION:Fred-104†;
#DIFFICULTY:Challenge;
#METER:19;
#CREDIT:Fred-104†;
#NOTES:
00000000
00000000
00000000
00000000
,
00000000
00000000
00000000
00000000
,
00000000
00000000
00000000
00000000
,
00000000
00000000
00000000
00000000
,
00000000
00000000
00000000
00000000
,
00000000
00000000
00000000
00000000
,
00000000
00000000
00000000
00000000
,
00000000
00000000
00000000
00000000
,
00000000
00000000
00000000
00000000
,
00002001
00000000
00003002
00020003
,
00032000
00000000
20003000
00000000
,
30002000
00000000
00023000
00000000
,
00000002
00000000
00000000
00030003
,
00002001
00000000
00003002
00020003
,
00032000
00000000
20003000
00000000
,
30002000
00000000
00023000
00030000
,
00022000
00000000
00000000
00033000
,
00001001
00000000
00000001
00000010
00000000
00001000
00010000
00000000
01000000
00000000
00100000
00000000
00010000
00000000
10000000
00000000
,
00100000
00000000
00001000
00000010
00000000
00001000
00000001
00000000
00001000
00000010
00010000
00000100
00001000
00000001
00000000
00000000
,
00000110
00000000
00000001
00000010
00000000
00001000
00000010
00000100
00000010
00000000
00000001
00000000
00001000
00000000
00000010
00000000
,
00000100
00000000
00000001
00000010
00000000
00010000
00100000
00000000
01000000
10000000
00010000
01000000
10000000
01000000
00000000
00000000
,
00010000
10000000
01000000
00100000
01000000
00010000
00001000
00000010
00000100
00001000
00000001
00000100
00001000
00010000
00100000
01000000
,
00010000
10000000
01000000
00010000
00001000
00000010
00000001
00001000
00000010
00000100
00001000
00010000
00100000
01000000
00010000
10000000
,
01000000
00000000
00000000
00000000
00000000
00000000
10000000
00000000
00100000
00000000
00010000
00000000
00100000
00000000
00000000
00000000
00000000
00000000
10000000
00000000
01000000
00000000
00010000
00000000
00001000
00000000
00010000
00000000
00000100
00000000
00000010
00000000
00000001
00000000
00000100
00000000
00001000
00000000
00000000
00000100
00000000
00000000
00000001
00000000
00000000
00000000
00000000
00000000
,
00000220
00000000
00000000
00000000
00000000
00000000
00000000
00000330
00001000
00000010
00000100
00000001
00001000
00001000
00000000
00000000
,
00000001
00000100
00001000
00010000
00001000
01000000
00100000
00010000
00100000
01000000
00010000
00100000
10000000
00100000
00010000
01000000
,
00100000
00000000
10000000
01000000
00010000
00000000
00001000
00000010
00000100
00010000
00001000
00000100
00000001
00000010
00000100
00000000
,
00010000
00001000
00000100
00000010
00001000
00000100
00000010
00000001
00000100
00001000
00010000
00100000
01000000
00010000
10000000
01000000
,
00100000
10000000
00100000
00010000
10000000
00100000
00010000
10000000
01000000
00010000
00100000
00001000
00010000
00001000
00000100
00000000
,
00000010
00001000
00000100
00000010
00001000
00000010
00000001
00000100
00000010
00000001
00001000
00000100
00000001
00000100
00001000
00010000
,
00100000
00000000
01000000
00010000
10000000
00000000
01000000
00010000
00001000
00000010
00001000
00010000
01000000
10000000
00010000
00000000
,
00010000
01000000
10000000
01000000
00010000
00100000
10000000
00100000
01000000
10000000
01000000
00010000
00001000
00000010
00000100
00001000
,
00000010
00000100
00000001
00000010
00001000
00010000
00001000
00000100
00000001
00000000
00010000
00000000
00011000
00000000
00000000
00000000
,
00011000
00000000
00001000
00010000
00100000
10000000
00010000
00100000
01000000
00000000
10000000
00100000
00010000
00001000
00000100
00001000
,
00010000
00000000
00000000
00000000
00000000
00000000
00000000
00000000
00000000
00000000
00000000
00000000
00001000
00000000
00000000
00000000
00000000
00000000
00010000
00000000
00000000
00000100
00000000
00000000
00000000
00000000
00000000
00000000
00000000
00000000
00001000
00000000
00000000
00000001
00000000
00000000
00000000
00000000
00000000
00000000
00000000
00000000
00000100
00000000
00000000
00000010
00000000
00000000
00000000
00000000
00000000
00000000
00000000
00000000
00001000
00000000
00000000
00000001
00000000
00000000
00000000
00000000
00000000
00000000
00000000
00000000
00000100
00000000
00000000
00000000
00000000
00000000
00000001
00000000
00000000
00000000
00000010
00000000
00000000
00000000
00000100
00000000
00000000
00000000
00000010
00000000
00000000
00000000
00000000
00000000
00001000
00000000
00000000
00000000
00000000
00000000
,
00000010
00000001
00000100
00001000
00010000
00100000
01000000
00010000
00100000
10000000
00100000
00001000
00010000
00001000
00000010
00000100
,
00001000
00000001
00000100
00000010
00000100
00001000
00010000
00100000
10000000
00010000
00100000
10000000
00100000
00010000
10000000
00100000
00010000
00001000
00000100
00000010
00010000
00001000
00000010
00000001
,
00002000
00003000
00000000
00000000
00000000
00000000
00000000
00000000
00000001
00000000
00000000
00000000
00000001
00000000
00000000
00000000
00000100
00000000
00000000
00000000
00000000
00000000
00000000
00000000
00001000
00000000
00000000
00000000
00001000
00000000
00000000
00000000
00000100
00000000
00000000
00000000
00000000
00000000
00000000
00000000
00000001
00000000
00000000
00000000
00000001
00000000
00000000
00000000
00000100
00000000
00000000
00000000
00000000
00000000
00000000
00000000
00001000
00000000
00000000
00000000
00000000
00000000
00000000
00000000
,
00000010
00000000
00010000
00010000
00001000
00000000
00001000
00001000
00010000
00000000
00010000
00010000
00001000
00000000
00010000
00000000
,
00002000
00003000
00000000
00000000
00010000
00000000
00000000
00000000
00100000
00000000
00000000
00000000
00000000
00000000
00000000
00000000
00010000
00000000
00000000
00000000
00001000
00000000
00000000
00000000
00000010
00000000
00000000
00000000
00000000
00000000
00000000
00000000
00002000
00003000
00000000
00000000
00010000
00000000
00000000
00000000
01000000
00000000
00000000
00000000
00000000
00000000
00000000
00000000
00010000
00000000
00000000
00000000
00001000
00000000
00000000
00000000
00000100
00000000
00000000
00000000
00000000
00000000
00000000
00000000
,
00002000
00000000
00000000
00003000
00000000
00000000
00000000
00000000
00010000
00000000
00000000
00000000
00000000
00000000
00000000
00000000
00000100
00000000
00000000
00000000
00000000
00000000
00000000
00000000
00001000
00000000
00000000
00000000
00000000
00000000
00000000
00000000
00000000
00000000
00000000
00000000
00000010
00000000
00000000
00000000
00000000
00000000
00000000
00000000
00000000
00000000
00000000
00000000
00000200
00000000
00000000
00000300
00000000
00000000
00000000
00000000
00000001
00000000
00000000
00000000
00000000
00000000
00000000
00000000
00001000
00000000
00000000
00000000
00000000
00000000
00000000
00000000
00000001
00000000
00000000
00000000
00000000
00000000
00000000
00000000
00000000
00000000
00000000
00000000
00000100
00000000
00000000
00000000
00000000
00000000
00000000
00000000
00000000
00000000
00000000
00000000
00000020
00000000
00000000
00000030
00000000
00000000
00000000
00000000
00000000
00000000
00000000
00000000
00001000
00000000
00000000
00000000
00000000
00000000
00000000
00000000
00000000
00000000
00000000
00000000
00000100
00000000
00000000
00000000
00000000
00000000
00000000
00000000
00000000
00000000
00000000
00000000
00010000
00000000
00000000
00000000
00000000
00000000
00000000
00000000
00000000
00000000
00000000
00000000
00002000
00000000
00000000
00003000
00000000
00000000
00000000
00000000
00010000
00000000
00000000
00000000
00000000
00000000
00000000
00000000
00100000
00000000
00000000
00000000
00000000
00000000
00000000
00000000
10000000
00000000
00000000
00000000
00000000
00000000
00000000
00000000
01000000
00000000
00000000
00000000
00000000
00000000
00000000
00000000
00100000
00000000
00000000
00000000
00000000
00000000
00000000
00000000
,
00020000
00030000
00000000
00000000
00000000
00000000
00000000
00000000
00000000
00000000
00000000
00000000
00000000
00000000
00000000
00000000
00000000
00000000
00000000
00000000
00000000
00000000
00000000
00000000
00000000
00000000
00000000
00000000
00000000
00000000
00000000
00000000
00000000
00000000
00000000
00000000
00000000
00000000
00000000
00000000
00000000
00000000
00000000
00000000
00000100
00000000
00000000
00000000
00000100
00000000
00000000
00000000
00000000
00000000
00000000
00000000
00000001
00000000
00000000
00000000
00000000
00000000
00000000
00000000
,
00001001
00000000
00000001
00000100
00001000
00010000
00100000
01000000
00010000
00000000
10000000
01000000
00010000
00001000
00000010
00000100
,
00001000
00000000
00000001
00000010
00001000
00010000
01000000
00100000
00010000
00000000
10000000
00100000
00010000
00001000
00000100
00000010
,
00001000
00000000
00000001
00000100
00001000
00000001
00000010
00000100
00000001
00000000
00001000
00000100
00000001
00000100
00000010
00000100
,
00020000
00001000
00030010
00000000
00002000
00010000
00103000
00000000
00020000
00001000
00030100
00000000
00002000
00010000
01003000
00000000
,
00010000
00000000
00001000
00010000
00000010
00000000
00001001
00000000
00000001
00000100
00001000
00000000
00001000
00000100
00000001
00000000
,
00000001
00000100
00001000
00000100
00000001
00000010
00000000
00000100
00000010
00001000
00010000
00000000
01000000
00100000
00010000
00000000
,
10000000
00100000
00010000
00001000
00010000
00000000
01000000
00100000
00010000
00000000
10000000
00100000
00010000
00000000
00001000
00000000
,
00102000
00000000
00000000
00000000
00000000
00000000
00023000
00000000
00000000
00000000
00000000
00000000
00030010
00000000
00000000
00000010
00000000
00000000
00001000
00000100
00000010
00000001
00000100
00000010
,
00001000
00000001
00000010
00000100
00000010
00001000
00000001
00000100
00000010
00000100
00001000
00000001
00000100
00001000
00010000
00100000
,
10000000
00010000
01000000
00100000
01000000
00001000
00010000
00001000
00000010
00000001
00000100
00001000
00010000
01000000
00100000
00010000
,
10000000
00010000
00000000
01000000
00001000
00000000
00010000
00000010
00000000
00001000
00000001
00000000
00001000
00000010
00000001
00001000
,
00000100
00000000
00000001
00000001
00001000
00000100
00000010
00001000
00000001
00000100
00001000
00000010
00000100
00001000
00010000
00100000
,
01000000
00000000
00001000
00000000
00100000
00001000
01000000
00100000
00010000
00001000
00010000
01000000
10000000
00100000
01000000
10000000
,
00010000
00100000
10000000
01000000
00100000
00010000
01000000
00001000
00000100
00000010
00001000
00000001
00000010
00001000
00000010
00000001
,
00001000
00000100
00000010
00000001
00000100
00001000
00010000
00100000
10000000
01000000
00100000
00010000
00001000
00000100
00000010
00000001
,
00001000
00000100
00000001
00000100
00010000
00001000
00000100
00001000
00010000
01000000
00010000
00001000
00010000
00100000
10000000
00100000
,
01100000
00000000
01000000
00010000
10000000
00000000
00000000
00000000
01100000
00000000
01000000
10000000
00010000
00000000
00000000
00000000
,
00011000
00000000
00100000
00001000
00010000
00000000
00000000
00000000
00011000
00000000
00000010
00010000
00001000
00000000
00000000
00000000
,
00001010
00000000
00000010
00000100
00000001
00000000
00000000
00000000
00000011
00000000
00000010
00000100
00001000
00000000
00000000
00000000
,
00001001
00000000
00000001
00000100
00001000
00000000
00000000
00000000
00011000
00000000
00010000
00100000
10000000
00000000
00000000
00000000
,
10200000
00000000
00000000
00300000
00120000
00000000
00000000
00030000
00012000
00000000
00000000
00003000
00001020
00000000
00000000
00000030
,
00000012
00000000
00000000
00000000
00001003
00000100
00000010
00001000
00000001
00000100
00000010
00001000
00000010
00000001
00000100
00001000
,
00020000
00000000
00000000
00000000
02030000
00000000
00000000
10000000
13000000
00000000
00000000
00000000
10010000
00000000
00000000
00000000
,
20000000
00000000
30002000
00000000
00013000
00000001
00001001
00000000
,
00001001
00000000
00000001
00000100
00001000
00010000
00001000
00000100
00000001
00000000
00000010
00001000
00010000
01000000
00100000
00010000
,
01000000
00000000
00100000
10000000
01000000
00010000
00001000
00010000
00100000
00000000
10000000
01000000
00010000
00001000
00000010
00001000
,
00010000
00000000
01000000
10000000
00100000
00010000
00001000
00000010
00000100
00000000
00000010
00000001
00000100
00001000
01000000
00001000
,
00010000
00000000
00100000
01000000
00001000
00010000
00000100
00001000
00000001
00000000
00000100
00001000
00010000
00001000
00000010
00000100
,
00001000
00000000
00000001
00000010
00001000
00000000
00010000
01000000
10000000
00000000
10000000
00100000
00010000
00000000
00001000
00000100
,
00000001
00000000
00001000
00000010
00000001
00000010
00010000
00001000
00000010
00001000
00010000
00001000
00100000
10000000
00100000
00001000
,
00010000
00000000
01000000
10000000
00100000
00000000
00010000
00001000
00000100
00000000
00000001
00000010
00001000
00000000
00010000
01000000
,
10000000
00100000
00010000
00001000
00000100
00000001
00001001
00000000
,
00000110
00000000
00000000
00000000
00000001
00000010
00000100
00000010
00001000
00010000
01000000
00100000
00010000
10000000
00100000
00010000
,
00001000
00000100
00000010
00001000
00000100
00000010
00000001
00000100
00001000
00010000
00100000
10000000
01000000
10000000
00010000
00001000
,
00000001
00000000
00000000
00000000
00010000
00000000
00000000
00000000
00001000
00000000
00000000
00000000
10000000
00000000
00000000
00011000
,
00011000
00000000
00000000
00000000
;
