#TITLE:TWINKLE♡HEART(Fred-Special);
#ARTIST:jun;
#TITLETRANSLIT:TWINKLE HEART(Fred-Special);
#BANNER:TWINKLE HEART(Fred-Special).png;
#BACKGROUND:TWINKLE HEART(Fred-Special)-bg.png;
#CDTITLE:./CDTitles/APPEND TRAVEL.png;
#MUSIC:TWINKLE HEART(Fred-Special).ogg;
#SAMPLESTART:42.02;
#SAMPLELENGTH:15;
#BPMS:0=184.4,4=185,196=92.5,212=185;
#STOPS:274=0.324;
#TIMESIGNATURES:0=4=4,272=3=4,275=4=4;
#BGSTAGE:30;

//--------------- dance-single - Fred-104 ----------------
#NOTES:
     dance-single:
     Fred-104:
     Challenge:
     15:
     :
0000
0000
0000
0000
,
0000
0000
0000
0000
,
0000
0000
0000
0000
,
0000
0000
0000
0000
,
0000
0000
0000
0000
,
1000
0010
0100
0201
0000
1000
0000
0310
,
0000
0000
0100
0001
0100
0000
0001
0000
0010
0000
0010
0000
0110
0000
0000
0000
,
1000
0001
1000
1010
0000
0001
0100
0010
,
0000
0000
1000
0100
1000
0000
1000
0000
1000
0000
0100
0000
0010
0000
0001
0000
,
1000
0010
0100
0002
0000
0203
0000
2300
,
0000
0000
3100
0001
0010
0000
0100
0000
1000
0000
0010
0000
0100
0000
0010
0000
,
1000
0100
0001
2000
0000
3002
0000
0203
,
0000
0000
1300
0001
1000
0000
0001
0000
0100
0000
0000
0000
0001
0100
0010
1000
,
0001
0000
0010
0001
0010
0000
0011
0000
0000
0000
1010
0000
0000
0000
0101
0000
,
0000
0000
1000
0100
1000
0000
0100
0000
0010
0000
0001
0000
1000
0000
0001
0000
,
0011
0001
0101
0000
1010
1000
1100
0000
,
1010
0000
0000
0000
0101
0000
0000
0000
1001
0000
0000
0000
0001
1000
0100
0010
,
0001
0000
1000
0010
0100
0000
0010
0000
1000
0000
0100
0000
0010
0000
0001
0000
,
0100
0000
0010
0100
0010
0000
1000
0000
0100
0000
0010
0001
0010
0000
0001
0000
,
1000
0000
0001
0100
0010
0000
1010
0000
0000
0000
1100
0000
0000
0000
0101
0000
,
0000
0000
0100
0010
0100
0000
0001
0000
1000
0000
0000
0000
0010
1000
0001
0100
,
0001
0000
0100
0001
0010
0000
0100
0000
1000
0000
0001
0100
0001
0000
1000
0000
,
0001
0000
0010
0100
1000
0000
0001
0000
1000
0000
0100
0010
0001
0000
1000
0000
,
1020
0000
0100
0000
0031
0100
0010
1000
,
0001
0100
0001
0000
0100
0010
0100
0000
0010
1000
0010
0000
1000
0100
0010
0001
,
1000
0000
0000
0000
0000
0000
0000
0000
0000
0000
0000
0000
0000
0000
0000
0000
1010
0000
0000
0000
0000
0000
0000
0000
0000
0000
0000
0000
0000
0000
0000
0000
0010
0000
0000
0000
0000
0000
0000
0000
1000
0000
0000
0000
0000
0000
0000
0000
0200
0300
0000
0000
0000
0000
0000
0000
0200
0300
0000
0000
0000
0000
0000
0000
,
0001
0000
0100
0010
1000
0000
0100
0000
1000
0000
0100
0010
0001
0000
0100
0000
,
0101
0000
0000
0000
0000
0000
0000
0000
0000
0000
0000
0000
0000
0000
0000
0000
1100
0000
0000
0000
0000
0000
0000
0000
0000
0000
0000
0000
0000
0000
0000
0000
0100
0000
0000
0000
0000
0000
0000
0000
0001
0000
0000
0000
0000
0000
0000
0000
0020
0030
0000
0000
0000
0000
0000
0000
0020
0030
0000
0000
0000
0000
0000
0000
,
1000
0000
0001
0100
0010
0000
1000
0000
0001
0000
1000
0100
0010
0000
0001
0000
,
0011
0000
0000
0000
0000
0000
0000
0000
0000
0000
0000
0000
0000
0000
0000
0000
1010
0000
0000
0000
0000
0000
0000
0000
0000
0000
0000
0000
0000
0000
0000
0000
0010
0000
0000
0000
0000
0000
0000
0000
0001
0000
0000
0000
0000
0000
0000
0000
0200
0300
0000
0000
0000
0000
0000
0000
0200
0300
0000
0000
0000
0000
0000
0000
,
1000
0000
0010
1000
0100
0000
0010
0000
0001
0000
0010
0001
0100
0000
0010
0000
,
1010
0000
0000
0000
1000
0000
0100
0000
0110
0000
0000
0000
0001
0000
0100
0001
,
0100
0000
0001
1000
0001
0000
2001
0000
0000
0000
3010
0000
0100
0000
0001
0000
,
1001
0000
1010
1000
1100
0000
0011
0001
,
0200
0000
0301
0010
0002
0000
1003
0010
2000
0000
3001
0100
0002
0000
1003
0000
,
0001
0000
0010
0100
1000
0000
0010
0000
0100
0000
0001
1000
0100
0000
0010
0000
,
0011
0001
1000
0001
0101
0000
0110
0000
,
1000
0100
1000
0100
1000
0000
0020
0000
0000
0000
0130
0000
0001
0000
1000
0000
,
0001
0010
0001
0010
0001
0000
0200
0000
0000
0000
0310
0000
0100
0000
0001
0000
,
1000
0100
0010
0021
0000
0031
0100
0010
,
1010
0000
1000
0000
0100
0000
1000
0000
0010
1000
0001
0100
0001
0000
0000
0000
,
0012
0000
2003
0000
3020
0000
0130
0002
,
1003
0200
0301
0200
1300
0200
0302
0103
,
0120
0000
2030
3020
0031
0020
1030
0020
,
0031
0000
0020
0000
0130
0000
0020
0000
1030
0000
0010
0100
0001
0000
1000
0000
,
1100
0000
0101
0000
0100
0010
1000
0010
,
0100
0001
0001
0001
0010
1000
1000
1000
,
1001
0000
0001
0100
0101
0000
1000
0100
,
1100
0000
0110
0000
0010
0100
1001
0000
,
2000
0000
0010
0000
0100
0000
3100
0000
0001
0000
0100
0001
0000
0010
0100
1000
,
0002
0000
0100
0000
0010
0000
0010
0000
0103
0000
0001
1000
0000
0001
0100
0010
,
1000
0100
0110
0010
0001
0100
0110
0010
,
1000
0010
0110
0000
0001
0100
0110
0000
1000
0100
0010
0001
1000
0010
0100
0001
,
1000
0000
0100
0000
0010
0000
0001
0000
0100
0010
0100
0010
0100
0000
0010
0000
,
1000
0000
0010
0100
0010
0000
2000
0000
0000
0000
3001
0000
0010
0000
0100
0000
,
1000
0000
0001
0000
0100
0000
0001
0000
1000
0100
1000
0100
1000
0000
0010
0000
,
0100
0000
0001
0010
0001
0000
2000
0000
0000
0000
3100
0000
0010
0000
0100
0000
,
1000
0010
0100
0001
0100
0001
0100
0010
,
0100
1000
0100
0010
0100
0001
1000
0000
,
2100
3010
0102
0013
,
1001
0000
0110
0100
0001
1000
0010
1000
,
1001
0000
0000
0100
0110
0000
0001
0011
,
0000
1010
0000
0011
1001
0000
0100
0100
,
0010
0000
1000
1010
0000
0011
0000
0101
,
0000
1100
0000
0110
2002
0000
3003
0000
,
1000
0100
0001
0020
0000
0130
1000
0100
,
0001
0100
1000
0020
0000
0130
0001
0010
,
0100
2000
0100
3100
0010
0002
0010
0013
,
0001
0000
0000
0000
0000
0000
0000
0000
0000
0000
0000
0000
0000
0000
0000
0000
1000
0000
0000
0000
0000
0000
0000
0000
0000
0000
0000
0000
0000
0000
0000
0000
0220
0330
0000
0000
0000
0000
0000
0000
0000
0000
0000
0000
0000
0000
0000
0000
1001
0000
0000
0000
0000
0000
0000
0000
1000
0000
0000
0000
0000
0000
0000
0000
,
0010
0000
0100
0000
0001
0000
0010
0000
0100
0000
1000
0100
2000
0000
3001
0100
,
0002
0000
1003
0010
2000
0000
3001
0010
0002
0000
0103
0000
0010
0000
0000
0000
,
1000
0100
0010
0100
0001
0100
1000
0010
,
0100
0001
0100
0010
0010
0010
2010
0000
,
3100
0000
0000
0000
0012
0000
0000
0000
0103
0000
0000
0000
0001
0000
0100
0010
,
0100
0000
0010
0000
1000
0000
0100
0010
0100
0000
0010
0000
0011
0000
0000
0000
,
0001
0100
0110
0000
1000
0100
0110
0000
,
0101
0000
0010
0100
1001
0000
0000
0000
;

//--------------- dance-double - Fred-104 ----------------
#NOTES:
     dance-double:
     Fred-104:
     Challenge:
     15:
     :
00000000
00000000
00000000
00000000
,
00000000
00000000
00000000
00000000
,
00000000
00000000
00000000
00000000
,
00000000
00000000
00000000
00000000
,
00000000
00000000
00000000
00000000
,
00000010
00000001
00001000
00002010
00000000
00003010
00010000
00002000
,
00000000
00000000
00013000
00001000
00010000
00000000
00001000
00000000
01000000
00000000
00000000
00000000
01100000
00000000
00000000
00000000
,
00010000
01000000
10000000
02000000
00000000
03010000
00100000
02000000
,
00000000
00000000
13000000
01000000
10000000
00000000
01000000
00000000
00010000
00000000
00001000
00000000
00010000
00000000
00001000
00000000
,
00000100
00000001
00001000
00000020
00000000
00000230
00000000
00000302
,
00000000
00000000
00000013
00000100
00001000
00000000
00000001
00000000
00000100
00000000
00000010
00000000
00001000
00000000
00000100
00000000
,
00010000
00001000
00000100
00000002
00000000
00000203
00000000
00002300
,
00000000
00000000
00013000
00001000
00010000
00000000
01000000
00000000
10000000
00000000
00010000
00000000
01000000
00100000
01000000
00000000
,
00010000
01000000
10000000
02000000
00000000
03020000
00000000
00032000
,
00000000
00000000
00003100
00000010
00000100
00000000
00000001
00000000
00001000
00000000
00000001
00000000
00000100
00000000
00000010
00000000
,
00001010
00000101
00001100
00011000
,
01010000
00000000
00000000
00000000
11000000
00000000
00000000
00000000
01010000
00000000
00000000
00000000
01000000
00100000
10000000
00010000
,
00100000
00000000
01000000
10000000
01000000
00000000
00100000
00000000
00010000
00000000
01000000
00001000
01000000
00000000
00001000
00000000
,
00010000
00000000
00000100
00001000
00000100
00000000
00010000
00000000
00001000
00000000
01000000
00010000
01000000
00000000
00001000
00000000
,
00010000
00000000
00000010
00001000
00000010
00000000
00001010
00000000
00000000
00000000
00000101
00000000
00000000
00000000
00001100
00000000
,
00000000
00000000
00000001
00000000
00000100
00000000
00000010
00000000
00001000
00000000
00000000
00000000
00000001
00000100
00000001
00000000
,
00001000
00000000
00000010
00000100
00000010
00000000
00001000
00000000
00000100
00000000
00000010
00000001
00000010
00000000
00000100
00000000
,
00010000
00000000
00001000
00010000
00001000
00000000
00100000
00000000
01000000
00000000
10000000
00000000
00010000
00000000
01000000
00000000
,
01200000
00000000
10000000
00000000
00310000
01000000
00100000
10000000
,
10100000
00110000
00011000
00001010
,
00000011
00000000
00000000
00000000
00000000
00000000
00000000
00000000
00000000
00000000
00000000
00000000
00000000
00000000
00000000
00000000
00001001
00000000
00000000
00000000
00000000
00000000
00000000
00000000
00000000
00000000
00000000
00000000
00000000
00000000
00000000
00000000
00000001
00000000
00000000
00000000
00000000
00000000
00000000
00000000
00000100
00000000
00000000
00000000
00000000
00000000
00000000
00000000
00000020
00000030
00000000
00000000
00000000
00000000
00000000
00000000
00000020
00000030
00000000
00000000
00000000
00000000
00000000
00000000
,
00000001
00000000
00001000
00000010
00001000
00000000
00000100
00000000
00000010
00000000
00000001
00000100
00000001
00000000
00000100
00000000
,
00000110
00000000
00000000
00000000
00000000
00000000
00000000
00000000
00000000
00000000
00000000
00000000
00000000
00000000
00000000
00000000
00011000
00000000
00000000
00000000
00000000
00000000
00000000
00000000
00000000
00000000
00000000
00000000
00000000
00000000
00000000
00000000
00010000
00000000
00000000
00000000
00000000
00000000
00000000
00000000
01000000
00000000
00000000
00000000
00000000
00000000
00000000
00000000
00200000
00300000
00000000
00000000
00000000
00000000
00000000
00000000
00200000
00300000
00000000
00000000
00000000
00000000
00000000
00000000
,
00010000
00000000
01000000
00100000
01000000
00000000
00010000
00000000
10000000
00000000
01000000
00100000
01000000
00000000
00100000
00000000
,
01100000
00000000
00000000
00000000
00000000
00000000
00000000
00000000
00000000
00000000
00000000
00000000
00000000
00000000
00000000
00000000
00011000
00000000
00000000
00000000
00000000
00000000
00000000
00000000
00000000
00000000
00000000
00000000
00000000
00000000
00000000
00000000
00001000
00000000
00000000
00000000
00000000
00000000
00000000
00000000
00000010
00000000
00000000
00000000
00000000
00000000
00000000
00000000
00000200
00000300
00000000
00000000
00000000
00000000
00000000
00000000
00000200
00000300
00000000
00000000
00000000
00000000
00000000
00000000
,
00001000
00000000
00000010
00000100
00000010
00000000
00001000
00000000
00000001
00000000
00000010
00000100
00000010
00000000
00000001
00000000
,
00000101
00000000
00000010
00001000
00001100
00000000
00000100
00010000
,
00001000
00010000
01000000
01200000
00000000
10300000
00010000
00100000
,
00110000
00000000
10000000
01000000
01100000
00000000
01000000
00010000
,
00200000
00000000
00301000
00010000
00002000
00000000
00013000
00000100
00020000
00000000
00030010
00001000
00000020
00000000
00000130
00000000
,
00000001
00000000
00001000
00000010
00001000
00000000
00000100
00000000
00000010
00000000
00000001
00000100
00000001
00000000
00000100
00000000
,
00001000
00000000
00010000
00000000
00001000
00000000
00010000
00000000
01000000
00000000
10000000
00010000
10000000
00000000
00000000
00000000
,
00010000
01000000
00100000
20100000
00000000
31000000
00100000
00001000
,
00010000
00000100
00000010
00000210
00000000
00001300
00000001
00000100
,
00000001
00000000
00000000
00000000
00000000
00000000
00000000
00000000
00000000
00000000
00000000
00000000
00000000
00000000
00000000
00000000
00000200
00000300
00000000
00000000
00000000
00000000
00000000
00000000
00000200
00000300
00000000
00000000
00000000
00000000
00000000
00000000
00001000
00000000
00000000
00000000
00000000
00000000
00000000
00000000
00000001
00000000
00000000
00000000
00000000
00000000
00000000
00000000
00000100
00000000
00000000
00000000
00000000
00000000
00000000
00000000
00000010
00000000
00000000
00000000
00000000
00000000
00000000
00000000
,
00001000
00000000
00000100
00000000
00010000
00000000
00001000
00000000
00010000
00001000
00010000
00001000
00010000
00000000
00000000
00000000
,
00012000
00000000
00100000
00000000
00000010
00000000
00103000
00002000
,
00013000
00002000
00003010
00002000
00013000
00002000
00203000
00302000
,
00023000
00000000
02030000
03020000
00031000
00020000
00030100
00020000
,
00031000
00000000
00020000
00000000
01030000
00000000
00020000
00000000
00031000
00000000
00010000
00001000
00010000
00000000
01000000
00000000
,
01100000
00000000
10010000
00000000
00010000
01000000
00100000
10000000
,
01000000
00100000
00001000
00010000
00000100
00000010
00000001
00001000
,
00001010
00000000
00000001
00000100
00000110
00000000
00001000
00000100
,
00000110
00011000
01100000
10010000
,
00200000
00000000
10000000
00000000
01000000
00000000
01300000
00000000
00100000
00000000
00001000
00010000
00000000
00000100
00001000
00000100
,
00000020
00000000
00000001
00000000
00001000
00000000
00001030
00000000
00000001
00000000
00000100
00000010
00000000
00001000
00000010
00000100
,
00000001
00000100
00000110
00010000
00001000
00100000
00110000
01000000
,
10000000
01000000
01100000
00000000
00010000
01000000
01100000
00000000
10000000
01000000
00100000
00010000
00001000
00000100
00000010
00000001
,
00001000
00000000
00000010
00000100
00000010
00000000
00001000
00000000
00000100
00000000
00000010
00000001
00000010
00000000
00000001
00000000
,
00001000
00000100
00001000
00000100
00001000
00000000
00000020
00000000
00000000
00000000
00010030
00000000
00001000
00000000
00100000
00000000
,
00010000
00000000
01000000
00100000
01000000
00000000
00010000
00000000
10000000
00000000
01000000
00100000
01000000
00000000
10000000
00000000
,
00100000
10000000
00100000
10000000
00100000
00000000
02000000
00000000
00000000
00000000
03010000
00000000
00100000
00000000
01000000
00000000
,
10000000
00100000
00010000
00100000
01000000
00001000
00010000
00000100
,
00000001
00000100
00001000
00000001
00000100
00000010
00001000
00000000
,
00020010
00031000
00102000
00013000
,
00011000
00000000
01100000
01000000
00100000
10000000
00010000
10000000
,
11000000
00000000
00000000
00100000
01010000
00000000
00001000
00101000
,
00000000
00011000
00000000
00010010
00000000
00000010
00001000
00000001
,
00000100
00000000
00000001
00000101
00000000
00001100
00000000
00011000
,
00000000
01010000
00000000
11000000
20020000
00000000
30030000
00000000
,
10000000
01000000
00100000
00020000
00000000
01030000
10000000
01000000
,
00001000
00010000
00100000
20000000
00000000
31000000
10000000
00100000
,
00010000
00001000
00000100
00000001
00000010
00000100
00000001
00001000
,
00010000
00000000
00000000
00000000
00000000
00000000
00000000
00000000
00000000
00000000
00000000
00000000
00000000
00000000
00000000
00000000
00001000
00000000
00000000
00000000
00000000
00000000
00000000
00000000
00000000
00000000
00000000
00000000
00000000
00000000
00000000
00000000
00202000
00303000
00000000
00000000
00000000
00000000
00000000
00000000
00000000
00000000
00000000
00000000
00000000
00000000
00000000
00000000
00010010
00000000
00000000
00000000
00000000
00000000
00000000
00000000
00000000
00000000
00000000
00000000
00000000
00000000
00000000
00000000
,
00010000
00001000
01000000
00000000
00010000
00100000
10000000
00100000
,
00010000
00100000
01000000
00100000
10000000
00100000
00010000
00000000
,
00001000
00000000
00010000
00000000
00001000
00000000
00000010
00000000
00000001
00000000
00001000
00000000
00000001
00000000
00000100
00000001
,
00000100
00000000
00000010
00001000
00000010
00000000
00001000
00000100
00001000
00000000
00010000
00000000
00012000
00000000
00000000
00000000
,
00103000
00000000
00021000
00000000
00030010
00000000
00010000
00001000
,
00100000
00010000
00100000
01000000
10000000
00010000
10010000
00000000
,
01000000
00100000
00110000
00000000
00001000
00010000
00011000
00000000
,
00001010
00000000
00000001
00000100
00000110
00000000
00000000
00000000
;
