#VERSION:0.83;
#TITLE:TITANS RETURN;
#ARTIST:L.E.D.;
#GENRE:DRUMSTEP;
#BANNER:TITANS RETURN.png;
#BACKGROUND:TITANS RETURN-bg.png;
#CDTITLE:./CDTitles/RB limelight.png;
#MUSIC:TITANS RETURN.ogg;
#SAMPLESTART:22.268;
#SAMPLELENGTH:15;
#BPMS:0=194;
#BGSTAGE:29;

//--------------- dance-single - Fred-104 ----------------
#NOTEDATA:;
#STEPSTYPE:dance-single;
#DESCRIPTION:Fred-104;
#DIFFICULTY:Beginner;
#METER:4;
#CREDIT:Fred-104;
#NOTES:
0000
0000
0000
0000
,
0000
0000
0000
0000
,
0000
0000
0000
0000
,
0000
0000
0000
0000
,
0000
0000
0000
0000
,
0000
0000
0000
0000
,
1000
1000
0000
1000
,
0000
0001
0000
0001
,
0001
0000
1000
0000
,
0002
0000
0000
0003
,
0001
0000
0001
0000
,
0010
0000
0000
0000
,
1000
0000
1000
0000
,
0100
0000
0000
0000
,
0001
0000
0001
0000
,
1000
0000
0000
0000
,
0100
0000
0100
0000
,
1001
0000
0000
0000
,
1000
0000
0000
0000
,
0010
0000
0010
0000
,
0001
0000
0000
0000
,
0100
0000
0100
0000
,
1000
0000
0000
0000
,
0001
0000
0001
0000
,
1000
0000
1000
0000
,
0001
0000
0001
0000
,
1001
0000
0000
0000
,
0000
0000
0000
0000
,
0000
0000
0000
0000
,
0000
0000
0000
0000
,
0000
0000
0000
0000
,
0000
0000
0000
0000
,
1000
0000
0000
1000
,
0000
0000
0001
0000
,
2000
0000
0000
3000
,
0200
0000
0000
0300
,
0020
0000
0000
0030
,
0002
0003
2000
3000
,
0002
0000
0000
0003
,
0200
0000
0000
0300
,
0020
0000
0000
0030
,
2000
0000
0000
3000
,
0001
0000
0001
0000
,
1000
0000
1000
0000
,
0100
0000
0100
0000
,
0010
0010
0010
0000
,
0001
0000
1000
0000
,
0001
0000
1000
0000
,
0010
0000
0100
0000
,
0001
0000
1000
1000
,
1000
0000
0100
0000
,
0010
0000
0001
0001
,
2002
3003
0000
0000
,
2000
0000
0000
3000
,
0001
0000
1000
0000
,
0010
0000
0010
0000
,
0100
0000
0001
0000
,
0001
0000
1000
0000
,
0100
0000
0100
0000
,
0010
0000
0001
0000
,
1000
0000
1000
0000
,
0001
0001
0001
0000
,
2000
0000
0000
3000
,
0200
0000
0000
0300
,
0020
0000
0000
0030
,
0002
0000
0000
0003
,
2000
0000
0000
3000
,
0002
0000
0000
0003
,
0200
0000
0000
0300
,
0020
0000
0000
0030
,
0100
0000
0100
0000
,
0001
0000
0001
0000
,
1000
0000
1000
0000
,
0001
0001
0001
0000
,
1000
0000
1000
0000
,
0100
0000
0000
0000
,
0001
0000
0010
0000
,
0100
0000
0000
0000
,
0010
0000
1000
0000
,
0001
0000
0000
0000
,
1000
0000
1000
0000
,
0001
0001
0001
0001
,
2002
0000
0000
0000
,
3003
0000
0000
0000
;

//--------------- dance-single - Fred-104 ----------------
#NOTEDATA:;
#STEPSTYPE:dance-single;
#DESCRIPTION:Fred-104;
#DIFFICULTY:Easy;
#METER:9;
#CREDIT:Fred-104;
#NOTES:
0000
0000
0000
0000
,
0000
0000
0000
0000
,
0000
0000
0000
0000
,
0000
0000
0000
0000
,
0000
0000
0000
0000
,
0000
0000
0000
0000
,
1000
0100
0000
0100
,
0010
0100
1000
0001
,
0100
0100
0010
0010
,
0100
0010
0100
0000
0010
0100
0010
0000
,
1001
1000
0000
0100
,
0000
0000
0100
0000
0010
0001
0010
0000
,
0100
1000
0000
1000
,
0000
0000
1000
0000
0001
0100
0001
0000
,
0010
0100
0000
0100
,
0000
0000
1000
0000
0001
1000
0001
0000
,
0100
0010
0000
0010
,
0100
0000
0000
0010
0000
0000
0110
0000
,
1001
0000
0000
0001
0000
0010
0000
0010
,
0000
0001
0000
1000
0000
0000
0001
0000
,
1000
0000
0000
0010
0000
0100
0000
0100
,
0000
0001
0000
1000
0000
0100
0000
0000
,
0010
0000
0000
0001
0000
1000
0000
0001
,
0000
0001
0000
0100
0000
0000
0110
0000
,
1001
0000
1001
0000
,
0001
0000
0100
0000
0010
1000
0010
0000
,
1010
1010
0000
0000
,
0000
0000
0000
0000
,
0101
0101
0000
0000
,
0000
0000
0000
0000
,
0000
0000
1100
0000
0000
0011
0000
0000
,
0000
0000
0000
0000
,
1100
0000
0000
1001
0000
0000
0101
0000
,
0000
1001
0000
0000
0001
1000
0001
0000
,
0020
0032
0023
0032
,
2003
3020
2030
3020
,
0230
0302
0203
0302
,
2003
3200
0320
0032
,
0023
0230
2300
3002
,
0203
0320
0230
0302
,
2003
3200
0320
0032
,
2003
0000
0000
3000
,
0002
0023
0032
0023
,
2030
3200
2300
3200
,
0301
0000
0000
0001
0000
0001
0000
1000
,
0010
0010
0100
0110
,
1001
0001
0000
0010
,
0000
0000
0100
0000
1000
0010
1000
0000
,
0001
0100
0000
0010
,
0000
0000
0100
0000
0001
0010
0001
0000
,
0100
0010
0000
1000
,
0000
0000
0100
0000
0010
0001
0010
0000
,
0001
0000
1001
0000
1000
0001
1000
0000
,
0010
0000
0000
0010
0000
0000
0010
0000
,
0100
0001
0000
1000
,
0000
0000
0100
0000
0010
0001
0010
0000
,
0100
1000
0000
0010
,
0000
0000
0100
0000
0010
1000
0010
0000
,
0100
0001
0000
0010
,
0000
0000
0100
0000
1000
0001
1000
0000
,
0010
0010
0100
0100
,
0001
0010
0001
0000
1000
0100
1000
0000
,
0002
0203
0320
2030
,
3002
0203
0320
2030
,
3200
0320
0032
2003
,
0002
0000
3003
0000
,
2000
3200
0320
0032
,
0203
0000
0320
0000
0130
0001
0100
0001
,
0200
0320
2030
3200
,
0320
0000
0000
0030
,
0002
0203
0302
0203
,
2300
3020
2030
3020
,
0031
0100
0010
1000
,
0001
0010
0001
0000
1000
0100
1000
0000
,
1001
0000
0000
1000
0000
0010
0000
0010
,
0000
1000
0000
0001
0000
0000
1000
0000
,
0001
0000
0000
0010
0000
0100
0000
0100
,
0000
1000
0000
0001
0000
0100
0000
0000
,
0010
0000
0000
1000
0000
0001
0000
1000
,
0000
1000
0000
0100
0000
0000
0110
0000
,
1001
0001
1001
1000
,
0100
0010
0100
0010
0100
0010
0100
0000
,
2002
0000
0000
0000
,
3003
0000
0000
0000
;

//--------------- dance-single - Fred-104 ----------------
#NOTEDATA:;
#STEPSTYPE:dance-single;
#DESCRIPTION:Fred-104;
#DIFFICULTY:Medium;
#METER:12;
#BPMS:0=97,12=194,124=97,140=194,220=97,236=194;
#CREDIT:Fred-104;
#NOTES:
0000
0000
0000
0000
,
0000
0000
0000
0000
,
0000
0000
0000
0000
,
0002
0003
0000
0000
0000
0000
0000
0000
0000
0000
0000
0000
0000
0000
0000
0000
0101
0000
0000
0000
0000
0000
0000
0000
0000
0000
0000
0000
0000
0000
0000
0000
0000
0000
0000
0000
0000
0000
0000
0000
0000
0000
0000
0000
0000
0000
0000
0000
1000
0000
0000
0000
0000
0000
0000
0000
0000
0000
0000
0000
0000
0000
0000
0000
,
0100
0010
0001
1000
,
0010
0010
0100
0100
,
0001
0010
0001
0000
1000
0100
1000
0000
,
1001
0000
0001
0000
0100
0010
0100
0000
,
0010
0000
1000
0000
0001
0010
0100
0000
,
1000
0000
0001
0000
0100
0010
0100
0000
,
0010
0000
1000
0000
0100
0010
0001
0000
,
0100
0000
0001
0000
1000
0001
0010
0000
,
0100
0000
0010
0000
0001
1000
0010
0000
,
0100
0000
0010
0000
1000
0100
0010
0000
,
0001
0000
0000
0001
0000
0000
1000
0000
0000
1000
0000
0000
1001
0000
0000
0000
,
0001
0010
0001
0010
0000
0100
0000
1000
,
0000
0001
0000
0010
0000
0100
1000
0000
,
0001
0100
0001
0100
0000
0010
0000
1000
,
0000
0001
0000
0100
0000
0010
0000
1000
,
0001
1000
0001
1000
0000
0100
0000
0010
,
0000
0001
0000
1000
0000
0100
0010
0000
,
0001
1000
0001
1000
0000
0010
0000
0100
,
0001
1000
0100
0010
0001
0100
0010
0000
,
1001
1001
0000
0000
,
0000
0000
0000
0000
,
0011
0110
0000
0000
,
0000
0000
0000
0000
,
0000
0000
1010
0000
0000
0110
0000
0000
,
0000
0000
0000
0000
,
0011
0000
0010
0001
0000
1000
0010
0000
,
0100
0001
0000
0010
0100
1000
0001
0000
,
0200
0320
0230
0320
2030
3002
2003
3002
,
0023
0230
0320
0230
2300
3002
2003
3002
,
0023
0230
2300
3002
0203
0320
2030
3002
,
0023
0230
0320
0032
2003
0000
0002
3003
,
2000
3200
0302
0203
,
0310
0001
1000
0010
0100
0010
1000
0000
,
0001
0001
0010
0100
0100
1000
0001
0001
,
0100
0010
0100
0010
0100
0000
1001
0000
,
1000
0100
1000
0000
0010
1000
0010
0000
,
0100
0001
0100
0000
0001
0010
0001
0000
,
0010
0100
1000
0000
0010
0100
0001
0000
,
0100
0010
1000
0100
0010
0001
1000
0000
,
0001
0100
0001
0000
0010
0100
0010
0000
,
0100
1000
0100
0000
1000
0010
0100
0001
,
1000
0000
1001
0000
0001
0010
0100
0000
,
1000
0010
0001
1000
0100
0001
1000
0000
,
0001
0010
0001
0000
0100
0010
0100
0000
,
0010
1000
0010
0000
1000
0100
1000
0000
,
0010
0100
0001
0000
1000
0100
0010
0000
,
0001
1000
0010
0000
0100
0001
1000
0000
,
0100
0010
0001
0000
0010
0100
1000
0000
,
0001
0100
0010
0000
1000
0010
0100
0000
,
0001
0010
0010
0100
0010
0010
0001
0000
,
1010
0101
1100
0011
,
2000
3002
2003
3002
0023
0230
2300
3002
,
0203
0320
2030
3002
0020
0000
0033
0000
,
0002
0203
0302
0203
2300
3200
2300
3100
,
0020
0032
0023
0230
0302
0000
2000
3003
,
0002
0023
0230
0302
,
0203
2300
3002
0203
,
0310
1000
0010
0000
0100
0001
0100
0000
,
0001
0010
0100
1000
0100
0010
0001
0000
,
1000
0010
0100
0001
0000
1000
0000
0010
,
0000
0100
0000
0001
0000
1000
0001
0000
,
1000
0100
0010
0001
0000
1000
0000
0100
,
0000
0010
0000
0001
0000
1000
0000
0001
,
0100
0010
1000
0001
0000
0100
0000
0010
,
0000
1000
0000
0001
0000
0010
0100
0000
,
1000
0100
1000
0100
0010
0001
0010
0001
,
1000
0010
0001
1000
0100
0001
1000
0000
,
2002
0000
0000
0000
,
3003
0000
0000
0000
;

//--------------- dance-single - Fred-104 ----------------
#NOTEDATA:;
#STEPSTYPE:dance-single;
#DESCRIPTION:Fred-104;
#DIFFICULTY:Hard;
#METER:16;
#BPMS:0=97,12=194,124=97,140=194,220=97,236=194;
#CREDIT:Fred-104;
#NOTES:
0000
0000
0000
0000
,
0000
0000
0000
0000
,
0000
0000
0000
0000
,
0002
0003
0000
0000
0000
0000
0000
0000
0010
0000
0000
0000
0000
0000
0000
0000
0100
0000
0000
0000
0000
0000
0000
0000
1000
0000
0000
0000
0000
0000
0000
0000
0000
0000
0000
0000
0000
0000
0000
0000
0001
0000
0000
0000
0000
0000
0000
0000
0000
0000
0000
0000
0000
0000
0000
0000
1000
0000
0000
0000
0000
0000
0000
0000
,
0000
0001
0000
0100
0000
0010
1000
0000
,
0001
0010
0100
1000
0001
0010
0100
1000
,
0001
0100
0001
0000
1000
0010
1000
0000
0001
0100
0001
0000
1001
0000
0000
0000
,
1000
0000
0100
0000
0010
0000
0001
1000
0001
1000
0001
0000
0100
0000
0010
0000
,
1000
0000
0001
0000
0010
0000
0100
1000
0100
1000
0100
0000
0010
0000
0001
1000
,
0001
0000
0100
0000
0010
0000
0100
0001
0100
0001
0100
0000
0010
0000
1000
0000
,
0001
0000
0010
0000
0100
0000
0010
0001
0010
0001
0010
0000
0100
0000
1000
0001
,
1000
0000
0010
0000
0100
0000
0001
1000
0100
1000
0001
0000
0010
0000
0100
0000
,
1000
0000
0001
0000
0100
0000
0010
1000
0001
1000
0100
0000
0010
0000
0001
1000
,
0001
0000
0100
0000
0001
0000
1000
0100
0010
0100
1000
0000
0001
0000
0100
0010
,
0100
0000
0000
0101
0000
0000
1010
0000
0000
1000
0100
0000
0110
0000
0001
1000
,
0002
0203
0320
0032
0013
0200
1300
0200
,
0310
0002
0013
0200
0310
2000
3002
0000
,
2003
3002
0203
2300
3100
0020
0130
2000
,
3100
0000
0020
0000
0031
0000
0020
0000
0130
0001
2000
0000
3001
0000
0010
0100
,
0020
0032
2003
3020
0031
0020
0130
2000
,
3100
0020
0031
0020
1030
0002
0023
0030
,
0110
0100
1000
0001
0101
0100
0010
1000
,
1001
0000
0001
0000
0100
0000
0010
1000
0001
1000
0100
0000
0010
0001
1000
0000
,
1001
1001
0000
0000
,
0000
0000
0000
0000
,
0011
1100
0000
0000
,
0000
0000
0000
0000
,
0000
0000
1010
0000
0000
0101
0000
0000
,
0000
0000
0000
0000
,
0011
0010
0100
1100
1000
0001
0101
0100
,
0010
0000
1010
0000
1000
0000
0001
0010
0001
0010
0100
0000
1000
0000
0001
0000
,
2001
3002
0023
0230
2300
3002
0203
0320
,
0230
0000
0000
0000
0302
0000
0000
0000
2003
0000
0000
0000
3200
0000
0000
0000
0320
0000
0000
0000
0032
0000
0000
0000
2003
0000
0000
0000
3002
0000
0103
0010
,
0200
0000
0000
0000
0302
0000
0000
0000
2003
0000
0000
0000
3200
0000
0000
0000
0320
0000
0000
0000
0032
0000
0000
0000
2003
0000
0000
0000
3001
1000
0001
1000
,
0002
0000
0203
0000
0320
0000
2030
0000
3001
0010
0100
1000
0001
0100
0010
1000
,
0020
0230
0302
2003
,
3100
0000
0010
0000
0001
0000
0010
0100
0010
0100
0010
0000
0100
0000
0100
0000
,
0010
0001
0010
0000
0100
0000
1000
0001
1000
0000
0020
0000
0230
0000
0302
0000
,
1003
0010
1000
0000
0001
0100
0001
0000
1000
0001
1000
0000
1001
0000
0000
0000
,
0001
0000
0100
0000
0010
0000
1000
0001
1000
0001
1000
0000
0100
0000
0010
0000
,
0100
0000
1000
0000
0001
0000
0100
0001
0100
0001
0100
0000
0001
0000
1000
0001
,
0010
0000
0100
0000
0010
0000
0001
1000
0001
1000
0001
0000
0100
0000
0010
0000
,
1000
0000
0001
0000
0010
0000
0100
1000
0100
1000
0100
0000
0010
0000
0001
1000
,
0010
0000
1000
0000
0001
0000
0010
0100
0010
0001
0010
0000
0100
0000
1000
0000
,
0001
0000
0100
0000
0010
0000
1000
0001
0010
0100
0010
0000
0001
1000
0001
1000
,
0001
0000
0000
0000
1001
0000
1000
0001
0100
0010
1000
0000
0001
0000
1000
0000
,
0001
0000
0010
0000
1000
0000
0001
0000
1000
0000
0010
0000
0001
1000
0001
0000
,
0100
0000
0010
0000
1000
0000
0001
0010
0100
1000
0001
0000
0100
0000
0010
0000
,
0100
0000
0001
0000
1000
0000
0100
0010
0100
1000
0001
0000
0100
0000
0010
1000
,
0001
0000
0010
0000
0100
0000
0010
0001
1000
0001
0100
0000
0010
0000
0100
0000
,
0001
0000
1000
0000
0100
0000
0010
0100
1000
0001
0100
0000
0010
0000
0100
0001
,
1000
0000
0100
0000
0010
0000
0100
0010
0001
1000
0010
0000
0100
0000
0001
0000
,
0010
0000
0100
0000
1000
0000
0001
0100
0010
0100
0001
0000
0010
0000
0100
0000
,
1100
0000
1000
0000
0100
0000
0010
0001
0100
0000
0100
0000
0010
1000
0001
0000
,
1000
0010
1000
0000
0001
0100
0001
0000
1000
0010
1000
0000
1001
0000
0000
0000
,
2001
3002
0203
0320
2030
3200
0320
0032
,
2003
3002
0203
0320
0200
0000
0030
0000
,
0302
0000
0000
0000
0023
0000
0000
0000
0230
0000
0000
0000
2300
0000
0000
0000
3020
0000
0000
0000
0230
0000
0000
0000
0302
0000
1003
0000
0010
1000
0010
1000
,
0020
0000
0230
0000
0302
0000
1003
0002
0013
0100
1000
0001
0100
0010
1000
0100
,
0020
1000
0100
0031
,
2000
0010
0001
3100
,
1000
0100
1000
0100
0010
0001
0010
0001
,
1000
0010
1000
0000
0001
0100
0001
0000
1000
0010
1000
0000
1001
0000
0000
0000
,
0002
0203
0320
0032
0013
0200
1300
0200
,
0310
0000
0200
0000
0301
0000
1000
0000
0100
0010
0001
0000
1001
0000
0000
0000
,
2000
3002
0203
2300
3100
0020
0031
0020
,
0130
0000
0020
0000
1030
0000
0002
0000
0013
0100
1000
0000
1001
0000
0000
0000
,
0002
2003
3020
0032
1003
0200
0301
2000
,
3100
0002
1003
0020
0031
0100
0110
0000
,
1001
1000
0100
0010
0011
0001
1000
0010
,
0100
0001
0100
0001
1000
0001
1000
0001
0010
0100
0010
0100
0010
0000
0000
0000
,
2002
0000
0000
0000
,
3003
0000
0000
0000
;

//--------------- dance-single - Fred-104† ----------------
#NOTEDATA:;
#STEPSTYPE:dance-single;
#DESCRIPTION:Fred-104†;
#DIFFICULTY:Challenge;
#METER:18;
#BPMS:0=97,12=194,124=97,140=194,220=97,236=194;
#CREDIT:Fred-104†;
#NOTES:
0000
0000
0000
0000
,
0000
0000
0000
0000
,
0000
0000
0000
0000
,
2000
3000
0000
0000
0000
0000
0000
0000
0000
0000
0000
0000
0000
0000
0000
0000
0110
0000
0000
0000
0000
0000
0000
0000
0000
0000
0000
0000
0000
0000
0000
0000
0000
0000
0000
0000
0000
0000
0000
0000
0001
0000
0000
0000
0000
0000
0000
0000
0110
0000
0000
0000
0000
0000
0000
0000
0000
0000
0000
0000
0000
0000
0000
0000
,
1000
0000
0001
0000
0010
0000
0100
1000
0100
1000
0001
0000
0100
0000
0010
0000
,
0100
0100
0010
0010
1000
1000
0001
0001
,
0010
0100
1000
0001
0010
0100
1000
0001
0010
0100
0010
0100
0010
0000
0000
0000
,
1001
0000
0001
0000
0010
0000
0001
1000
0010
0100
0001
0000
0010
0000
0001
1000
,
0100
0000
0010
0000
0001
0000
1000
0001
0100
0001
0010
0000
0001
0000
1000
0001
,
0010
0000
0100
0000
1000
0000
0001
0100
0010
1000
0010
0000
0100
0000
0001
1000
,
0100
0000
0010
0000
0001
0000
1000
0010
0100
0010
1000
0100
0010
0000
0001
1000
,
0010
0000
0100
0000
0001
0000
0010
0100
1000
0001
0100
0000
0010
0000
1000
0001
,
0010
0000
0100
0000
1000
0000
0010
0100
0001
0100
0010
0000
0100
0000
0010
1000
,
0100
0000
0010
0000
0001
0000
0100
0010
1000
0001
0010
0000
0100
0000
0010
0001
,
1000
0000
0001
0010
0000
0010
1000
0000
0001
0100
0000
0100
1000
0000
0001
1000
,
0001
0000
0100
0010
0001
0000
0010
0000
0100
0010
1000
0000
0001
0000
0010
0100
,
1000
0000
0001
0000
0100
0000
1000
0100
0001
1000
0100
0000
0110
0000
0000
0000
,
0001
0000
1000
0010
0100
0000
1000
0000
0100
0010
0001
0000
0010
0000
1000
0001
,
0010
0000
1000
0000
0010
0000
0100
0010
0001
1000
0010
0000
0110
0000
0100
0001
,
1000
0000
0001
0010
0100
0000
0001
0000
0100
0010
0001
0000
1000
0000
0010
0100
,
1000
0000
0100
0000
0010
0000
0100
0001
1000
0100
0010
0000
0011
0000
0000
0000
,
1001
0001
0010
0100
1100
1000
0001
0100
,
0010
1000
0010
0100
0010
0000
0001
0010
0100
0010
1000
0100
0010
0001
1000
0000
,
1001
1001
0000
0000
,
0000
0000
0000
0000
,
1010
0101
0000
0000
,
0000
0000
0000
0000
,
0000
0000
1100
0000
0000
0011
0000
0000
,
0000
0000
0000
0000
,
1100
0010
0001
0101
0010
1000
1001
0001
,
0100
0010
0100
1000
0100
0000
0010
0100
0001
1000
0100
0010
0001
0100
0010
0000
,
2001
0000
0000
3000
0002
0000
1003
0000
0020
0000
0000
0000
0230
0000
0000
0000
0301
1000
0001
1000
0200
0000
0301
0000
0200
0000
0310
0000
0002
0000
1003
0000
,
0010
0100
0010
0100
2000
0000
3100
0000
0002
0000
1003
0000
0200
0000
0310
0000
0001
1000
0001
1000
0020
0000
0130
0010
0002
0000
0013
0000
0200
0000
0310
1000
,
0001
1000
0001
1000
0200
0000
0310
0001
2000
0000
3100
0000
0020
0000
0031
0000
1000
0010
0100
0010
0200
0000
1300
0100
0020
0000
0130
0000
0001
1000
0001
1000
,
0001
0010
0100
0010
0100
0000
1000
0000
0001
0000
0100
0000
0010
0000
1000
0000
0001
0010
0001
0010
0100
1000
0100
1000
0010
1000
0010
1000
0001
0100
0001
0100
,
0020
0030
0000
0000
0000
0000
0000
0000
0000
0000
0000
0000
0000
0000
0000
0000
2010
0000
0000
0000
0000
0000
0000
0000
3001
0000
0000
0000
0000
0000
0000
0000
2100
0000
0000
0000
0000
0000
0000
0000
3001
0000
0000
0000
0000
0000
0000
0000
0210
0000
0000
0000
0000
0000
0000
0000
0301
0000
0000
0000
0000
0000
0000
0000
,
2000
0000
3100
0010
0100
0010
0001
0100
0010
1000
0001
0000
0010
0000
0100
0000
,
1000
0001
0100
0010
0001
0000
1000
0100
0010
1000
0001
0000
0010
0100
1000
0001
,
1000
0100
0010
0001
0100
0010
1000
0100
0010
0001
0100
0010
1000
0000
0000
0000
,
0001
0000
0010
0000
0100
0000
1000
0010
0100
0010
1000
0000
0001
0000
0100
0001
,
1000
0000
0100
0000
0010
0000
0100
1000
0001
0100
0010
0000
1000
0000
0001
0010
,
0100
0000
1000
0000
0001
0000
0100
0001
0010
0100
1000
0000
0001
0000
0100
0001
,
1000
0000
0100
0000
0010
0000
0001
1000
0010
0100
0010
1000
0100
0000
0010
0001
,
1000
0000
0010
0000
0100
0000
0010
1000
0100
0010
0001
0000
1000
0000
0001
0100
,
0010
0000
1000
0000
0100
0000
0010
0100
1000
0001
0100
0000
0010
1000
0010
1000
,
0001
0000
0000
0000
1001
0000
1000
0001
0010
0100
1000
0000
0001
0000
1000
0000
,
0001
0100
0010
0100
1000
0000
0001
0010
0100
0010
1000
0000
0001
1000
0010
1000
,
0001
0000
1000
0000
0100
0000
0010
0100
0010
0001
1000
0000
0010
0000
0100
0001
,
1000
0000
0001
0000
0010
0000
0100
0010
0001
1000
0010
0000
1000
0000
0001
1000
,
0100
0000
0010
0000
0100
0000
0010
0001
1000
0010
1000
0000
0001
0000
0010
0100
,
0010
0000
0001
0000
1000
0000
0001
0010
0100
1000
0010
0100
0001
0000
1000
0100
,
0010
0000
0001
0000
1000
0000
0010
0100
0001
0100
0010
0000
1000
0000
0001
0010
,
0100
0000
1000
0000
0001
0000
0100
0010
1000
0001
0010
0000
0100
0000
1000
0001
,
0100
0000
0010
0000
0210
0000
0301
1000
0100
0000
0120
0000
0031
1000
0001
0000
,
1000
0100
0010
0001
1000
0100
0010
0001
1000
0001
1000
0001
1000
0000
0000
0000
,
1002
0000
1003
0001
0020
0000
2030
0000
3002
0103
0020
0031
2000
3100
0020
0031
,
1000
0010
1000
0010
0200
0000
0301
0000
0020
0000
0130
0000
2000
0000
3010
0000
0220
0000
0000
0000
0000
0000
0000
0000
0030
0000
0000
0000
0000
0000
0310
1000
,
0001
1000
0001
1000
0020
0000
0130
0000
0020
0000
0031
0000
2000
0000
3100
0000
0002
0000
1003
0000
0200
0000
0310
0000
0001
1000
0010
0100
0001
1000
0001
1000
,
0010
0100
0010
0100
0010
0000
0001
0000
0020
0000
1030
0000
0001
0000
2000
0000
3001
0010
0001
0010
0100
1000
0100
1000
0010
1000
0010
1000
0001
0100
0001
0100
,
0002
0003
0000
0000
0000
0000
0000
0000
0000
0000
0000
0000
0000
0000
0000
0000
0102
0000
0000
0000
0000
0000
0000
0000
1003
0000
0000
0000
0000
0000
0000
0000
0120
0000
0000
0000
0000
0000
0000
0000
1030
0000
0000
0000
0000
0000
0000
0000
2001
0000
0000
0000
0000
0000
0000
0000
3100
0000
0000
0000
0000
0000
0000
0000
,
1002
0013
2010
3001
2100
3001
1001
0000
,
0001
0010
0001
0000
0010
0100
0010
0000
0100
1000
0100
0000
1000
0001
1000
0000
,
0001
0100
0010
1000
0100
0010
0001
0100
0010
1000
0100
0010
0001
0000
0000
0000
,
1000
0010
1000
0001
0010
0000
0100
1000
0001
1000
0010
0000
0100
0001
2000
0000
,
3001
0010
0200
0000
1300
0001
0200
0000
0310
1000
0020
0000
0230
0000
0301
0000
,
1000
0100
0010
0001
0100
0000
0010
1000
0010
0100
0002
0000
1003
0000
0001
0010
,
0100
0000
0020
0000
0031
0000
0100
0010
1000
0100
0010
0001
0100
0010
1000
0001
,
0010
0100
0010
0100
0001
0000
0100
0010
0100
1000
0002
0000
0103
0010
2000
0000
,
3100
0010
2000
0000
3010
0100
2000
0000
3010
0100
0001
1000
0002
0000
0003
0000
,
1001
1000
0100
0010
0011
0001
1000
0001
,
1000
0100
0001
0100
1000
0010
0001
0010
1000
0001
0010
0100
1000
0000
0000
0000
,
2002
0000
0000
0000
,
3003
0000
0000
0000
;

//--------------- dance-double - Fred-104 ----------------
#NOTEDATA:;
#STEPSTYPE:dance-double;
#DESCRIPTION:Fred-104;
#DIFFICULTY:Easy;
#METER:9;
#CREDIT:Fred-104;
#NOTES:
00000000
00000000
00000000
00000000
,
00000000
00000000
00000000
00000000
,
00000000
00000000
00000000
00000000
,
00000000
00000000
00000000
00000000
,
00000000
00000000
00000000
00000000
,
00000000
00000000
00000000
00000000
,
00010000
00001000
00000000
00001000
,
00000010
00000000
00000001
00000000
00001000
00000001
00001000
00000000
,
00000001
00000100
00000010
00000100
,
00001000
00010000
00001000
00000000
00010000
00001000
00010000
00000000
,
00011000
00001000
00000000
01000000
,
00000000
00000000
00010000
00000000
00100000
01000000
00100000
00000000
,
00010000
10000000
00000000
00100000
,
00000000
00000000
00010000
00000000
00001000
00010000
00001000
00000000
,
00010000
00000100
00000000
00000010
,
00000000
00000000
00000001
00000000
00001000
00000010
00001000
00000000
,
00000100
00000010
00000000
00001000
,
00010000
00000000
00000000
00001000
00000000
00000000
00011000
00000000
,
00011000
00000000
00000000
00010000
00000000
00001000
00000000
00010000
,
00000000
00000100
00000000
00000010
00000000
00000001
00000001
00000000
,
00001000
00000000
00000000
00000010
00000000
00000100
00000000
00001000
,
00000000
00010000
00000000
00001000
00000000
00010000
00000000
00010000
,
00010000
00000000
00000000
00001000
00000000
01000000
00000000
00010000
,
00000000
10000000
00000000
01000000
00000000
00100000
00100000
00000000
,
00101000
00001000
00010010
00010000
,
00001000
01000000
00001000
00000000
00010000
00000100
00010000
00000000
,
00011000
00011000
00000000
00000000
,
00000000
00000000
00000000
00000000
,
01100000
01100000
00000000
00000000
,
00000000
00000000
00000000
00000000
,
00000000
00000000
11000000
00000000
00000000
00110000
00000000
00000000
,
00000000
00000000
00000000
00000000
,
10100000
00000000
00000000
01001000
00000000
00000000
00010100
00000000
,
00000000
00000011
00000000
00000000
00000001
00000000
00001000
00000000
,
00000002
00000023
00000032
00000023
,
00002030
00023000
00032000
00023000
,
02030000
23000000
32000000
23000000
,
30200000
00320000
00032000
00023000
,
00032000
00023000
00230000
02300000
,
03002000
00023000
00230000
02300000
,
03002000
00023000
02030000
03200000
,
00302000
00000000
00000000
00003000
,
00020000
00032000
00003020
00000230
,
00020300
00032000
00003020
00000230
,
00000310
00000000
00000000
00000001
00000000
00001000
00000001
00000000
,
00000100
00000000
00001000
00000000
00010000
00001000
00010000
00000000
,
00011000
00001000
00000000
01000000
,
00000000
00000000
00010000
00000000
00100000
01000000
00100000
00000000
,
00001000
00010000
00000000
00000100
,
00000000
00000000
00000010
00000000
00000001
00000100
00000001
00000000
,
00001000
00000010
00000000
00000100
,
00000000
00000000
00001000
00000000
00010000
00001000
00010000
00000000
,
00001000
00000000
00011000
00000000
00010000
00001000
00010000
00000000
,
00001000
00000000
00000000
01000000
00000000
00000000
00010000
00000000
,
10000000
01000000
00100000
00100000
,
00001000
00010000
00001000
00001000
,
00010000
00000100
00000010
00000001
,
00001000
00000000
00000010
00000000
00000100
00000001
00000100
00000000
,
00000010
00001000
00000001
00000010
,
00000010
00000000
00000100
00000000
00010000
00001000
00010000
00000000
,
00001000
00001000
00010000
00010000
,
00001000
00000000
00000100
00000000
00000001
00001000
00000001
00000000
,
00002000
00003200
00000320
00000032
,
00002003
00003002
00000023
00000230
,
00020300
00032000
00023000
00030020
,
00002030
00000000
00003000
00000000
,
00000002
00000023
00000230
00002300
,
00003020
00000230
00002300
00023000
,
00230000
02300000
03020000
20030000
,
32000000
00000000
00000000
03000000
,
00200000
00302000
00203000
00302000
,
00023000
00030020
00002030
00003002
,
00000013
00000100
00001000
00000100
,
00010000
00001000
00010000
00000000
00001000
00010000
00001000
00000000
,
00011000
00000000
00000000
00001000
00000000
00010000
00000000
00001000
,
00000000
01000000
00000000
00100000
00000000
10000000
10000000
00000000
,
00010000
00000000
00000000
00100000
00000000
01000000
00000000
00010000
,
00000000
00001000
00000000
00010000
00000000
00001000
00000000
00001000
,
00001000
00000000
00000000
00010000
00000000
00000100
00000000
00001000
,
00000000
00000001
00000000
00000100
00000000
00000010
00000010
00000000
,
00010010
00010000
00101000
00001000
,
00010000
00001000
00010000
00000000
00001000
00010000
00001000
00000000
,
00022000
00000000
00000000
00000000
,
00033000
00000000
00000000
00000000
;

//--------------- dance-double - Fred-104 ----------------
#NOTEDATA:;
#STEPSTYPE:dance-double;
#DESCRIPTION:Fred-104;
#DIFFICULTY:Medium;
#METER:12;
#BPMS:0=97,12=194,124=97,140=194,220=97,236=194;
#CREDIT:Fred-104;
#NOTES:
00000000
00000000
00000000
00000000
,
00000000
00000000
00000000
00000000
,
00000000
00000000
00000000
00000000
,
00002000
00003000
00000000
00000000
00000000
00000000
00000000
00000000
00000000
00000000
00000000
00000000
00000000
00000000
00000000
00000000
00011000
00000000
00000000
00000000
00000000
00000000
00000000
00000000
00000000
00000000
00000000
00000000
00000000
00000000
00000000
00000000
00000000
00000000
00000000
00000000
00000000
00000000
00000000
00000000
00001000
00000000
00000000
00000000
00000000
00000000
00000000
00000000
00100000
00000000
00000000
00000000
00000000
00000000
00000000
00000000
00000000
00000000
00000000
00000000
00000000
00000000
00000000
00000000
,
00010000
10000000
01000000
00000000
00100000
00001000
00010000
00000000
,
00001000
00000100
00000001
00000010
,
00001000
00001000
00010000
00011000
,
00010000
00000000
00001000
00000000
01000000
00010000
10000000
00000000
,
01000000
00000000
00100000
00000000
01000000
00100000
00001000
00000000
,
00010000
00000000
00000100
00000000
00001000
00000001
00000100
00000000
,
00000010
00000000
00001000
00000000
00000001
00000010
00001000
00000000
,
00010000
00000000
00001000
00000000
00010000
00000100
00000010
00000000
,
00000001
00000000
00001000
00000000
00000010
00000100
00001000
00000000
,
00010000
00000000
00001000
00000000
01000000
00010000
00100000
00000000
,
00001000
00000000
00000000
00001000
00000000
00000000
00010000
00000000
00000000
00010000
00000000
00000000
00011000
00000000
00000000
00000000
,
00001000
00010000
00100000
10000000
00000000
00010000
00000000
10000000
,
00000000
00100000
00000000
00010000
00000000
00001000
00010000
00000000
,
00001000
00010000
01000000
10000000
00000000
00010000
00000000
10000000
,
00000000
01000000
00000000
00010000
00000000
00001000
00000000
00010000
,
00001000
00000010
00000001
00001000
00000000
00000001
00000000
00001000
,
00000000
00000001
00000000
00000010
00000000
00001000
00010000
00000000
,
00001000
00000100
00000001
00001000
00000000
00000001
00000000
00000100
,
00000010
00001000
00000100
00000010
00000001
00000100
00000010
00000000
,
00001001
00001001
00000000
00000000
,
00000000
00000000
00000000
00000000
,
00010100
00011000
00000000
00000000
,
00000000
00000000
00000000
00000000
,
00000000
00000000
01100000
00000000
00000000
10010000
00000000
00000000
,
00000000
00000000
00000000
00000000
,
20010000
30000000
10000000
01000000
00000000
00100000
00001000
00000000
,
00010000
00000100
00010000
00001000
00010000
00100000
01000000
00010000
,
20000000
32000000
03200000
00320000
00230000
00302000
00023000
00032000
,
00023000
00030200
00002300
00003200
00000320
00000032
00002003
00003002
,
00000203
00000320
00000230
00002300
00023000
00032000
00023000
00230000
,
02300000
03200000
20300000
32000000
03020000
00000000
00002000
00033000
,
00020000
00030200
00000320
00000032
,
00001003
00000010
00000100
00000000
00001000
00010000
00000010
00000000
,
00000100
00001000
00010000
00001000
01000000
00010000
00100000
01000000
,
00100000
00001000
00010000
00011000
,
00010000
00000000
00001000
00000000
00000100
00000010
00001000
00000000
,
00000001
00000010
00000100
00001000
00000100
00010000
00001000
00000000
,
00100000
00000000
00010000
00000000
10000000
00010000
01000000
00000000
,
00100000
10000000
01000000
10000000
00100000
01000000
00010000
00000000
,
10000000
00000000
01000000
00000000
00100000
00001000
00010000
00000000
,
00001000
00100000
00010000
00000000
00100000
01000000
10000000
00010000
,
01000000
00000000
01100000
00000000
10000000
00010000
10000000
00000000
,
00010000
10000000
00100000
00010000
00001000
00000100
00000001
00000000
,
00000010
00000100
00001000
00000000
00000010
00000100
00000001
00000000
,
00001000
00000010
00010000
00000000
00001000
00010000
00001000
00000000
,
00100000
00010000
10000000
00000000
00100000
01000000
00010000
00000000
,
00100000
01000000
10000000
00000000
00010000
01000000
00001000
00000000
,
00010000
00001000
00000100
00000000
00000010
00001000
00000001
00000000
,
00000010
00000100
00001000
00000000
00000010
00000100
00001000
00000000
,
00010000
00001000
00001000
01000000
00001000
00001000
00010000
00000000
,
00011000
01001000
01010000
10010000
,
20000000
32000000
23000000
30020000
02030000
03002000
00023000
00030020
,
00002030
00003002
00000023
00002030
00020000
00000000
00033000
00000000
,
00020000
00032000
00003200
00000320
00002030
00003002
00002003
00003200
,
00020300
00032000
02003000
03020000
00230000
00000000
02000000
03300000
,
20000000
30200000
00320000
00032000
,
00023000
02030000
03020000
00032000
,
00013000
00000100
00001000
00000000
00000001
00000100
00000010
00000000
,
00001000
00000001
00000010
00001000
00010000
00100000
10000000
00000000
,
00010000
00100000
01000000
10000000
00000000
00010000
00000000
01000000
,
00000000
00100000
00000000
00010000
00000000
00001000
00000100
00000000
,
00000001
00001000
00000100
00000010
00000000
00000001
00000000
00000100
,
00000000
00001000
00000000
00010000
00000000
00001000
00000000
00000010
,
00001000
00010000
00001000
01000000
00000000
00010000
00000000
00100000
,
00000000
01000000
00000000
10000000
00000000
00100000
00010000
00000000
,
00001000
00010000
00000100
00001000
00000100
00010000
00001000
00100000
,
01000000
10000000
00100000
00010000
,
00022000
00000000
00000000
00000000
,
00033000
00000000
00000000
00000000
;

//--------------- dance-double - Fred-104 ----------------
#NOTEDATA:;
#STEPSTYPE:dance-double;
#DESCRIPTION:Fred-104;
#DIFFICULTY:Hard;
#METER:16;
#BPMS:0=97,12=194,124=97,140=194,220=97,236=194;
#CREDIT:Fred-104;
#NOTES:
00000000
00000000
00000000
00000000
,
00000000
00000000
00000000
00000000
,
00000000
00000000
00000000
00000000
,
00020000
00030000
00000000
00000000
00000000
00000000
00000000
00000000
00001000
00000000
00000000
00000000
00000000
00000000
00000000
00000000
00010000
00000000
00000000
00000000
00000000
00000000
00000000
00000000
00000010
00000000
00000000
00000000
00000000
00000000
00000000
00000000
00000000
00000000
00000000
00000000
00000000
00000000
00000000
00000000
00001000
00000000
00000000
00000000
00000000
00000000
00000000
00000000
00000000
00000000
00000000
00000000
00000000
00000000
00000000
00000000
00000010
00000000
00000000
00000000
00000000
00000000
00000000
00000000
,
00000000
00010000
00000000
00001000
00000000
00010000
00000100
00000000
,
00010000
00001000
01000000
00001000
01000000
00010000
10000000
01000000
,
00100000
00001000
00100000
00000000
00001000
00010000
00001000
00000000
00010000
00000100
00010000
00000000
00011000
00000000
00000000
00000000
,
00010000
00000000
00001000
00000000
01000000
00000000
00010000
10000000
00000000
10000000
00010000
00000000
00100000
00000000
01000000
00000000
,
10000000
00000000
00010000
00000000
01000000
00000000
00001000
00010000
00001000
00010000
00001000
00000000
00010000
00000000
00000010
00001000
,
00000010
00000000
00000100
00000000
00000001
00000000
00001000
00000100
00000000
00000100
00001000
00000000
00000001
00000000
00000010
00000000
,
00000100
00000000
00001000
00000000
00000100
00000000
00010000
00001000
00010000
00001000
00010000
00000000
00100000
00000000
01000000
00010000
,
01000000
00000000
00100000
00000000
10000000
00000000
00010000
00100000
00000000
00100000
01000000
00000000
10000000
00000000
00010000
00000000
,
01000000
00000000
00100000
00000000
00010000
00000000
00001000
00010000
00001000
00010000
00001000
00000000
00010000
00000000
00000010
00001000
,
00000010
00000000
00000100
00000000
00000001
00000000
00001000
00000100
00000000
00000100
00000010
00000000
00000001
00000000
00001000
00000001
,
00001000
00000000
00000000
00001010
00000000
00000000
00010010
00000000
00000000
00010000
00001000
00000000
00011000
00000000
00010000
00001000
,
00010000
00001000
00000100
00000002
00000000
00002003
00003100
00000002
,
00000000
00000000
00002003
00000000
00003010
00000000
00000002
00000000
00000103
00000000
00002000
00003000
00011000
00000000
00000000
00000000
,
00001000
00010000
00100000
20000000
00000000
30020000
00130000
20000000
,
00000000
30020000
01030000
20000000
30100000
00020000
00031000
00020000
,
00031000
00010000
01000000
20000000
00000000
30020000
01030000
20000000
,
00000000
00000000
30020000
00000000
00130000
00000000
20000000
00000000
31000000
00000000
00020000
00030000
00011000
00000000
00000000
00000000
,
00011000
00010000
00000100
00000010
00000011
00000001
00001000
00000010
,
00010010
00000000
00010000
00000000
00001000
00000000
00100000
00010000
10000000
00100000
01000000
00000000
00010000
10000000
01000000
00000000
,
01100000
01100000
00000000
00000000
,
00000000
00000000
00000000
00000000
,
00011000
00010010
00000000
00000000
,
00000000
00000000
00000000
00000000
,
00000000
00000000
00000011
00000000
00000000
00001100
00000000
00000000
,
00000000
00000000
00000000
00000000
,
00011000
00001000
01000000
01010000
00010000
10000000
11000000
01000000
,
00100000
00000000
00101000
00000000
00001000
00000000
00010000
00001000
00010000
00001000
00010000
00000000
00000100
00000000
00000010
00000000
,
00000012
00002003
00003002
00000203
00000320
00020030
00032000
00023000
,
00230000
00000000
00000000
00000000
02300000
00000000
00000000
00000000
23000000
00000000
00000000
00000000
32000000
00000000
00000000
00000000
03020000
00000000
00000000
00000000
20030000
00000000
00000000
00000000
32000000
00000000
00000000
00000000
03020000
00000000
00031000
00010000
,
00002000
00000000
00000000
00000000
00023000
00000000
00000000
00000000
00230000
00000000
00000000
00000000
00320000
00000000
00000000
00000000
00032000
00000000
00000000
00000000
00003200
00000000
00000000
00000000
00002300
00000000
00000000
00000000
00013000
00001000
00010000
00001000
,
00020000
00000000
00032000
00000000
02003000
00000000
03020000
00000000
10030000
01000000
00100000
00010000
00001000
00000100
00000010
00000001
,
00002000
00003020
00000230
00002300
,
00013000
00000000
00001000
01000000
00010000
00000000
10000000
01000000
10000000
00000000
00010000
00000000
00100000
00000000
01000000
00000000
,
10000000
00000000
00010000
00000000
01000000
00000000
00100000
00010000
00100000
00000000
00010000
00001000
00010000
00000000
00001000
00000000
,
00000100
00000001
00000100
00000000
00000010
00001000
00000010
00000000
00001000
00000001
00001000
00000000
00001001
00000000
00000000
00000000
,
00000001
00000000
00000010
00000000
00000100
00000000
00001000
00000001
00001000
00000001
00001000
00000000
00000010
00000000
00000100
00000000
,
00001000
00000000
00010000
00000000
00001000
00000000
01000000
00010000
01000000
00010000
01000000
00000000
00010000
00000000
10000000
01000000
,
10000000
00000000
00010000
00000000
01000000
00000000
00100000
00010000
00100000
00010000
00100000
00000000
00010000
00000000
00001000
00000000
,
00010000
00000000
00000100
00000000
00000010
00000000
00000001
00001000
00000001
00001000
00000001
00000000
00000100
00000000
00000010
00001000
,
00000001
00000000
00001000
00000000
00000010
00000000
00010000
00001000
00010000
00001000
00010000
00000000
01000000
00000000
00100000
00000000
,
00010000
00000000
10000000
00000000
00100000
00000000
00010000
00001000
00010000
00001000
00010000
00000000
00000010
00001000
00000010
00001000
,
00000001
00000000
00000000
00000000
00001001
00000000
00001000
00000001
00000100
00000010
00001000
00000000
00000001
00000000
00000010
00000000
,
00000001
00000000
00000100
00000000
00001000
00000000
00010000
00000000
00100000
00000000
10000000
00000000
00010000
10000000
00010000
00000000
,
01000000
00000000
00100000
00000000
10000000
00000000
00010000
00100000
01000000
00100000
00010000
00000000
00100000
00000000
00001000
00000000
,
00010000
00000000
00001000
00000000
00000100
00000000
00000010
00000100
00000001
00001000
00000100
00000000
00000010
00000000
00000001
00001000
,
00000010
00000000
00001000
00000000
00000001
00000000
00000010
00000100
00001000
00000100
00010000
00000000
00001000
00000000
01000000
00000000
,
00010000
00000000
10000000
00000000
01000000
00000000
00100000
00010000
00100000
01000000
00100000
00000000
00010000
00000000
10000000
00010000
,
01000000
00000000
00100000
00000000
00010000
00000000
00001000
00010000
00000100
00001000
00000100
00000000
00010000
00000000
00001000
00000000
,
00010000
00000000
00000010
00000000
00001000
00000000
00000100
00000010
00000001
00001000
00000010
00000000
00010000
00000000
00001000
00000000
,
00011000
00000000
00010000
00000000
00001000
00000000
00010000
00000100
00001000
00000000
00001000
00000000
00000001
00000100
00000010
00000000
,
00001000
00000001
00001000
00000000
00000100
00010000
00000100
00000000
00010000
00001000
00010000
00000000
00011000
00000000
00000000
00000000
,
00021000
00032000
00003200
00000302
00002003
00003200
00000320
00000032
,
00000203
00002300
00023000
00230000
20000000
00000000
00300000
00000000
,
30020000
00000000
00000000
00000000
20030000
00000000
00000000
00000000
32000000
00000000
00000000
00000000
03020000
00000000
00000000
00000000
00032000
00000000
00000000
00000000
00003200
00000000
00000000
00000000
00000302
00000000
00000013
00000000
00000100
00001000
00000100
00010000
,
00002000
00000000
00023000
00000000
00230000
00000000
10300000
00020000
10030000
00100000
01000000
00010000
00001000
00000010
00000100
00000001
,
00002000
00003002
00000203
00002300
,
00023000
00230000
20300000
32000000
,
03100000
00100000
00001000
00001000
00010000
00010000
00000100
00000100
,
00000010
00000001
00000010
00000000
00000100
00001000
00000100
00000000
00010000
00001000
00010000
00000000
00011000
00000000
00000000
00000000
,
00010000
00001000
00000100
00000002
00000000
00002003
00003100
00000002
,
00000000
00002003
00003010
00000200
00010300
00002000
00023000
00000000
,
00031000
00010000
01000000
20000000
00000000
30020000
01030000
20000000
,
00000000
00000000
30020000
00000000
00130000
00000000
20000000
00000000
31000000
00100000
00020000
00000000
00130000
00000000
00002000
00000000
,
00013000
00001000
00000010
00000002
00000000
00002003
00003010
00000200
,
00000000
00000000
00002300
00000000
00013000
00000000
00200000
00000000
10300000
00000000
02000000
03000000
01100000
00000000
00000000
00000000
,
10010000
00010000
10000000
01000000
01100000
00100000
00001000
00010000
,
00001000
00010000
00001000
00010000
00000010
00001000
00000010
00001000
00000010
00010000
00001000
00010000
00001000
00000000
00000000
00000000
,
00022000
00000000
00000000
00000000
,
00033000
00000000
00000000
00000000
;

//--------------- dance-double - Fred-104† ----------------
#NOTEDATA:;
#STEPSTYPE:dance-double;
#DESCRIPTION:Fred-104†;
#DIFFICULTY:Challenge;
#METER:18;
#BPMS:0=97,12=194,124=97,140=194,220=97,236=194;
#CREDIT:Fred-104†;
#NOTES:
00000000
00000000
00000000
00000000
,
00000000
00000000
00000000
00000000
,
00000000
00000000
00000000
00000000
,
00020000
00030000
00000000
00000000
00000000
00000000
00000000
00000000
00001000
00000000
00000000
00000000
00000000
00000000
00000000
00000000
00000010
00000000
00000000
00000000
00000000
00000000
00000000
00000000
00000100
00000000
00000000
00000000
00000000
00000000
00000000
00000000
00010000
00000000
00000000
00000000
00000000
00000000
00000000
00000000
01000000
00000000
00000000
00000000
00000000
00000000
00000000
00000000
00100000
00000000
00000000
00000000
00000000
00000000
00000000
00000000
00001000
00000000
00000000
00000000
00000000
00000000
00000000
00000000
,
00010000
00000000
00100000
00000000
10000000
00000000
01000000
00100000
01000000
00010000
00001000
00000000
00010000
00000000
00000100
00000000
,
00000010
00000010
00000001
00000001
00000100
00000100
00001000
00001000
,
00010000
00001000
00010000
00000010
00001000
00000010
00010000
00001000
00010000
00000100
00001000
00000100
00010000
00000000
00000000
00000000
,
00011000
00000000
00001000
00000000
00010000
00000000
00100000
01000000
00100000
01000000
00100000
00000000
10000000
00000000
00010000
00100000
,
00010000
00000000
10000000
00000000
01000000
00000000
00100000
00001000
00100000
00001000
00010000
00000000
00001000
00000000
00000100
00000010
,
00000100
00000000
00000001
00000000
00001000
00000000
00000100
00000010
00000100
00000010
00000001
00000000
00001000
00000000
00000010
00010000
,
00000010
00000000
00010000
00000000
00001000
00000000
00010000
00001000
00100000
00010000
00100000
00001000
00010000
00000000
00001000
01000000
,
00010000
00000000
10000000
00000000
00010000
00000000
00100000
01000000
00100000
01000000
00010000
00000000
00001000
00000000
00000010
00000100
,
00001000
00000000
00000001
00000000
00001000
00000000
00000010
00001000
00000010
00001000
00000001
00000000
00000010
00000000
00001000
00010000
,
00001000
00000000
00100000
00000000
00010000
00000000
10000000
00010000
10000000
00010000
00100000
00000000
01000000
00000000
00010000
00001000
,
00010000
00000000
00001000
00010000
00000000
00100000
10000000
00000000
00010000
10000000
00000000
01000000
00010000
00000000
00001000
00010000
,
00001000
00000000
00010000
00001000
00000100
00000000
00000010
00000000
00000001
00000000
00000010
00000000
00000100
00000000
00001000
00000000
,
00000100
00000000
00000001
00000000
00001000
00000000
00000001
00000010
00000100
00010000
00001000
00000000
00011000
00000000
00000000
00000000
,
00010000
00000000
00001000
00010000
01000000
00000000
00100000
00000000
10000000
00000000
00100000
00000000
01000000
00000000
00010000
00000000
,
01000000
00000000
10000000
00000000
00010000
00000000
10000000
00100000
01000000
00001000
00010000
00000000
00001000
00000000
00010000
00000100
,
00000010
00000000
00000001
00001000
00000010
00000000
00000100
00000000
00001000
00000000
00010000
00000000
00100000
00000000
00010000
00000000
,
00001000
00000000
00010000
00000000
01000000
00000000
10000000
00010000
01000000
00100000
10000000
00000000
10010000
00000000
00000000
00000000
,
10100000
10000000
00010000
00100000
00101000
00001000
00010000
00000100
,
00000010
00000001
00001000
00000010
00000100
00000000
00000010
00001000
00000001
00000010
00000100
00000000
00010000
00001000
00010000
00000000
,
00011000
00011000
00000000
00000000
,
00000000
00000000
00000000
00000000
,
01010000
10100000
00000000
00000000
,
00000000
00000000
00000000
00000000
,
00000000
00000000
00010100
00000000
00000000
00000011
00000000
00000000
,
00000000
00000000
00000000
00000000
,
00000011
00000010
00001000
00011000
00010000
01000000
11000000
10000000
,
00010000
01000000
00100000
10000000
00010000
00000000
10000000
01000000
00100000
00010000
00100000
00000000
00001000
00010000
00001000
00000000
,
00021000
00000000
00032000
00000000
00003200
00000000
00000302
00000000
00002003
00003100
00000020
00000031
00002000
00003010
00000200
00001300
,
00010000
00001000
00010000
00001000
00020000
00000000
00000000
00000000
00230000
00000000
00000000
00000000
02300000
00000000
00000000
00000000
23000000
00000000
00000000
00000000
32000000
00000000
00000000
00000000
03200000
00000000
10300000
00000000
01000000
00100000
01000000
00100000
,
00001000
00010000
00001000
00010000
00002000
00000000
00000000
00000000
00003020
00000000
00000000
00000000
00000230
00000000
00000000
00000000
00002300
00000000
00003010
00000000
00000200
00000000
00001300
00000000
00020000
00000000
00130000
00000000
00010000
00001000
00010000
00001000
,
00010000
00000100
00010000
00000100
00002000
00000000
00003001
00000000
00000020
00000000
00000130
00000000
00002000
00000000
00003001
00000000
00000100
00000001
00000100
00000001
00001000
00000010
00001000
00000010
00010000
00001000
00010000
00001000
01000000
00100000
01000000
00100000
,
02000000
03000000
00000000
00000000
00000000
00000000
00000000
00000000
00000000
00000000
00000000
00000000
00000000
00000000
00000000
00000000
00020000
00000000
00000000
00000000
00000000
00000000
00000000
00000000
01000000
00000000
00000000
00000000
00000000
00000000
00000000
00000000
20030000
00000000
00000000
00000000
00000000
00000000
00000000
00000000
00100000
00000000
00000000
00000000
00000000
00000000
00000000
00000000
30020000
00000000
00000000
00000000
00000000
00000000
00000000
00000000
10030000
00000000
00000000
00000000
00000000
00000000
00000000
00000000
,
02000000
00000000
03100000
01000000
00010000
00001000
00010000
00000100
00010000
00001000
00010000
00000000
00000100
00000000
00000010
00000000
,
00000001
00001000
00000010
00000100
00000001
00000000
00001000
00000100
00000010
00000001
00001000
00000001
00000100
00000010
00001000
00000000
,
00000100
00000010
00000100
00000010
00001000
00010000
00001000
00010000
01000000
00100000
01000000
00100000
00010000
00000000
00000000
00000000
,
10000000
00000000
00010000
00000000
01000000
00000000
00100000
10000000
00010000
10000000
01000000
00000000
00100000
00000000
00001000
00010000
,
00001000
00000000
00010000
00000000
00000100
00000000
00000010
00000100
00000010
00000001
00001000
00000000
00000010
00000000
00001000
00000001
,
00000010
00000000
00000100
00000000
00000010
00000000
00001000
00010000
00001000
00100000
00010000
00000000
00100000
00000000
01000000
00100000
,
00010000
00000000
00100000
00000000
00001000
00000000
00010000
00001000
01000000
00010000
10000000
00010000
00100000
00000000
01000000
10000000
,
00010000
00000000
01000000
00000000
00100000
00000000
00010000
00001000
00010000
00000100
00001000
00000000
00000001
00000000
00000100
00000010
,
00001000
00000000
00000001
00000000
00000010
00000000
00000100
00001000
00000001
00001000
00000010
00000000
00010000
00001000
00010000
00001000
,
00010000
00000000
00000000
00000000
00011000
00000000
00001000
01000000
00010000
10000000
00010000
00000000
00100000
00000000
01000000
00000000
,
00100000
00000000
00001000
00010000
00001000
00000000
00100000
00010000
10000000
00100000
01000000
00000000
00010000
10000000
00010000
10000000
,
00010000
00000000
10000000
00000000
01000000
00000000
00100000
00001000
00010000
00001000
00000100
00000000
00000010
00000000
00001000
00000001
,
00000010
00000000
00000100
00000000
00001000
00000000
00000001
00000100
00000001
00000010
00000100
00000000
00010000
00000000
00001000
00100000
,
00001000
00000000
00010000
00000000
00001000
00000000
00100000
00010000
00100000
01000000
00100000
00000000
10000000
00000000
00100000
01000000
,
10000000
00000000
00010000
00000000
01000000
00000000
00010000
10000000
01000000
00100000
00010000
01000000
00100000
00000000
10000000
00010000
,
00100000
00000000
00001000
00000000
00000010
00000000
00000100
00001000
00000001
00001000
00000010
00000000
00010000
00000000
00001000
00100000
,
00001000
00000000
00010000
00000000
00000100
00000000
00000010
00000001
00001000
00000010
00000100
00000000
00001000
00000000
00010000
00001000
,
00010000
00000000
00001000
00000000
00001000
00000000
01000000
00010000
00100000
00000000
00100000
00000000
00001000
00010000
00001000
00000000
,
00010000
00000100
00001000
00000100
00010000
00001000
00010000
00000010
00001000
00000010
00010000
00001000
00010000
00000000
00000000
00000000
,
00012000
00000000
00023000
00130000
02000000
00000000
03020000
00000000
20030000
31000000
00200000
01300000
00020000
00031000
00000020
00000031
,
00001000
00000001
00001000
00000001
00000200
00000000
00000000
00000000
00002300
00000000
00000000
00000000
00023000
00000000
00030000
00000000
00022000
00000000
00000000
00000000
00000000
00000000
00000000
00000000
00003000
00000000
00000000
00000000
00000000
00000000
00031000
00100000
,
00001000
00010000
00001000
00010000
00002000
00000000
00000000
00000000
00023000
00000000
00130000
00000000
20000000
00000000
00000000
00000000
30020000
00000000
00130000
00000000
02000000
00000000
13000000
00000000
00010000
01000000
00100000
10000000
01000000
00100000
00010000
00100000
,
00001000
00010000
00001000
00010000
00001000
00000000
00000100
00000000
00000020
00000000
00000000
00000000
00010030
00000000
00002000
00000000
00013000
00001000
00010000
00001000
00000010
00000100
00000010
00000100
00000010
00000001
00000010
00000001
00001000
00000001
00001000
00000001
,
00000200
00000320
00020030
00230000
,
20300000
32000000
03020000
00032000
,
00013000
00010000
00000010
00000010
00010000
00010000
00001000
00001000
,
00010000
00000100
00001000
00000100
00010000
00001000
00010000
00000010
00001000
00000001
00000010
00000100
00001000
00000000
00000000
00000000
,
00000001
00001000
00000010
00000100
00000010
00000000
00001000
00000001
00000010
00000100
00001000
00000000
00000001
00000000
00000200
00000000
,
00001300
00000000
00020000
00000000
00031000
00000000
00000020
00000000
00001030
00010000
00001000
00000000
02000000
00000000
03010000
10000000
,
00100000
01000000
00010000
10000000
01000000
00000000
00100000
00001000
00010000
00001000
00000200
00000000
00000310
00000000
00002000
00000000
,
00003001
00000000
00000020
00000000
00000130
00000000
00001000
00000010
00001000
00000001
00000020
00000000
00000130
00000000
00010000
00001000
,
00010000
00001000
01000000
00010000
10000000
00000000
00010000
00100000
01000000
00100000
00001000
00000000
00010000
00000100
00002000
00000000
,
00003100
00000010
00000002
00000000
00001003
00000010
00000200
00000000
00001300
00010000
00001000
00010000
00002000
00000000
00003000
00000000
,
00011000
00010000
00000010
00000100
00000101
00000001
00001000
00000100
,
00000010
00000001
00000100
00000010
00000100
00001000
00010000
00100000
01000000
00100000
10000000
01000000
00100000
00000000
00000000
00000000
,
00022000
00000000
00000000
00000000
,
00033000
00000000
00000000
00000000
;
