#VERSION:0.83;
#TITLE:TIERRA BUENA;
#ARTIST:WILMA DE OLIVEIRA;
#BANNER:TIERRA BUENA.png;
#BACKGROUND:TIERRA BUENA-bg.png;
#CDTITLE:./CDTitles/GF 9th & dm 8th.png;
#MUSIC:TIERRA BUENA.ogg;
#SAMPLESTART:35.478;
#SAMPLELENGTH:15;
#BPMS:0=115;
#STAGE:2;

//--------------- dance-single - Fred-104 ----------------
#NOTEDATA:;
#STEPSTYPE:dance-single;
#DESCRIPTION:Fred-104;
#DIFFICULTY:Beginner;
#METER:1;
#CREDIT:Fred-104;
#NOTES:
0000
0000
0000
0000
,
0000
0000
0000
0000
,
0000
0000
0000
0000
,
0000
0000
0000
0000
,
0000
0000
0000
0000
,
1000
0000
0000
0000
,
0000
0000
0000
0000
,
0001
0000
0000
0000
,
0000
0000
0000
0000
,
1000
0000
0000
0000
,
0000
0000
0000
0000
,
0010
0000
0000
0000
,
0000
0000
0000
0000
,
0100
0000
0000
0000
,
0000
0000
0000
0000
,
0001
0000
0000
0000
,
0000
0000
0000
0000
,
1000
0000
0000
0000
,
0010
0000
0000
0000
,
1000
0000
0000
0000
,
0001
0000
0000
0000
,
1000
0000
0000
0000
,
0000
0000
0000
0000
,
0001
0000
0000
0000
,
0000
0000
0000
0000
,
1000
0000
0000
0000
,
0000
0000
0000
0000
,
0100
0000
0000
0000
,
0000
0000
0000
0000
,
0010
0000
0000
0000
,
0000
0000
0000
0000
,
0001
0000
0000
0000
,
0100
0000
0000
0000
,
0001
0000
0000
0000
,
1000
0000
0000
0000
,
0001
0000
0000
0000
,
1000
0000
0000
0000
,
0001
0000
0000
0000
,
0100
0000
0000
0000
,
0001
0000
0000
0000
,
1000
0000
0000
0000
,
0001
0000
0000
0000
,
1000
0000
0000
0000
,
0001
0000
0000
0000
,
0000
0000
1000
0000
;

//--------------- dance-single - Fred-104 ----------------
#NOTEDATA:;
#STEPSTYPE:dance-single;
#DESCRIPTION:Fred-104;
#DIFFICULTY:Easy;
#METER:3;
#CREDIT:Fred-104;
#NOTES:
0000
0000
0000
0000
,
0000
0000
0000
0000
,
0000
0000
0000
0000
,
0000
0000
0000
0000
,
0000
0000
0000
0000
,
1000
0000
0010
0000
,
1000
0000
0000
0000
,
0001
0000
0010
0000
,
0001
1000
0002
0003
,
1000
0000
0100
0000
,
1000
0000
0000
0000
,
0001
0000
0100
0000
,
0001
1000
0002
0003
,
1000
0000
0010
0000
,
1000
0100
0020
0030
,
0001
0000
1000
0000
,
0001
1000
1001
0000
,
0001
0000
0010
0000
,
0100
0000
1000
0000
,
0001
0000
0100
0000
,
0010
0000
1000
0000
,
1001
0000
0110
0000
,
1001
0000
0110
0000
,
2000
0000
0000
3000
,
0001
1000
0010
0100
,
0001
0000
1000
0000
,
0001
0000
1000
0000
,
0002
0000
0000
0003
,
1000
0001
0010
0100
,
1000
0000
0010
0000
,
0100
0000
1001
0000
,
0001
0000
1000
0000
,
0001
1000
0001
0000
,
1000
0000
0010
0000
,
1000
0001
1000
0000
,
0001
0000
0100
0000
,
0001
0000
0100
0000
,
0001
0000
0010
0000
,
0100
0000
1000
0000
,
0001
0100
0001
0000
,
1000
0010
1000
0000
,
0001
1000
0001
0000
,
0100
0010
0100
0000
,
0001
0000
1000
0000
,
0001
0000
1001
0000
;

//--------------- dance-single - Fred-104 ----------------
#NOTEDATA:;
#STEPSTYPE:dance-single;
#DESCRIPTION:Fred-104;
#DIFFICULTY:Medium;
#METER:6;
#CREDIT:Fred-104;
#NOTES:
0000
0000
0000
0000
,
0000
0000
0000
0000
,
0000
0000
0000
0000
,
0000
0000
0000
0000
,
0000
0000
0000
0000
,
1000
0100
0010
0100
,
1000
0010
0100
0001
,
1000
0100
0001
0100
,
1000
0001
2002
3003
,
0001
0010
0001
1000
,
0001
0010
0100
1000
,
0001
0100
1000
0100
,
0001
1000
2002
3003
,
1000
0100
1000
0000
0010
0000
0100
0000
,
0001
1000
0001
0000
0010
0000
0100
0000
,
0010
0001
1000
0010
,
0100
0001
2002
3003
,
1000
0010
1000
0000
0100
0000
0001
0000
,
0100
0000
1000
0000
0001
1000
0001
0000
,
0100
0010
0100
0000
0001
0000
0010
0000
,
0100
1000
1001
0110
,
1001
0000
0000
0001
1000
0000
0000
1000
,
0001
1000
2002
3003
,
0002
0010
0010
0013
,
0001
0100
0001
0000
1000
0010
1000
0000
,
0001
0100
1000
0010
,
0001
0100
0010
1000
,
2000
0100
0100
3100
,
1000
0100
1000
0000
0001
0010
0001
0000
,
1000
0100
0001
0010
,
1000
0001
1001
0000
,
0001
0010
0001
0000
1000
0000
0001
0000
,
0100
0010
0100
0000
0002
0000
2003
0000
,
3100
0010
0001
1000
,
0001
1000
0001
0000
2002
0000
3003
0000
,
1000
0100
1000
0000
0100
0000
0001
0000
,
0100
1000
0001
1000
,
0001
0010
0001
0000
0010
0000
1000
0000
,
0010
0001
1000
0001
,
1000
0100
1000
0000
0010
0000
0100
0000
,
0010
1000
0100
0010
,
0001
0100
0001
0000
0010
0000
0001
0000
,
0100
0010
0100
0001
,
1001
0000
0000
1000
0001
0000
0000
0001
,
1000
0001
1001
0000
;

//--------------- dance-single - Fred-104 ----------------
#NOTEDATA:;
#STEPSTYPE:dance-single;
#DESCRIPTION:Fred-104;
#DIFFICULTY:Hard;
#METER:10;
#CREDIT:Fred-104;
#NOTES:
0000
0000
0000
0000
,
0000
0000
0000
0000
,
0000
0000
0000
0000
,
0000
0000
0000
0000
,
0000
0000
0000
0000
,
1000
0100
0010
0100
1100
0000
1000
0010
,
0100
0001
0010
0001
0101
0000
0001
1000
,
0001
0010
0100
1000
0001
0010
0100
1000
,
1010
0000
0101
0000
1001
0000
0001
1000
,
0001
0100
1000
0100
0101
0000
0001
1000
,
0001
0010
1000
0010
0011
0000
0001
1000
,
0100
1000
0010
0100
0010
1000
0100
0010
,
0011
1100
2002
3003
,
2000
0100
0001
3100
,
0010
1000
0100
1000
0010
1000
0100
0000
,
1000
0010
0001
0000
0001
0010
1000
0000
,
0001
0100
0010
1000
0001
0001
1001
0000
,
0001
0000
0010
0001
0010
0000
0100
0000
1000
0000
0010
1000
0010
0000
0100
0000
,
0001
0000
0010
0100
0010
0000
0100
0000
1000
0000
1000
0000
1100
0000
0000
0000
,
1000
0000
0001
0100
0001
0000
0010
0000
0100
0000
0010
0001
0010
0000
0001
0000
,
1000
0000
0010
0100
0010
0000
1000
0000
1010
0000
0000
0000
0101
0000
0000
0000
,
1001
0000
0000
0001
1001
0000
0000
0100
,
0010
1000
1100
0000
0022
0000
0033
0000
,
1000
0100
0001
0100
0010
0100
1000
0000
,
0001
0010
0100
0010
0001
0100
0010
0000
,
1000
0100
0010
0100
1000
0010
0100
0010
,
1000
0100
0001
1000
0010
0001
2000
0000
,
3001
0100
1000
0100
0010
0100
0001
0000
,
1000
0010
0100
0001
0010
0100
0010
0000
,
0001
0100
0010
0100
0001
0010
0100
0010
,
0001
0000
0100
0000
0001
0000
1000
0000
0010
0000
1000
0000
0001
0000
0000
1001
0000
0000
0000
0000
0000
0000
0000
0000
,
1000
0100
0010
0001
0100
0010
0100
0001
,
0010
0001
1000
0001
0200
0000
0320
0000
,
1030
0010
0100
0010
1000
0100
0001
0100
,
1000
0001
0100
0010
0100
0100
0110
0000
,
0001
0000
0010
0100
0010
0000
0100
0000
1000
0000
0010
1000
0010
0000
0100
0000
,
0001
0000
1000
0100
1000
0000
0010
0000
0100
0000
0001
0000
1001
0000
0000
0000
,
0001
0000
0100
0001
0100
0000
0010
0000
0100
0000
0001
0010
0001
0000
1000
0000
,
0100
0000
1000
0010
1000
0000
0100
0000
0110
0000
0000
0000
1001
0000
0000
0000
,
0001
0000
1000
0010
1000
0000
0100
0000
0010
0000
0100
1000
0100
0000
0010
0000
,
0001
0000
0100
0001
0100
0000
0010
0000
0100
0000
0001
0000
1001
0000
0000
0000
,
0001
0000
1000
0010
1000
0000
0100
0000
1000
0000
0010
0100
0010
0000
1000
0000
,
0001
0000
0010
0100
0010
0000
0001
0000
0011
0000
0000
0000
1100
0000
0000
0000
,
0110
0000
0000
0000
0000
0000
0100
0010
0100
0000
0000
0000
0000
0000
0001
0000
,
1000
0010
0110
0000
1001
0000
0000
0000
;

//--------------- dance-single - Fred-104 ----------------
#NOTEDATA:;
#STEPSTYPE:dance-single;
#DESCRIPTION:Fred-104;
#DIFFICULTY:Challenge;
#METER:14;
#CREDIT:Fred-104;
#NOTES:
0000
0000
0000
0000
,
0000
0000
0000
0000
,
0000
0000
0000
0000
,
0000
0000
0000
0000
,
0000
0000
0000
0000
0000
0001
0010
0001
,
1000
0100
0010
0100
1000
0000
0100
0000
1100
0000
0000
0000
1000
0000
0001
0000
,
0100
0000
0001
0000
0010
0000
0001
0000
0000
0100
0000
0000
0110
0000
0000
0000
0000
0000
0010
0000
0000
1000
0000
0000
,
0001
0000
0010
0100
0010
0000
0001
0000
1000
0000
0100
0000
0001
0000
0010
0000
,
1000
0000
0001
0100
0001
0000
1000
0000
1001
0000
0000
0000
0001
0000
0010
0000
,
0001
0000
0100
1000
0100
0000
0001
0000
0011
0000
0000
0000
0001
0000
1000
0000
,
0001
0010
0100
0010
0001
0000
0100
0000
0101
0000
0000
0000
0100
0000
0010
0000
,
1000
0100
0010
0100
1000
0000
0001
0000
0100
0000
0010
0000
0100
0000
0001
0000
,
0101
0000
0000
0000
1010
0000
0000
0000
1001
0000
0000
0000
0001
1000
0001
0000
,
1000
0000
0100
0000
0010
0000
0001
0000
0000
1000
0000
0000
0001
0000
0010
0000
0100
0000
0010
0000
0000
0001
0000
0000
,
0100
0010
0100
0010
0100
0000
0001
0000
1001
0000
0000
0000
0110
0000
0000
0000
,
1000
0000
0000
0001
0000
0000
0000
0000
0000
1000
0000
0000
0010
0000
0000
0000
0000
0000
0001
0000
0000
0000
0000
0000
0010
0000
0000
0000
0100
0000
0000
0000
0001
0000
0000
0000
1000
0000
0000
0000
0100
0000
0000
0000
0010
0000
0000
0000
,
0100
0000
0000
1000
0000
0000
0001
0000
0100
0000
0010
0000
0100
0000
0000
0110
0000
0000
1001
0000
0000
0000
0000
0000
,
1000
0000
0100
0001
0100
0000
1000
0000
0001
0000
0100
1000
0100
0000
0001
0000
,
1000
0000
0010
0001
0010
0000
1000
0000
0001
0000
1000
0000
1001
0000
0000
0000
,
0001
0000
0010
1000
0010
0000
0001
0000
1000
0000
0010
0001
0010
0000
1000
0000
,
0001
0000
0100
1000
0100
0000
0001
0000
1001
0000
0000
0000
0110
0000
0000
0000
,
1001
0000
0000
0000
0000
0000
0001
1000
1001
0000
0000
0000
0000
0000
0110
0000
,
1010
0101
1100
0000
0022
0000
0033
0000
,
0001
0100
0010
0100
0001
0100
0010
0000
1000
0000
0100
0001
0100
0000
0010
0100
,
1000
0100
1000
0010
1000
0100
1000
0010
1000
0000
0001
0010
0100
0000
0010
0000
,
0001
0010
0100
1000
0100
0000
1100
0000
1000
0010
0100
0001
0100
0000
0101
0000
,
0001
0010
0001
0010
0100
1000
0100
1000
0001
0010
0100
1000
0002
0000
0000
0000
,
1003
0001
0100
0001
1000
0001
0100
0000
0001
0000
0100
1000
0100
0000
0010
0100
,
0001
0010
0001
0100
0010
0100
0001
1000
0001
0000
0100
0010
1000
0000
0100
0000
,
1000
0010
0100
0001
0010
0000
0011
0000
0001
0010
0100
1000
0010
0000
1010
0000
,
1000
0000
0100
0000
0010
0000
0001
0000
0100
0000
0010
0000
1000
0000
0000
1001
0000
0000
0000
0000
0000
0000
0000
0000
,
0011
0000
0001
1000
0010
0000
0100
0000
0001
0000
0010
0100
0010
0000
0001
0000
,
1000
0010
1000
0100
0010
0000
0001
0000
0201
0000
0000
0000
0320
0000
0000
0000
,
1030
0000
0000
0100
0000
0000
0000
0000
0000
0010
0000
0000
0100
0000
0000
0000
0000
0000
1100
0000
0000
0000
0000
0000
1000
0000
0000
0010
0000
0000
0100
0000
0000
0001
0000
0000
1000
0000
0000
0000
0100
0000
0000
0000
0010
0000
0000
0000
,
0001
0000
0000
0000
0000
0000
0100
0000
0000
0001
0000
0000
0010
0000
0000
0000
0001
0000
0000
0000
1000
0000
0000
0000
0010
0000
0000
0000
0000
0000
0110
0000
0000
0000
0000
0000
1001
0000
0000
0000
0000
0000
0000
0000
0000
0000
0000
0000
,
1100
0000
1000
0100
0010
0000
0001
0000
0101
0000
0001
0100
0010
0000
1000
0000
,
1010
0000
0010
0100
0001
0000
0010
0000
0011
0000
0110
0000
1100
0000
0000
0000
,
1001
0000
0001
0100
0010
0000
1000
0000
1001
0000
1000
0100
0010
0000
0001
0000
,
1001
0000
0001
0010
0100
0000
1000
0000
1010
0000
0000
0000
0101
0000
0000
0000
,
1000
0100
1000
0100
0001
0000
0101
0000
0001
0100
0001
0100
1000
0000
1100
0000
,
1000
0010
1000
0010
0001
0000
0011
0000
1010
0000
1001
0000
1001
0000
0000
0000
,
1000
0010
1000
0010
0001
0000
0011
0000
0001
0010
0001
0010
1000
0000
1010
0000
,
1000
0100
1000
0100
0001
0000
0101
0000
1100
0000
0000
0000
0101
0000
0000
0000
,
1001
0000
0000
0000
0000
0000
0001
1000
1001
0000
0000
0000
0000
0000
0100
0010
,
0110
1010
0101
0000
1100
0000
0000
0000
;

//--------------- dance-double - Fred-104 ----------------
#NOTEDATA:;
#STEPSTYPE:dance-double;
#DESCRIPTION:Fred-104;
#DIFFICULTY:Easy;
#METER:2;
#CREDIT:Fred-104;
#NOTES:
00000000
00000000
00000000
00000000
,
00000000
00000000
00000000
00000000
,
00000000
00000000
00000000
00000000
,
00000000
00000000
00000000
00000000
,
00000000
00000000
00000000
00000000
,
00001000
00000000
00000000
00000000
,
00010000
00000000
00000000
00000000
,
00001000
00000000
00010000
00000000
,
00001000
00000000
00000000
00000000
,
00100000
00000000
00000000
00000000
,
00010000
00000000
00000000
00000000
,
10000000
00000000
00000000
00000000
,
00010000
00000000
00000000
00000000
,
10000000
00000000
00000000
00000000
,
01000000
00000000
00000000
00000000
,
00100000
00000000
00000000
00000000
,
00001000
00000000
00000000
00000000
,
00010000
00000000
00000000
00000000
,
00001000
00000000
00000000
00000000
,
00010000
00000000
00000000
00000000
,
00000010
00000000
00000000
00000000
,
00001001
00000000
00000000
00000000
,
00000000
00000000
00000000
00000000
,
00000002
00000000
00000003
00000000
,
00000100
00000000
00000010
00000000
,
00000100
00000000
00000001
00000000
,
00001000
00000000
00000000
00000000
,
00020000
00000000
00030000
00000000
,
00001000
00000000
00100000
00000000
,
00001000
00000000
00100000
00000000
,
00010000
00000000
00000000
00000000
,
10000000
00000000
00100000
00000000
,
10000000
00000000
00000000
00000000
,
01000000
00000000
00100000
00000000
,
01000000
00000000
00000000
00000000
,
00100000
00000000
00001000
00000000
,
00010000
00000000
00000000
00000000
,
00001000
00000000
00010000
00000000
,
00000100
00000000
00000000
00000000
,
00001000
00000000
00000001
00000000
,
00001000
00000000
00000000
00000000
,
00000100
00000000
00000000
00000000
,
00001000
00000000
00000001
00000000
,
00000010
00000000
00000000
00000000
,
00000001
00000000
00001001
00000000
;

//--------------- dance-double - Fred-104 ----------------
#NOTEDATA:;
#STEPSTYPE:dance-double;
#DESCRIPTION:Fred-104;
#DIFFICULTY:Medium;
#METER:6;
#CREDIT:Fred-104;
#NOTES:
00000000
00000000
00000000
00000000
,
00000000
00000000
00000000
00000000
,
00000000
00000000
00000000
00000000
,
00000000
00000000
00000000
00000000
,
00000000
00000000
00000000
00000000
,
00010000
10000000
01000000
10000000
,
00100000
01000000
00010000
00000000
,
00100000
00001000
00010000
00001000
,
00000010
00000100
00002002
00003003
,
00000001
00000100
00000010
00000100
,
00000001
00000010
00001000
00000000
,
00010000
00100000
10000000
00010000
,
10000000
01000000
02200000
03300000
,
00010000
01000000
00010000
00000000
00100000
00000000
00001000
00000000
,
00010000
00001000
00010000
00000000
00000100
00000000
00001000
00000000
,
00000100
00000010
00001000
00010000
,
01000000
00001000
00022000
00033000
,
00010000
00001000
00010000
00000000
00001000
00000000
00000010
00000000
,
00001000
00010000
00100000
00010000
,
00001000
00000100
00001000
00000000
00010000
00000000
01000000
00000000
,
00010000
00001000
00010000
00001000
,
00011000
00000000
00000000
00010000
00001000
00000000
00000000
00001000
,
00010000
00001000
00022000
00033000
,
00002000
00010000
00010000
00013000
,
00001000
00010000
00001000
00000000
00000010
00001000
00010000
00000000
,
00100000
00010000
00001000
00000100
,
00001000
00010000
01000000
00010000
,
00002000
00010000
00010000
00013000
,
00001000
00010000
00100000
00000000
00010000
00001000
00000010
00000000
,
00001000
00010000
01000000
00010000
,
00001000
00010000
00011000
00000000
,
00001000
00000010
00001000
00000000
00000100
00000000
00000010
00000000
,
00000001
00000100
00000001
00000000
00000200
00000000
00000320
00000000
,
00000130
00000001
00000010
00001000
,
00010000
00001000
00010000
00000000
00022000
00000000
00033000
00000000
,
00001000
00010000
00001000
00000000
00010000
00000000
01000000
00000000
,
00010000
00001000
00000100
00001000
,
00010000
00100000
00010000
00000000
00001000
00000000
00000010
00000000
,
00001000
00010000
00001000
00010000
,
00001000
00010000
00001000
00000000
00010000
00000000
00100000
00000000
,
00010000
00001000
00000010
00001000
,
00010000
01000000
00010000
00000000
00001000
00000000
00000100
00000000
,
00001000
00010000
00001000
00010000
,
00011000
00000000
00000000
00010000
10000000
00000000
00000000
10000000
,
00010000
10000000
10010000
00000000
;

//--------------- dance-double - Fred-104 ----------------
#NOTEDATA:;
#STEPSTYPE:dance-double;
#DESCRIPTION:Fred-104;
#DIFFICULTY:Hard;
#METER:10;
#CREDIT:Fred-104;
#NOTES:
00000000
00000000
00000000
00000000
,
00000000
00000000
00000000
00000000
,
00000000
00000000
00000000
00000000
,
00000000
00000000
00000000
00000000
,
00000000
00000000
00000000
00000000
,
00000001
00001000
00000100
00001000
00001010
00000000
00000001
00001000
,
00000100
00010000
00001000
00010000
00011000
00000000
00001000
00010000
,
01000000
10000000
00010000
10000000
00010000
00100000
01000000
00000000
,
01100000
00000000
00011000
00000000
00000110
00000000
00000001
00001000
,
00000001
00000010
00001000
00010000
00011000
00000000
00001000
00010000
,
01000000
10000000
00010000
10000000
10010000
00000000
10000000
01000000
,
00100000
01000000
10000000
00100000
00010000
00001000
00000100
00000001
,
00001001
00000110
00002002
00003003
,
00002000
00000010
00000100
00003010
,
00001000
00000100
00000001
00000000
00001000
00000010
00000001
00000000
,
00001000
00000001
00000010
00000100
00000010
00000001
00000100
00001000
,
00010000
00001000
00000010
00000001
00001000
00000001
00001001
00000000
,
00000001
00000010
00001000
00010000
00001000
00000010
00001000
00010000
,
00100000
00010000
00001000
00010000
00100000
10000000
00100000
00000000
,
00010000
00001000
00000100
00001000
00010000
01000000
00010000
00001000
,
00000100
00000001
00000100
00001000
00010000
00000000
00001000
00000000
,
00011000
00000000
00000000
00000000
00000000
00000000
00010000
00001000
00010000
00000000
00000000
00000000
00000000
00000000
00000010
00000000
,
00001000
00000001
00000100
00000000
00001001
00000000
00000000
00000000
,
00000001
00000100
00001000
00000100
00000010
00000100
00000001
00000000
,
00001000
00000001
00000010
00000100
00000010
00001000
00010000
00000000
,
01000000
10000000
00010000
10000000
00100000
01000000
00100000
10000000
,
01000000
00100000
00001000
00010000
00000100
00000010
00000001
00000000
,
00001000
00000010
00000001
00000010
00000100
00000001
00001000
00000000
,
00000010
00010000
00001000
00010000
00100000
01000000
00100000
00000000
,
00010000
01000000
10000000
01000000
00010000
00100000
01000000
00100000
,
00010000
00000000
00100000
00000000
00010000
00000000
10000000
00000000
00100000
00000000
10000000
00000000
01000000
00000000
00000000
01100000
00000000
00000000
00000000
00000000
00000000
00000000
00000000
00000000
,
00100000
00001000
00010000
00001000
00000010
00001000
00010000
00001000
,
00100000
00001000
00010000
00001000
00000100
00000000
00000110
00000000
,
00000100
00010000
00001000
00010000
01000000
00010000
00001000
00010000
,
00000100
00010000
00001000
00010000
01000000
00100000
01100000
00000000
,
10000000
01000000
00010000
00001000
00010000
01000000
00010000
00001000
,
00000100
00001000
00010000
00001000
00000100
00000001
00000100
00000000
,
00001000
00010000
00100000
00010000
00001000
00000010
00001000
00010000
,
00100000
10000000
00100000
00010000
00001000
00000000
00010000
00100000
,
10000000
00100000
00010000
00001000
00010000
00100000
00010000
00001000
,
00000010
00001000
00010000
00001000
00000010
00000001
00000010
00000000
,
00001000
00010000
01000000
00010000
00001000
00000100
00001000
00010000
,
01000000
10000000
01000000
00010000
00001000
00000000
00010000
00000000
,
00011000
00000000
00000000
00000000
00000000
00000000
00010000
10000000
00010000
00000000
00000000
00000000
00000000
00000000
10000000
00000000
,
00010000
00001000
00010000
00000000
00011000
00000000
00000000
00000000
;

//--------------- dance-double - Fred-104 ----------------
#NOTEDATA:;
#STEPSTYPE:dance-double;
#DESCRIPTION:Fred-104;
#DIFFICULTY:Challenge;
#METER:14;
#CREDIT:Fred-104;
#NOTES:
00000000
00000000
00000000
00000000
,
00000000
00000000
00000000
00000000
,
00000000
00000000
00000000
00000000
,
00000000
00000000
00000000
00000000
,
00000000
00000000
00000000
00000000
00000000
00010000
00001000
00010000
,
00001000
00010000
00000010
00010000
00001000
00000000
00010000
00000000
00011000
00000000
00000000
00000000
00001000
00000000
00100000
00000000
,
00010000
00000000
10000000
00000000
01000000
00000000
10000000
00000000
00000000
00100000
00000000
00000000
01100000
00000000
00000000
00000000
00000000
00000000
00100000
00000000
00000000
10000000
00000000
00000000
,
00010000
00000000
00100000
01000000
00100000
00000000
00010000
00000000
00001000
00000000
00000100
00000010
00000100
00000000
00001000
00000000
,
00011000
00000000
00000110
00000000
00001001
00000000
00000001
00000100
,
00000001
00000000
00000010
00001000
00000010
00000000
00000001
00000000
00000101
00000000
00000000
00000000
00000010
00000000
00010000
00000000
,
00001000
00010000
00000100
00010000
00001000
00000000
00010000
00000000
00011000
00000000
00000000
00000000
00001000
00000000
00100000
00000000
,
00010000
00100000
01000000
00100000
00010000
00000000
01000000
00000000
00100000
00000000
10000000
00000000
00010000
00000000
00100000
00000000
,
01100000
00000000
00000000
00000000
11000000
00000000
00000000
00000000
10010000
00000000
00000000
00000000
00010000
10000000
00010000
00000000
,
10000000
00000000
01000000
00000000
00010000
00000000
00001000
00000000
00000000
00010000
00000000
00000000
00100000
00000000
10000000
00000000
00010000
00000000
10000000
00000000
00000000
01000000
00000000
00000000
,
00100000
00010000
00100000
00010000
00100000
00000000
00001000
00000000
00011000
00000000
00000000
00000000
00001001
00000000
00000000
00000000
,
00001000
00000000
00000000
00000100
00000000
00000000
00000000
00000000
00000000
00000010
00000000
00000000
00000001
00000000
00000000
00000000
00000000
00000000
00000100
00000000
00000000
00000000
00000000
00000000
00000010
00000000
00000000
00000000
00000001
00000000
00000000
00000000
00000010
00000000
00000000
00000000
00001000
00000000
00000000
00000000
00000001
00000000
00000000
00000000
00000100
00000000
00000000
00000000
,
00000010
00000000
00000000
00001000
00000000
00000000
00000100
00000000
00010000
00000000
00001000
00000000
00010000
00000000
00000000
00011000
00000000
00000000
00011000
00000000
00000000
00000000
00000000
00000000
,
00001000
00000000
00010000
00100000
00010000
00000000
00001000
00000000
00000010
00000000
00001000
00010000
00100000
00000000
00010000
00000000
,
00001000
00000000
00000010
00001000
00010000
00000000
01000000
00000000
00010000
00000000
00011000
00000000
00011000
00000000
00000000
00000000
,
00010000
00000000
00001000
00000100
00001000
00000000
00010000
00000000
01000000
00000000
00010000
00001000
00000100
00000000
00001000
00000000
,
00010000
00000000
00100000
00010000
00001000
00000000
00000010
00000000
00000011
00000000
00000000
00000000
00001010
00000000
00000000
00000000
,
00001001
00000000
00000000
00000000
00000000
00000000
00000100
00000010
00000110
00000000
00000000
00000000
00000000
00000000
00000011
00000000
,
00001010
00011000
01010000
00000000
22000000
00000000
33000000
00000000
,
00010000
01000000
00100000
01000000
00010000
01000000
00100000
00000000
10000000
00000000
00010000
00000000
10000000
00000000
01000000
00100000
,
00001000
00010000
00001000
00010000
00000100
00001000
00000100
00001000
00000100
00000000
00000010
00000000
00000001
00000000
00001000
00000000
,
00000001
00000010
00000100
00001000
00000100
00000000
00010000
00000000
00001000
00100000
00010000
00100000
01000000
00000000
10000000
00000000
,
00010000
10000000
00010000
10000000
01000000
00100000
01000000
00100000
00010000
10000000
01000000
00100000
00020000
00000000
00000000
00000000
,
01030000
00001000
00010000
00001000
01000000
00001000
00010000
00000000
00000100
00000000
00001000
00000000
00000100
00000000
00000010
00000001
,
00001000
00000001
00000010
00000100
00000010
00000001
00000010
00000100
00000010
00000000
00000001
00000000
00001000
00000000
00000100
00000000
,
00010000
00000010
00001000
00000010
00010000
00000000
00001000
00000000
01000000
00001000
00010000
00001000
01000000
00000000
00100000
00000000
,
10000000
00000000
01000000
00000000
00010000
00000000
00001000
00000000
00000010
00000000
00000001
00000000
00001000
00000000
00000000
00001001
00000000
00000000
00000000
00000000
00000000
00000000
00000000
00000000
,
00000110
00000000
00000010
00001000
00000010
00000000
00000100
00000000
00000001
00000000
00000010
00000100
00000010
00000000
00000001
00000000
,
00000100
00001000
00000100
00001000
00010000
00000000
01000000
00000000
11000000
00000000
00000000
00000000
10010000
00000000
00000000
00000000
,
00010000
00000000
00000000
01000000
00000000
00000000
00000000
00000000
00000000
00100000
00000000
00000000
10000000
00000000
00000000
00000000
00000000
00000000
11000000
00000000
00000000
00000000
00000000
00000000
01000000
00000000
00000000
00100000
00000000
00000000
00001000
00000000
00000000
00010000
00000000
00000000
00001000
00000000
00000000
00000000
00000100
00000000
00000000
00000000
00000010
00000000
00000000
00000000
,
00000100
00000000
00000000
00000000
00000000
00000000
00001000
00000000
00000000
00000010
00000000
00000000
00000100
00000000
00000000
00000000
00000001
00000000
00000000
00000000
00001000
00000000
00000000
00000000
00000100
00000000
00000000
00000000
00000000
00000000
00000110
00000000
00000000
00000000
00000000
00000000
00001001
00000000
00000000
00000000
00000000
00000000
00000000
00000000
00000000
00000000
00000000
00000000
,
00000110
00000000
00000001
00000010
00000100
00000000
00010000
00000000
00011000
00000000
00001000
00100000
00010000
00000000
10000000
00000000
,
10010000
00000000
10000000
01000000
00100000
00000000
00001000
00000000
00011000
00000000
00010010
00000000
00001010
00000000
00000000
00000000
,
00000110
00000000
00000001
00000100
00000010
00000000
00010000
00000000
00011000
00000000
00001000
01000000
00010000
00000000
10000000
00000000
,
10010000
00000000
10000000
00100000
01000000
00000000
00001000
00000000
00011000
00000000
00000000
00000000
00010100
00000000
00000000
00000000
,
00001000
00000100
00001000
00000100
00000001
00000000
00000100
00000000
00001000
00010000
00001000
00010000
00100000
00000000
10000000
00000000
,
00100000
00010000
00100000
00010000
00001000
00000000
00000100
00000000
00000001
00000000
00000101
00000000
00001001
00000000
00000000
00000000
,
00001000
00000010
00001000
00000010
00000001
00000000
00000010
00000000
00001000
00010000
00001000
00010000
01000000
00000000
10000000
00000000
,
01000000
00010000
01000000
00010000
00001000
00000000
00000010
00000000
00000011
00000000
00000000
00000000
00001010
00000000
00000000
00000000
,
00001001
00000000
00000000
00000000
00000000
00000000
00000001
00000100
00000110
00000000
00000000
00000000
00000000
00000000
00000010
00001000
,
00001100
00010100
00011000
00000000
10010000
00000000
00000000
00000000
;
