#TITLE:THE SHINING POLARIS;
#ARTIST:L.E.D. feat. Sana;
#GENRE:EPIC TRANCE;
#BANNER:THE SHINING POLARIS.png;
#BACKGROUND:THE SHINING POLARIS-bg.png;
#CDTITLE:./CDTitles/bm IIDX 4th style -new songs collection-.png;
#MUSIC:THE SHINING POLARIS.ogg;
#SAMPLESTART:86.329;
#SAMPLELENGTH:15;
#DISPLAYBPM:147;
#BPMS:0=147.8,4=147;
#BGSTAGE:15;

//--------------- dance-single - Fred-104 ----------------
#NOTES:
     dance-single:
     Fred-104:
     Beginner:
     2:
     :
0000
0000
0000
0000
,
0000
0000
0000
0000
,
0000
0000
0000
0000
,
0000
0000
0000
0000
,
0000
0000
0000
0000
,
1000
0000
0000
0000
,
0001
0000
0000
0000
,
1000
0000
0000
0000
,
0001
0000
0000
0000
,
1000
0000
0000
0000
,
1000
0000
0000
0000
,
0001
0000
0000
0000
,
1000
0000
0000
0000
,
0001
0000
0000
0000
,
0100
0000
0000
0000
,
0100
0000
0000
0000
,
1000
0000
0000
0000
,
0001
0000
0000
0000
,
0010
0000
0000
0000
,
0010
0000
0000
0000
,
1000
0000
0000
0000
,
2000
0000
0000
0000
,
0000
0000
0000
3000
,
0002
0000
0000
0000
,
0000
0000
0000
0003
,
2000
0000
0000
0000
,
0000
0000
0000
3000
,
0002
0000
0000
0000
,
0000
0000
0000
0003
,
0200
0000
0000
0300
,
0020
0000
0000
0030
,
0200
0000
0000
0300
,
0020
0000
0000
0030
,
2000
0000
0000
3000
,
0002
0000
0000
0003
,
2000
0000
0000
0000
,
3000
0000
0000
0000
,
2000
0000
0000
0000
,
0000
0000
0000
3000
,
0002
0000
0000
0000
,
0000
0000
0000
0003
,
2000
0000
0000
3000
,
0002
0000
0000
0003
,
2000
0000
0000
3000
,
0002
0000
0000
0003
,
0100
0000
0000
0000
,
0100
0000
0000
0000
,
0100
0000
0000
0000
,
0100
0000
0000
0000
,
0010
0000
0000
0000
,
0100
0000
0000
0000
,
0001
0000
0000
0000
,
1000
0000
0000
0000
,
0001
0000
0000
0000
,
1000
0000
0000
0000
,
0001
0000
0000
0000
,
1000
0000
0000
0000
,
0010
0000
0000
0000
,
1000
0000
0000
0000
,
0001
0000
0000
0000
,
0001
0000
0000
0000
,
1000
0000
0000
0000
,
1000
0000
0000
0000
,
0001
0000
0000
0000
,
1000
0000
0000
0000
,
0001
0000
0000
0000
,
1000
0000
0000
0000
,
0002
0000
0000
0003
,
2000
0000
0000
3000
,
1001
0000
0000
0000
;

//--------------- dance-single - Fred-104 ----------------
#NOTES:
     dance-single:
     Fred-104:
     Easy:
     5:
     :
0000
0000
0000
0000
,
0000
0000
0000
0000
,
0000
0000
0000
0000
,
0000
0000
0000
0000
,
0000
0000
0000
0000
,
1000
0000
1000
0000
,
0001
0000
0001
0000
,
0020
0000
0031
0000
,
2000
0000
3100
0000
,
0010
0000
0100
0000
,
0010
0000
0100
0000
,
0002
0000
0103
0000
,
2000
0000
3010
0000
,
0001
0000
1000
0000
,
0001
0001
1000
0000
,
0010
0000
1000
0000
,
0001
1000
0001
0000
,
1000
0000
0010
0000
,
1000
1000
0010
0000
,
0100
0100
0001
0001
,
1000
0100
0010
0001
,
2001
0000
0000
0000
,
3020
0000
0000
0000
,
0230
0000
0302
0000
,
2003
3002
2003
3200
,
0320
0000
0032
0000
,
0203
0000
0320
0000
,
2030
3200
0320
0032
,
0203
0320
1030
0001
,
0200
0000
0320
0000
,
2030
0000
3002
0000
,
0023
0000
0230
0000
,
2300
0000
3002
0000
,
1003
1000
0100
0010
,
0001
0100
0010
1000
,
2000
3000
0002
0003
,
0200
0300
0010
0010
,
2002
0000
0000
3003
,
0020
0000
0000
0030
,
0200
0000
0000
0300
,
0002
0000
0000
0003
,
2000
3000
0020
0030
,
0200
0300
0002
0003
,
2000
3000
0200
0300
,
0020
0030
0002
0003
,
2000
0000
3001
0001
,
0200
0000
0310
1000
,
0002
0000
1003
1000
,
0020
0000
0130
0100
,
1001
0000
0000
0000
,
1001
0000
0000
0000
,
1001
0000
0110
0000
,
0001
2002
3003
0000
,
0001
1000
0010
0010
,
0100
0001
1000
0100
,
2000
0000
3020
0100
,
0230
0000
0302
1000
,
1003
0010
0010
0100
,
0001
0100
0010
1000
,
0002
0000
0203
0010
,
0320
0000
1030
1000
,
0001
0001
0100
0010
,
1000
0100
0010
0001
,
0100
0010
0100
0010
,
1000
0010
0100
0001
,
2002
3003
1000
0010
,
0100
0001
1000
1000
,
0001
0002
0103
0200
,
1300
2000
3010
0001
,
1001
0000
0000
0000
;

//--------------- dance-single - Fred-104 ----------------
#NOTES:
     dance-single:
     Fred-104:
     Medium:
     9:
     :
0000
0000
0000
0000
,
0000
0000
0000
0000
,
0000
0000
0000
0000
,
0000
0000
0000
0000
,
0000
0000
0000
0000
,
0010
1000
0010
0000
2000
0000
3100
0000
,
0010
0001
0010
0000
0002
0000
0103
0000
,
0100
0001
0010
0001
1000
0100
0010
0000
,
0100
1000
0010
0000
1000
0001
0100
0001
,
1000
0100
1000
0000
0002
0000
0013
0000
,
0001
0100
0001
0000
2000
0000
3010
0000
,
0001
0100
1000
0010
,
0001
0000
0100
0000
0001
0010
0001
1000
,
0020
0000
0000
0100
0000
0100
0000
0130
,
0000
0001
1000
0000
0010
0000
0100
0010
,
0000
0010
1000
0000
0010
0000
0100
0000
,
0001
0000
0000
0000
1000
0000
0000
0000
0001
0000
0000
1000
0001
0000
0100
0000
,
0010
0000
1000
0000
0010
1000
0010
1000
,
0000
0010
0000
0100
0000
0001
0100
0001
,
0000
1000
1000
0000
0010
0000
0100
0000
,
0001
0000
1000
0000
0001
0010
0001
1000
,
0200
0000
0000
0300
,
0020
0000
0000
0030
,
0001
0000
0000
1000
0000
0000
0100
0000
1000
0000
0000
0000
0100
0000
0000
0000
,
0010
0000
0000
0001
0000
0000
1000
0000
0001
0000
0000
0000
0100
0000
0000
0000
,
0002
0000
0200
0303
,
2000
0000
0200
3300
,
0020
0032
2003
3020
,
0230
2300
3100
0001
,
2000
3002
0023
0230
,
2300
3002
0203
0320
,
2030
3100
0002
0103
,
0010
0000
1000
0000
0001
0100
0010
1000
,
0002
0000
2003
0000
3200
0000
0320
0032
,
0000
2003
0000
3020
0000
0230
0302
0000
,
2003
3000
0002
0003
,
0220
0000
0000
0330
,
0010
1000
0010
0000
1000
0001
0100
0000
,
0010
1000
0001
0000
0100
0001
0100
0000
,
0020
1030
0200
0301
,
2000
3100
0002
0013
,
0020
0031
0200
1300
,
0010
0000
0100
0000
1000
0001
1000
0000
,
0200
0320
0032
2003
,
3001
0000
0002
0000
1003
0010
0100
0000
,
2002
0000
3003
0000
1000
0001
0100
0000
,
0202
0000
0303
0000
0100
0001
1000
0000
,
2002
0000
3003
0000
0001
1000
0100
0000
,
2200
3300
0011
1100
,
0001
0200
1000
0000
0001
0000
1300
0000
,
0001
0020
1000
0000
0001
0000
1030
0000
,
1001
0000
0001
0100
0010
0000
1000
0001
,
0101
1001
0000
0000
,
0002
0023
0230
2300
,
3020
0230
0302
2003
,
3001
0000
0000
0010
0000
0000
0001
0000
1000
0000
0000
0100
0000
0000
1000
0000
,
0010
0000
0000
0100
0000
0000
0001
0000
1000
0000
0100
0000
1000
0000
0010
0000
,
2000
3002
0203
0320
,
2030
3200
0320
0032
,
1003
0000
0000
0100
0000
0000
0010
0000
0001
0000
0000
1000
0000
0000
1100
0000
,
0010
0000
0000
0001
0000
0000
1000
0000
0001
0000
0001
0000
0100
0000
0000
0000
,
0010
0000
0100
0000
0010
0000
0000
0000
1000
0000
0000
0001
0000
0000
0100
0000
,
0001
0000
0000
1000
0000
0000
0010
0000
1100
0000
0000
0000
0011
0000
0000
0000
,
0001
0000
0000
0002
0000
0000
0103
0000
1000
0000
0000
2000
0000
0000
3100
0000
,
0010
0000
0000
0010
0000
0000
0010
0000
0100
0000
0000
0000
0100
0000
0100
0000
,
0001
0000
1001
0000
2000
0000
3020
0230
,
0000
0320
0000
2030
0000
3002
0203
0000
,
0301
0101
1000
1100
,
0001
0100
0001
0000
1000
0100
1000
0000
,
1001
0000
0000
0000
;

//--------------- dance-single - Fred-104 ----------------
#NOTES:
     dance-single:
     Fred-104:
     Hard:
     14:
     :
0000
0000
0000
0000
,
0000
0000
0000
0000
,
0000
0000
0000
0000
,
0000
0000
0000
0000
,
0000
0000
0000
0000
,
1000
0100
0010
0100
1000
0010
0100
0010
,
0100
0001
1000
0010
0100
0001
0100
0010
,
0100
0001
1000
0001
0010
0100
1000
0001
,
0100
0010
1000
0100
0001
0100
1000
0001
,
0100
0000
0010
0000
1000
0000
0100
0000
0010
0000
0001
0000
1000
0000
0010
0100
,
0010
0000
1000
0000
0001
0000
0010
0000
0100
0000
0010
0000
0001
0000
0100
0001
,
0100
0000
0010
0000
1000
0000
0001
0000
1000
0000
0100
0000
0010
0000
0001
1000
,
0001
0000
1000
0000
0010
0000
0100
0000
0001
0000
1000
0000
0100
0000
0010
0001
,
0010
0001
1000
2100
3000
0102
0003
2100
,
3000
0020
0230
0302
1003
0100
0010
0200
,
0301
0200
1300
0010
0100
0001
1000
0001
,
0010
0000
0100
0000
1000
0000
0010
0000
0100
0000
0000
0100
0001
0000
1000
0100
,
0010
0000
0001
0000
1000
0000
0010
0100
0020
0000
2030
0000
3100
0000
0120
0000
,
0030
0021
0030
2010
3020
0230
0302
1003
,
1100
0200
0320
0032
1003
0010
0100
0010
,
1000
1000
0100
0010
0001
1000
1001
0100
,
0210
0000
0000
0000
,
0320
0000
0000
0000
,
2030
0000
3200
0000
,
0320
0000
0032
0000
,
2003
3200
0302
0203
,
2300
3200
0320
0032
,
2003
3020
0032
0203
,
2300
0000
3002
0000
0103
0100
0010
1000
,
0100
0000
0000
0100
0000
0000
1000
0000
0001
0000
0000
0100
0000
0000
0001
0000
,
0100
0000
0000
0010
0000
0000
1000
0000
0100
0000
0000
0010
0000
0000
0001
0000
,
1000
0000
0000
0010
0000
0000
0001
0000
0010
0000
0000
0100
0000
0000
0010
0000
,
1000
0000
0000
0100
0000
0000
0010
0000
1000
0000
0000
0010
0000
0000
0001
0000
,
0202
0000
0303
0000
1000
0001
0100
0002
,
0000
0203
0000
0320
1030
0001
0100
0000
,
0010
0102
0013
2100
,
3001
0000
0000
0000
0000
0000
0000
0000
0200
0300
0000
0000
0000
0000
0000
0000
0200
0300
0000
0000
0000
0000
0000
0000
2000
0000
0000
0000
0000
0000
0000
0000
3020
0000
0000
0000
0000
0000
0000
0000
0230
0000
0000
0000
0000
0000
0000
0000
0302
0000
0000
0000
0000
0000
0000
0000
1003
0000
0000
0000
0000
0000
0000
0000
,
2002
0000
0000
0003
,
0020
0000
0000
3000
,
0200
0000
0000
0030
,
0002
0000
0303
0000
0002
0023
0230
2300
,
3020
0000
1000
0000
0130
0001
1000
0000
,
0200
0000
1000
0000
0310
0100
1000
0000
,
1000
0200
0001
0000
1000
0000
0310
0000
,
0001
0020
0100
0000
0031
0001
1000
0100
,
0110
0000
0010
0000
0001
0000
0000
0000
0001
0100
0001
0100
0001
0000
0000
0000
,
0110
0000
0010
0000
1000
0000
0000
0000
0001
1000
0001
1000
0001
0000
0000
0000
,
0110
0000
0001
0000
1000
0000
0000
0000
0100
1000
0100
1000
0100
0000
0000
0000
,
1100
0000
0100
0000
0010
0000
0000
0001
0100
0001
0100
0000
0010
0000
1000
0000
,
2200
0000
0000
0000
3300
0000
0000
0000
0001
0010
0001
0100
0001
0000
0000
0000
,
0202
0000
0000
0000
0303
0000
0000
0000
1000
0010
0100
0010
1000
0000
0000
0000
,
1010
0000
0000
0000
1000
0010
1000
0000
1100
0000
0000
0000
0100
0010
0100
0000
,
0101
0000
1001
0000
0001
1000
0010
0100
,
0001
0000
0100
0000
0010
0000
1000
0000
0100
0000
0010
0100
0000
0010
0100
0000
,
0010
0000
0001
0000
1000
0000
0010
0000
0100
0000
0001
0100
0000
0001
0100
0000
,
0010
0000
1000
0100
0000
0100
0010
0000
0010
0000
0010
0001
0000
0001
0100
0000
,
0100
0000
0100
0010
0000
0010
1000
0000
1000
0000
1000
0001
0000
0001
0100
0000
,
0010
0000
1000
0010
0000
0010
0100
0000
0001
0000
0010
0001
0000
0010
0001
0000
,
1000
0000
0010
0100
0000
0100
0001
0000
1000
0000
0001
1000
0000
0001
1000
0000
,
0010
0000
1000
0010
0000
0010
0100
0000
0100
0000
0100
0001
0000
0001
1000
0000
,
0001
0000
0100
0000
0001
0000
1000
0100
0000
0010
0001
1000
0001
0100
0001
0100
,
0001
0000
1000
0000
0100
0000
0010
0000
0001
0000
0100
0010
0000
1000
0010
0100
,
0001
0000
0010
0001
0000
1000
0001
0100
0001
0000
1000
0100
0000
0010
0100
1000
,
0001
0000
1000
0010
0000
1000
0010
0100
0001
0000
0100
0001
0000
0100
0010
1000
,
0010
0000
1000
0100
0000
0010
0001
0010
0100
0000
1000
0010
0000
0100
0001
0000
,
1000
0010
0100
0010
0001
0010
0100
0020
,
0000
2030
0000
3002
2003
3020
0230
0000
,
0301
0000
0010
0000
0100
1000
0100
0000
1000
0000
0010
0000
0100
0001
0100
0000
,
0001
0000
0100
0000
0010
1000
0010
0000
1000
0001
1000
0001
1000
0001
1000
0000
,
1001
0000
0000
0000
;

//--------------- dance-single - Fred-104† ----------------
#NOTES:
     dance-single:
     Fred-104†:
     Challenge:
     16:
     :
0000
0000
0000
0000
,
0000
0000
0000
0000
,
0000
0000
0000
0000
,
0000
0000
0000
0000
,
0000
0000
0000
0000
,
0001
0010
0001
1000
0010
1000
0001
0010
,
0100
1000
0001
0100
0001
1000
0100
1000
,
0001
1000
0010
0100
0001
0100
0010
1000
,
0100
0000
1000
0000
0001
0000
1000
0000
0001
0000
0010
0000
0100
0000
1000
0100
,
0010
0001
1000
0000
0010
1000
0001
0000
0010
0100
1000
0000
0001
1000
0010
0000
,
0100
0001
1000
0000
0001
0010
0100
0000
1000
0100
0010
0000
0001
1000
0010
0000
,
0100
0010
1000
0000
0001
0010
0100
0000
1000
0001
0100
0000
0010
1000
0001
0000
,
1000
0100
0010
0000
0100
0010
0001
0000
0010
0001
1000
0000
0001
1000
0010
1000
,
0001
0000
0100
0010
0100
0000
1000
0000
0100
0000
0001
0000
1000
0000
0100
0000
,
0010
0000
0001
1000
0010
0000
1000
0001
0010
0000
0100
1000
0001
0000
0100
0000
,
0010
1000
0010
0000
0100
0001
0100
0000
0001
0010
0001
0000
1000
0100
1000
0000
,
0001
0010
0100
0000
0010
0100
1000
0000
0100
1000
0100
1000
0001
0000
1000
0001
,
1000
0000
0010
1000
0001
0000
0010
0100
1000
0000
0010
0000
0100
0000
1000
0000
,
0001
0000
0010
0100
0001
0000
1000
0100
0010
0000
0001
0000
1000
0000
0001
0000
,
0011
0000
0010
0100
1000
0000
0001
0000
1001
0000
1000
0010
0100
0000
0001
0000
,
1000
0100
1000
0000
0001
0100
0001
0000
1000
0100
0010
0001
1000
0100
0010
0000
,
0012
0000
2003
0000
,
3002
0000
0203
0000
,
0320
0000
2030
0000
,
3200
0000
0320
0032
,
1003
0000
0000
1000
0000
0000
1000
0000
0100
0000
0000
0100
0000
0000
0100
0000
,
0010
0000
0000
0010
0000
0000
0010
0000
0001
0000
0000
0001
0000
0000
0001
0000
,
2000
3020
0032
0203
,
2300
0000
0000
0000
3200
0000
0000
0000
0310
0001
1000
0000
0010
0100
0001
0000
,
1001
0000
0001
0010
0000
0010
0100
0000
0100
0000
0100
1000
0000
1000
0001
0000
,
0001
0000
0001
0100
0000
0100
0010
0000
0010
0000
0010
1000
0000
1000
0001
0000
,
0001
0000
0001
1000
0000
1000
0100
0000
0100
0000
0100
0010
0000
0010
0001
0000
,
0001
0000
0001
1000
0000
1000
0010
0000
0010
0000
0010
0100
0000
0100
0001
0000
,
1000
0100
1000
0100
0010
0001
1000
0000
0001
0100
0001
0100
0010
1000
0001
0000
,
0010
0100
0010
0100
1000
0100
0010
0000
0001
1000
0001
1000
0010
0100
0001
0000
,
1000
0100
0010
0001
2000
0000
0000
3000
0001
0100
0010
1000
0002
0000
0000
0003
,
0010
0100
0010
0100
1000
0001
1000
0001
0010
0100
1000
0001
0100
0010
1000
0001
,
0020
0000
0000
0000
,
0000
0000
0000
0000
,
0000
0000
0000
0000
,
0030
0000
0000
0200
2300
3020
0032
0023
,
0230
0000
0000
0000
,
0310
1000
0010
0000
0100
0001
0100
0000
0001
0010
0001
0000
1000
0100
1000
0000
,
0010
1000
0010
0000
0100
0001
0100
0000
0001
0010
0001
0000
1000
0100
1000
0000
,
0001
0010
0100
0000
1000
0100
0010
0000
0001
1000
0010
0100
0001
1000
0100
0000
,
0110
0000
0010
0000
0001
0000
1000
0001
1000
0001
1000
0000
0010
0000
0100
0001
,
1000
0000
0001
0010
0100
0000
1000
0001
0100
0001
0100
0000
0010
0000
1000
0001
,
0010
0001
0010
0000
0100
0000
1000
0001
0100
0001
1000
0000
0100
0000
0010
0001
,
0010
0100
0010
0000
0001
0000
1000
0010
1000
0001
0010
0100
1000
0001
1000
0000
,
1001
0000
0001
1000
0010
0000
1000
0001
0010
0100
1000
0000
0001
1000
0010
0000
,
1001
0000
1000
0001
0100
0000
0001
1000
0100
0010
0001
0000
1000
0010
0100
0000
,
0001
1000
0100
0010
0002
0000
0000
0003
1000
0010
0100
0001
2000
0000
0000
3000
,
1010
0000
0000
0000
0101
0000
0000
0000
1000
0100
0010
0001
1000
0100
0010
0000
,
0001
0000
1000
0001
0010
0000
0100
0000
1000
0001
0100
0001
0000
1000
0100
0000
,
0010
0000
0001
1000
0000
0010
1000
0000
0001
0010
0100
0010
0000
0001
1000
0000
,
0001
0000
0010
0100
0000
0100
1000
0001
1000
0000
0010
0100
0000
0100
0001
1000
,
0001
0000
1000
0100
0000
0100
0010
0001
1000
0000
0001
0100
0000
0100
0010
1000
,
0001
0000
0010
0100
0000
1000
0001
1000
0100
0000
0010
0100
0000
1000
0001
0100
,
0001
0000
1000
0100
0000
0010
0001
0010
0100
0000
1000
0001
0000
0100
0010
1000
,
0010
0000
0100
0001
0000
1000
0001
0000
0010
0100
1000
0100
0000
1000
0001
0000
,
0100
0000
0010
0000
1000
0000
0001
0010
0000
0100
1000
0001
0100
0010
1000
0001
,
0010
0000
0100
0000
1000
0000
0001
0000
1000
0100
1000
0100
0000
0010
0001
0000
,
1000
0010
1000
0010
0000
0100
0001
0000
1000
0100
0010
0001
0000
1000
0001
0000
,
0010
0100
0010
0100
0000
1000
0001
0000
0100
0001
1000
0001
0000
0010
0100
0000
,
0010
0001
0010
0001
0000
1000
0010
0000
0100
0001
1000
0001
0000
0010
0100
0000
,
1000
0000
0001
1000
0010
0000
1000
0000
0002
0000
0203
0000
2300
0000
3200
0000
,
0301
0000
2000
0000
3100
0000
0002
0000
0103
0000
2000
0000
3001
1000
0001
0000
,
0010
0100
0010
0100
2000
0000
3002
0000
0103
0010
0100
0010
2000
0000
3002
0000
,
0013
0100
0010
0100
1000
0001
1000
0001
0010
0100
1000
0001
0100
0010
1000
0001
,
0010
0000
0000
0000
;

//--------------- dance-double - Fred-104 ----------------
#NOTES:
     dance-double:
     Fred-104:
     Easy:
     6:
     :
00000000
00000000
00000000
00000000
,
00000000
00000000
00000000
00000000
,
00000000
00000000
00000000
00000000
,
00000000
00000000
00000000
00000000
,
00000000
00000000
00000000
00000000
,
20000000
00000000
30020000
00000000
,
00130000
00000000
01000000
10000000
,
00200000
00000000
00320000
00000000
,
00031000
00000000
00000010
00000001
,
00000200
00000000
00002300
00000000
,
00013000
00000000
00000100
00000010
,
00000002
00000000
00002003
00000000
,
00003010
00000000
00000100
00000001
,
00002000
00000000
00003020
00000000
,
00000130
00000001
00000010
00000100
,
00020000
00000000
00031000
00000000
,
00100000
01000000
10000000
00100000
,
00020000
00000000
00032000
00000000
,
00003100
00000001
00000010
00001000
,
00010000
00000000
00100000
00000000
,
01000000
00010000
00001000
00000100
,
00000220
00000000
00000000
00000330
,
00000002
00000000
00000000
00000000
,
00000203
00000000
00000320
00000000
,
00002030
00000000
00003200
00000000
,
00020300
00000000
00032000
00000000
,
00023000
00000000
02030000
00000000
,
23000000
00000000
30020000
00000000
,
20030000
00000000
31000000
00100000
,
00002000
00000000
00023000
00000000
,
00032000
00003020
00000032
00002003
,
00003200
00000000
00000320
00000000
,
00000032
00000203
00002300
00023000
,
02030000
00000000
23000000
00000000
,
30100000
10000000
00010000
00100000
,
02000000
03000000
20000000
30000000
,
00200000
00300000
00010000
00001000
,
00022000
00000000
00000000
00033000
,
00000200
00000000
00000000
00000300
,
00000020
00000000
00000000
00000030
,
00000002
00000000
00001003
00000001
,
00000200
00000000
00000320
00000000
,
00002030
00003200
00020300
00030200
,
00020300
00000000
00032000
00000000
,
02003000
03020000
10030000
00010000
,
10010000
00000000
01000000
00000000
,
00010000
00000000
00001000
00000000
,
00000100
00000000
00000001
00000000
,
00001000
00000001
00000100
00001000
,
00011000
00000000
00010000
01000000
,
01100000
00000000
10000000
01000000
,
00200000
00301000
00020000
00030010
,
00001000
00001001
00000000
00000000
,
00001001
00000010
00000001
00000100
,
00001000
00010000
01000000
10000000
,
20000000
00000000
30020000
00000000
,
10030000
01000000
00010000
00001000
,
00000100
00000001
00001000
00000010
,
00000200
00000000
00002300
00000000
,
00023000
00000000
00230000
00000000
,
20300000
00000000
30010000
10000000
,
10010000
00010000
10000000
01000000
,
00001000
00000010
00000100
00000001
,
00001000
00000010
00000100
00000001
,
00000100
00001000
00010000
00000100
,
00000020
00000000
00000032
00000000
,
00000203
00000000
00002300
00003000
,
00010000
01000000
10000000
00010000
,
10000000
01000000
00100000
00001000
,
00011000
00000000
00000000
00000000
;

//--------------- dance-double - Fred-104 ----------------
#NOTES:
     dance-double:
     Fred-104:
     Medium:
     9:
     :
00000000
00000000
00000000
00000000
,
00000000
00000000
00000000
00000000
,
00000000
00000000
00000000
00000000
,
00000000
00000000
00000000
00000000
,
00000000
00000000
00000000
00000000
,
00001000
00000001
00000100
00000000
00000001
00001000
00000100
00000000
,
00000010
00000001
00000100
00000000
00000010
00001000
00000100
00000000
,
00000010
00001000
00010000
00000100
,
00000010
00000001
00000100
00001000
,
00010000
00001000
01000000
00000000
00100000
10000000
01000000
00000000
,
00100000
00010000
01000000
00000000
00010000
00100000
10000000
00000000
,
00100000
00010000
10000000
01000000
,
00100000
00001000
00010000
00010000
,
00002000
00000000
00000000
00010000
00000000
00010000
00000000
00013000
,
00000000
00000010
00001000
00000000
00000100
00000000
00000010
00000001
,
00000000
00000010
00000100
00000000
00000010
00000000
00000010
00000000
,
00000001
00000000
00000000
00000000
00000100
00000000
00000000
00000000
00000010
00000000
00000000
00000010
00010000
00000000
00010000
00000000
,
00001000
00000000
00010000
00000000
00001000
00010000
00000010
00010000
,
00000000
00000010
00000000
00001000
00000000
00000001
00000010
00000100
,
00000000
00001000
00000001
00000000
00000100
00000000
00001000
00000000
,
00010000
00100000
10000000
01000000
,
20020000
00000000
00000000
30030000
,
20000000
00000000
00000000
00000000
,
30020000
00000000
02030000
00000000
,
03002000
00023000
00030020
00002030
,
00003002
00000000
00000023
00000000
,
00002030
00000000
00023000
00000000
,
02030000
00000000
23000000
00000000
,
30020000
00000000
00230000
00000000
01300000
10000000
00100000
01000000
,
00010000
00000000
00000000
10000000
00000000
00000000
01000000
00000000
00100000
00000000
00000000
00000000
00001000
00000000
00000000
00000000
,
01000000
00000000
00000000
00001000
00000000
00000000
00010000
00000000
00001000
00000000
00000000
00000000
00000100
00000000
00000000
00000000
,
00000001
00000000
00000000
00000001
00000000
00000000
00000001
00000000
00001000
00000000
00000000
00001000
00000000
00000000
00001000
00000000
,
00000100
00000000
00000000
00000100
00000000
00000000
00000100
00000000
00000010
00000000
00000000
00000010
00000000
00000000
00000010
00000000
,
00000001
00000000
00000100
00000000
00001000
00000000
00010000
00020000
,
00000000
02030000
00000000
23000000
30010000
00100000
01000000
00000000
,
20000000
30000000
00020000
00030000
,
01100000
00000000
10000000
00000000
00100000
00010000
00000100
00000010
,
00000002
00000000
00000203
00000000
,
00000320
00000000
00002030
00000000
,
00023000
00000000
02030000
00000000
,
03200000
00000000
20300000
00000000
,
30020000
00000000
02030000
00000000
,
23000000
00000000
32000000
00000000
,
03020000
00000000
00230000
00000000
,
00302000
00000000
00000000
00000000
00013000
00001000
00000100
00000000
,
00000202
00000000
00000303
00000000
00000001
00000010
00001000
00000000
,
00022000
00000000
00033000
00000000
00001000
00010000
00100000
00000000
,
02200000
00000000
03300000
00000000
10000000
01000000
00010000
00000000
,
00022000
00000000
00033000
00000000
00001000
00000100
00000001
00000000
,
00000001
00000020
00000100
00000000
00000001
00000000
00000130
00000000
,
00010000
00002000
00010000
00000000
00100000
00000000
00013000
00000000
,
00011000
00100000
00011000
00000010
,
00011000
00001001
00000000
00000000
,
00001001
00000000
00000000
00000000
00000001
00000000
00000000
00000000
00000010
00000000
00000000
00001000
00000000
00000000
00010000
00000000
,
00100000
00000000
10000000
00000000
00010000
00000000
00000000
00000000
00100000
00000000
00000000
00010000
00000000
00000000
10000000
00000000
,
00200000
01300000
00020000
10030000
,
02000000
00000000
00000000
00000000
03010000
00000000
00000000
00000000
00000100
00000000
00000000
00000010
00000000
00000000
00000001
00000000
,
00001000
00000000
00000000
00000000
00000010
00000000
00000000
00000000
00000100
00000000
00000000
00000001
00000000
00000000
00000010
00000000
,
00002000
00003010
00000002
00000103
,
00001000
00000000
00000000
00001000
00000000
00000000
00010000
00000000
01000000
00000000
00000000
10000000
00000000
00000000
10000000
00000000
,
00100000
00000000
01000000
00000000
00010000
00010000
10000000
00000000
,
10010000
00000000
00000000
00000000
00100000
00000000
00000000
00000000
00010000
00000000
00000000
00001000
00000000
00000000
00000010
00000000
,
00000001
00000000
00000000
00000001
00000000
00000000
00000100
00000000
00000010
00000000
00000000
00001000
00000000
00000000
00000100
00000000
,
00000010
00000000
00000000
00000001
00000000
00000000
00000001
00000000
00000100
00000000
00000000
00001000
00000000
00000000
00001000
00000000
,
00010000
00000000
00000000
01000000
00000000
00000000
01000000
00000000
10000000
00000000
00010000
00000000
01000000
00000000
00000000
00000000
,
00100000
00000000
00010000
00000000
00001000
00000010
00000001
00002000
,
00000000
00003020
00000000
00000130
00000100
00000001
00001000
00000000
,
00000100
00000010
00000001
00000000
00000100
00000010
00001000
00000000
,
00000001
00000100
00000010
00010000
01000000
00100000
00010000
00000000
,
10010000
00000000
00000000
00000000
;

//--------------- dance-double - Fred-104 ----------------
#NOTES:
     dance-double:
     Fred-104:
     Hard:
     13:
     :
00000000
00000000
00000000
00000000
,
00000000
00000000
00000000
00000000
,
00000000
00000000
00000000
00000000
,
00000000
00000000
00000000
00000000
,
00000000
00000000
00000000
00000000
,
00001000
01000000
00010000
01000000
00100000
10000000
00010000
10000000
,
01000000
00100000
01000000
00010000
00001000
00000100
00000001
00001000
,
00000001
00000100
00001000
00000100
00000010
00000001
00000010
00001000
,
00000001
00000010
00000100
00001000
00000010
00000100
00001000
00010000
,
00001000
00100000
00010000
00100000
00010000
00100000
01000000
10000000
,
00100000
01000000
00100000
10000000
01000000
00100000
00010000
01000000
,
00001000
00000100
00000010
00001000
00000100
00000010
00001000
00010000
,
01000000
00100000
00010000
10000000
00100000
00010000
00001000
00001000
,
00010000
00001000
00000100
00000210
00000300
00000021
00000030
00001020
,
00000030
00000020
00000230
00000302
00000013
00000100
00010000
00020000
,
00000000
00032000
00023000
00000000
00030100
00010000
00001000
00010000
,
00100000
00000000
01000000
00000000
00001000
00000000
00010000
00000000
00001000
00000000
00000000
00001000
00010000
00000000
00001000
00000000
,
00100000
00010000
10000000
00100000
00010000
00001000
00010000
00000020
,
00000000
00020030
00000000
00032000
00000000
00003200
00000302
00001003
,
00001010
00000010
00000100
00000000
00000001
00000010
00000100
00000000
,
00001000
00000010
00000100
00000000
00000001
00000100
00001000
00010000
,
00012000
00000000
00000000
00000000
,
00203000
00000000
00000000
00000000
,
00320000
00000000
20030000
00000000
,
30200000
00000000
02300000
00000000
,
03020000
00000000
20030000
00000000
,
32000000
00000000
03200000
00000000
,
00302000
00000000
00003020
00000000
,
00000032
00000000
00002003
00000000
00003010
00000010
00000100
00000001
,
00001000
00000000
00000000
00000100
00000000
00000000
00000100
00000000
00000010
00000000
00000000
00000001
00000000
00000000
00000001
00000000
,
00001000
00000000
00000000
00000010
00000000
00000000
00000010
00000000
00010000
00000000
00000000
00001000
00000000
00000000
00001000
00000000
,
00100000
00000000
00000000
00010000
00000000
00000000
10000000
00000000
00100000
00000000
00000000
01000000
00000000
00000000
00100000
00000000
,
00010000
00000000
00000000
00001000
00000000
00000000
00000100
00000000
00000010
00000000
00000000
00010000
00000000
00000000
00001000
00000000
,
00020000
00000000
00001000
00000000
00031000
00001000
00010000
00002000
,
00000000
00003020
00000000
00000230
00002300
00003002
00001003
00000000
,
00000100
00020010
00031000
01002000
,
00013000
00000000
00001000
00020000
00230000
02300000
03020000
10030000
,
22000000
00000000
00000000
30000000
,
00200000
00000000
00000000
03000000
,
00002000
00000000
00300000
00000000
,
00020000
00033000
00020000
00030020
,
00001030
00000020
00000001
00000000
00000100
00000000
00010030
00000000
,
00001000
00020000
00000010
00000000
00001000
00000000
00030010
00000000
,
00001000
00020000
00000100
00000000
00001000
00000000
00030100
00000000
,
00001000
00020000
00001000
00000000
00031000
00010000
01000000
10000000
,
10100000
00000000
00000000
00000000
00010000
00000000
00000000
00000000
00100000
00001000
00100000
00001000
00100000
00000000
00000000
00000000
,
00011000
00000000
00000000
00000000
00000010
00000000
00000000
00000000
00000100
00000010
00000100
00000010
00000100
00000000
00000000
00000000
,
00001001
00000000
00000000
00000000
00000001
00000000
00000000
00000000
00001000
00000100
00001000
00000100
00000010
00000000
00000000
00000000
,
00000011
00000000
00000000
00000000
00001000
00000000
00000000
00000010
00001000
00000001
00001000
00000000
00000100
00000000
00010000
00000000
,
00022000
00000000
00000000
00000000
00033000
00000000
00000000
00000000
00100000
00010000
00100000
00000000
01000000
00000000
00000000
00000000
,
20020000
00000000
00000000
00000000
30030000
00000000
00000000
00000000
01000000
00100000
01000000
00000000
00100000
00000000
00000000
00000000
,
11000000
00010000
00101000
00010000
,
00001010
00000000
00001001
00000000
00000001
00000010
00000100
00001000
,
00000001
00000000
00000100
00000000
00001000
00000000
00010000
00000000
00001000
00000000
00000000
00000010
00000000
00000000
00000001
00000000
,
00000100
00000000
00000010
00000000
00000100
00000000
00001000
00000000
00010000
00000000
00000000
00100000
00000000
00000000
01000000
00000000
,
00010000
00000000
00000000
10000000
00000000
00000000
01000000
00000000
10000000
00000000
00000000
00100000
00000000
00000000
01000000
00000000
,
00100000
00000000
00000000
00010000
00000000
00000000
00001000
00000000
00000010
00000000
00000000
00000001
00000000
00000000
00001000
00000000
,
00000100
00000000
00000010
00000000
00001000
00000000
00010000
00000000
00001000
00000000
00000000
00010000
00000000
00000000
00001000
00000000
,
00100000
00000000
00000000
00010000
00000000
00000000
01000000
00000000
00001000
00000000
00000000
00010000
00000000
00000000
00000100
00000000
,
00001000
00000000
00000000
00000001
00000000
00000000
00000010
00000000
00001000
00000000
00000000
00010000
00000000
00000000
01000000
00000000
,
10000000
00000000
01000000
00000000
00100000
00000000
00001000
00010000
00000000
00001000
00010000
00000100
00010000
00000000
00001000
00000000
,
00010000
00000000
00001000
00000000
00000010
00000000
00000100
00000000
00001000
00000000
00000001
00001000
00000000
00000100
00001000
00000000
,
00000010
00000000
00010000
00000010
00000000
00000100
00000010
00000000
00001000
00000000
00000100
00000010
00000000
00000001
00000100
00000000
,
00000010
00000000
00001000
00000010
00000000
00001000
00000100
00000000
00010000
00000000
00001000
00010000
00000000
00001000
00100000
00000000
,
00001000
00000000
00010000
00001000
00000000
01000000
00001000
00000000
00100000
00000000
00010000
10000000
00000000
00010000
01000000
00000000
,
00200000
00000000
10000000
00000000
00320000
00032000
00003200
00000302
,
00000000
00002003
00000000
00003002
00000203
00002300
00023000
00000000
,
00031000
00100000
00010000
10000000
01000000
00100000
00001000
00010000
,
00001000
00000000
00000100
00000000
00000010
00000000
00001000
00000000
00000001
00000010
00000001
00000010
00000001
00000010
00000001
00000010
,
00000100
00000000
00000000
00000000
;

//--------------- dance-double - Fred-104† ----------------
#NOTES:
     dance-double:
     Fred-104†:
     Challenge:
     15:
     :
00000000
00000000
00000000
00000000
,
00000000
00000000
00000000
00000000
,
00000000
00000000
00000000
00000000
,
00000000
00000000
00000000
00000000
,
00000000
00000000
00000000
00000000
,
00010000
00001000
00010000
00000010
00001000
00000001
00000010
00000100
,
00001000
00000001
00000100
00001000
00010000
00001000
01000000
00010000
,
10000000
00010000
00100000
01000000
10000000
00010000
01000000
00100000
,
00010000
00001000
00000100
00000010
00001000
00000001
00000010
00000100
,
00001000
00000001
00000100
00000000
00000010
00000000
00001000
00000000
00000001
00000010
00000100
00000000
00010000
00000000
00001000
00000000
,
01000000
00010000
01000000
00000000
00001000
00000000
00010000
00000000
00000100
00001000
00000100
00000000
00010000
00000000
00001000
00000000
,
00100000
00010000
10000000
00000000
01000000
00000000
00100000
00000000
00001000
00010000
00000010
00000000
00001000
00000000
00000010
00000000
,
00000100
00000001
00001000
00000000
00000100
00000000
00000010
00000000
00000001
00001000
00000010
00001000
00000001
00000000
00000010
00000000
,
00000001
00000000
00000100
00000010
00000100
00000000
00001000
00000000
00010000
00000000
00100000
00000000
10000000
00000000
00010000
00000000
,
00100000
10000000
00100000
00001000
00000010
00001000
00010000
00001000
,
01000000
00001000
00000100
00000010
00001000
00000100
00000010
00000001
,
00000100
00001000
00010000
00100000
10000000
00010000
00100000
01000000
,
10000000
00000000
00010000
01000000
00010000
00000000
10000000
01000000
00100000
00000000
00001000
00000000
00010000
00000000
00001000
00000000
,
00000100
00000001
00001000
00000100
00000010
00000001
00000100
00000010
,
00001010
00000000
00001000
00000001
00000010
00000000
00000100
00000000
00010100
00000000
00010000
00001000
01000000
00000000
00010000
00000000
,
10000000
01000000
10000000
00000000
00010000
01000000
00010000
00000000
10000000
01000000
00100000
00000000
00001000
00010000
00001000
00000000
,
00021000
00000000
00000000
00000000
,
00032000
00000000
00000000
00000000
,
00023000
00000000
00032000
00000000
,
00003020
00000000
00000032
00000000
,
00002003
00003002
00000203
00002300
,
00023000
00230000
20300000
32000000
,
03020000
00032000
00003020
00000032
,
00000203
00000000
00000000
00000000
00002300
00000000
00000000
00000000
00013000
00001000
00010000
00000000
00001000
01000000
00001000
00000000
,
00011000
00000000
00001000
00010000
00000000
00010000
00100000
00000000
01000000
00000000
00010000
10000000
00000000
10000000
01000000
00000000
,
00100000
00000000
00001000
00010000
00000000
00010000
00000010
00000000
00001000
00000000
00000001
00000010
00000000
00000010
00000100
00000000
,
00010000
00000000
00001000
00010000
00000000
00010000
00000100
00000000
00001000
00000000
00000001
00000100
00000000
00000100
00000010
00000000
,
00001000
00000000
00000001
00000010
00000000
00000010
00000100
00000000
00010000
00000000
00001000
01000000
00000000
01000000
00010000
00000000
,
00100000
01000000
10000000
00000000
00010000
10000000
00100000
00000000
01000000
00010000
00100000
00000000
00001000
00010000
00000100
00000000
,
00001000
00000001
00000100
00000000
00000010
00001000
00000001
00000000
00000010
00000100
00001000
00000000
00000100
00010000
00001000
00000000
,
00010000
00000010
00001000
00000010
00020000
00000000
00000000
00030000
00001000
00100000
00010000
00100000
00002000
00000000
00000000
00003000
,
00010000
00001000
00010000
00001000
00000010
00000100
00000010
00000100
00000010
00000001
00000010
00000001
00001000
00000010
00001000
00000001
,
00000200
00000000
00000000
00000000
,
00000000
00000000
00000000
00000000
,
00000000
00000000
00000000
00000000
,
00000300
00000000
00000000
00000002
00000023
00002030
00023000
00230000
,
20300000
00000000
00000000
00000000
,
31000000
00100000
01000000
00000000
00100000
00001000
00100000
00000000
00001000
00010000
00001000
00000000
00010000
00000010
00010000
00000000
,
00000010
00001000
00000010
00000000
00010000
00001000
00010000
00000000
00000100
00001000
00000100
00000000
00010000
00001000
00010000
00000000
,
00001000
01000000
00001000
00000000
01000000
00010000
01000000
00000000
00010000
10000000
01000000
00100000
00010000
00100000
00001000
00000000
,
00011000
00000000
00010000
00000000
00000100
00000000
00001000
00000001
00000100
00000001
00001000
00000000
00000100
00000000
00000010
00000001
,
00000010
00000000
00000100
00000000
00010000
00000000
00001000
00010000
00001000
00010000
00100000
00000000
01000000
00000000
00010000
10000000
,
01000000
00000000
00100000
00000000
00001000
00000000
00010000
00001000
01000000
00001000
00010000
00000000
00001000
00000000
00000100
00000001
,
00000100
00000000
00000010
00000000
00001000
00000000
00000001
00000010
00000100
00001000
00000100
00010000
00001000
01000000
00001000
00000000
,
00011000
00000000
00010000
00000000
00000100
00000000
00001000
00000100
00000010
00000001
00001000
00000000
00000001
00000100
00000010
00000000
,
00001010
00000000
00001000
00000000
00000001
00000000
00000010
00000100
00001000
00000100
00010000
00000000
00001000
01000000
00010000
00000000
,
10000000
01000000
00100000
00010000
20000000
00000000
00000000
30000000
00010000
01000000
00100000
10000000
00020000
00000000
00000000
00030000
,
10100000
00000000
01010000
00000000
10000000
01000000
00010000
00001000
,
00010000
00000000
00000100
00000000
00001000
00000000
00000100
00000000
00000010
00000001
00001000
00000010
00000000
00000100
00000001
00000000
,
00001000
00000000
00000010
00000000
00000100
00000000
00001000
00000000
00010000
00001000
01000000
00001000
00000000
00010000
00001000
00000000
,
00100000
00000000
00010000
00100000
00000000
01000000
10000000
00010000
10000000
00000000
00100000
01000000
00000000
00001000
00010000
00000010
,
00001000
00000000
00000100
00000010
00000000
00000001
00001000
00000010
00010000
00000000
00001000
00100000
00000000
00010000
10000000
00010000
,
00100000
00000000
01000000
10000000
00000000
00100000
10000000
01000000
00100000
00000000
00001000
00010000
00000000
00000100
00001000
00000010
,
00001000
00000000
00000100
00000010
00000000
00000001
00001000
00000010
00001000
00000000
00000001
00000010
00000000
00000100
00001000
00000100
,
00010000
00000000
00001000
01000000
00000000
00010000
10000000
00010000
00100000
00000000
01000000
00100000
00000000
00001000
00010000
00000000
,
00001000
00000000
00010000
00000000
00000010
00000000
00001000
00000100
00000000
00000010
00000001
00001000
00000010
00000100
00000001
00001000
,
00000100
00000000
00000010
00000000
00000001
00000000
00000100
00000000
00001000
00010000
00001000
00010000
00000000
00100000
01000000
00000000
,
00010000
10000000
00010000
10000000
00000000
01000000
00100000
00000000
00001000
00010000
00001000
00010000
00000000
00000010
00001000
00000000
,
00000100
00000010
00000001
00000010
00000000
00000100
00010000
00000000
00001000
00100000
00010000
00100000
00000000
01000000
10000000
00000000
,
00010000
10000000
00100000
10000000
00000000
01000000
00100000
00000000
00001000
00010000
00000010
00010000
00000000
00001000
00010000
00000000
,
00001000
00000000
00010000
00001000
00000100
00000000
00000001
00000000
00001000
00000000
00000010
00000000
00000001
00000000
00000010
00000000
,
00000100
00000000
00000001
00000000
00000010
00000000
00001000
00000000
00010000
00000000
01000000
10000000
01000000
00000000
00100000
00000000
,
00001000
00010000
00000010
00010000
00002000
00000000
00203000
00000000
00310000
10000000
00100000
10000000
02000000
00000000
03200000
00000000
,
00301000
00010000
00001000
00010000
00000010
00001000
00000010
00001000
00000100
00000010
00000001
00001000
00000010
00000100
00000001
00001000
,
00000100
00000000
00000000
00000000
;
