
//----- song ID: shin3 -----//
#VERSION:0.83;
#TITLE:THE SHINING POLARIS(kors k mix);
#ARTIST:Remixed by kors k;
#GENRE:UK HARD CORE;
#BANNER:THE SHINING POLARIS(kors k mix).png;
#BACKGROUND:THE SHINING POLARIS(kors k mix)-bg.png;
#CDTITLE:./CDTitles/bm IIDX 16 EMPRESS.png;
#MUSIC:THE SHINING POLARIS(kors k mix).ogg;
#SAMPLESTART:104.479;
#SAMPLELENGTH:15;
#BPMS:0=172;
#BGSTAGE:22;

//--------------- dance-single - Fred-104 ----------------
#NOTEDATA:;
#STEPSTYPE:dance-single;
#DESCRIPTION:Fred-104;
#DIFFICULTY:Beginner;
#METER:3;
#CREDIT:Fred-104;
#NOTES:
0000
0000
0000
0000
,
0000
0000
0000
0000
,
0000
0000
0000
0000
,
0000
0000
0000
0000
,
0000
0000
0000
0000
,
0000
0000
0000
0000
,
0000
0000
0000
0000
,
0001
0000
0000
0000
,
0001
0000
0001
0000
,
0010
0000
0100
0000
,
0100
0000
1000
0000
,
1000
0000
0000
0000
,
0001
0000
0001
0000
,
0001
0000
0100
0000
,
1000
0000
0100
0000
,
0001
0000
0000
0000
,
1000
0000
0100
0000
,
0001
0000
0100
0000
,
1000
0000
1000
0000
,
0001
0000
0001
0000
,
1000
0000
1000
0000
,
0020
0000
0000
0000
,
0030
0000
0000
0000
,
0100
0000
0100
0000
,
0001
0000
1000
0000
,
0002
0000
0000
0000
,
0003
0000
0000
0000
,
1000
0000
1000
0000
,
0200
0000
0000
0000
,
0310
0000
0010
0000
,
0002
0000
0000
0003
,
1001
0000
0000
0000
,
0000
0000
0000
0000
,
1000
0000
1000
0000
,
0001
0001
0001
0001
,
1001
0000
0000
0000
,
0000
0000
0000
0000
,
2000
0000
0000
3000
,
0002
0000
0000
0003
,
2000
0000
0000
3000
,
0002
0000
0000
0003
,
2000
0000
0000
0000
,
0000
0000
0000
3000
,
1001
0000
0000
0000
,
0001
0000
0000
0000
,
0100
0000
0000
0000
,
1000
0000
0000
0000
,
1000
0000
0000
0000
,
0010
0000
0000
0000
,
0002
0000
0000
0000
,
0000
0000
1003
1000
,
2000
0000
0000
3000
,
0002
0000
0000
0003
,
2000
0000
0000
3000
,
0002
0000
0000
0003
,
0020
0000
0000
0030
,
0200
0000
0000
0300
,
0020
0000
0000
0030
,
0110
0000
0000
0000
,
1000
0000
0000
0000
,
0100
0000
0100
0000
,
0010
0000
0000
0000
,
0001
0000
1000
0000
,
0001
0000
0000
0000
,
0100
0000
0100
0000
,
0100
0000
0000
0000
,
0010
0000
0010
0000
,
0010
0000
0000
0000
,
1000
0000
1000
0000
,
0001
0000
0000
0000
,
1000
0000
0001
0000
,
1000
0000
0000
0000
,
0100
0000
0010
0000
,
0010
0000
0001
0001
,
1001
0000
0000
0000
,
2000
0000
0000
3000
,
0002
0003
2000
3000
,
0002
0000
0000
0003
,
2000
3000
0002
0003
,
0200
0300
0020
0030
,
0200
0300
0020
0030
,
0200
0000
0000
0000
,
0000
0000
0300
0000
,
0002
0000
0000
0003
,
2000
0000
0000
3000
,
0002
0003
2000
3000
,
0001
0000
1000
0000
,
1001
0000
0000
0000
,
1001
0000
0000
0000
,
1000
0000
1000
0000
,
0001
0001
0001
0001
,
2002
0000
0000
0000
,
0000
0000
0000
0000
,
3003
0000
0000
0000
;

//--------------- dance-single - Fred-104 ----------------
#NOTEDATA:;
#STEPSTYPE:dance-single;
#DESCRIPTION:Fred-104;
#DIFFICULTY:Easy;
#METER:7;
#CREDIT:Fred-104;
#NOTES:
0000
0000
0000
0000
,
0000
0000
0000
0000
,
0000
0000
0000
0000
,
0001
0000
1000
0000
,
0001
0001
0010
0010
,
0100
0100
1000
1000
,
0001
0001
0100
0010
,
0110
0000
0100
0000
,
0001
0001
1000
1000
,
0100
0100
0010
0010
,
0001
1000
0001
1000
,
1001
0000
0001
0000
,
1000
0010
1000
0010
,
0100
0001
0100
0001
,
1000
0100
0010
0001
,
1001
0000
0001
1000
,
0010
0010
1000
0001
,
1001
0000
1001
0000
,
1001
0000
1001
0000
,
1001
0000
1000
1000
,
0001
0100
0010
1000
,
0002
0000
2003
0000
,
3100
0100
0010
0010
,
0110
0000
0001
0001
,
1000
0001
0100
0100
,
0002
0000
2003
0000
,
3100
0100
0010
0100
,
1001
0000
0001
0100
,
1000
0100
0001
0000
,
1001
0000
1000
0100
,
0001
0100
1000
0000
,
1001
0000
0001
0000
,
0010
0000
0100
0000
,
1000
0000
0001
0000
,
1000
1000
0001
0001
,
1000
0002
0003
0100
,
1000
0010
0001
0100
,
0010
2000
3000
0100
,
1000
0010
1000
0001
,
0010
0100
0010
0001
,
1000
0010
1000
1000
,
0002
0003
2000
3000
,
0002
0003
2000
3000
,
0020
0030
1000
0100
,
2000
3000
0001
0010
,
0002
0003
0010
1000
,
0200
0300
0001
1000
,
0100
0001
1000
0010
,
0002
0000
2003
3000
,
2002
0000
0000
0000
,
0000
3003
1001
0000
,
2000
0000
0000
0000
,
3002
0000
0203
0000
,
0320
0000
0000
0000
,
0230
0000
0302
0000
,
2003
0000
0000
0000
,
3200
0000
0320
0000
,
0031
0001
0001
0001
,
2002
0000
0000
3003
,
1000
1000
0010
0100
,
0100
0000
0001
0000
,
1000
0100
0010
0100
,
1000
0000
0001
0000
,
1000
1000
0010
0010
,
0001
0000
0010
0000
,
0100
0100
0010
1000
,
0001
0000
1000
0000
,
0001
0000
0100
0000
,
1000
1000
0100
0010
,
0100
0000
0001
0000
,
1000
0100
0010
0100
,
1000
0000
0001
0000
,
0100
0100
0010
0010
,
0100
0100
0001
0001
,
2002
0000
0000
3003
,
1000
1000
0010
1000
,
0100
0100
0010
0001
,
1000
1000
0010
0001
,
0010
1000
1001
0000
,
0001
0001
0010
0001
,
0100
0100
0010
0100
,
0001
1000
0100
0001
,
0100
1000
1001
0000
,
0001
0010
0001
0010
,
1000
0100
0001
1000
,
0001
0100
0001
0100
,
1000
0010
0001
1000
,
1001
0000
0001
0100
,
0110
0000
1000
0100
,
0110
0000
0110
0000
,
0001
0001
1000
1000
,
2002
0000
0000
0000
,
0000
0000
0000
0000
,
3003
0000
0000
0000
;

//--------------- dance-single - Fred-104 ----------------
#NOTEDATA:;
#STEPSTYPE:dance-single;
#DESCRIPTION:Fred-104;
#DIFFICULTY:Medium;
#METER:10;
#CREDIT:Fred-104;
#NOTES:
0000
0000
0000
0000
,
0000
0000
0000
0000
,
0000
0000
0000
0000
,
1000
0100
1000
0000
0001
1000
0010
0200
,
0000
0302
0000
2003
0000
3200
0000
0302
,
0000
0203
0000
2300
0000
3002
0000
0203
,
0000
0320
0000
1030
0001
0010
0100
1000
,
0001
0100
0010
0000
0100
0001
1000
0002
,
0000
0013
1000
0010
0002
0000
1003
0002
,
0000
0103
0001
0100
0001
0000
1000
0000
,
0100
0000
0010
0000
0001
1000
0010
1000
,
0010
0100
0010
0000
1000
0001
1000
0200
,
0000
0320
0000
0032
0000
1003
0001
0200
,
0000
0320
0000
0230
0000
0310
1000
0002
,
0000
0013
0100
1000
0001
0100
0001
0100
,
0001
1000
0100
0000
0010
0000
0001
1000
,
0010
0100
0002
0000
2003
0000
3002
0000
,
1003
0100
0001
0000
1000
0010
0001
0000
,
1000
0001
0100
0000
0010
1000
0001
0000
,
1001
1000
0100
0010
,
0001
0100
0001
0000
0010
0100
1000
0000
,
0001
0010
1000
0000
0001
0100
1000
0000
,
0001
0100
1000
0000
0001
0010
1000
0000
,
1001
1000
0010
0100
,
0001
0010
0001
0000
0100
0001
1000
0000
,
0001
0010
1000
0000
0001
0100
1000
0000
,
0001
0100
1000
0000
0001
0010
1000
0000
,
1001
0000
0001
0000
0010
0100
1000
0000
,
0010
0100
0001
0000
0100
0001
1000
0000
,
0100
0000
0010
0001
1000
0001
0100
0000
,
0001
0010
1000
0000
0001
0100
1000
0000
,
1001
0000
1000
0100
,
0001
0100
1000
0001
,
0100
0010
1000
0000
0010
0100
0001
0000
,
1000
0100
0010
0001
1000
0010
1000
0000
,
0200
0000
0000
0300
,
0020
0000
0000
0030
,
0001
1000
0100
0000
1000
0000
0100
0000
,
0010
0000
0001
0000
1000
0001
0100
0000
,
0002
0000
0200
0303
,
2000
0000
0200
3300
,
0001
1000
0010
0100
0001
0100
0001
1000
,
0010
0000
1000
0000
0100
0010
0001
0000
,
2000
3002
0023
0230
,
2300
3002
0203
0320
,
2030
3100
0002
0103
,
0020
0000
1030
0000
0010
0001
1000
0000
,
0002
2003
3200
0320
,
0032
2003
3020
0230
,
0302
0003
2000
3000
,
0220
0000
0330
0000
,
0002
0000
2003
0000
,
3010
1000
0100
0010
,
0001
0001
1000
0010
,
0200
0000
0302
0000
,
2003
0000
3200
0000
,
0301
0100
0010
0001
,
1000
0010
1000
0000
0001
0010
0001
0000
,
2002
0000
0000
3003
,
0001
0000
0010
0000
0100
1000
0100
0000
,
1000
0000
0001
0000
0100
0010
0100
0000
,
0010
0000
1000
0000
0100
0010
0001
0000
,
1000
0000
0000
0010
0000
0000
1000
0000
0010
0000
0000
0100
0000
0000
0001
0000
,
0010
0000
0100
0000
0010
0100
1000
0000
,
0001
0000
0100
0000
0010
1000
0001
0000
,
0010
0000
0100
0000
1000
0001
1000
0000
,
0001
0000
0000
0010
0000
0000
0001
0000
0100
0000
0000
0010
0000
0000
0010
0000
,
1000
0000
0001
0000
0010
0100
1000
0000
,
0001
0000
0100
0000
0010
1000
0010
0000
,
0100
0000
0001
0000
1000
0100
0010
0000
,
0001
0000
0000
1000
0000
0000
0010
0000
0100
0000
0000
0001
0000
0000
0010
0000
,
0001
0000
1000
0000
0100
0010
0001
0000
,
1000
0000
0010
0000
0100
0001
1000
0000
,
0001
0010
0100
0000
1000
0001
1000
0000
,
2002
0000
3000
0003
,
1000
0000
0010
0000
0100
0001
0100
0000
,
0010
0000
1000
0000
0001
0010
0100
0000
,
1000
0000
0001
0000
1000
0010
0100
0000
,
0010
0000
0000
1000
0000
0000
0010
0000
0100
0000
0000
0001
0000
0000
1000
0000
,
0100
0000
0010
0000
0001
1000
0010
0000
,
0100
0000
0010
0000
0100
0001
0010
0000
,
0100
0000
1000
0000
0001
1000
0010
0000
,
0100
0000
0000
0001
0000
0000
0100
0000
0010
0000
0000
1000
0000
0000
0001
0000
,
0010
0000
0100
0000
0010
0001
1000
0000
,
0010
0100
0010
0000
1000
0100
1000
0000
,
0100
0000
0010
0000
0001
1000
0010
0000
,
0100
0001
1000
0000
0100
0010
0001
0000
,
1001
0000
0000
0000
1000
0100
0001
0000
,
0001
0100
1000
0000
0001
1000
0001
0000
,
1000
1010
0001
0011
,
1000
0100
1000
0100
0010
0001
0010
0001
,
2000
0000
0000
0000
,
0000
0000
0000
0000
,
3000
0000
0000
0000
;

//--------------- dance-single - Fred-104 ----------------
#NOTEDATA:;
#STEPSTYPE:dance-single;
#DESCRIPTION:Fred-104;
#DIFFICULTY:Hard;
#METER:15;
#CREDIT:Fred-104;
#NOTES:
0000
0000
0000
0000
,
0000
0000
0000
0000
,
0000
0000
0000
0000
,
0001
0010
0100
0010
0001
1000
0010
0110
,
0000
0101
0000
1100
0000
0011
0000
1100
,
0000
0101
0000
1010
0000
0011
0000
1010
,
0000
1100
0000
1001
0001
0100
0010
1000
,
0001
1000
0100
0020
0000
1030
0010
0002
,
0000
0000
1003
0000
0001
0100
0001
0000
1000
0000
0010
1000
0010
0000
1000
0000
,
0001
0000
0010
0000
0100
1000
0100
1000
0100
0000
1000
0000
0002
0000
0000
0000
,
0103
0000
0010
1000
0010
0000
0100
0001
0100
0000
0001
0000
1000
0000
0100
0000
,
0010
0001
0100
0010
0001
1000
0100
0101
,
0000
0000
1010
0000
0000
0000
0011
0000
0000
0000
1000
0100
1000
0100
1000
0000
,
0000
0000
1001
0000
0000
0000
0001
0100
0001
0000
1000
0100
1000
0000
0001
0000
,
0100
2000
3200
0302
0013
1000
0010
0001
,
1000
0000
0010
0000
0100
0000
0001
0000
0010
0001
0010
0001
0010
0000
0001
1000
,
0001
0000
0100
0001
0100
0000
0010
1000
0010
1000
0010
1000
0001
0000
1000
0000
,
1100
0010
0001
0000
0101
0010
1000
0000
,
0001
0010
0001
0000
1000
0010
1000
0000
0001
0100
0001
0100
0001
0100
0001
0000
,
1001
0000
0001
1000
0010
1000
0001
0020
,
0000
0130
0001
0200
0000
1300
0001
0100
,
1000
0100
0002
0000
1003
0100
0020
0000
,
0031
0100
0001
0000
1000
0010
1000
0000
0001
0000
0010
0100
0000
1000
0001
0000
,
1001
0000
0001
1000
0010
0100
1000
0200
,
0000
0301
1000
0200
0000
0301
0100
0010
,
0001
1000
0010
0010
0001
1000
0100
0100
,
0001
1000
0001
0000
0100
0010
0100
0000
0001
0000
1000
0100
0000
0010
0001
0000
,
1001
0000
0010
0001
1000
0010
0100
1000
,
0100
0010
0100
0001
1000
0100
0010
0001
,
1001
0000
0001
0100
0001
0010
0001
1000
,
0010
0001
0010
0100
1000
0100
0001
1000
,
1100
0000
0000
0000
0010
0000
0001
0000
1000
0000
0000
0010
0000
0000
0002
0000
,
0000
0013
0100
0020
0000
1030
0001
0010
,
0100
0000
1000
0000
0001
0000
0100
0010
0100
0000
0010
0000
1000
0010
1000
0000
,
0001
1000
0001
1000
0001
1000
0001
1000
0001
1000
0001
1000
0001
1000
0001
1000
,
0002
0000
0000
0000
,
0000
0000
0000
0000
,
2003
0000
3200
0000
,
0320
0000
0230
0000
2300
3002
0203
0320
,
2030
0000
3002
0023
,
0230
0000
0000
0000
0000
0000
0302
0203
,
2300
3020
0200
0000
0000
0000
0000
0000
,
0000
0000
0000
0330
,
0001
0010
0001
1000
0001
0100
0001
1000
,
0001
0010
0100
1000
0001
1000
0010
0010
,
0100
0001
1000
0001
0010
0001
1000
0010
,
1000
0100
1000
0010
0100
0001
0010
0010
,
0001
1000
0001
0001
0100
0001
0010
0100
,
0001
1000
0010
0001
1000
0001
0100
0010
,
1000
0001
0010
0100
0010
1000
0010
0001
,
1000
0000
0010
0000
0100
0000
0001
0000
2000
0000
3200
0000
0320
0000
0031
1000
,
0001
0000
0000
0000
1000
0000
0001
0010
0000
0010
0000
0010
0100
0000
1000
0000
,
0001
0000
1000
0010
0000
0100
0001
0000
1000
0100
0000
0010
0000
0100
1000
0000
,
0001
0000
0100
0000
0010
0000
1000
0001
0000
0010
0000
0100
0000
0010
0001
0000
,
2000
0000
0000
3200
0000
0000
0302
0000
2003
0000
0000
3020
0000
0000
0230
0000
,
1300
0001
0000
1000
0100
0000
0010
0001
0000
1000
0000
0001
0100
0000
0010
0000
,
1000
0000
0001
0010
0000
0100
1000
0000
0001
0100
0000
0010
0000
1000
0001
0000
,
0010
0100
0010
0100
0010
0100
0010
0100
0010
0100
0010
0100
0010
0100
0010
0100
,
0020
0000
0000
0030
,
0001
1000
0000
0001
0100
0000
0001
1000
0000
0001
0000
0010
0100
0000
1000
0000
,
0001
0000
1000
0010
0000
1000
0001
0000
1000
0100
0000
0010
0000
0100
1000
0000
,
0001
0000
0100
0000
1000
0000
0100
0010
0000
0010
0000
0010
0000
1000
0001
0000
,
2000
0000
0000
3200
0000
0000
0302
0000
2003
0000
0000
3020
0000
0000
0230
0000
,
1300
0001
0000
1000
0100
0000
0010
0001
0000
1000
0000
0010
0100
0000
0001
0000
,
1000
0000
0001
0010
0000
0100
0010
0000
0001
1000
0000
0010
0000
0100
0001
0000
,
1000
0000
0001
0000
0010
0000
0100
0010
0000
0001
0000
1000
0000
0010
1000
0000
,
0001
0000
0100
0001
0000
1000
0100
0000
0010
0000
0001
0100
0000
0010
1000
0000
,
0001
1000
0000
0100
0010
0000
0001
1000
0000
0010
0000
0100
0001
0000
1000
0000
,
0001
0000
0100
0010
0000
1000
0010
0000
0100
0001
0000
1000
0000
0100
0010
0000
,
0100
0000
1000
0000
0001
0000
0100
0010
0000
1000
0000
0100
0000
1000
0010
0000
,
1000
0000
0001
0010
0000
0100
0010
0000
0001
0000
1000
0010
0000
0100
0010
0000
,
1000
0001
0000
0010
0001
0000
0010
0100
0000
1000
0000
0001
0100
0000
0010
0000
,
0100
0000
0001
1000
0000
0100
0010
0000
0001
1000
0000
0001
0000
0100
0010
0000
,
1000
0000
0001
0000
0010
0000
1000
0010
0000
0100
0000
1000
0000
0001
1000
0000
,
0002
0000
0000
0000
0000
0000
0000
0000
1003
0001
1000
0001
1000
0001
1000
0000
,
0001
0000
0100
0001
0100
0000
0010
1000
0010
0000
1000
0001
1000
0000
0100
0000
,
0010
0000
0001
1000
0001
0000
0100
0010
0100
0010
0000
1000
0010
0000
1000
0000
,
0001
0000
0010
0001
0010
0000
0100
1000
0100
1000
0000
0001
0000
0100
0010
0000
,
1000
0000
0001
0010
0000
0100
1000
0000
0001
0000
0100
0010
0000
1000
0001
0000
,
1000
0000
0001
0100
0001
0000
1000
0100
0010
0000
0100
1000
0100
0000
1000
0000
,
0001
0000
1000
0010
1000
0000
0001
0010
0001
0010
0000
0100
0000
0010
0001
0000
,
1000
0000
0001
0100
0001
0000
1000
0100
1000
0100
0000
0010
0000
0100
1000
0000
,
0001
0000
0100
0001
0000
1000
0001
0000
0010
0000
0100
1000
0000
0001
1000
0000
,
0001
0000
0100
0001
0100
0000
0010
1000
0000
0010
1000
0001
1000
0000
0100
0000
,
0010
0000
0001
1000
0000
0001
0100
0000
0001
1000
0100
0000
0010
0000
0001
0000
,
1000
0000
0001
0000
0100
0000
0010
1000
0000
0010
0000
0100
0001
0100
0001
0000
,
1000
0000
0100
0010
0000
0001
1000
0000
0001
0000
0100
0010
0000
1000
0001
0000
,
1001
0000
1000
0100
0001
1000
0010
0001
,
1001
1000
0010
0100
1000
0001
0010
1000
,
0001
0010
0100
0100
1000
0010
0100
0100
,
0001
1000
0001
1000
0001
1000
0001
1000
0001
1000
0001
1000
0001
1000
0001
1000
,
0002
0000
0000
0000
,
0000
0000
0000
0000
,
0003
0000
0000
0000
;

//--------------- dance-single - Fred-104† ----------------
#NOTEDATA:;
#STEPSTYPE:dance-single;
#DESCRIPTION:Fred-104†;
#DIFFICULTY:Challenge;
#METER:17;
#CREDIT:Fred-104†;
#NOTES:
0000
0000
0000
0000
,
0000
0000
0000
0000
,
0000
0000
0000
0000
,
1000
0100
1000
0001
0100
0010
1000
0001
,
0010
0100
0010
0000
0100
1000
0100
0000
1000
0010
1000
0000
0001
0100
0001
0000
,
1000
0010
1000
0000
0001
0010
0001
0000
1000
0100
1000
0000
0001
0100
0001
0000
,
0010
0100
0010
0000
0001
1000
0001
1000
0002
0000
0023
0000
0230
0000
2300
0000
,
3001
0100
0010
1000
0100
1000
0001
0100
,
0001
0000
1000
0000
0100
0010
0001
1000
0001
0000
1000
0010
1000
0000
0001
1000
,
0001
0000
0010
0100
1000
0100
1000
0100
1000
0001
1000
0001
1000
0000
0010
0000
,
0100
0001
0100
0001
1000
0000
0001
0010
0200
0000
0302
0000
0203
0000
2300
0000
,
3001
0100
0010
0001
1000
0100
0001
1000
,
0010
0100
0010
0000
1000
0100
1000
0000
0001
0000
0010
0100
1000
0010
1000
0000
,
0001
0000
0100
0001
1000
0000
0100
0000
0010
0001
0010
0001
2000
0000
3200
0000
,
0310
2000
3020
0032
1003
0001
0100
0010
,
1000
0000
0001
0010
0100
0010
0100
0010
0001
1000
0001
1000
0020
0000
1030
0001
,
0020
0000
0031
1000
0020
0000
1030
0001
0010
0100
1000
0001
0100
0000
0100
0000
,
0101
0000
0010
1000
0010
0000
0000
0000
1100
0000
0010
0001
0010
0000
0000
0000
,
0001
1000
0010
0100
0001
1000
0010
0100
0001
1000
0100
0010
0001
1000
0100
0010
,
0001
1000
0100
0020
2030
3002
0203
0320
,
0032
2003
3002
0203
1300
0002
0023
2030
,
3001
0020
2030
3002
0203
0320
0032
1003
,
0010
1000
0010
0100
0001
0100
0001
1000
0100
0000
0010
0001
0010
0100
1000
0000
,
0001
1000
0010
0002
2003
3200
0320
0230
,
0301
2000
3200
0320
1030
0002
0203
2300
,
3002
0203
0320
0230
2300
3002
0023
2030
,
3001
0010
0100
0010
0100
0000
1000
0001
0100
0000
0010
1000
0100
0010
0001
0000
,
1000
0001
0100
0020
0032
2003
3200
0302
,
2003
3200
0302
2003
3010
0200
2300
3020
,
1030
0001
0010
2000
3002
0203
0320
0032
,
2003
0000
3020
0000
0230
0000
2300
0000
3001
0000
0020
0000
0230
0000
0302
0003
,
2001
0000
0000
0000
0100
0000
0100
0000
3002
0000
0000
0100
0000
0000
0203
0000
,
0000
0010
0310
2000
0000
3001
1000
0001
,
0010
0100
0010
0100
0010
0100
0010
0100
1000
0001
1000
0001
1000
0001
1000
0001
,
0010
0100
1000
0001
0010
0100
1000
0001
0100
0010
1000
0001
0100
0010
1000
0001
,
2000
0000
0000
0000
,
0000
0000
3000
0000
0002
2003
3200
0320
,
0032
0203
0320
0032
2003
3200
0320
2030
,
3200
0320
2030
3002
0203
0320
0032
2003
,
3002
0000
2003
3002
0203
2300
3200
0302
,
0000
0023
0000
0230
0000
0000
0302
0203
,
0000
2000
0000
0000
0000
0000
0000
0000
,
0000
0000
3000
0300
,
1000
0001
1000
0020
0000
0032
0000
2003
,
0000
3100
0002
0000
1003
0100
1000
0001
,
0100
0010
0001
2000
0000
3200
0000
0302
,
0000
2003
0000
3200
0000
0301
0100
1000
,
0002
0000
0000
1003
0100
0010
1000
0020
,
0000
0031
0100
0020
0000
1030
0002
0000
,
1003
0100
0001
0100
0010
1000
0010
0001
,
0100
0000
0010
0000
0001
0000
0010
0000
2000
0000
3200
0000
0320
0000
0031
1000
,
0001
0000
0000
0000
1000
0000
0010
0100
0000
1000
0000
0100
0001
0000
1000
0000
,
0100
0000
0010
0001
0000
0001
1000
0000
0010
0100
0000
1000
0000
0100
0001
0000
,
1000
0000
0100
0000
0010
0000
0001
1000
0010
1000
0000
0010
1000
0001
0010
0000
,
0100
0000
1000
0001
0000
0001
0100
0000
0010
1000
0010
0100
0010
1000
0010
0000
,
0100
0001
1000
0001
0100
0001
1000
0001
0000
1000
0100
0010
0001
0000
1000
0000
,
0001
0010
0100
0010
0001
1000
0001
0000
1000
0010
0100
0010
1000
0001
1000
0000
,
0001
0010
0100
1000
0001
0010
0100
1000
0001
0100
0010
1000
0001
0100
0010
1000
,
0002
0000
0000
0003
,
1000
0010
0000
1000
0001
0000
0010
0100
0000
0100
0000
0100
1000
0001
0100
0000
,
0010
0000
1000
0001
0000
1000
0100
0000
0010
0100
0010
0001
0000
1000
0010
0000
,
0100
0000
0001
0000
1000
0000
0001
0010
0000
0010
0000
0010
0100
1000
0100
0000
,
1000
0000
0001
0100
0000
0010
1000
0000
0001
0000
1000
0100
0000
0010
0001
0000
,
1000
0001
0000
1000
0010
0000
0100
0001
0000
1000
0000
0001
0010
0100
0010
0000
,
0001
0000
1000
0010
0000
1000
0001
0000
0010
0100
1000
0100
0000
0010
0001
0000
,
1000
0000
0001
0000
0100
0000
0010
1000
0000
1000
0000
1000
0001
1000
0010
0000
,
0100
0000
0001
1000
0000
0100
0010
0000
0001
0000
1000
0010
0000
1000
0001
1000
,
0010
0100
0010
1000
0001
0000
1000
0100
0000
0010
0000
0001
1000
0010
1000
0000
,
0001
0000
0010
0100
0000
0010
0001
0000
1000
0001
0100
0001
0000
1000
0001
0000
,
0010
0000
0100
0000
1000
0000
0001
1000
0000
0010
0000
1000
0001
0010
0100
0000
,
1000
0000
0001
0100
0000
1000
0100
0000
0001
0000
1000
0100
0000
0001
0100
0000
,
1000
0001
1000
0100
1000
0000
0001
0010
0000
0100
0000
1000
0001
0100
0010
0000
,
1000
0000
0001
0010
0000
1000
0010
0000
0100
1000
0000
0001
0000
1000
0010
0100
,
0001
0000
1000
0000
0100
0000
0010
0001
0000
1000
0000
0001
0100
0010
1000
0000
,
0001
0010
0001
1000
0010
0100
0001
1000
0001
0100
0001
1000
0100
0010
0001
1000
,
0010
0000
1000
0001
1000
0000
0001
0010
0000
0100
1000
0001
1000
0010
1000
0000
,
0001
0000
1000
0100
0000
0010
0001
0000
1000
0001
0100
0001
1000
0001
0010
0000
,
0100
0000
1000
0000
0001
0000
0100
0010
0000
1000
0000
0001
0010
0100
1000
0000
,
0001
0000
0100
0010
0000
1000
0010
0100
0001
0000
1000
0100
0000
0010
0001
1000
,
0001
0000
1000
0010
1000
0000
0001
0100
0000
0010
0000
1000
0001
0010
0100
0000
,
0010
0000
0001
1000
0000
0010
1000
0000
0001
0010
0100
0010
0001
0010
0100
0000
,
1000
0000
0001
0000
0100
0000
1000
0100
0000
0001
0000
1000
0100
0010
0001
0000
,
1000
0000
0100
0010
0000
0001
0010
0001
1000
0000
0010
0100
0000
0001
0100
0001
,
1000
0000
0001
1000
0100
0000
1000
0001
0010
0100
1000
0100
1000
0100
0010
0000
,
0001
1000
0010
1000
0000
0001
0010
0000
0100
0010
0001
1000
0010
0000
1000
0000
,
0001
0000
0100
0000
1000
0000
0001
0010
0000
1000
0000
0001
0010
0100
1000
0001
,
1000
0000
0100
0001
0000
0100
0010
0001
1000
0000
0010
0001
0000
0010
0100
0001
,
1000
0000
0001
0010
0001
0010
0001
0010
0100
0010
0001
0010
0100
0000
1000
0000
,
1001
0000
0001
1000
0010
0100
0001
1000
0100
0010
0001
1000
0001
0000
0100
0001
,
1000
0000
0100
0000
0010
0001
2000
0000
3001
0000
0100
0000
0010
1000
0002
0000
,
1003
0100
0010
0001
1000
0100
0010
0001
1000
0010
0100
0001
1000
0010
0100
0001
,
2000
0000
0000
0000
,
0000
0000
0000
0000
,
3000
0000
0000
0000
;

//--------------- dance-double - Fred-104 ----------------
#NOTEDATA:;
#STEPSTYPE:dance-double;
#DESCRIPTION:Fred-104;
#DIFFICULTY:Easy;
#METER:7;
#CREDIT:Fred-104;
#NOTES:
00000000
00000000
00000000
00000000
,
00000000
00000000
00000000
00000000
,
00000000
00000000
00000000
00000000
,
10000000
00000000
00010000
00000000
,
10000000
10000000
01000000
01000000
,
00010000
00010000
00001000
00001000
,
00010000
00010000
00000010
00010000
,
00011000
00000000
00010000
00000000
,
00001000
00001000
00000100
00000100
,
00000001
00000001
00001000
00001000
,
00000001
00000100
00001000
00010000
,
00011000
00000000
00001000
00000000
,
00010000
00100000
01000000
00010000
,
10000000
01000000
10000000
01000000
,
00100000
00001000
00010000
00001000
,
00011000
00000000
00010000
00001000
,
00000100
00001000
00010000
00001000
,
00011000
00000000
00000110
00000000
,
00011000
00000000
01100000
00000000
,
00011000
00000000
00010000
00001000
,
00000010
00000100
00000010
00000001
,
00002000
00000000
00003002
00000000
,
00000103
00001000
00010000
00001000
,
00011000
00000000
00001000
00010000
,
00001000
01000000
00010000
10000000
,
02000000
00000000
03200000
00000000
,
00301000
00010000
00000100
00010000
,
00011000
00000000
00010000
00001000
,
00000100
00001000
00010000
00000000
,
00011000
00000000
00001000
00010000
,
01000000
00010000
00001000
00000000
,
00011000
00000000
00010000
00000000
,
00001000
00000000
00100000
00000000
,
00010000
00000000
10000000
00000000
,
00100000
01000000
00010000
10000000
,
20020000
30030000
02000000
03000000
,
00200000
00300000
00002000
00003000
,
00000200
00000300
00000002
00000003
,
00000020
00000030
00002000
00003000
,
00020000
00030000
00000200
00000300
,
00000020
00000030
00000002
00000003
,
00001000
00000001
00000100
00001000
,
00100000
01000000
10000000
00010000
,
20020000
30030000
01000000
01000000
,
00100000
10000000
00010000
01000000
,
00100000
10000000
01000000
00010000
,
00001000
00001000
00000100
00000010
,
00002000
00003000
00000200
00000300
,
00000020
00000030
00000002
00000003
,
00001000
00000001
00000100
00001000
,
00100000
00000000
01000000
00000000
,
20010000
00000000
30020000
00000000
,
20030000
00000000
30200000
00000000
,
00320000
00000000
00032000
00000000
,
00023000
00000000
00030020
00000000
,
00001030
00001000
00000001
00000001
,
00000010
00000010
00000100
00000100
,
00010000
00010000
00001000
00001000
,
00022000
00000000
00000000
00033000
,
00010000
00010000
00001000
00000100
,
00000001
00000001
00001000
00000100
,
00000010
00000100
00001000
00000010
,
00000100
00001000
00011000
00000000
,
00010000
00010000
00001000
00000010
,
00001000
00010000
00010000
00001000
,
01000000
00010000
00100000
00010000
,
10000000
00010000
10010000
00000000
,
10000000
01000000
00010000
01000000
,
10000000
00010000
10000000
00100000
,
00010000
00001000
00010000
00000100
,
00000010
00000001
00001001
00000000
,
00000001
00000100
00000001
00000010
,
00000100
00001000
00000100
00010000
,
00001000
00010000
00000010
00001000
,
00002002
00000000
00000000
00003003
,
00000001
00000100
00001000
00010000
,
00001000
00000010
00001000
00010000
,
00001000
00010000
01000000
10000000
,
00010000
01000000
01100000
00000000
,
00100000
10000000
00100000
01000000
,
00010000
10000000
01000000
00100000
,
01000000
00010000
00001000
00000010
,
00000001
00001000
00001001
00000000
,
00000001
00001000
00000010
00010000
,
00001000
00010000
00100000
00010000
,
00001000
01000000
00010000
00100000
,
01000000
00100000
00010000
10000000
,
10010000
00000000
10000000
01000000
,
00010000
00001000
00000100
00000001
,
00001001
00000000
00000110
00000000
,
00000001
00000100
00001000
00010000
,
00022000
00000000
00000000
00000000
,
00000000
00000000
00000000
00000000
,
00033000
00000000
00000000
00000000
;

//--------------- dance-double - Fred-104 ----------------
#NOTEDATA:;
#STEPSTYPE:dance-double;
#DESCRIPTION:Fred-104;
#DIFFICULTY:Medium;
#METER:11;
#CREDIT:Fred-104;
#NOTES:
00000000
00000000
00000000
00000000
,
00000000
00000000
00000000
00000000
,
00000000
00000000
00000000
00000000
,
00000001
00001000
00000010
00000000
00010000
00001000
00010000
00200000
,
00000000
02300000
00000000
03020000
00000000
20030000
00000000
32000000
,
00000000
03200000
00000000
00302000
00000000
00023000
00000000
00030020
,
00000000
00020030
00000000
00031000
00010000
00001000
00100000
00000000
,
00001000
00010000
00001000
00000000
00000100
00000001
00001000
00000200
,
00000000
00000310
00000001
00000100
00002000
00000000
00013000
00002000
,
00000000
01003000
00010000
10000000
01000000
00000000
00010000
00000000
,
00001000
00000000
00010000
00000000
00100000
10000000
00100000
10000000
,
00010000
00100000
01000000
00000000
10000000
00100000
01000000
00200000
,
00000000
00320000
00000000
00032000
00000000
00013000
00000010
00020000
,
00000000
00032000
00000000
00003200
00000000
00000301
00000010
00000200
,
00000000
00010300
00001000
01000000
00001000
00010000
00001000
00100000
,
00010000
10000000
00100000
00000000
00010000
00000000
00001000
00010000
,
00100000
01000000
20000000
00000000
32000000
00000000
03020000
00000000
,
10030000
01000000
00010000
00000000
00001000
00000010
00000001
00000000
,
00001000
00000001
00000100
00000000
00001100
00000000
00011000
00000000
,
00011000
00001000
01000000
00010000
,
00100000
00001000
00010000
00000000
00001000
00010000
00100000
00000000
,
01000000
00010000
10000000
00000000
01000000
00100000
00001000
00000000
,
00010000
00000100
00001000
00000000
00000010
00010000
00001000
00000000
,
00011000
00010000
00001000
00000010
,
00000100
00000010
00000001
00000000
00001000
00000010
00000100
00000000
,
00001000
00010000
00100000
00000000
01000000
00010000
10000000
00000000
,
01000000
00100000
00001000
00000000
00010000
00100000
10000000
00000000
,
10010000
00000000
00010000
00000000
10000000
00100000
01000000
00000000
,
00100000
10000000
01000000
00000000
00100000
00001000
00010000
00000000
,
00001000
00000000
00000100
00000001
00000100
00000001
00001000
00000000
,
00000001
00000010
00001000
00000000
00010000
00001000
00010000
00000000
,
00011000
00000000
00010000
00001000
,
00000010
00000100
00010000
00001000
,
00010000
00001000
01000000
00000000
00001000
00010000
00100000
00000000
,
01000000
00010000
00100000
01000000
00100000
00010000
10000000
00000000
,
20020000
30030000
00100000
00010000
,
00000100
00000010
00000001
00000000
00001000
00000000
00000001
00000000
,
00000200
00000300
00000002
00000003
,
00001000
00000010
00001000
00000100
,
00002002
00003003
00000001
00000100
,
00001000
00010000
00000100
00000010
,
00001000
00010000
01000000
10000000
,
00020000
00030000
20000000
30000000
,
01100000
00010000
10000000
00100000
,
00010000
00000000
00000100
00000000
00000010
00000001
00000100
00000000
,
00000002
00000003
00002000
00003000
,
00000200
00000300
00000020
00000030
,
00000001
00000100
00001000
00010000
,
01000000
00000000
10000000
00000000
00010000
00100000
01000000
00000000
,
20000000
00000000
00020000
30030000
,
01100000
00000000
10000000
00000000
00100000
00010000
00000100
00000010
,
00000001
00001000
00000010
00000100
,
00001000
00000000
00000000
00010000
00000000
00000000
00001000
00000000
00100000
00000000
00000000
01000000
00000000
00000000
10000000
00000000
,
00100000
00010000
00001000
00000100
,
00000001
00000000
00000000
00001000
00000000
00000000
00000100
00000000
00000010
00000000
00000000
00000001
00000000
00000000
00001000
00000000
,
00000010
00000100
00001000
00010000
,
00001000
00000000
00000000
00010000
00000000
00000000
00000100
00000000
00000010
00000000
00000000
00000001
00000000
00000000
00001000
00000000
,
00000010
00000100
00001000
00010000
00001000
00000010
00000001
00000000
,
00002002
00000000
00000000
00003003
,
00000001
00000010
00001000
00010000
,
00001000
00000000
00000000
00100000
00000000
00000000
00001000
00000000
00010000
00000000
00000000
00000010
00000000
00000000
00010000
00000000
,
00001000
00000000
00010000
00000000
01000000
00100000
00010000
00000000
,
10000000
00000000
00000000
00100000
00000000
00000000
00010000
00000000
00001000
00000000
00000000
00010000
00000000
00000000
01000000
00000000
,
00010000
00001000
00010000
00000100
,
00000010
00000000
00000000
00000001
00000000
00000000
00001000
00000000
00000001
00000000
00000000
00000100
00000000
00000000
00000010
00000000
,
00000100
00000000
00001000
00000000
00010000
00001000
01000000
00000000
,
00010000
00000000
00000000
00100000
00000000
00000000
10000000
00000000
00100000
00000000
00000000
00010000
00000000
00000000
10000000
00000000
,
00100000
00000000
00010000
00000000
00001000
00010000
00000100
00000000
,
00000010
00000000
00000000
00000001
00000000
00000000
00001000
00000000
00000010
00000000
00000000
00010000
00000000
00000000
00100000
00000000
,
01000000
00000000
00010000
00000000
10000000
01000000
00100000
00000000
,
00001000
00000000
00000000
00010000
00000000
00000000
00100000
00000000
00010000
00000000
00000000
00001000
00000000
00000000
00010000
00000000
,
00000010
00000000
00001000
00000000
00000100
00000010
00000001
00000000
,
00001000
00000000
00000000
00000001
00000000
00000000
00000100
00000000
00001000
00000000
00000000
00010000
00000000
00000000
00001000
00000000
,
00100000
00000000
00001000
00000000
00010000
00100000
10000000
00000000
,
20020000
00000000
30000000
00030000
,
10000000
00000000
01000000
00000000
00010000
00001000
00010000
00000000
,
00000100
00000000
00000000
00001000
00000000
00000000
00000001
00000000
00000100
00000000
00000010
00000000
00000100
00000000
00000000
00000000
,
00001000
00000000
00010000
00000000
00001000
00100000
00001000
00000000
,
00010000
00000000
00000000
00001000
00000000
00000000
00000010
00000000
00000100
00000000
00000000
00001000
00000000
00000000
00000001
00000000
,
00000100
00000000
00001000
00000000
00010000
00001000
00100000
00000000
,
00010000
00000000
00000000
00100000
00000000
00000000
01000000
00000000
10000000
00000000
00100000
00000000
10000000
00000000
00000000
00000000
,
00010000
00000000
00100000
00000000
01000000
00010000
00001000
00000000
,
00010000
00000000
00000000
00000100
00000000
00000000
00000010
00000000
00000100
00000000
00000000
00001000
00000000
00000000
00000001
00000000
,
00000100
00000000
00000010
00000000
00000100
00000001
00001000
00000000
,
00000100
00000000
00000000
00010000
00000000
00000000
00001000
00000000
00010000
00000000
01000000
00000000
10000000
00000000
00000000
00000000
,
00010000
00000000
01000000
00000000
10000000
01000000
00010000
00000000
,
10000000
01000000
00010000
00001000
00000100
00000001
00001000
00000000
,
00001001
00000000
00000000
00000000
00000001
00000100
00000010
00001000
,
00000000
00000001
00000000
00000010
00000000
00000100
00010000
00000000
,
00011000
00010010
00011000
00101000
,
00001000
00010000
00001000
00010000
00000100
00000010
00000001
00000100
,
00000020
00000000
00000000
00000000
,
00000000
00000000
00000000
00000000
,
00000030
00000000
00000000
00000000
;

//--------------- dance-double - Fred-104 ----------------
#NOTEDATA:;
#STEPSTYPE:dance-double;
#DESCRIPTION:Fred-104;
#DIFFICULTY:Hard;
#METER:15;
#CREDIT:Fred-104;
#NOTES:
00000000
00000000
00000000
00000000
,
00000000
00000000
00000000
00000000
,
00000000
00000000
00000000
00000000
,
00010000
00001000
00000010
00000100
00000010
00000001
00001000
00000010
,
00000100
00001000
00010000
00100000
01000000
00001000
00010000
00001000
,
00100000
00010000
00000010
00000100
00001000
00000001
00000100
00010000
,
01000000
00001000
00010000
00100000
10000000
00100000
01000000
00010000
,
10000000
01000000
00100000
10000000
00100000
01000000
00100000
00001000
,
00010000
00000000
00001000
00000000
00010000
00000010
00010000
00000000
00001000
00000000
00000100
00000010
00000100
00000000
00000001
00000000
,
00001000
00000000
00000010
00000000
00010000
00001000
00010000
00001000
00010000
00000000
00100000
00000000
02000000
00000000
00000000
00000000
,
03010000
00000000
10000000
00100000
10000000
00000000
00010000
01000000
00010000
00000000
00100000
00000000
01000000
00000000
00010000
00000000
,
00001000
00010000
00000100
00000010
00000001
00000100
00001000
00010000
,
00001000
00000000
00000010
00000000
00001000
00000000
00010000
00000000
00100000
00000000
00010000
00000000
00001000
00010000
00001000
00000000
,
01000000
00000000
00010000
00000000
10000000
00000000
01000000
00100000
01000000
00000000
00100000
00001000
00100000
00000000
00001000
00000000
,
00010000
00002000
00003020
00000032
00001003
00000001
00000100
00001000
,
00010000
00000000
00001000
00000000
01000000
00000000
00001000
00000000
00100000
00010000
00100000
00010000
00100000
00000000
01000000
10000000
,
01000000
00000000
10000000
00010000
10000000
00000000
00010000
01000000
00010000
01000000
00001000
01000000
00001000
00000000
00010000
00000000
,
00011000
00010000
00000010
00000000
00011000
00001000
00100000
00000000
,
00001000
00010000
00100000
10000000
01000000
00010000
00001000
00010000
,
00011000
00000000
00010000
00001000
00010000
00000100
00000010
00000001
,
00001000
00000010
00000001
00001000
00000100
00000010
00010000
00001000
,
00010000
00001000
00100000
01000000
00010000
10000000
00100000
00010000
,
10000000
00000000
00100000
00000000
00010000
00000000
00001000
00000000
00000010
00000000
00000001
00001000
00000000
00000001
00000100
00000000
,
00000110
00000000
00001000
00000001
00000010
00001000
00100000
00001000
,
00010000
00001000
01000000
00100000
00010000
10000000
01000000
00010000
,
10000000
01000000
00010000
10000000
00100000
00001000
00010000
00000010
,
00001000
00000000
00000001
00000000
00000010
00000000
00001000
00000000
00010000
00000000
00100000
10000000
00000000
00100000
01000000
00000000
,
01010000
00000000
10000000
01000000
00100000
00001000
00010000
00000010
,
00000100
00001000
00010000
00001000
00000100
00000001
00001000
00000100
,
00000110
00000000
00000001
00001000
00000010
00000100
00001000
00010000
,
01000000
00100000
00001000
00010000
00000100
00000010
00000001
00001000
,
00001001
00000000
00000000
00000000
00000001
00000000
00001000
00000000
00000010
00000000
00000000
00010000
00000000
00000000
00200000
00000000
,
00000000
01300000
00010000
00200000
00000000
10300000
00100000
00010000
,
01000000
00000000
00100000
00000000
00010000
00000000
00001000
00010000
00001000
00000000
00000010
00000000
00000100
00010000
00000100
00000000
,
00010000
00001000
00010000
00000000
00000010
00001000
00000010
00000000
00010000
00001000
00010000
00001000
00010000
00001000
00010000
00001000
,
00020000
00000000
00000000
00000000
,
00000000
00000000
00000000
00000000
,
00032000
00023000
00230000
02300000
,
23000000
00000000
32000000
00000000
03200000
20300000
32000000
03020000
,
00032000
00000000
00023000
00030200
,
00000320
00000000
00002030
00000000
00023000
00000000
00032000
00003200
,
00000302
00000023
00000200
00000000
00000000
00000000
00000000
00000000
,
00000000
00000000
00000000
00000330
,
00001000
00000001
00000100
00000010
00001000
00010000
01000000
00001000
,
00010000
00100000
01000000
00010000
10000000
01000000
00100000
00001000
,
00010000
00001000
00100000
00001000
00000010
00001000
00010000
00001000
,
01000000
00010000
00000100
00000010
00001000
00000100
00000010
00000001
,
00002000
00000000
00003001
00000100
00001000
00010000
00001000
00000010
,
00001000
00010000
00100000
00010000
00001000
00010000
01000000
10000000
,
00010000
01000000
10000000
01000000
00100000
00010000
00001000
00010000
,
00000010
00000000
00001000
00000000
00000100
00000000
00000010
00000000
00000002
00000000
00000203
00000000
00002300
00000000
00023000
00030000
,
00011000
00000000
00000000
00000000
00001000
00000000
01000000
00010000
00000000
00010000
00000000
00010000
10000000
00000000
01000000
00000000
,
00100000
00000000
00000000
00001000
00000000
00000000
00010000
00000000
00000010
00001000
00000010
00001000
00000000
00000001
00001000
00000000
,
00000100
00000000
00000010
00000000
00000001
00000000
00001000
00000010
00000000
00000100
00000000
00001000
00000000
00010000
00001000
00000000
,
01000000
00000000
00010000
10000000
00000000
00010000
00100000
00000000
01000000
00000000
10000000
00010000
00000000
01000000
00010000
00000000
,
10000000
01000000
00000000
10000000
01000000
00000000
00100000
00001000
00000000
00010000
00000000
00001000
00010000
00000000
00000100
00000000
,
00000010
00000000
00000000
00000001
00000000
00000000
00000100
00000000
00001000
00010000
00001000
00010000
00000000
00001000
01000000
00000000
,
00100000
10000000
00100000
00000000
01000000
00010000
01000000
00000000
00010000
10000000
00010000
10000000
00010000
10000000
00010000
10000000
,
00010000
00000000
00000000
00000000
,
10000000
00010000
00000000
10000000
01000000
00000000
00100000
00010000
00000000
00100000
00000000
00001000
00010000
00000000
00000100
00000000
,
00001000
00000000
00000100
00000010
00000000
00000001
00001000
00000000
00000010
00000100
00000000
00001000
00000000
00010000
00001000
00000000
,
01000000
00000000
00001000
00000000
00010000
00000000
00001000
00000100
00000000
00000010
00000000
00001000
00000000
00000001
00000010
00000000
,
00000100
00000000
00010000
00001000
00000000
00010000
00100000
00000000
01000000
00000000
10000000
01000000
00000000
00010000
10000000
00000000
,
01000000
00100000
00000000
00001000
00010000
00000000
00000010
00001000
00000000
00000010
00000000
00010000
00001000
00000000
00010000
00000000
,
00000100
00000000
00001000
00000100
00000000
00000010
00000001
00000000
00001000
00000010
00000000
00010000
00000000
00001000
00010000
00000000
,
00001000
00000000
00010000
00000000
01000000
00000000
00100000
10000000
00000000
00100000
00000000
00010000
00000000
10000000
01000000
00000000
,
00010000
00000000
00001000
00010000
00000000
00000100
00001000
00000000
00000100
00000000
00000010
00000001
00000000
00001000
00000001
00000000
,
00000100
00000010
00000000
00001000
00000010
00000000
00000100
00000001
00000000
00001000
00000000
00000001
00000010
00000000
00000100
00000000
,
00010000
00000000
00001000
01000000
00000000
00001000
00010000
00000000
00001000
00100000
00000000
01000000
00000000
10000000
00010000
00000000
,
01000000
00000000
00100000
00000000
00010000
00000000
00001000
00010000
00000000
00000010
00000000
00010000
00000000
00001000
00010000
00000000
,
00001000
00000000
00010000
00001000
00000000
00000100
00000010
00000000
00001000
00000000
00000001
00000010
00000000
00000100
00001000
00000000
,
00000001
00000100
00000000
00000010
00000100
00000000
00001000
00010000
00000000
00001000
00000000
00100000
00001000
00000000
00010000
00000000
,
00001000
00000000
01000000
00010000
00000000
00100000
01000000
00000000
10000000
00010000
00000000
01000000
00000000
00001000
00010000
00000000
,
00001000
00000000
00000100
00000000
00000010
00000000
00000001
00000010
00000000
00000100
00000000
00000001
00000000
00001000
00000100
00000000
,
00020000
00000000
00002000
00033000
,
00010000
00000000
00001000
00000000
00100000
00010000
00100000
00000000
01000000
10000000
01000000
10000000
00010000
00000000
01000000
00000000
,
00001000
00000000
00010000
00000100
00000000
00000010
00000001
00000000
00001000
00000010
00001000
00000010
00000000
00001000
00000001
00000000
,
00000010
00000000
00000100
00000000
00001000
00000000
00000010
00000100
00000000
00001000
00000000
00010000
00000000
00001000
01000000
00000000
,
00010000
00000000
10000000
01000000
00000000
10000000
01000000
00000000
00100000
00000000
00001000
00010000
00000000
00000100
00001000
00000100
,
00001000
00000000
00000001
00000000
00000100
00000010
00000100
00000000
00000010
00001000
00000010
00010000
00001000
00000000
00010000
00000000
,
00100000
00000000
01000000
00010000
00000000
01000000
00010000
00000000
10000000
01000000
10000000
01000000
00000000
10000000
00010000
00000000
,
01000000
00000000
00100000
00000000
00010000
00000000
00001000
00010000
00000000
00000010
00000000
00001000
00000000
00000001
00000010
00000000
,
00000100
00000000
00001000
00000001
00000000
00000100
00001000
00000000
00010000
00000000
00001000
01000000
00000000
00001000
00010000
00000000
,
00001000
00000000
00100000
00000000
00010000
00000000
00100000
01000000
00000000
10000000
01000000
10000000
00010000
10000000
00100000
00000000
,
01000000
00000000
00010000
10000000
00000000
01000000
00100000
00000000
00001000
00010000
00001000
00010000
00001000
00000000
00010000
00000000
,
00000010
00000000
00001000
00000000
00000001
00000000
00000010
00000100
00000000
00001000
00000000
00000100
00010000
00001000
00010000
00000000
,
00001000
00000000
00010000
00100000
00000000
01000000
00010000
00000000
10000000
00000000
00010000
00100000
00000000
01000000
10000000
00000000
,
10010000
00000000
00010000
10000000
01000000
00010000
00001000
00000100
,
00000101
00000001
00001000
00000100
00000010
00000001
00000100
00001000
,
00010000
00001000
00000100
00000100
00000001
00001000
00000100
00000100
,
00010000
00001000
00010000
00001000
00010000
00001000
00010000
00001000
00010000
00001000
00010000
00001000
00010000
00001000
00010000
00001000
,
00020000
00000000
00000000
00000000
,
00000000
00000000
00000000
00000000
,
00030000
00000000
00000000
00000000
;

//--------------- dance-double - Fred-104† ----------------
#NOTEDATA:;
#STEPSTYPE:dance-double;
#DESCRIPTION:Fred-104†;
#DIFFICULTY:Challenge;
#METER:17;
#CREDIT:Fred-104†;
#NOTES:
00000000
00000000
00000000
00000000
,
00000000
00000000
00000000
00000000
,
00000000
00000000
00000000
00000000
,
00002000
00013000
00100000
10000000
00010000
00100000
01000000
20000000
,
30100000
00020000
00031000
02000000
03010000
00000200
00000310
00002000
,
00003100
00000020
00010030
00002000
01003000
00200000
00301000
00020000
,
00030010
00000200
00001300
00020000
00230000
20300000
30020000
00230000
,
02300000
23000000
30020000
02030000
03001000
00000200
00000310
00020000
,
00031000
00000000
00010000
00000100
00010000
00000000
00000100
00001000
00000100
00000000
00000010
00000001
00000010
00000000
00000001
00001000
,
00000001
00000000
00000100
00000010
00000100
00000010
00000100
00001000
00010000
00001000
00010000
00001000
00010000
00000000
00001000
00000000
,
01000000
00010000
01000000
00010000
00100000
00000000
10000000
00100000
00020000
00000000
20030000
00000000
30200000
00000000
00320000
00000000
,
00032000
00103000
00001000
00000010
00001000
00010000
00001000
02000000
,
03010000
00000000
00200000
00000000
01300000
00000000
00020000
00000000
00031000
00000000
00010000
00001000
00010000
00000010
00002000
00000000
,
00003100
00000010
00000200
00000000
00000310
00000001
00002000
00000000
00003010
00010000
00002000
00000000
00023000
00000000
00230000
00000000
,
01300000
00020000
20030000
32000000
03020000
20030000
30200000
00302000
,
00023000
00000000
00031000
00100000
00010000
00100000
00010000
00100000
00001000
00010000
00001000
00000100
00000020
00000000
00001030
00000100
,
00000020
00000000
00000031
00000100
00000020
00000000
00001030
00000100
00000010
00000001
00001000
00000001
00000100
00000000
00001000
00000000
,
00011000
00001000
01000000
00000000
00011000
00010000
00000100
00000000
,
00001000
00000001
00001000
00000001
00000100
00000010
00000100
00000010
00001000
00000001
00001000
00000001
00000010
00000100
00001000
00000100
,
00010000
00001000
00100000
02000000
03020000
02030000
23000000
30020000
,
02030000
03200000
00320000
00032000
00003100
00000002
00002003
00003200
,
00000310
00002000
00003020
00000230
00020300
02030000
03200000
00310000
,
10000000
00000000
00100000
10000000
01000000
00000000
00100000
00001000
00010000
00000000
00001000
00000100
00000010
00000100
00000010
00000000
,
00001000
00000001
00000010
00002000
00023000
02030000
03200000
00302000
,
01003000
00200000
00320000
20030000
31000000
00020000
20030000
32000000
,
03020000
00032000
00023000
00030200
00000320
00000032
00002003
00003020
,
00000130
00000001
00000100
00000001
00001000
00000000
00000001
00001000
00000100
00000000
00010000
00001000
00010000
00100000
01000000
00000000
,
00010000
10000000
01000000
00020000
00032000
02003000
03020000
00030200
,
00000320
00020030
00032000
00003020
00000130
00002000
00003002
00002003
,
00003010
00000100
00001000
00000200
00000320
00020030
00032000
00203000
,
20300000
00000000
30020000
00000000
02030000
00000000
23000000
00000000
30020000
00000000
02030000
00000000
03200000
00000000
20300000
30000000
,
10020000
00000000
00000000
00000000
10030000
00000000
00100000
00000000
00010000
00000000
00001000
00010000
00000000
00001000
00020000
00000000
,
00000000
00030010
00010000
00002000
00000000
00013000
01000000
10000000
,
00010000
00100000
01000000
00000000
10000000
00100000
01000000
00000000
00010000
01000000
00100000
00000000
10000000
01000000
00100000
00000000
,
00010000
10000000
00010000
10000000
01000000
00100000
01000000
00100000
00001000
00010000
00001000
00010000
00000010
00001000
00000010
00000100
,
00000002
00000000
00000000
00000000
,
00000000
00000000
00000003
00000000
00000200
00000302
00002003
00003020
,
00020030
00230000
02300000
03002000
00203000
02300000
23000000
30020000
,
02030000
03200000
00320000
00032000
00003200
00002300
00023000
00230000
,
20300000
00000000
00000000
32000000
03020000
00030200
00020300
00032000
,
00000000
00003020
00000032
00002003
00000000
00003020
00020030
00032000
,
00000000
00020000
00000000
00000000
00000000
00000000
00000000
00000000
,
00000000
00000000
00003000
00030000
,
00001000
00010000
00001000
00100000
01000000
00010000
01000000
10000000
,
00010000
01000000
00200000
00000000
00310000
00001000
00000100
00000010
,
00010000
00000100
00000010
00001000
00000001
00000100
00001000
00000001
,
00000100
00001000
00010000
00001000
00000010
00001000
00010000
00100000
,
20000000
00000000
00000000
30010000
00100000
01000000
00010000
00002000
,
00000000
00003020
00000000
00000031
00001000
00000010
00000100
00001000
,
00010000
00001000
01000000
00100000
00010000
00001000
00100000
01000000
,
00010000
00000000
00001000
00000000
00000100
00000000
00000010
00000000
00002000
00000000
00003200
00000000
00000320
00000000
00001030
00010000
,
00001000
00000000
00000000
00000000
01000000
00000000
00010000
10000000
00000000
10000000
00000000
10000000
01000000
00000000
00100000
00000000
,
00001000
00000000
00010000
00000100
00000000
00001000
00000100
00000000
00000010
00000001
00000000
00001000
00000000
00000001
00000100
00000000
,
00000010
00000000
00001000
00000000
00000001
00000000
00000010
00000100
00000000
00001000
00000000
00000100
00010000
00001000
00010000
00000000
,
00001000
00000000
01000000
00010000
00000000
10000000
00010000
00000000
00100000
01000000
10000000
01000000
00100000
01000000
10000000
00000000
,
00010000
01000000
00100000
10000000
00010000
01000000
00100000
10000000
00000000
00010000
00100000
01000000
10000000
00000000
00010000
00000000
,
10000000
01000000
00100000
00010000
00100000
00001000
00010000
00000000
00000100
00001000
00000100
00000010
00000001
00001000
00000001
00000000
,
00001000
00000001
00000100
00000010
00001000
00000001
00000100
00000001
00001000
00000001
00000010
00000100
00001000
00000100
00010000
00001000
,
00010000
00000000
00000000
00000000
,
00001000
01000000
00000000
00010000
10000000
00000000
00010000
10000000
00000000
10000000
00000000
10000000
01000000
00100000
00010000
00000000
,
01000000
00000000
00001000
00010000
00000000
00000100
00001000
00000000
00000001
00001000
00000010
00001000
00000000
00000001
00001000
00000000
,
00000100
00000000
00000010
00000000
00000001
00000000
00001000
00000010
00000000
00000010
00000000
00000010
00000100
00001000
00010000
00000000
,
00001000
00000000
00010000
01000000
00000000
00010000
00001000
00000000
00010000
00000000
00001000
00000100
00000000
00001000
00010000
00000000
,
00001000
01000000
00000000
00010000
10000000
00000000
00010000
00100000
00000000
01000000
00000000
00100000
00010000
10000000
00010000
00000000
,
10000000
00000000
00100000
01000000
00000000
00100000
00010000
00000000
00001000
00010000
00001000
00010000
00000000
00001000
00000010
00000000
,
00000001
00000000
00001000
00000000
00000010
00000000
00000100
00001000
00000000
00001000
00000000
00001000
00010000
00001000
01000000
00000000
,
00010000
00000000
10000000
00010000
00000000
10000000
01000000
00000000
00100000
00000000
00001000
00010000
00000000
00000010
00001000
00000010
,
00010000
00001000
00010000
00001000
00010000
00000000
00000010
00001000
00000000
00000001
00000000
00000010
00000100
00001000
00000100
00000000
,
00010000
00000000
00001000
01000000
00000000
00001000
00010000
00000000
00001000
00100000
00001000
00100000
00000000
00010000
00100000
00000000
,
01000000
00000000
10000000
00000000
00010000
00000000
01000000
00100000
00000000
00010000
00000000
00001000
00010000
00001000
00010000
00000000
,
00001000
00000000
00010000
00100000
00000000
00010000
00001000
00000000
00010000
00000000
00001000
00000010
00000000
00001000
00010000
00000000
,
00001000
00010000
00001000
00010000
00001000
00000000
00000100
00000001
00000000
00001000
00000000
00000100
00000010
00000001
00001000
00000000
,
00000001
00000000
00000100
00000010
00000000
00000100
00001000
00000000
00010000
00001000
00000000
01000000
00000000
00001000
00010000
00001000
,
00100000
00000000
00010000
00000000
10000000
00000000
00100000
01000000
00000000
00010000
00000000
10000000
01000000
00100000
00001000
00000000
,
00010000
00001000
00010000
00001000
00000000
00000010
00000200
00000000
00010300
00001000
00010000
00001000
00000000
00000100
00000020
00000000
,
00010030
00000000
00000100
00001000
00000100
00000000
00000010
00000001
00000010
00000001
00000000
00001000
00000010
00000100
00000010
00000000
,
00001000
00000000
00000001
00000010
00000000
00000100
00010000
00000000
00001000
00100000
00010000
00100000
00000000
01000000
00100000
00000000
,
00001000
00000000
00010000
00000000
00100000
00000000
10000000
00010000
00000000
00100000
00000000
01000000
00100000
00001000
00010000
00000000
,
00001000
00000000
00010000
00100000
00000000
01000000
00001000
00000000
00010000
00000000
00001000
00000010
00000000
00000100
00010000
00000000
,
00001000
00000000
00010000
00000010
00010000
00000000
00001000
00010000
00000000
00100000
00000000
01000000
00100000
10000000
00010000
00000000
,
10000000
00000000
01000000
00100000
00000000
00001000
00010000
00000000
00000010
00001000
00000001
00001000
00000000
00000100
00000010
00000000
,
00000001
00000000
00001000
00000000
00000010
00000000
00000100
00001000
00000000
00010000
00000000
00001000
00100000
00010000
10000000
00000000
,
00010000
00000000
00100000
10000000
00000000
00100000
00010000
00000000
10000000
00000000
00100000
00010000
00000000
00100000
10000000
00000000
,
00010000
00000000
10000000
01000000
00100000
00000000
00001000
00010000
00000100
00010000
00000100
00001000
00000100
00000010
00000001
00000000
,
00001000
00000000
00000001
00000100
00000000
00000010
00001000
00000000
00000001
00000010
00000100
00000000
00010000
00001000
00010000
00000000
,
00001000
00000000
00010000
00000000
00100000
00000000
01000000
10000000
00000000
01000000
00000000
00010000
10000000
01000000
00100000
00000000
,
00001000
00000000
00010000
01000000
00000000
00010000
00001000
00000000
00010000
00000000
00001000
00000100
00000000
00001000
00010000
00000000
,
00001000
00000000
00010000
00000100
00010000
00000100
00010000
00000100
00001000
00000100
00000010
00000100
00000010
00000000
00000001
00000000
,
00001001
00000000
00001000
00000001
00000100
00000001
00000100
00000001
00000100
00001000
00010000
00001000
00010000
00000000
00001000
00100000
,
00010000
00000000
00100000
00000000
01000000
10000000
00020000
00000000
01030000
00000000
00100000
00000000
00010000
00001000
00020000
00000000
,
00030010
00001000
00000001
00000010
00000100
00001000
00000001
00000010
00000100
00010000
00001000
00100000
01000000
10000000
00010000
10000000
,
00200000
00000000
00000000
00000000
,
00000000
00000000
00000000
00000000
,
00300000
00000000
00000000
00000000
;
