#VERSION:0.83;
#TITLE:THE SAFARI (STARDOM Remix);
#ARTIST:BEMANI Sound Team "SYUNN";
#ARTISTTRANSLIT:SYUNN;
#BANNER:THE SAFARI (STARDOM Remix).png;
#BACKGROUND:THE SAFARI (STARDOM Remix)-bg.png;
#CDTITLE:./CDTitles/DANCERUSH STARDOM.png;
#MUSIC:THE SAFARI (STARDOM Remix).ogg;
#SAMPLESTART:16.116;
#SAMPLELENGTH:15;
#BPMS:0=134;
#BGSTAGE:29;

//--------------- dance-single - Fred-104 ----------------
#NOTEDATA:;
#STEPSTYPE:dance-single;
#DESCRIPTION:Fred-104;
#DIFFICULTY:Beginner;
#METER:2;
#CREDIT:Fred-104;
#NOTES:
0000
0000
0000
0000
,
0000
0000
0000
0000
,
0000
0000
0000
0000
,
0000
0000
0000
0000
,
0000
0000
0000
0000
,
1000
0000
0001
0000
,
0010
0000
0100
0000
,
0010
0000
0100
0000
,
2000
3000
0002
0003
,
2000
0000
0000
3000
,
0002
0000
0000
0003
,
2000
0000
0000
3000
,
0002
0000
0000
0003
,
1000
0000
0001
0000
,
0100
0000
0001
0000
,
1000
0000
0100
0000
,
0010
0000
0100
0000
,
1000
0000
1000
0000
,
0001
0000
0001
0000
,
0100
0000
0010
0000
,
0100
0000
0100
0000
,
0001
0000
0001
0000
,
1000
0000
1000
0000
,
0002
0000
0000
0003
,
1001
0000
0000
0000
,
1000
0000
0000
0000
,
0100
0000
0000
0000
,
0001
0000
0000
0000
,
0010
0000
0000
0000
,
1000
0000
0000
0000
,
0001
0000
0000
0000
,
1000
0000
0100
0000
,
2000
0000
0000
3000
,
0001
0000
1000
0000
,
0001
0000
0000
0000
,
0100
0000
1000
0000
,
0010
0000
0001
0000
,
1000
0000
0000
0000
,
0001
0000
1000
0000
,
0100
0000
0010
0000
,
0002
0000
0000
0003
,
1000
0000
0010
0000
,
0100
0000
0100
0000
,
0001
0000
1000
0000
,
0002
0000
0000
0003
,
1000
0000
0001
0000
,
0010
0000
0010
0000
,
0001
0000
1000
0000
,
0002
0000
0000
0003
,
1000
0000
0001
0000
,
1000
0000
0010
0000
,
0100
0000
0100
0000
,
0002
0000
0000
0003
,
1000
0000
0001
0000
,
1000
0000
0100
0000
,
1000
0000
0001
0000
,
2000
0000
0000
3000
,
1001
0000
0000
0000
;

//--------------- dance-single - Fred-104 ----------------
#NOTEDATA:;
#STEPSTYPE:dance-single;
#DESCRIPTION:Fred-104;
#DIFFICULTY:Easy;
#METER:7;
#CREDIT:Fred-104;
#NOTES:
0000
0000
0000
0000
,
0000
0000
0000
0000
,
0000
0000
0000
0000
,
0000
0000
0000
0000
,
0000
0000
0000
0000
,
2000
0000
3100
0010
,
0002
0000
1003
0001
,
0200
0000
0310
0100
,
0001
0000
0100
0000
0010
0100
0010
0000
,
2001
0000
3200
0320
,
0032
0000
2003
3020
,
0230
0000
0302
0203
,
2300
0000
3200
0320
,
1030
0000
0100
0000
0010
0100
0010
0000
,
0001
0000
0100
0000
0010
0100
0010
0000
,
1000
0000
0010
0000
0100
0010
0100
0000
,
0001
0000
0010
0000
0001
1000
0001
0000
,
2000
0100
0100
3100
,
0002
0100
0100
0103
,
2000
0010
0010
3010
,
0002
0010
0010
0013
,
1000
0100
0001
0010
,
1000
0100
0001
0010
,
1000
0100
1000
0000
0001
0100
0001
0000
,
2000
3200
0320
0031
,
0011
0011
1010
1010
,
0001
0100
0010
0100
,
0102
0013
2100
3010
,
0001
0000
1000
0000
0100
0100
0100
0000
,
1100
1100
0101
0101
,
1000
0000
0100
0000
0010
0010
0010
0000
,
0012
0103
2010
3100
,
0002
0000
2003
0000
3002
0000
1003
1000
,
1000
0000
0002
0000
0203
0000
0310
0010
,
0010
0100
0001
1000
,
2100
3010
0102
0013
,
1000
0000
0001
0000
0010
0010
0010
0000
,
0001
0000
0200
0000
0320
0000
1030
1000
,
1000
0100
0010
0001
,
0012
0103
2010
3100
,
0002
0000
2003
3000
1001
0000
0000
0000
,
2000
0000
3100
1000
,
0002
0000
0103
0010
,
0200
0000
0301
1000
,
0001
0000
0100
0000
0010
0010
0010
0000
,
0200
0000
0301
1000
,
0200
0000
0310
0100
,
2000
0000
3001
1000
,
0010
0010
0100
0110
,
1001
0000
0001
0100
,
1000
0000
0001
0010
,
1000
0000
0001
0010
,
0100
0000
1000
0010
,
0100
0000
0100
0000
0001
1000
0001
0000
,
0010
0100
1000
0001
,
0100
0100
0010
0100
,
0200
0000
0020
0330
,
1001
0000
0000
0000
;

//--------------- dance-single - Fred-104 ----------------
#NOTEDATA:;
#STEPSTYPE:dance-single;
#DESCRIPTION:Fred-104;
#DIFFICULTY:Medium;
#METER:12;
#CREDIT:Fred-104;
#NOTES:
0000
0000
0000
0000
,
0000
0000
0000
0000
,
0000
0000
0000
0000
,
0000
0000
0000
0000
,
0000
0000
0000
0000
,
1000
0000
0001
0010
1000
0010
0001
0010
,
0100
0000
1000
0010
0001
0010
0100
0010
,
1000
0000
0001
0100
0010
0100
1000
0100
,
0001
1000
0001
1000
0100
0010
0100
0010
0100
0000
0000
0000
1001
0000
0000
0000
,
0002
0000
0000
0000
1003
0100
0010
0001
,
2000
0000
0000
0000
3001
0100
0010
1000
,
0002
0000
0000
0000
0013
0100
1000
0010
,
0200
0000
0000
0000
0301
0100
1000
0100
,
0002
0000
0010
0000
1003
0100
0001
0100
,
0020
0000
0001
0000
0130
0010
1000
0010
,
0002
0000
0100
0000
1003
0100
0010
0100
,
2000
0000
0010
0000
3100
0010
0110
0000
,
0001
0000
0000
0010
0000
0000
0100
0000
0000
1000
0000
0000
0001
0000
0100
0000
,
0010
0000
0000
1000
0000
0000
0001
0000
0010
0100
0000
0100
1000
0000
0001
0000
,
0100
0000
0000
0010
0000
0000
1000
0000
0000
0010
0000
0000
0100
0000
0001
0000
,
0000
0000
1000
0000
0100
0010
0000
0001
0000
1000
0000
0000
1001
0000
0000
0000
,
0001
0010
0100
1000
0010
0100
0001
1000
,
0100
0010
0001
1000
0010
0100
0001
1000
,
0001
0000
0010
0000
1000
0000
0010
0000
0001
1000
0001
1000
0001
1000
0001
1000
,
0200
0320
0032
0000
1003
0000
0001
0000
,
1100
0101
1010
0011
,
1000
0100
0001
0100
0010
0001
1000
0001
,
0101
1100
1010
0011
,
1000
0010
0001
0010
0100
0001
1001
0000
,
0011
1010
0101
1100
,
0001
0100
1000
0100
0010
0100
0010
1000
,
1010
0011
0101
1100
,
0002
0000
0000
0000
0203
0000
0000
0000
0320
0000
0000
0000
1030
0001
1000
0001
,
2000
0000
3001
0001
0010
0010
0100
0100
,
1000
0001
0100
1000
0100
0010
0100
0001
,
0011
1010
1100
0101
,
1000
0010
0001
1000
0100
0001
1001
0000
,
0002
0000
1003
1000
0001
0001
0100
0100
,
0010
1000
0100
0001
0100
0010
0001
1000
,
1010
0011
0101
1100
,
0002
0000
0000
0000
0203
0000
0000
0000
1300
0000
0010
0000
0001
1000
0001
0000
,
1000
0000
0001
0000
0100
0000
0010
0000
1000
0000
0001
0010
0100
0000
1000
0000
,
0001
0000
0100
0000
0010
0000
0100
0000
0001
0000
1000
0100
0010
0000
0001
0000
,
1000
0000
0001
0000
0100
0000
0010
0000
0100
0000
0001
1000
0100
0000
0010
0000
,
0001
0100
1000
0100
0001
1000
1001
0000
,
1000
0000
0001
0000
0010
0000
0100
0000
0010
0000
0001
0100
0010
0000
1000
0000
,
0001
0000
0100
0000
0010
0000
1000
0000
0100
0000
0010
0100
1000
0000
0001
0000
,
0100
0000
0010
0000
1000
0000
0010
0000
0100
0000
0001
1000
0100
0000
0010
0000
,
0011
1010
0101
1100
,
0001
0000
0010
0000
0100
0000
1000
0000
0001
0000
0100
0010
0100
0000
0001
0000
,
0010
0000
0100
0000
0010
0000
0001
0000
0100
0000
0001
1000
0001
0000
0010
0000
,
0100
0000
1000
0000
0001
0000
0100
0000
0010
0000
1000
0001
0010
0000
0100
0000
,
1000
1000
0001
0001
1000
0001
1001
0000
,
0001
0000
0010
0000
0100
0000
1000
0000
0001
0100
0001
0100
0001
0000
1000
0000
,
0001
0000
0010
0000
0100
0000
0010
0000
0001
1000
0001
1000
0001
0000
0100
0000
,
0001
0100
0001
0000
1000
0100
1000
0000
0001
1000
0001
1000
0100
0010
0001
0000
,
1000
0000
0001
0000
1000
0000
0010
0100
0010
0000
0100
0000
0010
0000
0000
0000
,
1001
0000
0000
0000
;

//--------------- dance-single - Fred-104 ----------------
#NOTEDATA:;
#STEPSTYPE:dance-single;
#DESCRIPTION:Fred-104;
#DIFFICULTY:Hard;
#METER:14;
#CREDIT:Fred-104;
#NOTES:
0000
0000
0000
0000
,
0000
0000
0000
0000
,
0000
0000
0000
0000
,
0000
0000
0000
0000
,
0000
0000
0000
0000
,
0110
0000
0000
0001
1000
0000
0010
0000
1000
0001
1000
0001
1000
0000
0100
0000
,
0010
0000
0001
0000
1000
0010
1000
0000
0001
0100
0001
0100
0001
0000
1000
0000
,
0100
0000
0010
0100
0010
0000
0001
0010
0001
0000
1000
0000
0001
0000
1000
0000
,
0002
0100
0203
0010
0320
1000
1030
0000
,
1002
0000
0000
0000
0000
2003
3200
0320
,
0032
0000
0000
0000
0000
0203
0320
2030
,
3200
0000
0000
0000
0000
0302
0203
0320
,
0032
0000
0000
0000
0000
2003
3020
2030
,
3001
0000
0010
0001
0010
0000
0100
1000
0100
0000
0010
0001
0010
0000
0001
0000
,
1000
0000
0010
1000
0010
0000
0100
0001
0100
0000
0010
1000
0010
0000
1000
0000
,
0001
0000
0010
0100
0010
0000
0100
1000
0100
0000
0010
0100
0010
0000
0001
0000
,
1000
0000
0010
0100
0010
0000
0100
0001
0100
0000
0010
1000
0010
0000
0000
0000
,
1001
0000
1000
0100
0000
0100
0010
0000
0010
0001
0000
0001
1000
0000
0001
0000
,
1000
0000
0001
0100
0000
0100
0010
0000
0010
1000
0000
1000
0001
0010
0001
0010
,
0001
0000
1000
0001
0000
0001
0100
0000
0100
0010
0000
0010
1000
0000
2000
0000
,
0000
0000
3001
0000
1000
0100
0000
0100
0000
0020
0000
0000
0031
0000
1000
0000
,
0010
0010
0100
0100
0001
0001
1000
1000
,
0100
0100
0010
0010
0001
0001
1000
1000
,
0010
0000
0100
0010
0100
0000
0001
0100
0001
1000
0001
1000
0100
0010
0100
0010
,
0001
0000
0000
0000
,
1100
1010
0101
0011
,
1000
0000
0010
1000
0000
0000
0001
0000
0000
0010
0000
0100
0000
0000
0000
1000
0000
0000
0001
0000
0000
0100
0000
0000
,
0120
0000
0000
0000
0000
0000
1030
0000
0000
0000
0000
0000
0120
0000
0000
0000
0000
0000
0031
0000
0000
0000
0000
1000
,
0100
0000
1000
0000
0000
1000
0000
0000
1000
0000
0000
1000
0001
0000
0000
1000
0000
0000
1001
0000
0000
0000
0000
0000
,
1010
1100
0011
0101
,
0001
0000
0010
0001
0000
0000
1000
0000
0000
0010
0000
0100
0000
0000
0000
0010
0000
0000
1000
0000
0000
0100
0000
0000
,
0120
0031
0120
1030
,
0110
0000
0000
0000
0110
0000
0000
0000
0110
0000
0000
0000
0001
1000
0001
1000
,
0001
0000
1000
1100
0001
0101
1000
1001
,
0001
0000
0010
0100
0000
0000
1000
0000
0000
1000
0000
0002
0000
0000
0000
0103
0000
0000
0010
0000
0000
1000
0000
0000
,
0001
0000
0000
0010
0000
0000
0000
0000
0000
0000
0000
0000
0110
0000
0000
0000
0000
0000
0000
0000
0000
0000
0000
0000
1000
0000
0000
0010
0000
0000
0000
0000
0000
0000
0000
0000
0110
0000
0000
0000
0000
0000
0000
0000
0000
0000
0001
0000
,
1000
0000
0001
0000
0000
0001
0000
0000
0001
0000
0000
0001
0100
0000
0000
0010
0000
0000
0110
0000
0000
0000
0000
0000
,
1001
0000
0001
0011
1000
1010
0001
1001
,
1000
0000
0010
1000
0000
0000
0001
0000
0000
0010
0000
0200
0000
0000
0000
0310
0000
0000
0001
0000
0000
0100
0000
0000
,
0010
1000
0000
1001
0000
0000
0010
0001
0000
1001
0000
0000
,
1001
0000
1001
0000
1000
0001
1001
0000
,
1000
0000
0010
1000
0000
0000
0001
0000
0010
0000
0000
0010
0000
0000
0100
0010
0000
0000
0001
0000
0001
0100
0000
0000
,
0010
0000
1000
0010
0000
0000
0100
0000
0001
0000
0000
0001
0000
0000
1000
0100
0000
0000
0010
0000
0010
0100
0000
0000
,
1000
0000
0001
0100
0000
0000
0001
0000
1000
0000
0000
1000
0000
0000
0100
0010
0000
0000
0001
0000
0001
0100
0000
0000
,
0010
0000
0100
0000
0000
0100
0000
0000
0100
0000
0000
0100
1000
0000
0000
0100
0000
0000
0002
0000
0000
0000
0000
0000
,
1003
0000
0001
1000
0000
0000
0100
0000
0010
0000
0000
0001
0000
0000
0010
0001
0000
0000
1000
0000
0001
1000
0000
0000
,
0010
0000
0100
0010
0000
0000
0100
0000
0001
0000
0000
1000
0000
0000
0001
0010
0000
0000
0100
0000
1000
0001
0000
0000
,
0100
0000
0001
1000
0000
0000
0001
0000
1000
0000
0000
0010
0000
0000
1000
0001
0000
0000
0010
0000
0100
0010
0000
0000
,
2000
0000
3020
0001
0032
0000
2003
0000
,
3001
0000
0100
0001
0000
0000
1000
0000
0010
1000
0000
0000
0001
0000
0000
0010
0000
0000
0100
0000
0000
1000
0000
0000
,
0010
0000
0100
0010
0000
0000
1000
0000
0001
1000
0000
0000
0010
0000
0000
1000
0000
0000
0100
0000
0000
0010
0000
0000
,
0100
0000
1000
0100
0000
0000
1000
0000
0001
1000
0000
0000
0001
0000
0000
0100
0000
0000
0010
0000
0000
1000
0000
0000
,
0001
0000
0010
0000
0000
0010
0000
0000
0010
0000
0000
0010
0001
0000
0000
1000
0000
0000
1001
0000
0000
0000
0000
0000
,
0001
0000
0100
0001
0000
0000
1000
0000
0001
1000
0000
0000
0010
0000
0000
0100
0000
0000
0001
0000
0001
0010
0000
0000
,
0001
0000
1000
0001
0000
0000
0100
0000
0010
0100
0000
0000
0010
0000
0000
1000
0000
0000
0001
0000
0001
0010
0000
0000
,
0100
0000
1000
0100
0000
0000
0010
0000
0001
0010
0000
0000
0001
0000
1000
0001
0000
1000
0001
0000
0100
0010
0000
0100
,
0010
0000
0100
0000
0001
0000
1000
0100
0010
0000
0100
0000
1100
0000
0000
0000
,
1001
0000
0000
0000
;

//--------------- dance-single - Fred-104† ----------------
#NOTEDATA:;
#STEPSTYPE:dance-single;
#DESCRIPTION:Fred-104†;
#DIFFICULTY:Challenge;
#METER:16;
#CREDIT:Fred-104†;
#NOTES:
0000
0000
0000
0000
,
0000
0000
0000
0000
,
0000
0000
0000
0000
,
0000
0000
0000
0000
,
0000
0000
0000
0000
,
1000
0000
0000
0100
0010
0000
0001
1000
0010
0001
0010
0100
0010
0000
1000
0001
,
1000
0000
0001
0100
0010
1000
0001
0000
0010
0100
0001
0100
0010
0000
0100
0000
,
1000
0000
0001
1000
0010
0000
0100
0001
1000
0100
0010
0001
1000
0000
0001
1000
,
0001
0010
0001
0010
1000
0010
1000
0010
0001
0100
0001
0100
1000
0100
1000
0100
,
0002
0000
0000
0000
0000
0000
0000
0000
0000
0000
0000
0000
0000
0000
0000
0000
0000
0000
0000
0000
0000
0000
0000
0000
0000
0000
0000
0000
0000
0000
0000
0000
0203
0000
0000
0000
0000
0000
0000
0300
0200
0000
0000
0000
0000
0000
0000
0000
1300
0000
0000
0000
0000
0000
0000
0000
0001
0000
0000
0000
0000
0000
0000
0000
,
2000
0000
0000
0000
0000
0000
0000
0000
0000
0000
0000
0000
0000
0000
0000
0000
0000
0000
0000
0000
0000
0000
0000
0000
0000
0000
0000
0000
0000
0000
0000
0000
3200
0000
0000
0000
0000
0000
0000
0300
0200
0000
0000
0000
0000
0000
0000
0000
0301
0000
0000
0000
0000
0000
0000
0000
0010
0000
0000
0000
0000
0000
0000
0000
,
0200
0000
0000
0000
1300
0100
0001
0100
,
0020
0000
0000
0000
0000
0000
0000
0000
0000
0000
0000
0000
0000
0000
0000
0000
0000
0000
0000
0000
0000
0000
0000
0000
0000
0000
0000
0000
0000
0000
0000
0000
0031
0000
0000
0000
0000
0000
0000
0000
1000
0000
0000
0000
0000
0000
0000
0000
0020
0000
0000
0000
0000
0000
0000
0030
0020
0000
0000
0000
0000
0000
0000
0000
,
0031
0000
0000
0000
0000
0000
1000
0000
0100
0000
0010
0000
0001
0000
0000
0000
0000
0000
1000
0000
0000
0010
0000
0000
0100
0000
0000
0001
0000
0000
0100
0000
0000
0001
0000
0000
0010
0000
0000
0000
0000
0000
0100
0000
0000
0000
0000
0000
,
0010
0000
0001
0010
1000
0000
0001
0100
1000
0000
0001
0010
0100
0000
1000
0000
,
0010
0000
0000
0000
0000
0000
0100
0000
0001
0000
1000
0000
0001
0000
0000
0000
0000
0000
0010
0000
0000
1000
0000
0000
0010
0000
0000
0000
0000
0000
0100
0000
0000
1000
0000
0000
0100
0000
0000
0000
0000
0000
0010
0000
0000
0001
0000
0000
,
1000
0000
0000
0000
0000
0000
0001
0000
0000
0100
0000
0000
0010
0000
0000
0000
0000
0000
1000
0000
0001
0000
0010
0000
0100
0000
0000
0000
0000
0000
1000
0000
0000
0001
0000
0000
0020
0000
0000
0000
0000
0000
0000
0000
0000
0030
0000
0000
,
1001
0000
0001
0010
0000
0100
0010
0000
1000
0010
0000
0001
0100
0000
0010
0000
,
1000
0000
0100
0001
0000
0100
0010
0000
0100
1000
0001
0100
0010
1000
0001
0010
,
0100
0000
1000
0100
0000
0001
0100
0000
0010
0001
0000
0010
0100
1000
0002
0000
,
0000
0000
1003
0000
0010
0100
0010
1000
0000
0002
0000
0000
1003
0000
0001
0000
,
0010
0000
0010
0001
0100
0000
0100
0010
1000
0000
1000
0001
0010
0100
0010
0100
,
1000
0000
1000
0001
0100
0000
0100
0010
1000
0010
1000
0001
0010
0100
0010
0100
,
1000
0000
0000
0001
0000
0000
0100
0000
0000
0010
0000
0000
1000
0000
0000
0010
0000
0000
0100
0000
0000
0001
0000
0000
1000
0000
0100
0000
1000
0000
0100
0000
1000
0000
0100
0000
0010
0000
0001
0000
0010
0000
0001
0000
0010
0000
0001
0000
,
2000
3000
0002
0003
2000
0000
0000
0000
3001
0000
0100
0010
0100
0000
0001
1000
,
1100
0101
0011
1010
,
1000
0000
0010
0001
0000
0000
0010
0000
0000
1000
0000
0200
0000
0000
0000
0301
0000
0000
0100
0000
0000
0010
0000
0000
,
0002
0000
0000
0010
0000
0000
0003
0000
0000
0000
0000
0000
1100
0000
0000
0000
0000
0000
0000
0000
0000
0000
0000
0000
2000
0000
0000
0010
0000
0000
3000
0000
0000
0000
0000
0000
0101
0000
0000
0000
0000
0000
0000
0000
0000
0000
0001
0000
,
0010
0000
0100
0000
0000
0100
1000
0000
0100
0000
0000
0100
1000
0000
0000
0001
0000
0000
2002
0000
0000
3003
0000
0000
,
1010
0011
0101
1100
,
1000
0000
0100
0010
0000
0000
1000
0000
0000
0010
0000
0002
0000
0000
0000
1003
0000
0000
0001
0000
0000
0010
0000
0000
,
0001
0100
0000
0000
1100
0000
0000
0000
1000
0100
0000
0000
0101
0000
0000
0000
,
0002
0000
0000
0000
0023
0000
0000
0000
2030
0000
0000
0000
3010
0001
0010
0001
,
1000
0010
1010
0011
0101
1100
0110
1001
,
0001
0000
0010
1000
0000
0000
0001
0000
0000
0100
0000
0020
0000
0000
0000
0031
0000
0000
0100
0000
0000
0010
0000
0000
,
1000
0000
0000
0100
0000
0000
0000
0000
0000
0000
0000
0000
0101
0000
0000
0000
0000
0000
0000
0000
0000
0000
0000
0000
0001
0000
0000
0010
0000
0000
0000
0000
0000
0000
0000
0000
1010
0000
0000
0000
0000
0000
0000
0000
0000
0000
1000
0000
,
0100
0000
0001
0000
0000
0001
0100
0000
0001
0000
0000
0001
0100
0000
0000
1000
0000
0000
2002
0000
0000
3003
0000
0000
,
0001
1000
0011
1010
1100
0101
0110
1001
,
1000
0000
0010
0100
0000
0000
1000
0000
0000
0001
0000
0020
0000
0000
0000
0130
0000
0000
0001
0000
0000
1000
0000
0000
,
0001
0010
0000
0000
1010
0000
0000
0000
1000
0100
0000
0000
0101
0000
1000
0000
,
0001
0000
0000
0000
0000
0000
0001
0000
0000
0000
0000
0000
0001
0000
0000
0010
0100
1000
0100
0000
0000
1000
0000
0000
,
0001
0000
1000
0010
0000
0000
0100
0000
0010
1000
0000
0001
0000
0000
0010
0100
0000
0000
1000
0000
0010
0100
0000
0000
,
0001
0000
1000
0100
0000
0000
1000
0000
0001
0010
0000
0100
0000
0000
0010
0001
0000
0000
0100
0000
0010
1000
0000
0000
,
0001
0000
1000
0010
0000
0000
0100
0000
0010
0100
0000
0001
0000
0000
0010
0100
0000
0000
1000
0000
0010
0100
0000
0001
,
0010
0000
1000
0000
0000
1000
0010
0000
1000
0000
0000
1000
0010
0000
0000
0001
0000
0000
1001
0000
0000
0000
0000
0000
,
1000
0000
0010
0100
0000
0000
0010
0000
1000
0001
0000
0010
0000
0000
0100
0010
0000
0000
1000
0000
0010
0001
0000
0000
,
0100
0000
0001
1000
0000
0000
0100
0000
0010
0100
0000
1000
0000
0000
0010
0001
0000
0000
0010
0000
0100
0001
0000
0000
,
0010
0000
0100
1000
0000
0000
0001
0000
0100
1000
0000
0100
0000
0000
0010
1000
0000
0000
0001
0000
0010
0100
0000
0000
,
1100
0000
0101
0000
0100
0010
1001
0000
,
1000
0000
0100
0010
0000
0000
1000
0000
0010
0001
0000
1000
0010
0000
0001
0010
0000
0100
0001
0000
0001
1000
0000
0000
,
0100
0000
1000
0001
0000
0000
0010
0000
0100
0001
0000
0100
0010
0000
0001
1000
0000
1000
0010
0000
0100
0001
0000
0000
,
0100
0000
0001
1000
0000
0000
0010
0000
0001
0010
0000
0100
1000
0000
0100
0001
0000
0001
1000
0000
0001
1000
0000
0001
,
0100
0000
1000
0000
0000
1000
0000
0000
1000
0100
0000
1000
0100
0000
0000
0010
0000
0000
1001
0000
0000
0000
0000
0000
,
0001
0000
0100
1000
0000
0000
0001
0000
0010
0100
0000
0001
1000
0000
0100
0010
0000
0001
0010
0000
0100
1000
0000
0000
,
0001
0000
0010
1000
0000
0000
0001
0000
0100
0010
0000
0001
0100
0000
0010
0001
0000
1000
0100
0000
0001
1000
0000
0000
,
0001
0000
0100
0010
0000
0001
0010
0000
0100
1000
0000
0100
0010
0000
1000
0001
0000
0010
1000
0000
0010
0100
0000
1000
,
0001
0000
0100
0000
1000
0000
0100
0010
1000
0000
0100
0000
0110
0000
0000
0000
,
1001
0000
0000
0000
;

//--------------- dance-double - Fred-104 ----------------
#NOTEDATA:;
#STEPSTYPE:dance-double;
#DESCRIPTION:Fred-104;
#DIFFICULTY:Easy;
#METER:7;
#CREDIT:Fred-104;
#NOTES:
00000000
00000000
00000000
00000000
,
00000000
00000000
00000000
00000000
,
00000000
00000000
00000000
00000000
,
00000000
00000000
00000000
00000000
,
00000000
00000000
00000000
00000000
,
00020000
00000000
00031000
00100000
,
00002000
00000000
00013000
00000010
,
00002000
00000000
00003100
00000010
,
00000001
00000100
00001000
00010000
,
00012000
00000000
00023000
00230000
,
20300000
00000000
30020000
20030000
,
32000000
00000000
03200000
00302000
,
00023000
00000000
00032000
02003000
,
03010000
10000000
01000000
00010000
,
00001000
00000100
00000001
00000100
,
00000010
00001000
00000001
00000010
,
00001000
00000000
00010000
00000000
00001000
00010000
00001000
00000000
,
00010000
00001000
00000010
00001000
,
00010000
00001000
00000100
00001000
,
00010000
00001000
00000010
00001000
,
00010000
00001000
00000100
00001000
,
00010000
00001000
00000100
00000001
,
00001000
00000100
00000010
00000001
,
00001000
00000100
00001000
00000000
00000100
00010000
00000100
00000000
,
00022000
00000000
00000000
00033000
,
00002000
00023000
00230000
20300000
,
30010000
00000000
00100000
00000000
01000000
00100000
00010000
00000000
,
00200000
00320000
00030020
00002030
,
00013000
00000000
00010000
00000000
00001000
00010000
00001000
00000000
,
00020000
00032000
00003020
00000032
,
00000013
00000000
00000100
00000000
00001000
00000100
00001000
00000000
,
00000020
00002030
00203000
00320000
,
00031000
00001000
00001000
00011000
,
00001000
00020000
00032000
02003000
,
03010000
10000000
00010000
00000000
00100000
00000000
01000000
00000000
,
20000000
30100000
00020000
00130000
,
10000000
00000000
01000000
00000000
00100000
00100000
00100000
00000000
,
00001000
00020000
00030020
00002030
,
00003001
00000000
00000010
00000000
00000100
00000100
00000100
00000000
,
00010000
00001000
00000100
00001000
,
00010000
00010000
00022000
00033000
,
00001000
00000000
00010000
00000000
00100000
00100000
00100000
00000000
,
01000000
00000000
00010000
00000000
10000000
00100000
10000000
00000000
,
01000000
00000000
00100000
00000000
00001000
00001000
00001000
00000000
,
00010000
00001000
00010000
00011000
,
00001000
00000000
00010000
00000000
01000000
01000000
01000000
00000000
,
00100000
00000000
00010000
00000000
10000000
00010000
00100000
00000000
,
00001000
00000000
00010000
00000000
00000010
00010000
00001000
00000000
,
00010000
00000100
00001000
00001001
,
00000001
00000000
00001000
00000000
00000010
00010000
00001000
00000000
,
00100000
00010000
01000000
00100000
,
01000000
00000000
00010000
00000000
10000000
01000000
00100000
00000000
,
00001000
00001000
00010000
00011000
,
00010000
00000000
00001000
00000000
00000100
00000100
00000100
00000000
,
00000010
00000000
00001000
00000000
00000001
00000010
00000100
00000000
,
00010000
00001000
00010000
00000000
00001000
00100000
00001000
00000000
,
00010000
00001000
00000100
00000010
,
00001001
00000000
00000000
00000000
;

//--------------- dance-double - Fred-104 ----------------
#NOTEDATA:;
#STEPSTYPE:dance-double;
#DESCRIPTION:Fred-104;
#DIFFICULTY:Medium;
#METER:11;
#CREDIT:Fred-104;
#NOTES:
00000000
00000000
00000000
00000000
,
00000000
00000000
00000000
00000000
,
00000000
00000000
00000000
00000000
,
00000000
00000000
00000000
00000000
,
00000000
00000000
00000000
00000000
,
00001000
00000000
00000000
00010000
00001000
00000000
00000000
00000000
00100000
00000000
00010000
00000000
00100000
00000000
01000000
00000000
,
00100000
00000000
00000000
00010000
10000000
00000000
00000000
00000000
01000000
00000000
00010000
00000000
00001000
00000000
00000100
00000000
,
00000010
00001000
00000001
00000010
00000100
00001000
00000100
00010000
,
00001000
00010000
00001000
00010000
00001000
00010000
00001000
00010000
00001000
00000000
00010000
00000000
00011000
00000000
00000000
00000000
,
00002000
00000000
00000000
00000000
00013000
00100000
10000000
00010000
,
00200000
00000000
00000000
00000000
01300000
00100000
00001000
00010000
,
00002000
00000000
00000000
00000000
00003100
00000001
00000100
00000010
,
00020000
00000000
00000000
00000000
00031000
00000100
00000010
00001000
,
00000100
00000000
00000010
00000000
00000001
00000100
00000010
00001000
,
00000001
00000000
00000010
00000000
00000100
00001000
00000100
00010000
,
00001000
00000000
00010000
00000000
00100000
10000000
00010000
00100000
,
01000000
00000000
00100000
00000000
00001000
00010000
00011000
00000000
,
00010000
00000000
00000000
00001000
00000000
00000000
00000100
00000000
00000000
00000001
00000000
00000000
00000010
00000000
00000100
00000000
,
00001000
00000000
00000000
00000001
00000000
00000000
00000100
00000000
00000010
00001000
00000000
00000010
00001000
00000000
00000100
00000000
,
00010000
00000000
00000000
00001000
00000000
00000000
01000000
00000000
00000000
00010000
00000000
00000000
00100000
00000000
01000000
00000000
,
00000000
00000000
10000000
00000000
01000000
00100000
00000000
00100000
00000000
00001000
00000000
00000000
00010000
00000000
00001000
00000000
,
00010000
00001000
00000010
00000001
00000010
00000100
00001000
00000000
,
00000001
00000100
00001000
00010000
01000000
10000000
00010000
00000000
,
10000000
00000000
01000000
00000000
00100000
00000000
00001000
00000000
00010000
00001000
00010000
00000000
00000010
00001000
00000010
00000000
,
00000200
00000302
00002003
00000000
00003100
00000010
00001001
00000000
,
00000011
00001100
00110000
11000000
,
10000000
01000000
00010000
00001000
00000000
00000100
00000001
00000000
,
00000011
00001010
00000101
00001100
,
00000001
00000000
00000100
00000000
00001000
00000100
00000110
00000000
,
00000101
00001010
01010000
10100000
,
10000000
00100000
00010000
00001000
00010000
00100000
01000000
00000000
,
01010000
11000000
00110000
00011000
,
00020000
00000000
00032000
00000000
00003200
00000000
00000301
00001000
,
00000001
00000000
00000010
00000010
00000100
00000100
00010000
00010000
,
00001000
00010000
00100000
10000000
00010000
00100000
01000000
00000000
,
11000000
01010000
10100000
00110000
,
10000000
00100000
00010000
00001000
00000010
00000001
00001001
00000000
,
00002000
00000000
00003010
00000010
00010000
00010000
00001000
00001000
,
01000000
00100000
00010000
00001000
00000100
00000010
00010000
00000000
,
00010010
01001000
00010100
00101000
,
00002000
00000000
00023000
00000000
01030000
00100000
00010000
10000000
,
00100000
00000000
10000000
01000000
00010000
00001000
00010000
00100000
,
01000000
00000000
00001000
00010000
00100000
10000000
00100000
01000000
,
00010000
00000000
00100000
00001000
00010000
00001000
00000010
00000001
,
00000010
00000010
00000100
00000100
00010000
00001000
00011000
00000000
,
00010000
00000000
00001000
00000100
00000001
00001000
00000100
00000010
,
00000001
00000000
00001000
00000100
00000010
00001000
00010000
01000000
,
00100000
00000000
01000000
00100000
00001000
00010000
00000100
00000010
,
00000011
00001010
01010000
11000000
,
00010000
10000000
00100000
00010000
00001000
00010000
01000000
00100000
,
00001000
00010000
01000000
10000000
00010000
01000000
00100000
01000000
,
00001000
00010000
01000000
00100000
00010000
00100000
00001000
00010000
,
00001000
00001000
00010000
00010000
00001000
00010000
00011000
00000000
,
00010000
00000100
00010000
00001000
01000000
00010000
00100000
01000000
,
00100000
00001000
00010000
00100000
10000000
01000000
00100000
00001000
,
00010000
00001000
00000010
00000001
00000010
00000100
00010000
00001000
,
00000100
00000001
00000010
00001000
00010000
00001000
01000000
00000000
,
10010000
00000000
00000000
00000000
;

//--------------- dance-double - Fred-104 ----------------
#NOTEDATA:;
#STEPSTYPE:dance-double;
#DESCRIPTION:Fred-104;
#DIFFICULTY:Hard;
#METER:14;
#CREDIT:Fred-104†;
#NOTES:
00000000
00000000
00000000
00000000
,
00000000
00000000
00000000
00000000
,
00000000
00000000
00000000
00000000
,
00000000
00000000
00000000
00000000
,
00000000
00000000
00000000
00000000
,
00011000
00000000
00000000
00001000
00010000
00000000
00001000
00000000
01000000
00010000
01000000
00010000
01000000
00000000
00100000
00000000
,
10000000
01000000
00010000
00000100
00000010
00001000
00000010
00000001
,
00001000
00000000
00000010
00000100
00000010
00000000
00000100
00001000
00000100
00000000
00001000
00000000
00010000
00000000
00100000
00000000
,
00020000
00000000
00032000
00000000
00003020
00000001
00000031
00000000
,
00002001
00000000
00000000
00000000
00000000
00003002
00000203
00002300
,
00023000
00000000
00000000
00000000
00000000
00032000
00203000
02300000
,
23000000
00000000
00000000
00000000
00000000
30200000
00320000
00032000
,
00023000
00000000
00000000
00000000
00000000
02030000
03020000
00032000
,
00013000
00000000
00001000
00100000
00001000
00000000
00010000
00001000
00010000
00000000
00001000
00100000
00001000
00000000
00010000
00000000
,
00001000
00000000
00000100
00000010
00000100
00000000
00000001
00000010
00000001
00000000
00000100
00000010
00000100
00000000
00000001
00000000
,
00001000
00000000
00000010
00010000
00000010
00000000
00010000
00001000
00010000
00000000
00000010
00001000
00000010
00000000
00010000
00000000
,
00001000
00000000
00100000
00010000
00100000
00000000
00001000
00010000
00001000
00000000
00100000
01000000
00100000
00000000
00000000
00000000
,
10010000
00000000
00010000
10000000
00000000
10000000
01000000
00000000
01000000
00100000
00000000
00100000
00001000
00000000
00010000
00000000
,
00000010
00000000
00001000
00000001
00000000
00000001
00000010
00000000
00000010
00000100
00000000
00000100
00010000
00001000
00010000
00001000
,
00010000
00000000
00001000
00100000
00000000
00100000
00010000
00000000
00010000
10000000
00000000
10000000
00100000
00000000
00020000
00000000
,
00000000
00000000
00031000
00000000
00010000
00000100
00000000
00000010
00000000
00000002
00000000
00000000
00001003
00000000
00000001
00000000
,
00001000
00001000
00000100
00000100
00000010
00000010
00001000
00001000
,
00010000
00010000
01000000
01000000
00100000
00100000
00010000
00010000
,
10000000
00000000
01000000
10000000
01000000
00000000
00100000
00001000
00010000
00001000
00010000
00001000
01000000
00010000
01000000
00010000
,
01000000
00000000
00000000
00000000
,
10010000
11000000
01010000
00011000
,
00010000
00000000
00001000
00010000
00000000
00000000
00000100
00000000
00000000
00000010
00000000
00000020
00000000
00000000
00000000
00000031
00000000
00000000
00001000
00000000
00000000
00000010
00000000
00000000
,
00000210
00000000
00000000
00000000
00000000
00000000
00000301
00000000
00000000
00000000
00000000
00000000
00000120
00000000
00000000
00000000
00000000
00000000
00010030
00000000
00000000
00000000
00000000
00001000
,
00010000
00000000
00001000
00000000
00000000
00001000
00000000
00000000
00001000
00000000
00000000
00001000
00010000
00000000
00000000
00001000
00000000
00000000
00011000
00000000
00000000
00000000
00000000
00000000
,
00101000
00010010
01001000
01010000
,
10000000
00000000
00010000
10000000
00000000
00000000
01000000
00000000
00000000
00100000
00000000
00100000
00000000
00000000
00000000
00001000
00000000
00000000
00000010
00000000
00000000
00000100
00000000
00000000
,
00001000
00010020
00010030
00201000
,
00301000
00000000
00000000
00000000
00011000
00000000
00000000
00000000
00011000
00000000
00000000
00000000
00010000
00001000
00010000
00001000
,
00010000
00000000
00001000
00001000
00010000
00010000
00100000
00100000
,
10000000
00000000
00010000
00100000
00000000
00000000
01000000
00000000
00000000
10000000
00000000
20000000
00000000
00000000
00000000
30100000
00000000
00000000
00010000
00000000
00000000
00001000
00000000
00000000
,
00010000
00000000
00000000
00001000
00000000
00000000
00000000
00000000
00000000
00000000
00000000
00000000
00001100
00000000
00000000
00000000
00000000
00000000
00000000
00000000
00000000
00000000
00000000
00000000
00000100
00000000
00000000
00001000
00000000
00000000
00000000
00000000
00000000
00000000
00000000
00000000
00011000
00000000
00000000
00000000
00000000
00000000
00000000
00000000
00000000
00000000
00010000
00000000
,
00001000
00000000
00000100
00000000
00000000
00000100
00000000
00000000
00000100
00000000
00000000
00000100
00000010
00000000
00000000
00001000
00000000
00000000
00001001
00000000
00000000
00000000
00000000
00000000
,
00000110
00000000
00010000
00010000
00001000
00001000
01000000
01000000
,
00010000
00000000
00100000
01000000
00000000
00000000
10000000
00000000
00000000
00010000
00000000
00020000
00000000
00000000
00000000
01030000
00000000
00000000
00100000
00000000
00000000
00010000
00000000
00000000
,
00001000
00010000
00000000
00000000
01010000
00000000
00000000
00000000
01000000
00010000
00000000
00000000
00011000
00000000
00000000
00000000
,
00011000
00000000
00000110
00000000
00001000
00000001
00001001
00000000
,
00000001
00000000
00000010
00000001
00000000
00000000
00000010
00000000
00000100
00000000
00000000
00000100
00000000
00000000
00000100
00010000
00000000
00000000
00001000
00000000
00010000
00001000
00000000
00000000
,
01000000
00000000
00010000
01000000
00000000
00000000
00010000
00000000
10000000
00000000
00000000
10000000
00000000
00000000
10000000
00100000
00000000
00000000
01000000
00000000
00010000
01000000
00000000
00000000
,
00010000
00000000
10000000
01000000
00000000
00000000
00100000
00000000
00001000
00000000
00000000
00001000
00000000
00000000
00001000
00010000
00000000
00000000
00000100
00000000
00000010
00000001
00000000
00000000
,
00001000
00000000
00000010
00000000
00000000
00000010
00000000
00000000
00000010
00000000
00000000
00000010
00000100
00000000
00000000
00001000
00000000
00000000
00020000
00000000
00000000
00000000
00000000
00000000
,
00031000
00000000
00100000
00001000
00000000
00000000
00010000
00000000
00001000
00000000
00000000
01000000
00000000
00000000
00010000
01000000
00000000
00000000
00100000
00000000
10000000
00010000
00000000
00000000
,
00100000
00000000
01000000
10000000
00000000
00000000
00010000
00000000
01000000
00000000
00000000
00100000
00000000
00000000
01000000
00100000
00000000
00000000
00010000
00000000
00001000
00010000
00000000
00000000
,
00000100
00000000
00001000
00000001
00000000
00000000
00000100
00000000
00000010
00000000
00000000
00001000
00000000
00000000
00000001
00000010
00000000
00000000
00000100
00000000
00010000
00001000
00000000
00000000
,
00020000
00000000
00230000
00000000
00320000
00031000
00011000
00000000
,
00010000
00000000
00001000
00100000
00000000
00000000
00010000
00000000
10000000
00100000
00000000
00000000
01000000
00000000
00000000
10000000
00000000
00000000
01000000
00000000
00000000
00010000
00000000
00000000
,
10000000
00000000
01000000
00100000
00000000
00000000
00001000
00000000
00010000
00001000
00000000
00000000
00010000
00000000
00000000
00000100
00000000
00000000
00000010
00000000
00000000
00000001
00000000
00000000
,
00001000
00000000
00000001
00000100
00000000
00000000
00000001
00000000
00001000
00000010
00000000
00000000
00000100
00000000
00000000
00000010
00000000
00000000
00000001
00000000
00000000
00000010
00000000
00000000
,
00001000
00000000
00000001
00000000
00000000
00000001
00000000
00000000
00000001
00000000
00000000
00000001
00000100
00000000
00000000
00000010
00000000
00000000
00000110
00000000
00000000
00000000
00000000
00000000
,
00001000
00000000
00000001
00000010
00000000
00000000
00000100
00000000
00001000
00000010
00000000
00000000
00010000
00000000
00000000
00001000
00000000
00000000
00010000
00000000
00100000
01000000
00000000
00000000
,
00100000
00000000
10000000
00010000
00000000
00000000
00100000
00000000
01000000
10000000
00000000
00000000
00010000
00000000
00000000
01000000
00000000
00000000
00100000
00000000
00010000
00001000
00000000
00000000
,
00010000
00000000
00001000
01000000
00000000
00000000
00010000
00000000
01000000
00001000
00000000
00000000
00010000
00000000
00000000
00000100
00000000
00000000
00000010
00000000
00000001
00001000
00000000
00000000
,
00000010
00000000
00010000
00000000
00001000
00000000
00000100
00000010
00000100
00000000
00000001
00000000
00001001
00000000
00000000
00000000
,
00001001
00000000
00000000
00000000
;

//--------------- dance-double - Fred-104† ----------------
#NOTEDATA:;
#STEPSTYPE:dance-double;
#DESCRIPTION:Fred-104†;
#DIFFICULTY:Challenge;
#METER:16;
#CREDIT:Fred-104;
#NOTES:
00000000
00000000
00000000
00000000
,
00000000
00000000
00000000
00000000
,
00000000
00000000
00000000
00000000
,
00000000
00000000
00000000
00000000
,
00000000
00000000
00000000
00000000
,
00010000
00000000
00000000
00001000
00010000
00000000
00000010
00001000
00000001
00000010
00000100
00010000
00001000
00000000
00000100
00000000
,
00000010
00000000
00001000
00000001
00000000
00001000
00000010
00000000
00000100
00001000
00010000
00100000
10000000
00000000
00010000
00000000
,
00100000
00000000
01000000
00100000
00010000
00000000
10000000
00100000
00010000
00000000
00001000
00010000
00001000
00000000
00000100
00000000
,
00000010
00001000
00000001
00000010
00000100
00000010
00001000
00010000
01000000
00100000
01000000
10000000
01000000
00100000
00010000
00000000
,
10020000
00000000
00000000
00000000
10030000
00010000
00001000
00000100
,
00000020
00000000
00000000
00000000
00000031
00001000
00010000
01000000
,
00200000
00000000
00000000
00000000
10300000
00100000
00001000
00000010
,
00000200
00000000
00000000
00000000
00000301
00000010
00001000
00010000
,
00001000
00000000
00000000
00000000
00000000
00000000
00100000
00000000
00010000
00000000
10000000
00000000
00010000
00000000
00000000
00000000
00000000
00000000
00100000
00000000
00000000
01000000
00000000
00000000
10000000
00000000
00000000
00000000
00000000
00000000
00010000
00000000
00000000
10000000
00000000
00000000
00100000
00000000
00000000
00000000
00000000
00000000
01000000
00000000
00000000
00000000
00000000
00000000
,
00001000
00000000
00010000
00001000
00000010
00000000
00000001
00000010
00000100
00000000
00001000
00000100
00010000
00000000
00001000
00000000
,
01000000
00000000
00000000
00000000
00000000
00000000
00010000
00000000
10000000
00000000
00010000
00000000
00100000
00000000
00000000
00000000
00000000
00000000
01000000
00000000
00000000
00100000
00000000
00000000
00010000
00000000
00000000
00000000
00000000
00000000
00100000
00000000
00000000
01000000
00000000
00000000
00010000
00000000
00000000
00000000
00000000
00000000
00001000
00000000
00000000
00000000
00000000
00000000
,
00010000
00000000
00000000
00000000
00000000
00000000
00001000
00000000
00000000
00000100
00000000
00000000
00000010
00000000
00000000
00000000
00000000
00000000
00001000
00000000
00000001
00000000
00000100
00000000
00000001
00000000
00000000
00000000
00000000
00000000
00001000
00000000
00000000
00000000
00000000
00000000
00002200
00000000
00000000
00000000
00000000
00000000
00003300
00000000
00000000
00000000
00000000
00000000
,
00001001
00000000
00001000
00000001
00000000
00000010
00001000
00000000
00010000
00100000
00000000
01000000
00010000
00000000
10000000
00000000
,
00100000
00000000
01000000
00010000
00000000
10000000
01000000
00000000
00010000
00001000
00000100
00000010
00001000
00000001
00000010
00000100
,
00001000
00000000
00000001
00000100
00000000
00001000
00010000
00000000
01000000
00100000
00000000
00010000
00100000
01000000
20000000
00000000
,
00000000
00000000
30100000
00000000
01000000
00100000
00010000
00001000
00000000
00000200
00000000
00000000
00000310
00000000
00001000
00000000
,
00001001
00000000
00000001
00000100
00000010
00000000
00000010
00001000
00000100
00000000
00000100
00010000
00001000
00100000
00001000
00100000
,
00010000
00000000
00010000
00100000
01000000
00000000
01000000
10000000
00010000
01000000
00010000
01000000
00100000
10000000
01000000
00100000
,
00001000
00000000
00000000
00010000
00000000
00000000
00001000
00000000
00000000
00000100
00000000
00000000
00000010
00000000
00000000
00001000
00000000
00000000
00000100
00000000
00000000
00000010
00000000
00000000
00000001
00000000
00001000
00000000
00000001
00000000
00001000
00000000
00000001
00000000
00001000
00000000
00000010
00000000
00010000
00000000
00001000
00000000
00010000
00000000
00001000
00000000
00010000
00000000
,
00001000
00000000
00020000
00030000
02000000
00000000
00000000
00000000
13000000
00000000
00010000
10000000
01000000
00000000
00100000
00001000
,
00011000
00010010
01001000
00011000
,
00010000
00000000
00000100
00001000
00000000
00000000
00000100
00000000
00000000
00000001
00000000
00000200
00000000
00000000
00000000
00010300
00000000
00000000
00001000
00000000
00000000
01000000
00000000
00000000
,
00001000
00000000
00000000
00010000
00000000
00000000
00000000
00000000
00000000
00000000
00000000
00000000
00011000
00000000
00000000
00000000
00000000
00000000
00000000
00000000
00000000
00000000
00000000
00000000
10000000
00000000
00000000
00010000
00000000
00000000
00000000
00000000
00000000
00000000
00000000
00000000
00011000
00000000
00000000
00000000
00000000
00000000
00000000
00000000
00000000
00000000
00010000
00000000
,
00001000
00000000
00000010
00000000
00000000
00000010
00000001
00000000
00000010
00000000
00000000
00000010
00000100
00000000
00000000
00010000
00000000
00000000
00022000
00000000
00000000
00033000
00000000
00000000
,
00001001
00011000
10010000
00011000
,
00001000
00000000
00010000
01000000
00000000
00000000
00100000
00000000
00000000
00010000
00000000
20000000
00000000
00000000
00000000
30100000
00000000
00000000
00010000
00000000
00000000
00001000
00000000
00000000
,
00010000
00001000
00000000
00000000
00001001
00000000
00000000
00000000
00000001
00001000
00000000
00000000
00011000
00000000
00000000
00000000
,
00020000
00000000
00000000
00000000
00032000
00000000
00000000
00000000
00003200
00000000
00000000
00000000
00000301
00001000
00000100
00000010
,
00000001
00001000
00001100
00010100
00011000
01001000
01010000
10010000
,
00010000
00000000
01000000
10000000
00000000
00000000
00010000
00000000
00000000
00100000
00000000
20000000
00000000
00000000
00000000
31000000
00000000
00000000
00100000
00000000
00000000
00001000
00000000
00000000
,
00010000
00000000
00000000
00001000
00000000
00000000
00000000
00000000
00000000
00000000
00000000
00000000
00001001
00000000
00000000
00000000
00000000
00000000
00000000
00000000
00000000
00000000
00000000
00000000
00000001
00000000
00000000
00001000
00000000
00000000
00000000
00000000
00000000
00000000
00000000
00000000
00011000
00000000
00000000
00000000
00000000
00000000
00000000
00000000
00000000
00000000
00001000
00000000
,
00010000
00000000
01000000
00000000
00000000
01000000
10000000
00000000
01000000
00000000
00000000
01000000
00100000
00000000
00000000
00001000
00000000
00000000
00022000
00000000
00000000
00033000
00000000
00000000
,
00010000
00001000
00101000
00011000
00010010
00001010
00001001
00000011
,
00000001
00000000
00000010
00001000
00000000
00000000
00010000
00000000
00000000
00100000
00000000
02000000
00000000
00000000
00000000
03010000
00000000
00000000
10000000
00000000
00000000
01000000
00000000
00000000
,
10000000
00010000
00000000
00000000
00011000
00000000
00000000
00000000
00001000
00010000
00000000
00000000
10010000
00000000
01000000
00000000
,
10000000
00000000
00000000
00000000
00000000
00000000
01000000
00000000
00000000
00000000
00000000
00000000
00100000
00000000
00000000
00001000
00010000
00001000
00010000
00000000
00000000
00000010
00000000
00000000
,
00001000
00000000
00000001
00000010
00000000
00000000
00000100
00000000
00001000
00000001
00000000
00000100
00000000
00000000
00000001
00000010
00000000
00000000
00000100
00000000
00010000
00001000
00000000
00000000
,
00010000
00000000
01000000
00100000
00000000
00000000
00010000
00000000
00100000
01000000
00000000
10000000
00000000
00000000
01000000
00100000
00000000
00000000
01000000
00000000
00010000
00001000
00000000
00000000
,
00000100
00000000
00000010
00000100
00000000
00000000
00000001
00000000
00001000
00000100
00000000
00000010
00000000
00000000
00000001
00001000
00000000
00000000
00000100
00000000
00010000
00001000
00000000
00010000
,
00100000
00000000
10000000
00000000
00000000
10000000
00000000
00000000
10000000
01000000
00000000
10000000
01000000
00000000
00000000
00100000
00000000
00000000
00101000
00000000
00000000
00000000
00000000
00000000
,
00010000
00000000
00001000
00010000
00000000
00000000
00001000
00000000
00010000
00000100
00000000
00000010
00000000
00000000
00000100
00001000
00000000
00000000
00000001
00000000
00000100
00000010
00000000
00000000
,
00010000
00000000
00000010
00001000
00000000
00000000
00000010
00000000
00010000
00001000
00000000
00010000
00000000
00000000
00100000
01000000
00000000
00000000
00010000
00000000
10000000
00100000
00000000
00000000
,
10000000
00000000
01000000
00010000
00000000
00000000
01000000
00000000
10000000
01000000
00000000
00100000
00000000
00000000
00001000
00010000
00000000
00000000
00000010
00000000
00001000
00000001
00000000
00000000
,
00001001
00000000
00011000
00000000
10010000
00010000
01000000
00000000
,
00100000
00000000
10000000
00100000
00000000
00000000
10000000
00000000
01000000
00100000
00000000
00001000
00010000
00000000
00010000
00000100
00000000
00000000
00001000
00000000
00000001
00000100
00000000
00000000
,
00000010
00000000
00001000
00000001
00000000
00000000
00000010
00000000
00000100
00001000
00000000
00000100
00010000
00000000
00010000
00001000
00000000
00000000
00100000
00000000
00010000
10000000
00000000
00000000
,
00010000
00000000
01000000
00100000
00000000
00000000
00010000
00000000
00001000
00000100
00000000
00000010
00001000
00000000
00001000
00000001
00000000
00000000
00000010
00000000
00000100
00000010
00000000
00000001
,
00000100
00000000
00001000
00000000
00000000
00001000
00000000
00000000
00001000
00010000
00000000
00001000
00010000
00000000
00000000
00100000
00000000
00000000
10100000
00000000
00000000
00000000
00000000
00000000
,
00010000
00000000
10000000
00100000
00000000
00000000
00010000
00000000
00001000
00000100
00000000
00000010
00001000
00000000
00000010
00000100
00000000
00000001
00000010
00000000
00000100
00001000
00000000
00000000
,
00000001
00000000
00000100
00000010
00000000
00000000
00000100
00000000
00001000
00010000
00000000
00100000
01000000
00000000
00100000
10000000
00000000
01000000
00100000
00000000
00001000
00010000
00000000
00000000
,
00001000
00000000
00010000
00000010
00000000
00001000
00000010
00000000
00010000
00001000
00000000
00100000
00010000
00000000
00100000
00001000
00000000
00010000
00000010
00000000
00001000
00000001
00000000
00000010
,
00000100
00000000
00010000
00000000
00001000
00000000
00100000
01000000
10000000
00000000
01000000
00000000
01100000
00000000
00000000
00000000
,
00011000
00000000
00000000
00000000
;
