#TITLE:THE LAST STRIKER;
#ARTIST:L.E.D.;
#GENRE:DRUM & BASS;
#BANNER:THE LAST STRIKER.png;
#BACKGROUND:THE LAST STRIKER-bg.png;
#CDTITLE:./CDTitles/CS bm IIDX 15 DJ TROOPERS.png;
#MUSIC:THE LAST STRIKER.ogg;
#SAMPLESTART:94.703;
#SAMPLELENGTH:15;
#BPMS:0=185;
#STAGE:23;

//--------------- dance-single - Fred-104 ----------------
#NOTES:
     dance-single:
     Fred-104:
     Beginner:
     3:
     :
0000
0000
0000
0000
,
0000
0000
0000
0000
,
0000
0000
0000
0000
,
0000
0000
0000
0000
,
0000
0000
0000
0000
,
0000
0000
0000
0000
,
0000
0000
0000
0000
,
0000
0000
0000
0000
,
0000
0000
0000
0000
,
2000
0000
0000
0000
,
0000
0000
3000
0000
,
0002
0000
0000
0000
,
0000
0000
0003
0000
,
2000
0000
0000
0000
,
0000
0000
3000
0000
,
0002
0000
0000
0000
,
0000
0000
0003
0000
,
1000
0000
0010
0000
,
2000
0000
0000
3000
,
0001
0000
0010
0000
,
0002
0000
0000
0003
,
1000
0000
0100
0000
,
2000
0000
0000
3000
,
0001
0000
0100
0000
,
0002
0000
0000
0003
,
1000
0000
0010
0000
,
2000
0000
3000
0000
,
0100
0000
1000
0000
,
0020
0000
0030
0000
,
0100
0000
0001
0000
,
2000
0000
3000
0000
,
0001
0000
1000
0000
,
0001
0000
1000
1000
,
1000
0000
0001
0000
,
0200
0000
0300
0000
,
0001
0000
1000
0000
,
0002
0000
0003
0000
,
0010
0000
0001
0000
,
2000
0000
3000
0000
,
0001
0000
1000
0000
,
0100
0000
1000
1000
,
1000
0000
0001
0000
,
1000
0000
0100
0000
,
0010
0000
0001
0000
,
1000
0000
0001
0000
,
1000
0000
0010
0000
,
1000
0000
0001
0000
,
1000
0000
0001
0000
,
0100
0000
0010
0010
,
0010
0000
1000
0000
,
0001
0000
1000
0000
,
0100
0000
0010
0000
,
0001
0000
1000
0000
,
0001
0000
0100
0000
,
0010
0000
0100
0000
,
0001
0000
1000
0000
,
0001
0000
1000
0000
,
0002
0000
0000
0000
,
0000
0000
0000
0000
,
2003
0000
0000
0000
,
3002
0000
0000
0000
,
2003
0000
0000
0000
,
0000
0000
0000
0000
,
3002
0000
0000
0000
,
0000
0000
0003
0000
,
2000
0000
0000
0000
,
0000
0000
3000
0000
,
0002
0000
0000
0000
,
0000
0000
0003
0000
,
2000
0000
0000
0000
,
0000
0000
3000
0000
,
2002
0000
0000
0000
,
3003
0000
0000
0000
,
0001
0000
0100
0000
,
0001
0000
0100
0000
,
0001
0000
1000
0000
,
0001
0000
1000
0000
,
0010
0000
1000
0000
,
0010
0000
1000
0000
,
0100
0000
0010
0000
,
0100
0000
0010
0010
,
0010
0000
0001
0000
,
1000
0000
0001
0000
,
1000
0000
0100
0000
,
1000
0000
0001
0000
,
1000
0000
0100
0000
,
0010
0000
0001
0000
,
1000
0000
0010
0000
,
1000
1000
1000
1000
,
2000
0000
0000
0000
,
0000
0000
0000
0000
,
0002
0000
0000
0000
,
3003
0000
0000
0000
,
2002
0000
0000
0000
,
0000
0000
0000
0000
,
0000
0000
0000
0000
,
3003
0000
0000
0000
;

//--------------- dance-single - Fred-104 ----------------
#NOTES:
     dance-single:
     Fred-104:
     Easy:
     7:
     :
0000
0000
0000
0000
,
0000
0000
0000
0000
,
0000
0000
0000
0000
,
0000
0000
0000
0000
,
0000
0000
0000
0000
,
0000
0000
0000
0000
,
0000
0000
0000
0000
,
0000
0000
0000
0000
,
0000
0000
0000
0000
,
2000
3000
0020
0030
,
0200
0300
0001
0010
,
0002
0003
2000
3000
,
0002
0003
0100
0010
,
0200
0300
0002
0003
,
2000
3000
0100
0010
,
0002
0003
2000
3000
,
0001
1000
0001
0100
,
0002
0000
0003
0200
0000
0300
0020
0000
,
0030
2000
0000
3000
0100
0000
0010
0000
,
0200
0000
0300
2000
0000
3000
0020
0000
,
0030
0200
0000
0300
0001
0000
1000
0000
,
0002
0000
0003
2000
0000
3000
0020
0000
,
0030
0200
0000
0300
0001
0000
1000
0000
,
0200
0000
0300
0020
0000
0030
0002
0000
,
1003
1000
0001
1000
,
2001
0000
3000
0002
0000
0003
0200
0000
,
0300
0020
0000
0030
0200
0000
0320
0000
,
2030
0000
3000
0200
0000
0300
0020
0000
,
0030
0002
0000
0003
0200
0000
0302
0000
,
0023
0000
0030
0002
0000
0003
2000
0000
,
3000
0200
0000
0300
2000
0000
3020
0000
,
0230
0000
0300
0002
0000
0003
2000
0000
,
3000
0200
0000
0300
0020
0000
0031
0000
,
1001
1000
0020
0000
,
0130
0001
0100
0010
,
0100
0001
2000
0000
,
3001
0010
0100
1000
,
0010
0100
0020
0000
,
1030
0100
0001
0100
,
1000
0010
0200
0000
,
0301
1000
1001
0000
,
0001
0100
0001
0010
,
0100
1000
0020
0000
,
0130
0010
1000
0001
,
1000
0100
2000
0000
,
3001
1000
0100
1000
,
0010
0100
0002
0000
,
0103
0010
1000
0001
,
1000
0100
0010
0001
,
1000
0000
0000
0010
0000
0000
0100
0000
,
0010
1000
0100
0010
,
0001
0000
0000
0100
0000
0000
0001
0000
,
0010
0001
1000
0001
,
2000
0000
0000
3020
0000
0000
0032
0000
,
0000
0203
0000
0000
2300
0000
3002
0000
,
1003
0010
0100
0001
,
1000
1000
0001
0001
,
2002
0000
0000
0000
,
0000
0000
3003
0000
,
2000
0000
0000
0000
,
3200
0000
0000
0000
,
0320
0000
0000
0000
,
0000
0000
0030
0000
,
0002
0000
0000
0000
,
2000
0000
3003
0000
,
2000
0000
3000
0200
0000
0300
0020
0000
,
0030
0002
0000
0003
1000
0000
0010
0000
,
0200
0000
0300
0002
0000
0003
0020
0000
,
0030
0002
0000
0003
0100
0000
0010
0000
,
0200
0000
0300
0002
0000
0003
2000
0000
,
3000
0020
0000
0030
1000
0000
0001
0000
,
1000
1000
0001
0001
,
1000
0001
1001
0000
,
1000
0100
1000
0000
0010
0000
0100
0000
,
0002
0013
2000
3100
,
0001
0010
0001
0000
0100
0000
0010
0000
,
2000
3100
0002
0013
,
1000
0001
1000
0000
0100
0000
0010
0000
,
0002
0103
0020
0130
,
0001
0100
0010
1000
,
0100
1000
0100
0000
0010
0000
0011
0000
,
0001
0100
0001
0010
,
0001
0100
2000
3000
,
0100
0001
0010
0100
,
2000
3010
0002
0103
,
1000
0010
0100
0010
,
1000
0100
0010
0001
,
0100
0010
0100
0001
,
1000
0001
1001
0000
,
2000
0000
3000
0200
0000
0300
0020
0000
,
0030
0002
0000
0003
0010
0000
0100
0000
,
0020
0000
0030
0002
0000
0003
0200
0000
,
0300
0020
0000
0030
1000
0001
1000
0000
,
2002
0000
0000
0000
,
0000
0000
0000
0000
,
0000
0000
0000
0000
,
3003
0000
0000
0000
;

//--------------- dance-single - Fred-104 ----------------
#NOTES:
     dance-single:
     Fred-104:
     Medium:
     12:
     :
0000
0000
0000
0000
,
0000
0000
0000
0000
,
0000
0000
0000
0000
,
0000
0000
0000
0000
,
0000
0000
0000
0000
,
0000
0000
0000
0000
,
0000
0000
0000
0000
,
0000
0000
0000
0000
,
0000
0000
0000
0000
,
1000
0100
0000
0100
0010
0000
0010
0001
,
0000
0001
0100
0000
0010
0100
0010
0000
,
0100
0001
0000
0001
1000
0000
1000
0010
,
0000
0010
0100
0000
0001
1000
0001
0000
,
0010
0100
0000
0100
1000
0000
0010
0100
,
0000
0100
0001
0000
1000
0001
1000
0000
,
0001
0010
0000
0010
0100
0000
0100
1000
,
0000
1000
0001
0000
0100
0010
0100
0000
,
0001
0010
0001
1000
0010
0000
0100
0001
,
0000
0100
0010
0000
1000
0000
0100
0000
,
1000
0010
0100
0010
1000
0000
0100
0010
,
0000
0001
1000
0000
0001
0000
0100
0000
,
0001
0010
0001
0010
0100
0000
1000
0010
,
0000
0100
1000
0000
0100
0000
0001
0000
,
1000
0100
0010
0100
1000
0000
0001
0000
,
1000
0001
1000
0010
0100
0000
1001
0000
,
0001
0020
0030
0001
0200
0300
0010
2000
,
3000
0100
2000
3000
0001
0200
0310
0000
,
1000
0200
0300
0010
0002
0003
1000
0020
,
0030
0100
0002
0003
1000
0002
0013
0000
,
0001
0200
0300
0010
2000
3000
0100
2000
,
3000
0010
0200
0300
0010
2000
3002
0000
,
1003
0200
0300
0001
0200
0300
1000
0020
,
0030
0001
0020
0030
1000
0002
0103
0000
,
0001
0020
0030
0100
2000
3000
0100
0020
,
0030
0001
0200
0300
0010
2000
3010
2000
,
3100
0020
0030
0100
2000
3000
0010
0200
,
0300
0010
2000
3000
0100
0020
0031
0020
,
0031
0200
0300
0001
0020
0030
0100
2000
,
3000
0010
0200
0300
0010
2000
3001
2000
,
3100
2000
3000
0010
0200
0300
0010
2000
,
3000
0100
0020
0030
0001
1000
1001
0000
,
1000
0100
1000
0010
0100
0000
0001
0000
,
0100
0001
0010
0001
1000
0000
0001
0000
,
1000
0100
0010
0001
1000
0000
0001
0010
,
0000
0001
0100
0000
0010
1000
0001
0000
,
1000
0100
1000
0010
0100
0000
0010
1000
,
0000
0010
0100
0000
0001
1000
0001
0000
,
0010
0001
1000
0001
0100
0000
0001
0010
,
0000
0100
1000
0000
0001
1000
0001
0000
,
1000
0200
1300
0100
2000
3000
0010
0200
,
0300
0010
2000
3000
0001
2000
3001
0000
,
0100
0020
0130
0010
0200
0300
0001
0020
,
0030
0001
2000
3000
0010
0200
0301
0000
,
2000
0010
0100
3010
,
0200
0001
1000
0301
,
0010
0100
1000
0000
0010
0100
0001
0000
,
1000
0100
0001
0000
1000
0010
0001
0000
,
2002
0000
0000
0000
,
0000
0000
0003
0000
,
0200
0000
3000
0000
,
0020
0000
0300
0000
,
0002
0000
0000
0000
,
0000
0000
0033
0000
,
0002
0000
0000
0000
,
2000
0000
3003
0000
,
1000
0200
0000
1300
0200
0000
0310
0002
,
0000
0013
0002
0000
0103
0020
1030
0000
,
0001
0200
0000
0301
0200
0000
0310
2000
,
0000
3010
2000
0000
3001
2000
3100
0000
,
1000
0200
0000
0310
0002
0000
1003
0020
,
0000
0130
0002
0000
1003
0002
0013
0000
,
0001
1000
0001
1000
0010
0100
0010
0100
,
0001
0000
0100
0000
0010
1000
1001
0000
,
0001
0100
0001
0010
0001
1000
0001
0000
,
1000
0000
0010
0100
0000
0010
1000
0000
,
0010
1000
0100
1000
0001
1000
0100
0000
,
0120
0031
0210
1300
,
0001
0100
0001
0010
0001
0100
0001
0000
,
1000
0000
0001
0010
0000
0001
0100
0000
,
0001
0010
0001
1000
0001
0100
0001
0000
,
0100
0010
1000
0100
1000
0002
0000
0203
,
0301
0010
0001
1000
0001
0100
0001
0000
,
0010
0100
1000
0100
0010
0100
1000
0000
,
0010
1000
0100
1000
0010
0100
0001
0000
,
2100
3010
0102
0013
,
1000
0001
0100
0001
1000
0001
0100
0001
,
0010
0100
1000
0100
0010
0100
0010
0000
,
0001
0100
0001
0100
0010
1000
0010
1000
,
0100
0010
0001
2000
0000
3002
0000
0203
,
0302
0000
0003
0020
0000
0030
0200
0000
,
0300
2000
0000
3000
0010
0000
0100
0000
,
0002
0000
0003
0020
0000
0030
2000
0000
,
3000
0200
0000
0300
0001
0000
1000
0000
,
2002
0000
0000
0000
,
0000
0000
0000
0000
,
0000
0000
0000
0000
,
3003
0000
0000
0000
;

//--------------- dance-single - Fred-104 ----------------
#NOTES:
     dance-single:
     Fred-104:
     Hard:
     15:
     :
0000
0000
0000
0000
,
0000
0000
0000
0000
,
0000
0000
0000
0000
,
0000
0000
0000
0000
,
0000
0000
0000
0000
,
0000
0000
0000
0000
,
0000
0000
0000
0000
,
0000
0000
0000
0000
,
0000
0000
0000
0000
,
0010
0002
0000
1003
0002
0000
0013
0200
,
0000
0310
0002
0000
0103
0020
0130
0002
,
0103
0020
0000
1030
0200
0000
0310
0200
,
0000
1300
0020
0000
0130
0020
1030
0020
,
0130
0002
0000
1003
0200
0000
0310
0002
,
0000
0013
0200
0000
0310
0002
0013
0002
,
1003
0002
0000
0103
0020
0000
1030
0020
,
0130
0001
2000
3100
0010
0002
1003
0000
,
0001
0000
0100
0000
0010
0000
0100
0001
0100
0000
0010
0000
1000
0000
0000
0000
,
0100
0000
1000
0000
0100
0000
0010
0100
0010
0000
0001
0000
0100
0000
0000
0000
,
0001
0000
0010
0000
0100
0000
1000
0100
1000
0000
0010
0000
0100
0000
0000
0000
,
0001
0000
1000
0000
0001
0000
0100
0010
0000
1000
0010
0000
0100
0000
0001
0000
,
1000
0000
0100
0000
0010
0000
0001
0100
0001
0000
0100
0000
0001
0000
0000
0000
,
0010
0000
0100
0000
0010
0000
0100
1000
0100
0000
1000
0000
0001
0000
0000
0000
,
0100
0000
0001
0000
1000
0000
0001
0010
0001
0000
0010
0000
0001
0000
0000
0000
,
1000
0010
1000
0010
0100
0001
0100
0001
0100
0000
0001
0000
1001
0000
0000
0000
,
0002
0023
0130
2000
3020
0130
0020
2030
,
3100
0002
0203
1300
0010
0200
0301
2000
,
3200
0320
0031
0200
0320
1030
0200
0320
,
0031
0200
2300
3100
0001
0020
0130
2000
,
3002
0203
0310
2000
3200
0310
0002
0203
,
0310
2000
3002
0013
1000
0020
0032
0203
,
0320
2030
3100
2000
3002
0103
0002
0023
,
0130
0000
2000
0000
3020
0000
0130
1000
0100
0000
0002
0000
1003
0000
0002
0000
,
2003
3200
0310
0002
0203
0310
2000
3002
,
0013
0200
0302
0103
1000
0020
0130
0002
,
2003
3020
0031
2000
3200
0301
2000
3020
,
0031
2000
3200
0301
1000
0200
0310
0002
,
2003
3020
0031
0020
0230
0301
2000
3002
,
0103
0020
0032
0013
1000
0002
2003
3200
,
2300
3200
0310
2000
3020
0031
2000
3002
,
0103
0000
0020
0000
2030
0000
3001
0010
0100
0000
2000
0000
3010
0000
0200
0000
,
0301
0000
0100
0000
0010
0000
0100
0000
0001
0100
0001
0000
0010
0000
0100
0000
,
1000
0000
0010
0000
0100
0000
0010
0000
1000
0010
1000
0000
0010
0000
0100
0000
,
0001
0000
1000
0000
0100
0000
0010
0000
0001
0010
0001
0000
0100
0000
0010
0000
,
0100
0000
0001
0010
0001
0000
1000
0010
0100
0010
1000
0000
0001
0000
1000
0000
,
0100
0000
0010
0000
0001
0000
1000
0000
0010
0100
0010
0000
1000
0000
0001
0000
,
0010
0000
0001
0000
0100
0000
0010
0000
0100
0001
0100
0000
0010
0000
1000
0000
,
0001
0000
0100
0000
0010
0000
1000
0000
0001
1000
0001
0000
1000
0000
0100
0000
,
0010
0000
0001
0100
0001
0000
0100
0010
1000
0010
0100
0000
0001
0000
1000
0000
,
0001
0000
0010
0000
0100
0000
1000
0010
1000
0010
1000
0000
0010
0000
0100
0000
,
0010
0000
1000
0000
0100
0000
0010
0001
0010
0001
0010
0000
0001
0000
0100
0000
,
0001
0000
1000
0000
0001
0000
1000
0100
1000
0100
1000
0000
0010
0000
0100
0000
,
0001
0000
0100
0001
0100
0000
0010
0100
0010
0100
0010
0000
1000
0000
0001
0000
,
2000
3200
0301
0020
0032
0103
2000
3002
,
0103
0020
2030
3001
0100
2000
3100
0002
,
2003
3200
0310
0002
0203
0310
0200
0302
,
1003
0000
0200
0000
0320
0000
0130
1000
0100
1000
0001
0100
0001
0100
0001
0000
,
2002
0000
0000
0000
,
0000
0000
0003
0000
,
0002
0000
3000
0000
,
0200
0000
0003
0000
,
0020
0000
0300
0000
,
2000
0000
0030
0000
,
0002
0000
3000
0000
,
2000
0000
3003
0000
,
0002
0010
0000
0023
0100
0000
0230
1000
,
0000
2300
0010
0000
3010
1000
0001
0100
,
0020
1000
0000
2030
0100
0000
3200
1000
,
0000
2300
0001
0000
3001
0100
0001
0010
,
0002
0100
0000
0203
0010
0000
0320
1000
,
0000
2030
0001
0000
3001
0100
0010
1000
,
0001
1000
0001
1000
0001
1000
0001
1000
0001
1000
0001
1000
0001
1000
0001
1000
,
0001
0000
0100
0000
0010
1000
0010
0000
1000
0000
0001
0000
1001
0000
0000
0000
,
2000
3200
0320
0130
2000
3002
0103
0002
,
0023
0000
0032
0023
0031
0200
0320
2030
,
3002
0000
2003
0000
3020
0000
0031
0000
0020
0000
0230
0000
0310
0000
2000
3000
,
2100
3010
0102
0013
,
2000
3200
0320
0130
2000
3020
0130
0002
,
2003
0000
3002
0023
1030
0002
0203
2300
,
3002
0203
0310
2000
3200
1300
0002
2003
,
3100
0000
0020
0000
0032
0000
0013
0001
0010
0000
0001
0000
1001
0000
0000
0000
,
0001
0000
0100
0010
0100
0000
0001
0000
0010
0000
0100
0000
1000
0000
0010
1000
,
0010
0000
0100
0000
0001
0000
1000
0000
0100
0000
0010
0100
0010
0000
0001
0000
,
1000
0000
0001
0100
0001
0000
0010
0000
0100
0000
0010
0000
0001
0100
0001
0000
,
0201
0310
1200
0310
,
0100
0000
0001
1000
0001
0000
0010
0000
0100
0000
1000
0000
0001
0000
0100
0010
,
0100
0000
0001
0000
1000
0100
1000
0000
0010
0000
0100
0001
0100
0000
0010
0000
,
1020
0000
1030
0001
1000
0000
0100
0000
0010
0001
0010
0000
0001
0000
0100
0000
,
0001
0010
0001
0010
0100
1000
0100
1000
0001
1000
0001
1000
0001
0000
0000
0000
,
1000
0200
0000
0301
0200
0000
1300
0020
,
0000
0031
0020
0000
2030
3200
0320
0032
,
1003
0020
0000
0031
0020
0000
1030
0200
,
0000
0000
0301
0000
0200
0000
0000
0000
2300
0000
3020
0000
0230
0000
0302
0003
,
2002
0000
0000
0000
,
0000
0000
0000
0000
,
0000
0000
0000
0000
,
3003
0000
0000
0000
;

//--------------- dance-single - Fred-104† ----------------
#NOTES:
     dance-single:
     Fred-104†:
     Challenge:
     17:
     :
0000
0000
0000
0000
,
0000
0000
0000
0000
,
0000
0000
0000
0000
,
0000
0000
0000
0000
,
0000
0000
0000
0000
,
0000
0000
0000
0000
,
0000
0000
0000
0000
,
0000
0000
0000
0000
,
0000
0000
0000
0000
,
2002
0000
0003
0000
,
0200
0000
3000
0000
,
0020
0000
0300
0000
,
0002
0000
0030
0000
,
0200
0000
0003
0000
,
0020
0000
0300
0000
,
2000
0000
0030
0000
,
0002
0000
0000
3003
,
2000
0000
3200
0000
0310
0000
0001
1000
0001
0010
0001
0000
0200
0000
0320
0000
,
0130
0000
0002
0000
0023
0000
0130
1000
0001
0010
0002
0000
0103
0000
0020
0000
,
2030
0000
3002
0000
1003
0000
0100
1000
0010
1000
0100
0000
0020
0000
0230
0000
,
1300
0000
0002
0000
0203
0000
0301
0010
0001
0100
0020
0000
0130
0000
0002
0000
,
2003
0000
3002
0000
0013
0000
0100
0001
0100
0001
0100
0000
0020
0000
0032
0000
,
1003
0000
0020
0000
0230
0000
1300
0100
1000
0100
2000
0000
3100
0000
0020
0000
,
2030
0000
3002
0000
0013
0000
1000
0010
1000
0010
0100
0000
2000
0000
3002
0000
,
1003
0100
1000
0100
0010
0001
0010
0001
1000
0100
0010
0001
1000
0000
0000
0000
,
0002
0000
0013
0100
0010
0000
0002
0000
0103
0010
0100
0000
0002
0000
1003
0100
,
1000
0000
0002
0000
1003
0010
1000
0000
0100
0000
0010
0001
1000
0000
0002
0000
,
2003
0000
3001
0100
0001
0000
2000
0000
3001
0010
0001
0000
2000
0000
3010
0100
,
0010
0000
2000
0000
3100
0010
0100
0000
2000
0000
3100
0010
0001
0000
2000
0000
,
3002
0000
1003
0010
1000
0000
0002
0000
1003
0100
1000
0000
0002
0000
0103
0001
,
0100
0000
0002
0000
0013
0001
0010
0000
0001
0000
0010
0100
2000
0000
3002
0000
,
0203
0000
0301
0010
0001
0000
0020
0000
0031
0100
0001
0000
0020
0000
0031
1000
,
0001
0000
0200
0000
0301
1000
0001
0000
0010
0000
0100
0010
0001
0000
2000
0000
,
3001
0010
0200
0000
1300
0000
0001
0010
0200
0000
1300
0000
0001
0100
0020
0000
,
1030
0000
0001
0100
0020
0000
1030
0000
0100
0010
0002
0000
0103
0010
2000
0000
,
3001
1000
0020
0000
1030
0000
0001
1000
0200
0000
1300
0000
0001
1000
0200
0000
,
1300
0000
0001
1000
0020
0000
1030
0000
0001
0010
0200
0000
1300
0001
0020
0000
,
0031
0100
0002
0000
0103
0000
1000
0100
2000
0000
3100
0000
0001
0010
0002
0000
,
0013
0000
1000
0010
2000
0000
3010
0000
0001
1000
0020
0000
1030
0001
0200
0000
,
0301
1000
0200
0000
0310
0000
0001
1000
0020
0000
0130
0000
0001
1000
0200
0000
,
0310
0000
0001
1000
0020
0000
1030
0001
0100
0001
1000
0001
0100
0000
0020
0000
,
1030
0000
0010
1000
0001
1000
0100
0000
0010
0001
0010
0000
0001
1000
0001
0000
,
1000
0100
1000
0100
0010
0000
0001
0000
1000
0100
0010
0001
1000
0000
0001
0000
,
0100
0000
0001
0100
0001
0010
0001
0000
1000
0010
1000
0000
0010
0100
0010
0000
,
0100
0001
0100
0001
1000
0000
0010
0000
0100
0001
1000
0010
0100
0000
0001
0000
,
1000
0000
0100
1000
0001
0100
0001
0000
1000
0010
1000
0000
0001
0010
0001
0000
,
1000
0100
1000
0100
0010
0000
0100
0000
1000
0100
0010
0100
1000
0000
0001
0000
,
0100
0000
0001
0100
0001
1000
0001
0000
0010
0100
0010
0000
0001
0010
0001
0000
,
0100
0010
0100
0010
1000
0000
0001
0000
0100
0010
1000
0001
0100
0000
0010
0000
,
0100
0001
0010
0000
0100
0000
0010
0001
0100
0000
0010
0000
1000
0100
0010
0000
,
0001
0000
1000
0100
0010
0000
0001
1000
0001
0000
0100
0010
0100
0000
0001
0000
,
0010
0100
1000
0000
0001
0000
0010
0100
1000
0000
0001
0000
0100
0010
1000
0000
,
0001
0000
0100
0010
1000
0000
0100
0010
0001
0000
1000
0001
0010
0000
0001
0000
,
1000
0001
0200
0000
0301
0000
0010
0100
0020
0000
0031
0000
1000
0001
0020
0000
,
0130
0000
0010
0100
0020
0000
0031
1000
0100
0000
0010
0100
1000
0000
0010
0000
,
1020
0000
1030
0100
0010
0000
0021
0000
0031
0100
0010
0000
1000
0000
0100
0000
,
0110
0000
0010
0000
0001
0000
0100
0001
0010
0001
1000
0010
1000
0100
0010
0002
,
2000
0000
0000
0003
,
0020
0000
0000
3000
,
0200
0000
0000
0030
,
0002
0000
0000
0300
,
0020
0000
0000
0003
,
2000
0000
0000
0030
,
0200
0000
0000
3000
,
0002
0000
0000
0303
,
1000
0200
0000
0301
0200
0000
1300
0020
,
0000
0031
0020
0000
1030
0200
0310
0002
,
1003
0200
0000
0310
2000
0000
3010
0200
,
0000
1300
0002
0000
1003
0200
0310
0002
,
0013
0200
0000
0301
0200
0000
0310
0002
,
0000
1003
0002
0000
0103
0020
1030
0002
,
1003
0100
1000
0010
0100
0001
1000
0001
0010
0100
1000
0001
0100
0010
0100
0001
,
1000
0000
0100
0000
0010
0001
1000
0000
0001
0000
1000
0000
1001
0000
0000
0000
,
1000
0000
0001
0010
0100
0000
1000
0000
0001
1000
0100
0000
1000
0010
0100
0001
,
2000
0000
0000
0000
3001
0000
1000
0010
0100
0000
0010
1000
0001
0000
1000
0000
,
0100
0000
0010
0001
1000
0000
0010
0000
0100
0001
0010
0000
0100
0010
0001
1000
,
0002
0000
0000
0000
0103
0000
0010
1000
0002
0000
0103
0000
0010
0000
0100
0000
,
0001
0000
1000
0001
0010
0000
0100
0000
0010
0001
0100
0000
0010
0100
0001
1000
,
0002
0000
0000
0000
0103
0000
1000
0000
0001
0000
0010
1000
0001
0000
1000
0000
,
0100
0000
0010
0001
1000
0000
0100
0000
0010
0100
1000
0000
0001
0000
0010
0100
,
1000
0000
0001
1000
0100
0000
1000
0010
0100
0001
1000
0001
0010
0000
0001
0000
,
1000
0100
1000
0010
0100
0000
0001
1000
0001
0010
0100
0000
1000
0010
0100
0010
,
1000
0000
0001
0010
0100
0000
1000
0000
0001
0100
0010
1000
0001
1000
0100
0000
,
1000
0001
0010
0001
0100
0000
0001
1000
0100
1000
0010
0000
0100
0001
1000
0100
,
2000
0000
0000
0000
3001
0000
0010
1000
0010
0000
0001
0100
1000
0000
0100
0000
,
0001
0010
0100
0010
0100
0000
1000
0010
0100
0001
0010
0000
0001
1000
0100
0010
,
0200
0000
0000
0000
1300
0000
0001
0100
0010
0000
1000
0001
0100
0000
0010
0000
,
1010
0000
1000
0100
0010
0000
0001
0000
0010
0100
1000
0000
0001
0100
0010
0100
,
0001
0010
0100
1000
0010
0100
0001
0010
0100
1000
0010
0100
0001
0010
0100
1000
,
0002
0000
0000
0000
,
0000
0000
0000
0000
,
2000
0000
0000
0000
,
0000
0000
0000
3003
,
2002
0000
0000
0000
,
0000
0000
0000
0000
,
0000
0000
0000
0000
,
3003
0000
0000
0000
;

//--------------- dance-double - Fred-104 ----------------
#NOTES:
     dance-double:
     Fred-104:
     Easy:
     7:
     :
00000000
00000000
00000000
00000000
,
00000000
00000000
00000000
00000000
,
00000000
00000000
00000000
00000000
,
00000000
00000000
00000000
00000000
,
00000000
00000000
00000000
00000000
,
00000000
00000000
00000000
00000000
,
00000000
00000000
00000000
00000000
,
00000000
00000000
00000000
00000000
,
00000000
00000000
00000000
00000000
,
00000002
00000003
00000200
00000300
,
00000020
00000030
00010000
00001000
,
00020000
00030000
00002000
00003000
,
00200000
00300000
00010000
10000000
,
00020000
00030000
20000000
30000000
,
02000000
03000000
00100000
00001000
,
00020000
00030000
00002000
00003000
,
00100000
00001000
00010000
00001000
,
00000020
00000000
00000030
00000002
00000000
00000003
00002000
00000000
,
00003000
00000002
00000000
00000003
00000100
00000000
00000010
00000000
,
00000200
00000000
00000300
00000020
00000000
00000030
00002000
00000000
,
00003000
00020000
00000000
00030000
00001000
00000000
00010000
00000000
,
02000000
00000000
03000000
00200000
00000000
00300000
02000000
00000000
,
03000000
00200000
00000000
00300000
10000000
00000000
00100000
00000000
,
02000000
00000000
03000000
00200000
00000000
00300000
20000000
00000000
,
31000000
00100000
00001000
00010000
,
00012000
00000000
00003000
00020000
00000000
00030000
00000200
00000000
,
00000300
00002000
00000000
00003000
00000002
00000000
00000203
00000000
,
00000320
00000000
00000030
00000200
00000000
00000300
00000002
00000000
,
00000003
00002000
00000000
00003000
00000020
00000000
00020030
00000000
,
00032000
00000000
00003000
00020000
00000000
00030000
00002000
00000000
,
00003000
02000000
00000000
03000000
00020000
00000000
00230000
00000000
,
00302000
00000000
00003000
00020000
00000000
00030000
00002000
00000000
,
00003000
00200000
00000000
00300000
00020000
00000000
10030000
00000000
,
10010000
10000000
00200000
00000000
,
01300000
00010000
01000000
00001000
,
00010000
00001000
00200000
00000000
,
00301000
00010000
00000100
00010000
,
00001000
00000100
00000002
00000000
,
00001003
00000100
00000010
00000001
,
00000100
00000010
00002000
00000000
,
00013000
00001000
00011000
00000000
,
00001000
00100000
00001000
00100000
,
00010000
01000000
00020000
00000000
,
10030000
00100000
10000000
00100000
,
01000000
00100000
02000000
00000000
,
03010000
00100000
00010000
00100000
,
00001000
00010000
00002000
00000000
,
00013000
00000010
00001000
00000010
,
00000100
00000001
00001000
00000100
,
00000010
00000000
00000000
00000001
00000000
00000000
00000100
00000000
,
00001000
00010000
00100000
10000000
,
00010000
00000000
00000000
01000000
00000000
00000000
10000000
00000000
,
00100000
00010000
00001000
00010000
,
00002000
00000000
00000000
00023000
00000000
00000000
00030020
00000000
,
00000000
00002030
00000000
00000000
00003200
00000000
00020300
00000000
,
00031000
00001000
00010000
00010000
,
00000100
00000100
00000010
00000010
,
00002002
00000000
00000000
00000000
,
00000000
00000000
00003003
00000000
,
00000002
00000000
00000000
00000000
,
00000203
00000000
00000000
00000000
,
00002300
00000000
00000000
00000000
,
00000000
00000000
00000000
00000000
,
00023000
00000000
00000000
00000000
,
00002000
00000000
00033000
00000000
,
00000002
00000000
00000003
00000200
00000000
00000300
00000020
00000000
,
00000030
00000200
00000000
00000300
00000010
00000000
00001000
00000000
,
00020000
00000000
00030000
00002000
00000000
00003000
00200000
00000000
,
00300000
00020000
00000000
00030000
10000000
00000000
00100000
00000000
,
20000000
00000000
30000000
02000000
00000000
03000000
00200000
00000000
,
00300000
02000000
00000000
03000000
10000000
00000000
00100000
00000000
,
01000000
01000000
00001000
00001000
,
00010000
00001000
00011000
00000000
,
00010000
00001000
00010000
00000000
00000100
00000000
00001000
00000000
,
00000002
00000103
00000020
00000130
,
00000001
00000010
00000001
00000000
00001000
00000000
00000010
00000000
,
00002000
00003100
00020000
01030000
,
00001000
00010000
00001000
00000000
00100000
00000000
00010000
00000000
,
20000000
31000000
00200000
01300000
,
10000000
01000000
00100000
00010000
,
01000000
00010000
01000000
00000000
00001000
00000000
00011000
00000000
,
00001000
00010000
00000010
00010000
,
00001000
00010000
00002000
00003000
,
00010000
00001000
01000000
00001000
,
00020000
00130000
00002000
00003010
,
00010000
00001000
00100000
00001000
,
00010000
00000100
00001000
00000100
,
00000010
00000001
00000100
00001000
,
00010000
00100000
10010000
00000000
,
20000000
00000000
30000000
02000000
00000000
03000000
00200000
00000000
,
00300000
00020000
00000000
00030000
00100000
00000000
01000000
00000000
,
00002000
00000000
00003000
00020000
00000000
00030000
00000200
00000000
,
00000300
00020000
00000000
00030000
01000000
00100000
01000000
00000000
,
20020000
00000000
00000000
00000000
,
00000000
00000000
00000000
00000000
,
00000000
00000000
00000000
00000000
,
30030000
00000000
00000000
00000000
;

//--------------- dance-double - Fred-104 ----------------
#NOTES:
     dance-double:
     Fred-104:
     Medium:
     12:
     :
00000000
00000000
00000000
00000000
,
00000000
00000000
00000000
00000000
,
00000000
00000000
00000000
00000000
,
00000000
00000000
00000000
00000000
,
00000000
00000000
00000000
00000000
,
00000000
00000000
00000000
00000000
,
00000000
00000000
00000000
00000000
,
00000000
00000000
00000000
00000000
,
00000000
00000000
00000000
00000000
,
00100000
00010000
00000000
10000000
00010000
00000000
10000000
01000000
,
00000000
10000000
00010000
00000000
01000000
00100000
01000000
00000000
,
00001000
00010000
00000000
00000100
00010000
00000000
00000010
00001000
,
00000000
00000001
00000100
00000000
00000010
00000100
00000010
00000000
,
00001000
00000100
00000000
00010000
00001000
00000000
00100000
00010000
,
00000000
10000000
00100000
00000000
01000000
00010000
01000000
00000000
,
00010000
00100000
00000000
01000000
10000000
00000000
00100000
01000000
,
00000000
00010000
10000000
00000000
00100000
01000000
00010000
00000000
,
00100000
00001000
00010000
00001000
00100000
00000000
00001000
00010000
,
00000000
00000010
00001000
00000000
00000010
00000000
00000100
00000000
,
00000001
00000010
00000100
00000010
00000001
00000000
00000100
00000010
,
00000000
00001000
00010000
00000000
01000000
00000000
00100000
00000000
,
10000000
00100000
01000000
00100000
10000000
00000000
01000000
00100000
,
00000000
00001000
00010000
00000000
00001000
00000000
00100000
00000000
,
00001000
00010000
00001000
00000010
00000001
00000000
00001000
00000000
,
00000001
00000100
00000001
00000100
00000010
00000000
00001001
00000000
,
00000001
00000020
00000030
00000010
00000200
00000300
00000100
00020000
,
00030000
00010000
00002000
00003000
00100000
00020000
10030000
00000000
,
10000000
02000000
03000000
00100000
00020000
00030000
01000000
00002000
,
00003000
00010000
00002000
00003000
00010000
00000200
00001300
00000000
,
00000100
00000020
00000030
00000001
00000020
00000030
00000001
00002000
,
00003000
00000010
00000200
00000300
00000001
00002000
00003002
00000000
,
00000103
00000020
00000030
00010000
00000020
00000030
00001000
00000200
,
00000300
00010000
00002000
00003000
00100000
00020000
10030000
00000000
,
00010000
00200000
00300000
01000000
20000000
30000000
01000000
00200000
,
00300000
00010000
02000000
03000000
00010000
00200000
00301000
00020000
,
00031000
00200000
00300000
00001000
00020000
00030000
00000010
00002000
,
00003000
00000100
00020000
00030000
00001000
00200000
00310000
02000000
,
03100000
02000000
03000000
00010000
00002000
00003000
00000100
00000020
,
00000030
00001000
00020000
00030000
00001000
00200000
00310000
02000000
,
03001000
00020000
00030000
00001000
00000200
00000300
00000010
00002000
,
00003000
00010000
00200000
00300000
01000000
00100000
01100000
00000000
,
10000000
01000000
10000000
00000000
01000000
00010000
01000000
00000000
,
10000000
00100000
01000000
00010000
00100000
00000000
00001000
00000000
,
00010000
00001000
00010000
00000100
00001000
00000000
00000001
00000100
,
00000000
00000010
00000100
00000000
00000001
00001000
00000010
00000000
,
00010000
00001000
00100000
00001000
00010000
00000000
00001000
00100000
,
00000000
00010000
10000000
00000000
01000000
00100000
00010000
00000000
,
01000000
00100000
01000000
00010000
00100000
00000000
00001000
00010000
,
00000000
00001000
00000100
00000000
00000001
00001000
00000001
00000000
,
00001000
00000200
00000310
00000100
00002000
00003000
00000001
00000020
,
00000030
00000100
00020000
00030000
00001000
00020000
00031000
00000000
,
00100000
00020000
01030000
00100000
20000000
30000000
00010000
00200000
,
00300000
01000000
00200000
00300000
00001000
00020000
00031000
00000000
,
00020000
00100000
00001000
01030000
,
00002000
00010000
00000010
00013000
,
00001000
00010000
00000100
00000000
00001000
00000001
00000100
00000000
,
00000001
00000010
00001000
00000000
00010000
01000000
10000000
00000000
,
20020000
00000000
00000000
00000000
,
00000000
00000000
00030000
00000000
,
02000000
00000000
30000000
00000000
,
00200000
00000000
03000000
00000000
,
00002000
00000000
00000000
00000000
,
00000000
00000000
00303000
00000000
,
00020000
00000000
00000000
00000000
,
20000000
00000000
30030000
00000000
,
10000000
02000000
00000000
13000000
00200000
00000000
01300000
00020000
,
00000000
01030000
00020000
00000000
01030000
00002000
00013000
00000000
,
00001000
00020000
00000000
00030100
00002000
00000000
00003010
00000200
,
00000000
00000301
00002000
00000000
00003001
00000020
00000130
00000000
,
00001000
00000020
00000000
00000031
00000020
00000000
00001030
00000200
,
00000000
00000301
00000200
00000000
00010300
00002000
00013000
00000000
,
00001000
01000000
00100000
00010000
00001000
00000100
00000010
00001000
,
00010000
00000000
00001000
00000000
00000010
00000001
00001001
00000000
,
00000001
00000100
00001000
00000100
00000001
00000100
00001000
00000000
,
00010000
00000000
00001000
00000010
00000000
00001000
00010000
00000000
,
00001000
00010000
01000000
00010000
00001000
00010000
00100000
00000000
,
01200000
10300000
02100000
03010000
,
10000000
01000000
00010000
01000000
10000000
01000000
00100000
00000000
,
00010000
00000000
00100000
01000000
00000000
00100000
00001000
00000000
,
00010000
00100000
00010000
00001000
00010000
00000010
00010000
00000000
,
00001000
00010000
00000100
00001000
00000001
00000200
00000000
00000320
,
00000130
00000001
00000100
00000010
00000100
00000001
00001000
00000000
,
00000010
00010000
00001000
00010000
01000000
10000000
00010000
00000000
,
10000000
01000000
00100000
00010000
01000000
00001000
00010000
00000000
,
00012000
01003000
00021000
00030010
,
00001000
00000010
00000100
00000010
00001000
00000100
00000010
00000001
,
00000100
00000010
00001000
00000100
00010000
00001000
00010000
00000000
,
00001000
00100000
00010000
01000000
00100000
10000000
00010000
00100000
,
01000000
00100000
00010000
20000000
00000000
30020000
00000000
02030000
,
03020000
00000000
00030000
00200000
00000000
00300000
20000000
00000000
,
30000000
02000000
00000000
03000000
00010000
00000000
00001000
00000000
,
00020000
00000000
00030000
00002000
00000000
00003000
00000020
00000000
,
00000030
00000002
00000000
00000003
00000100
00000000
00001000
00000000
,
00022000
00000000
00000000
00000000
,
00000000
00000000
00000000
00000000
,
00000000
00000000
00000000
00000000
,
00033000
00000000
00000000
00000000
;

//--------------- dance-double - Fred-104 ----------------
#NOTES:
     dance-double:
     Fred-104:
     Hard:
     15:
     :
00000000
00000000
00000000
00000000
,
00000000
00000000
00000000
00000000
,
00000000
00000000
00000000
00000000
,
00000000
00000000
00000000
00000000
,
00000000
00000000
00000000
00000000
,
00000000
00000000
00000000
00000000
,
00000000
00000000
00000000
00000000
,
00000000
00000000
00000000
00000000
,
00000000
00000000
00000000
00000000
,
00001000
00020000
00000000
00031000
00200000
00000000
00301000
00020000
,
00000000
00030010
00002000
00000000
00003100
00020000
00031000
02000000
,
03001000
00020000
00000000
00030100
00020000
00000000
00031000
02000000
,
00000000
03001000
00020000
00000000
00030010
00002000
00003100
00020000
,
00031000
00200000
00000000
00310000
20000000
00000000
31000000
00200000
,
00000000
00301000
00020000
00000000
00030100
00000020
00000031
00002000
,
00003001
00000200
00000000
00000310
00002000
00000000
00003001
00000020
,
00000130
00001000
00000200
00000310
00000001
00002000
00003010
00000000
,
00000100
00000000
00000001
00000000
00000010
00000000
00000100
00000010
00000100
00000000
00010000
00000000
00001000
00000000
00000000
00000000
,
00010000
00000000
00000010
00000000
00001000
00000000
00000100
00001000
00000100
00000000
00010000
00000000
00001000
00000000
00000000
00000000
,
00100000
00000000
00010000
00000000
00100000
00000000
01000000
00100000
01000000
00000000
00100000
00000000
00010000
00000000
00000000
00000000
,
01000000
00000000
00100000
00000000
10000000
00000000
00010000
01000000
00000000
00100000
01000000
00000000
00010000
00000000
10000000
00000000
,
01000000
00000000
00100000
00000000
00001000
00000000
00010000
00000100
00010000
00000000
00000010
00000000
00001000
00000000
00000000
00000000
,
00000100
00000000
00000010
00000000
00000100
00000000
00001000
00000001
00001000
00000000
00000001
00000000
00000100
00000000
00000000
00000000
,
00000010
00000000
00001000
00000000
00000100
00000000
00010000
00001000
00010000
00000000
00100000
00000000
01000000
00000000
00000000
00000000
,
10000000
00100000
10000000
00100000
01000000
00010000
01000000
00010000
01000000
00000000
00100000
00000000
10010000
00000000
00000000
00000000
,
00020000
00230000
00310000
20000000
30200000
01300000
00020000
20030000
,
31000000
00200000
00302000
00013000
00000010
00020000
00031000
00020000
,
00030200
00002300
00003001
00000200
00000320
00001030
00000200
00000320
,
00000031
00002000
00003020
00000130
00000001
00000020
00000130
00000020
,
00000032
00000203
00001300
00020000
00230000
10300000
00020000
20030000
,
31000000
00020000
00032000
00003010
00000001
00002000
00003002
00000203
,
00000320
00002030
00003100
00020000
00032000
00103000
00020000
02030000
,
03010000
00000000
00200000
00000000
02300000
00000000
03100000
00010000
00100000
00000000
00002000
00000000
00013000
00000000
00002000
00000000
,
00023000
00032000
00003010
00000002
00002003
00003001
00000200
00002300
,
00013000
00200000
20300000
30010000
10000000
02000000
03100000
02000000
,
23000000
30200000
01300000
00020000
00230000
00301000
00020000
00030200
,
00001300
00000020
00000230
00000301
00000010
00000200
00001300
00000002
,
00002003
00003020
00000031
00002000
00003200
00000301
00000020
00002030
,
00013000
02000000
23000000
30100000
00010000
20000000
32000000
03020000
,
00230000
00302000
01003000
00200000
02300000
03001000
00200000
00302000
,
01003000
00000000
00200000
00000000
02300000
00000000
03001000
00010000
00001000
00000000
00000200
00000000
00000301
00000000
00002000
00000000
,
00003001
00000010
00000100
00001000
00000010
00000100
00000001
00000010
,
00000001
00000000
00001000
00000000
00000010
00000000
00010000
00000000
00001000
00010000
00001000
00010000
00001000
00000000
00010000
00000000
,
00001000
00100000
00010000
10000000
00010000
01000000
00100000
01000000
,
00010000
00000000
00100000
00000000
00001000
00000000
00010000
00000000
00000010
00001000
00000010
00000000
00000100
00000001
00000100
00000000
,
00000001
00000010
00000100
00000010
00000001
00001000
00000010
00010000
,
00001000
00000000
00010000
00000000
00000100
00000000
00010000
00000000
00001000
00100000
00001000
00000000
00100000
00010000
00100000
00000000
,
00010000
01000000
00100000
10000000
01000000
00100000
00010000
10000000
,
00100000
00000000
01000000
00010000
01000000
00000000
00001000
00010000
00001000
00010000
00001000
00000000
00010000
00000000
00000100
00000000
,
00001000
00000000
00000010
00000000
00000100
00000000
00000001
00000100
00000001
00000000
00000010
00000000
00000100
00000000
00000010
00000000
,
00000001
00000000
00001000
00000000
00000010
00000000
00000100
00000010
00000100
00000000
00000010
00000000
00001000
00000000
00000100
00000000
,
00010000
00000000
00001000
00000000
00010000
00000000
01000000
00100000
01000000
00000000
00001000
00000000
00010000
00000000
00001000
00000000
,
00100000
00000000
00010000
00000000
01000000
00000000
00100000
10000000
00100000
10000000
01000000
00000000
10000000
00000000
00100000
00000000
,
20000000
32000000
03100000
00020000
02030000
03100000
20000000
30200000
,
01300000
00020000
00230000
00301000
00010000
00002000
00003010
00002000
,
00023000
00030200
00001300
00000200
00000320
00000031
00002000
00003002
,
00000013
00000000
00000200
00000000
00000320
00000000
00000031
00001000
00000001
00001000
00000100
00010000
00001000
00010000
00001000
00000000
,
00022000
00000000
00000000
00000000
,
00000000
00000000
00003000
00000000
,
00200000
00000000
00030000
00000000
,
20000000
00000000
00300000
00000000
,
02000000
00000000
30000000
00000000
,
00020000
00000000
03000000
00000000
,
00002000
00000000
00030000
00000000
,
00000020
00000000
00003030
00000000
,
00000002
00001000
00000000
00002003
00000010
00000000
00003020
00000100
,
00000000
00000230
00000001
00000000
00000301
00001000
00000010
00010000
,
00002000
00100000
00000000
00203000
00010000
00000000
00320000
10000000
,
00000000
20030000
00100000
00000000
30100000
01000000
00010000
01000000
,
00002000
00010000
00000000
00023000
00000100
00000000
00030200
00001000
,
00000000
00002300
00000001
00000000
00003001
00000010
00000100
00010000
,
00001000
00010000
00001000
00010000
00001000
00010000
00001000
00010000
00001000
00010000
00001000
00010000
00001000
00010000
00001000
00010000
,
00001000
00000000
00100000
00000000
00010000
10000000
00010000
00000000
01000000
00000000
00100000
00000000
01100000
00000000
00000000
00000000
,
20000000
32000000
03200000
10300000
00020000
02030000
03100000
00020000
,
20030000
00000000
30020000
02030000
03100000
02000000
03020000
00230000
,
00302000
00000000
00023000
00000000
00032000
00000000
00003010
00000000
00002000
00000000
00023000
00000000
00031000
00000000
00020000
00030000
,
00012000
01003000
00021000
00030010
,
00020000
00032000
00023000
00030100
00002000
00003002
00000103
00000020
,
00002030
00000000
00003002
00000203
00001300
00000002
00000023
00002030
,
00003002
00000023
00000130
00000020
00000032
00001003
00000200
00020300
,
00031000
00000000
00200000
00000000
02300000
00000000
13000000
00010000
10000000
00000000
00010000
00000000
10010000
00000000
00000000
00000000
,
10000000
00000000
00100000
10000000
00100000
00000000
01000000
00000000
00010000
00100000
00010000
00000000
01000000
00000000
00001000
00010000
,
00001000
00000000
00010000
00000000
00000100
00000000
00001000
00000000
00000001
00000000
00000100
00000010
00000100
00000000
00000001
00000000
,
00001000
00000000
00000001
00000010
00000001
00000000
00001000
00000000
00000100
00010000
00000100
00000000
00010000
00000000
00001000
00000000
,
00021000
00030100
00012000
01003000
,
00010000
00000000
00100000
01000000
00100000
00000000
01000000
00000000
10000000
00000000
00010000
00000000
01000000
00000000
00100000
10000000
,
00100000
00000000
10000000
00000000
01000000
00100000
01000000
00000000
00100000
00000000
00001000
00010000
00001000
00000000
00010000
00000000
,
00012000
00000000
00013000
00000010
00010000
00000000
00000010
00000000
00001000
00000000
00000001
00000000
00000100
00000000
00000010
00000000
,
00001000
00000100
00001000
00000100
00000010
00000001
00000010
00000001
00001000
00000001
00001000
00000001
00001000
00000000
00000000
00000000
,
00000001
00000020
00000000
00001030
00020000
00000000
01030000
20000000
,
00000000
30100000
00020000
00000000
00032000
00003200
00000302
00002003
,
00003001
00000020
00000000
00001030
00020000
00000000
01030000
20000000
,
00000000
00000000
30100000
00000000
00020000
00000000
00000000
00000000
00032000
00000000
00003200
00000000
00000302
00000000
00002003
00003000
,
00002002
00000000
00000000
00000000
,
00000000
00000000
00000000
00000000
,
00000000
00000000
00000000
00000000
,
00003003
00000000
00000000
00000000
;

//--------------- dance-double - Fred-104† ----------------
#NOTES:
     dance-double:
     Fred-104†:
     Challenge:
     17:
     :
00000000
00000000
00000000
00000000
,
00000000
00000000
00000000
00000000
,
00000000
00000000
00000000
00000000
,
00000000
00000000
00000000
00000000
,
00000000
00000000
00000000
00000000
,
00000000
00000000
00000000
00000000
,
00000000
00000000
00000000
00000000
,
00000000
00000000
00000000
00000000
,
00000000
00000000
00000000
00000000
,
00022000
00000000
00030000
00000000
,
00000200
00000000
00003000
00000000
,
00000002
00000000
00000300
00000000
,
00000020
00000000
00000003
00000000
,
00002000
00000000
00000030
00000000
,
00020000
00000000
00003000
00000000
,
02000000
00000000
00030000
00000000
,
20000000
00000000
00000000
33000000
,
20000000
00000000
32000000
00000000
03100000
00000000
00010000
01000000
00010000
01000000
00010000
00000000
00200000
00000000
02300000
00000000
,
03100000
00000000
00002000
00000000
00023000
00000000
00030010
00001000
00000010
00001000
00000200
00000000
00010300
00000000
00002000
00000000
,
00023000
00000000
00030020
00000000
00001030
00000000
00000100
00001000
00000100
00001000
00000100
00000000
00000020
00000000
00000032
00000000
,
00001003
00000000
00000002
00000000
00000203
00000000
00000310
00001000
00000010
00000100
00000002
00000000
00001003
00000000
00000200
00000000
,
00020300
00000000
00032000
00000000
00103000
00000000
00010000
00100000
01000000
00100000
00010000
00000000
02000000
00000000
03200000
00000000
,
01300000
00000000
00020000
00000000
20030000
00000000
30010000
10000000
01000000
10000000
00200000
00000000
01300000
00000000
00200000
00000000
,
20300000
00000000
32000000
00000000
03100000
00000000
00001000
00010000
00000100
00010000
00001000
00000000
00020000
00000000
00030020
00000000
,
00001030
00000010
00001000
00000010
00000100
00000001
00000100
00000001
00001000
00000001
00001000
00000001
00001000
00000000
00000000
00000000
,
00000002
00000023
00001030
00020000
02030000
13000000
00200000
00320000
,
00031000
00000000
00000200
00000000
00000302
00000000
00001003
00000000
00000001
00000100
00000010
00001000
00000001
00000000
00002000
00000000
,
00003002
00000203
00001300
00020000
00230000
10300000
02000000
03020000
,
00031000
00000000
00000020
00000000
00000032
00000000
00001003
00000000
00000001
00000010
00000100
00001000
00000001
00000000
00000020
00000000
,
00002030
00023000
00031000
00000020
00002030
00013000
02000000
03020000
,
00031000
00000000
00000200
00000000
00002300
00000000
00013000
00000000
00100000
00000000
00020000
00000000
00031000
00000010
00002000
00000000
,
00023000
00230000
10300000
00200000
00320000
00031000
00020000
02030000
,
03010000
00000000
00002000
00000000
00003020
00000000
00001030
00010000
00001000
00000000
00000200
00000000
00001300
00000000
00020000
00000000
,
00032000
00000000
00103000
00010000
10000000
00000000
00200000
00000000
01300000
00010000
00100000
00000000
02000000
00000000
13000000
00100000
,
01000000
00000000
00200000
00000000
10300000
01000000
00010000
00000000
00001000
00000000
00000020
00000000
00000031
00000000
00002000
00000000
,
00003002
00000000
00000013
00000100
00001000
00000000
00000002
00000000
00000013
00000100
00001000
00000000
00000020
00000000
00010030
00001000
,
00100000
00000000
00020000
00000000
10030000
00010000
00100000
00000000
00010000
00000000
20000000
00000000
30100000
00000000
02000000
00000000
,
03020000
00000000
01030000
10000000
01000000
00000000
00020000
00000000
00130000
01000000
00100000
00000000
00002000
00000000
00013000
00000010
,
00010000
00000000
00002000
00000000
00003010
00000001
00000010
00000000
00000100
00000000
00000002
00000000
00002003
00000000
00003002
00000000
,
00000203
00000000
00000301
00000010
00001000
00000000
00000020
00000000
00000031
00000100
00001000
00000000
00020000
00000000
00130000
10000000
,
00010000
00000000
20000000
00000000
31000000
00100000
00010000
10000000
00010000
00000000
02000000
00000000
03100000
00000000
20000000
00000000
,
30010000
00000000
01000000
00100000
10000000
00100000
01000000
00000000
00010000
00100000
00010000
00000000
01000000
00100000
10000000
00000000
,
00100000
10000000
01000000
00000000
00100000
00010000
01000000
00000000
00001000
00010000
00001000
00010000
00001000
00000000
00100000
00000000
,
00001000
00000000
00010000
00000100
00001000
00000010
00001000
00000000
00000001
00001000
00000100
00000000
00000010
00000001
00001000
00000000
,
00000001
00000010
00000100
00000000
00001000
00000100
00000010
00000000
00000001
00001000
00000010
00001000
00000001
00000000
00000100
00000000
,
00000001
00000010
00000100
00000000
00000010
00000100
00001000
00000000
00000100
00001000
00010000
00000000
00001000
00010000
00001000
00000000
,
00100000
00010000
10000000
00010000
01000000
00000000
00100000
00000000
10000000
01000000
00100000
01000000
10000000
00000000
00010000
00000000
,
10000000
00100000
01000000
00000000
00100000
01000000
00010000
00000000
01000000
00010000
00001000
00000000
00010000
00001000
00010000
00000000
,
00001000
00010000
00000100
00010000
00001000
00000000
00010000
00000000
00000010
00001000
00000001
00000100
00000010
00000000
00001000
00000000
,
00000001
00000010
00000100
00000000
00001000
00000000
00000010
00000100
00000001
00000000
00001000
00000000
00000100
00000010
00000100
00000000
,
00010000
00000000
00001000
00100000
00001000
00000000
00100000
00000000
00010000
10000000
01000000
00000000
00100000
00010000
10000000
00000000
,
00010000
00100000
01000000
00000000
00010000
00000000
01000000
10000000
00010000
00000000
10000000
00000000
01000000
00100000
10000000
00000000
,
00100000
00000000
00010000
10000000
01000000
00000000
00100000
00001000
00010000
00000000
00001000
00000000
00000010
00000000
00000001
00000000
,
00002000
00000000
00003001
00000010
00000100
00000000
00002000
00000000
00003100
00000010
00000001
00000000
00002000
00000000
00003010
00010000
,
00001000
00000000
00200000
00000000
00301000
00010000
00000100
00000000
00010000
00000000
00001000
00100000
01000000
00000000
10000000
00000000
,
12000000
00000000
13000000
01000000
00100000
00000000
00120000
00000000
01030000
00100000
10000000
00000000
01000000
00000000
00100000
00000000
,
00011000
00000000
00010000
00000000
00000100
00000000
00010000
00001000
00010000
00000010
00001000
00000100
00000010
00000001
00000100
00000010
,
00002000
00000000
00000000
00000000
,
00000020
00000000
00003000
00000000
,
00000002
00000000
00000030
00000000
,
00000200
00000000
00000003
00000000
,
00020000
00000000
00000300
00000000
,
00200000
00000000
00030000
00000000
,
20000000
00000000
00300000
00000000
,
02000000
00000000
00000000
33000000
,
20000000
32000000
03010000
00002000
00023000
00130000
00020000
00032000
,
00003010
00002000
00023000
01030000
00010000
00002000
00003100
00002000
,
00023000
00032000
00003010
00002000
00023000
00130000
00020000
00032000
,
00003100
00002000
00023000
01030000
00010000
00002000
00003010
00002000
,
00023000
00230000
00310000
00002000
00003200
00001300
00020000
02030000
,
03010000
00002000
00003020
00001030
00010000
00002000
00003100
00000002
,
00001003
00000001
00001000
00000001
00000010
00000100
00000010
00000100
00001000
00000001
00000010
00000100
00001000
00000010
00000100
00000010
,
00000100
00000000
00000001
00000000
00001000
00000100
00001000
00000000
00000010
00000000
00010000
00000000
00011000
00000000
00000000
00000000
,
00001000
00000000
00100000
00010000
01000000
00000000
00001000
00000000
00010000
00000100
00001000
00000000
00000010
00000000
00010000
00001000
,
00020000
00000000
00000000
00000000
00030010
00000000
00010000
00000000
00001000
00000000
00010000
01000000
00100000
00000000
10000000
00000000
,
00010000
00000000
01000000
00100000
10000000
00000000
01000000
00000000
00100000
00001000
00010000
00000000
00001000
00000000
00010000
00000010
,
00002000
00000000
00000000
00000000
00003100
00000000
00000010
00000000
00000002
00000000
00000103
00000010
00001000
00000000
00000001
00000000
,
00001000
00000000
00000100
00000010
00000001
00000000
00001000
00000000
00000001
00000010
00000100
00000000
00010000
00000000
00001000
00010000
,
00002000
00000000
00000000
00000000
00103000
00000000
00010000
00000000
01000000
00000000
00010000
00100000
01000000
00000000
00100000
00000000
,
00020000
00000000
01030000
10000000
01000000
00000000
00020000
00000000
00130000
10000000
00100000
00000000
00002000
00000000
00013000
00000010
,
00010000
00000000
00002000
00000000
00003100
00000000
00000001
00001000
00000001
00000100
00000010
00001000
00000001
00000000
00001000
00000000
,
00000010
00000100
00000010
00000100
00000010
00000000
00010000
00001000
00010000
00001000
00010000
00000000
00001000
00100000
00010000
10000000
,
00020000
00000000
00000000
00000000
10030000
00000000
00010000
00100000
01000000
00000000
10000000
00100000
01000000
00000000
00010000
00000000
,
01000000
00100000
01000000
00100000
01000000
00000000
00001000
00010000
00001000
00010000
00001000
00000000
00010000
00000010
00001000
00000100
,
00020000
00000000
00000000
00000000
00031000
00000000
00010000
00000100
00001000
00000000
00000001
00000100
00000010
00000000
00001000
00000000
,
00000001
00000100
00000001
00001000
00000100
00000000
00001000
00000010
00001000
00000001
00000010
00000000
00000001
00001000
00000010
00000100
,
00000002
00000000
00000000
00000000
00001003
00000000
00000010
00010000
00001000
00000000
00100000
00010000
01000000
00000000
00100000
00000000
,
10100000
00000000
10000000
00100000
01000000
00000000
00010000
00000000
01000000
00100000
10000000
00000000
01000000
00000000
00100000
00001000
,
00010000
00000100
00001000
00000010
00000100
00000010
00001000
00000001
00000010
00000100
00001000
00000100
00010000
00001000
00100000
00001000
,
00020000
00000000
00000000
00000000
,
00000000
00000000
00000000
00000000
,
00002000
00000000
00000000
00000000
,
00000000
00000000
00000000
00033000
,
00022000
00000000
00000000
00000000
,
00000000
00000000
00000000
00000000
,
00000000
00000000
00000000
00000000
,
00033000
00000000
00000000
00000000
;
