#TITLE:THE FALLEN;
#ARTIST:L.E.D.-G;
#GENRE:GOTH NU-STYLE GABBA;
#BANNER:THE FALLEN.png;
#BACKGROUND:THE FALLEN-bg.png;
#CDTITLE:./CDTitles/REFLEC BEAT.png;
#MUSIC:THE FALLEN.ogg;
#SAMPLESTART:17.245;
#SAMPLELENGTH:15;
#DISPLAYBPM:167;
#BPMS:0=167.5,4=167;
#TIMESIGNATURES:0=4=4,240=3=4,288=4=4;
#STAGE:15;

//--------------- dance-single - Fred-104 ----------------
#NOTES:
     dance-single:
     Fred-104:
     Beginner:
     3:
     :
0000
0000
0000
0000
,
0000
0000
0000
0000
,
0000
0000
0000
0000
,
0000
0000
0000
0000
,
0000
0000
0000
0000
,
0000
0000
0000
0000
,
1000
0000
0000
0000
,
0001
0000
0000
0000
,
1000
0000
0001
0000
,
1000
0000
0001
0000
,
2002
0000
0000
0000
,
3003
0000
0000
0000
,
1000
0000
0010
0000
,
1000
0000
0000
0000
,
0001
0000
0010
0000
,
0001
0000
0000
0000
,
0001
0000
0100
0000
,
0100
0000
0000
0000
,
0100
0000
1000
0000
,
1000
0000
1000
0000
,
1000
0000
0010
0000
,
1000
0000
0000
0000
,
0010
0000
0010
0000
,
0001
0000
0000
0000
,
0001
0000
0001
0000
,
1000
0000
0001
0000
,
1000
0000
0001
0000
,
1000
0000
1000
0000
,
1001
0000
1000
0000
,
0100
0100
0100
0000
,
1000
0000
0001
0000
,
0100
0100
0100
0000
,
0001
0000
0010
0000
,
0001
0001
0001
0000
,
1000
0000
0010
0000
,
1000
1000
1000
0000
,
0001
0000
1000
0000
,
0010
0010
0010
0000
,
1000
0000
0100
0000
,
1000
1000
1000
0000
,
0001
0000
0010
0000
,
0001
0000
0010
0000
,
0001
0000
1000
0000
,
0001
0000
1000
0000
,
2002
0000
0000
0000
,
0000
0000
0000
0000
,
0000
0000
0000
0000
,
0000
0000
3003
0000
,
0010
0000
0010
0000
,
0100
0000
0100
0000
,
0001
0000
0001
0000
,
1000
0000
1000
0000
,
2002
3003
1000
0000
,
0010
0000
1000
1000
,
1000
0000
0010
0000
,
0100
0000
0001
0001
,
0001
0000
0100
0000
,
0010
0000
0100
0100
,
0100
0000
0010
0000
,
1000
1000
1000
0000
,
0001
0000
0000
0001
,
0000
0000
1000
0000
,
0000
0010
0000
0000
,
1000
0000
0000
0001
,
0000
0000
1000
0000
,
0000
0001
0000
0000
,
0100
0000
0000
0010
,
0000
0000
1000
0000
,
0000
0001
0000
0000
,
1000
0000
0000
0010
,
0000
0000
1000
0000
,
0000
0001
0000
0000
,
2002
0000
0000
0000
,
3003
0000
0000
0000
;

//--------------- dance-single - Fred-104 ----------------
#NOTES:
     dance-single:
     Fred-104:
     Easy:
     6:
     :
0000
0000
0000
0000
,
0000
0000
0000
0000
,
0000
0000
0000
0000
,
0000
0000
0000
0000
,
0000
0000
0000
0000
,
0000
0000
0000
0000
,
1000
1000
0010
1000
,
0001
0001
0010
0001
,
1000
1000
0100
0100
,
0001
0001
0010
0010
,
2002
0000
0000
0000
,
3003
0000
0000
0000
,
1000
1000
0100
0100
,
0010
0010
0100
0100
,
0001
0001
0010
0010
,
1000
0001
1000
0001
,
1000
1000
0010
0010
,
0100
0100
0010
0010
,
0001
0001
0100
0100
,
1000
0001
1000
0001
,
1000
0100
0100
1000
,
0010
0100
0100
0010
,
1000
0001
0001
0010
,
0001
1000
2002
3003
,
1000
1000
0100
1000
,
0010
0100
0100
0010
,
1000
0010
1000
0001
,
0200
0000
0320
0000
,
1030
0100
0100
0010
,
0002
0000
0203
0000
,
0320
0000
2030
0000
,
3001
1000
1001
0000
,
1000
0001
0001
0100
,
0010
0100
0100
0010
,
0001
1000
1000
0010
,
1000
0001
2000
3002
,
0103
0100
0010
1000
,
0100
0100
0010
0001
,
1000
0010
1000
0001
,
1000
0100
0220
0330
,
0001
0001
0010
0010
,
0001
1000
0010
0100
,
0010
1000
0100
1000
,
0002
0000
2003
0000
,
3001
0000
0011
0000
,
1000
0000
1010
0000
,
1000
0000
1100
0000
,
0001
0000
0101
0000
,
0100
0100
0010
0000
,
1000
0010
0010
0000
,
1000
1000
0001
0000
,
0001
0001
1000
1000
,
2002
3003
0001
0000
,
0010
0000
0001
0010
,
0010
0000
0100
0000
,
1000
0000
0010
0010
,
1000
0000
0100
0000
,
0001
0000
0100
0100
,
1000
0000
0010
0000
,
0100
0100
0010
0010
,
1001
0000
0100
0010
,
0000
0100
1000
0000
,
0010
1000
0000
0001
,
0010
0000
0001
0100
,
0000
0010
1000
0000
,
0001
1000
0000
0100
,
0010
0000
0001
0010
,
0000
1000
0010
0000
,
0001
0100
0000
1000
,
0100
0000
0001
0010
,
0000
1000
0001
0000
,
0100
0010
0000
1000
,
2002
0000
0000
0000
,
3003
0000
0000
0000
;

//--------------- dance-single - Fred-104 ----------------
#NOTES:
     dance-single:
     Fred-104:
     Medium:
     11:
     :
0000
0000
0000
0000
,
0000
0000
0000
0000
,
0000
0000
0000
0000
,
0000
0000
0000
0000
,
0000
0000
0000
0000
,
0000
0000
0000
0000
,
1000
0100
0001
0010
,
0001
0100
1000
0010
,
1000
0000
1000
0100
0000
0100
0010
0000
0010
0001
0000
0001
,
1000
1100
0001
0101
,
2002
0000
0000
0000
,
3003
0000
0000
0000
,
1000
0000
0000
0100
0000
0000
0010
0000
0000
0001
0000
0100
,
0010
0000
0000
0100
0000
0000
0001
0000
0000
1000
0000
0010
,
0100
0000
0000
0010
0000
0000
1000
0000
0000
0001
0100
0001
,
0100
0000
0000
0010
0000
1000
0100
0000
0000
0010
0000
0001
,
0100
0000
0000
0010
0000
0000
0100
0000
0100
0010
0000
1000
,
0100
0000
0000
1000
0000
1000
0010
0000
0000
0100
0000
0001
,
0010
0000
0000
0001
0000
0000
0100
0000
0100
0010
0000
0010
,
0100
0000
0000
0001
0000
0000
1000
0000
0000
0010
1000
0010
,
1000
0000
0000
0001
0000
0000
1000
0000
0000
0100
0000
0100
,
0010
0000
0000
0001
0000
0000
0010
0000
0000
0001
0000
0100
,
0001
0000
0000
0100
0000
0000
0010
0000
0000
1000
0001
1000
,
0001
0000
0000
0100
0000
0010
1000
0000
1000
0100
0000
0001
,
0100
0000
0000
1100
0000
0000
0101
0000
0010
0100
0000
0100
,
0010
0000
0000
1010
0000
0000
0011
0000
0100
0010
0000
0010
,
0100
0000
0000
0110
0000
1000
0001
0000
0001
1000
0000
1000
,
0001
0000
0000
0100
0000
0000
0010
0000
0000
1000
0100
1000
,
0100
0000
0100
0010
0000
0010
0001
0000
0001
1000
0000
0000
,
0020
1000
0001
1030
,
0200
1000
0001
1300
,
1001
0000
0000
1100
0000
0000
2002
0000
0000
3003
0000
0001
,
1000
0000
0000
0100
0000
0100
0010
0000
0000
0100
0000
0100
,
0010
0001
0010
1000
,
0001
0000
0001
0010
0000
0000
1000
0000
1000
0010
0000
0000
,
0001
0000
0000
1000
0000
0000
0010
0000
0200
0310
0000
0200
,
0310
0000
0000
1000
0000
0000
0010
0000
0000
1000
0000
0100
,
1000
0001
0010
0100
,
1000
0100
0100
0001
,
0010
0000
0000
0010
0100
0010
0200
0000
0000
0000
0000
0000
,
1300
0000
1000
0100
0000
0100
0010
0000
0010
0001
0000
0000
,
0001
0000
0001
0100
0000
0100
0010
0000
0010
1000
0000
0000
,
0001
0000
0010
0001
0000
1000
0001
0000
0100
0001
0000
1000
,
0001
0000
0001
0010
0000
0010
0100
0000
0100
1000
0000
1000
,
0002
0100
0100
0103
,
2000
0100
0100
3100
,
0002
0010
0010
0013
,
2000
0010
0010
3010
,
1001
0000
0000
0100
0000
0000
0010
0000
0000
0001
0000
0100
,
0010
0000
0000
1000
0000
0000
0100
0000
0000
1000
0000
0010
,
1000
0000
1000
0100
0000
0100
0010
0000
0010
0001
0000
0001
,
0020
0032
2003
3001
,
2002
3003
0001
0100
,
0010
1000
0010
1000
0000
0000
0001
1000
0001
1000
0000
0000
,
0100
0010
0001
1000
,
0100
1000
0100
1000
0000
0000
0001
0100
0001
0100
0000
0000
,
0010
1000
0100
0100
,
0010
0000
0010
0001
0000
0001
1000
0000
1000
0010
0000
0000
,
1000
0100
0010
0001
,
2000
3020
0032
0203
,
1300
0000
0000
1010
0000
0000
0001
0000
0100
0001
0000
0000
,
0011
0000
0000
1000
0000
0100
1000
0000
0000
1100
0000
0000
,
0001
0000
0010
0001
0000
0000
0101
0000
0000
1000
0000
0010
,
1000
0000
0000
1001
0000
0000
0100
0000
0010
0001
0000
0000
,
1001
0000
0000
0100
0000
0010
1000
0000
0000
1001
0000
0000
,
0010
0000
1000
0100
0000
0000
1001
0000
0000
0010
0000
0001
,
0100
0000
0000
0100
0000
0000
0010
0100
0010
0100
0000
0000
,
0010
0000
0000
0001
0000
1000
0001
0000
0000
0100
0000
0000
,
0010
0000
1000
0100
1000
0100
2000
0000
0000
3001
0000
0000
,
1000
0000
0000
0100
0000
0000
0010
0001
0010
0001
0000
0000
,
0100
0000
0000
0010
1000
0010
1000
0000
0000
0100
0000
0000
,
0010
0001
0010
0001
0000
0000
1000
0000
0000
0001
1000
0001
,
0200
0000
0000
0000
,
0300
0000
0000
0000
;

//--------------- dance-single - Fred-104 ----------------
#NOTES:
     dance-single:
     Fred-104:
     Hard:
     15:
     :
0000
0000
0000
0000
,
0000
0000
0000
0000
,
0000
0000
0000
0000
,
0000
0000
0000
0000
,
0000
0000
0000
0000
,
0000
0000
0000
0000
,
1000
1010
0001
0011
,
0001
0101
1000
1100
,
1000
0000
0001
1000
0000
0001
0010
0000
0100
0010
0000
0100
,
1000
0100
1000
0001
0100
0001
1000
0010
1000
0001
0010
0100
,
2000
0000
0000
0000
,
0000
0000
0000
3000
,
1100
0000
0000
1010
0000
0000
1100
0000
0000
1010
0000
0001
,
0100
0000
0000
0011
0000
0000
0101
0000
0000
0011
0000
1000
,
0100
0000
0000
0110
0000
0000
1001
0000
0001
0100
0010
1000
,
0100
0000
0000
1100
0000
0001
0100
0000
0000
0110
0000
0001
,
1000
0000
0000
1010
0000
0000
0101
0000
0010
1000
0000
0010
,
0100
0000
0000
0110
0000
1000
0001
0000
0000
1100
0000
0001
,
0100
0000
0000
1010
0000
0000
0011
0000
0010
1000
0000
0010
,
0001
0000
0000
1001
0000
0000
0110
0000
0000
0100
0010
0200
,
0310
0000
0001
0010
0000
0010
0100
0000
0100
1000
0000
0100
,
0001
0000
0001
0100
0000
0100
1000
0000
1000
0010
0000
0100
,
0001
0000
1000
0100
0000
0010
0100
0000
1000
0001
0010
0100
,
1000
0000
0010
1000
0001
0100
0001
0000
0100
1000
0000
0100
,
0001
0000
0010
0001
0000
1000
0001
0000
0100
0001
0000
0001
,
1000
0000
0010
1000
0000
0001
1000
0000
0100
1000
0000
1000
,
0001
0000
0100
1000
0000
0100
0001
0000
0100
1000
0000
0100
,
0101
0000
0000
1100
0000
0000
1001
0000
0000
0001
1000
0002
,
0103
0000
0001
0010
0000
0010
0001
0000
0001
1000
0000
1000
,
0010
0000
1000
0010
0000
0100
0001
0000
1000
0100
0000
0010
,
0001
0000
0001
1000
0000
1000
0010
0000
0010
0100
0000
0100
,
0110
0000
0000
0001
0100
0001
2000
0000
0000
0000
0000
3002
,
1003
0000
0000
1010
0000
0001
0100
0000
0000
0011
0000
1000
,
0100
0000
0000
1100
0000
0010
0001
0000
0000
0101
0000
0010
,
1000
0000
1000
0100
0000
0100
0010
0000
0010
0001
0000
0001
,
1000
0000
0100
0010
0000
0001
1000
0000
0200
0310
0000
0200
,
1300
0000
0010
0100
0000
0010
1000
0000
0010
0100
0000
0001
,
0200
0001
1000
0301
,
1001
0000
0001
0010
0000
0010
0100
0000
0100
1000
0000
1000
,
0010
0000
1000
0100
0010
0001
0100
0000
0001
1000
0000
0100
,
1000
0000
0100
1000
0001
1000
0010
0000
0010
0100
0000
0100
,
0001
0000
0001
0010
0001
1000
0010
0100
0010
1000
0000
1000
,
0001
0000
0200
1300
0000
0200
0301
0000
0020
1030
0000
0020
,
0031
1000
0001
0010
0100
0010
0001
1000
0100
0010
0001
1000
,
0010
0000
1000
0000
0000
1000
0000
0000
0100
0000
0000
0010
,
0000
0000
0001
0000
0000
0100
0000
0000
1000
0000
0000
0010
,
0000
0000
1000
0000
0000
0100
0000
0000
0001
0000
0000
1000
,
0000
0000
1000
0000
0000
0001
0000
0000
0010
0000
0000
0001
,
1000
0100
1000
0100
1000
0100
0010
0100
1000
0001
0000
0100
,
0001
0100
0001
0100
0001
1000
0010
0100
0010
1000
0000
0100
,
1000
0010
0100
0001
1000
0100
0010
0100
0010
0001
1000
0010
,
1000
0100
0010
0200
0000
1300
0002
0103
0020
0230
0302
2003
,
3002
0000
0000
1003
0010
0100
0010
1000
0010
1000
0001
0100
,
0001
0100
0001
0000
1000
0010
1000
0100
0010
0001
0010
0100
,
1000
0000
0001
0100
0010
1000
0100
1000
0010
1000
0100
1000
,
0001
0010
0001
0010
0000
0100
1000
0010
1000
0010
0100
0001
,
1000
0000
0000
0100
1000
0100
1000
0001
1000
0000
0010
0100
,
0010
0000
1000
0100
0000
0010
0001
0100
0010
0100
0001
0100
,
0010
0000
0010
0100
0000
0100
0001
0010
0100
1000
0100
0010
,
0001
0010
1000
0100
,
0001
0000
0000
0101
0000
0000
0110
0000
0010
1000
0000
0000
,
1100
0000
0000
0110
0000
0010
0001
0000
0000
0011
0000
0000
,
0001
0010
0100
1000
0000
0000
1010
0000
0000
0110
0000
0100
,
0001
0000
0000
1001
0000
0000
1010
0000
0100
1000
0000
0000
,
1001
0000
0000
0011
0000
0100
0010
0000
0000
1100
0000
0000
,
1001
0000
1000
0100
0000
0100
0010
0000
0010
0100
1000
0001
,
1000
0000
0100
0010
0000
1000
0010
0000
0001
1000
0000
0100
,
0010
0000
0001
0100
0000
0001
1000
0000
0010
1000
0000
0100
,
1000
0100
0010
0001
1000
0010
0200
0000
0000
0301
0000
0001
,
1000
0000
1000
0100
0000
0100
0010
0001
0010
0100
0000
0100
,
1000
0000
1000
0001
0100
0001
1000
0100
0010
0100
0010
0001
,
0100
0010
1000
0010
0100
0010
1000
0001
0010
0001
0010
0100
,
2000
0000
0000
0000
,
3000
0000
0000
0000
;

//--------------- dance-single - Fred-104 ----------------
#NOTES:
     dance-single:
     Fred-104:
     Challenge:
     17:
     :
0000
0000
0000
0000
,
0000
0000
0000
0000
,
0000
0000
0000
0000
,
0000
0000
0000
0000
,
0000
0000
0000
0000
,
0000
0000
0000
0000
,
1100
0101
1010
0011
,
1010
0011
1100
0101
,
1001
0000
0100
0010
0000
0010
0001
0000
0001
1000
0000
1000
,
0010
0100
0010
1000
0100
0010
0001
0001
0001
1000
1000
1000
,
2002
0000
0000
0000
,
0000
0000
0000
3003
,
0101
0000
0001
0100
0000
0010
1000
0000
0001
1000
0000
0100
,
0110
0000
0001
0010
0000
0001
0100
0000
0100
0010
0000
0010
,
1010
0000
1000
0100
0000
0100
0010
0000
0001
0101
0100
0010
,
1000
0000
1000
0110
0000
0001
0110
0000
0000
1010
0000
0010
,
0100
0000
0100
0001
0000
0001
0010
0000
0010
0110
0000
0100
,
1100
0000
0000
0101
0000
0100
1001
0000
0000
1010
0000
0010
,
0110
0000
0000
0000
0000
0000
0000
0000
0000
0000
0000
0000
0000
0000
0000
0000
0000
0000
0000
0000
0000
0000
0000
0000
0000
0000
0000
0000
0000
0000
0000
0000
0100
0000
0000
0000
0000
0000
0000
0000
0000
0000
0000
0000
0000
0000
0000
0000
1000
0000
0000
0000
0000
0000
0000
0000
0000
0000
0000
0000
0000
0000
0000
0000
0000
0000
0000
0000
0000
0000
0000
0000
0000
0000
0000
0000
0000
0000
0000
0000
0010
0000
0000
0000
0000
0000
0000
0000
0000
0000
0000
0000
0000
0000
0000
0000
0200
0000
0000
0300
0000
0000
0000
0000
0000
0000
0000
0000
0000
0000
0000
0000
0200
0000
0000
0300
0000
0000
0000
0000
0000
0000
0000
0000
0000
0000
0000
0000
1000
0000
0000
0000
0000
0000
0000
0000
0000
0000
0000
0000
0000
0000
0000
0000
0200
0000
0000
0300
0000
0000
0000
0000
0000
0000
0000
0000
0000
0000
0000
0000
0200
0000
0000
0300
0000
0000
0000
0000
0000
0000
0000
0000
0000
0000
0000
0000
0001
0000
0000
0000
0000
0000
0000
0000
0000
0000
0000
0000
0000
0000
0000
0000
,
1001
0000
0000
0000
0001
0000
0101
0000
0000
0000
1000
0000
1100
0000
0000
0000
0001
0000
0101
0000
0100
0000
0010
1000
,
0001
0000
0010
1000
0000
0010
0001
0000
0100
1000
0000
0100
,
0101
0000
0010
1000
0000
0010
0100
0000
0010
1000
0000
0100
,
0110
0000
0000
0000
0000
0000
0000
0000
0000
0000
0000
0000
0000
0000
0000
0000
0000
0000
0000
0000
0000
0000
0000
0000
0000
0000
0000
0000
0000
0000
0000
0000
0010
0000
0000
0000
0000
0000
0000
0000
0000
0000
0000
0000
0000
0000
0000
0000
0001
0000
0000
0000
0000
0000
0000
0000
0000
0000
0000
0000
0000
0000
0000
0000
0000
0000
0000
0000
0000
0000
0000
0000
0000
0000
0000
0000
0000
0000
0000
0000
0001
0000
0000
0000
0000
0000
0000
0000
0000
0000
0000
0000
0000
0000
0000
0000
2000
0000
0000
3000
0000
0000
0000
0000
0000
0000
0000
0000
0000
0000
0000
0000
2000
0000
0000
3000
0000
0000
0000
0000
0000
0000
0000
0000
0000
0000
0000
0000
0001
0000
0000
0000
0000
0000
0000
0000
0000
0000
0000
0000
0000
0000
0000
0000
2000
0000
0000
3000
0000
0000
0000
0000
0000
0000
0000
0000
0000
0000
0000
0000
2000
0000
0000
3000
0000
0000
0000
0000
0000
0000
0000
0000
0000
0000
0000
0000
0001
0000
0000
0000
0000
0000
0000
0000
0000
0000
0000
0000
0000
0000
0000
0000
,
1000
0000
0100
0010
0000
0001
0100
0000
1000
0110
0000
0001
,
0110
0000
1000
1001
0000
0100
1100
0010
0001
0101
0010
1000
,
1001
0000
0001
0101
0000
1000
1100
0000
0000
0110
0000
0010
,
0011
0000
0000
0000
0000
0000
0000
0000
0000
0000
0000
0000
0000
0000
0000
0000
0000
0000
0000
0000
0000
0000
0000
0000
0000
0000
0000
0000
0000
0000
0000
0000
1000
0000
0000
0000
0000
0000
0000
0000
0000
0000
0000
0000
0000
0000
0000
0000
1010
0000
0000
0000
0000
0000
0000
0000
0000
0000
0000
0000
0000
0000
0000
0000
0000
0000
0000
0000
0000
0000
0000
0000
0000
0000
0000
0000
0000
0000
0000
0000
0001
0000
0000
0000
0000
0000
0000
0000
0000
0000
0000
0000
0000
0000
0000
0000
0200
0000
0000
0300
0000
0000
0000
0000
0000
0000
0000
0000
0000
0000
0000
0000
0200
0000
0000
0300
0000
0000
0000
0000
0000
0000
0000
0000
0000
0000
0000
0000
0010
0000
0000
0000
0000
0000
0000
0000
0000
0000
0000
0000
0000
0000
0000
0000
0200
0000
0000
0300
0000
0000
0000
0000
0000
0000
0000
0000
0000
0000
0000
0000
0200
0000
0000
0300
0000
0000
0000
0000
0000
0000
0000
0000
0000
0000
0000
0000
0010
0000
0000
0000
0000
0000
0000
0000
0000
0000
0000
0000
0000
0000
0000
0000
,
1001
1000
0100
0110
0010
0001
0101
0100
0010
1100
0100
0010
,
1001
0000
2000
0100
0000
3200
0010
0000
0320
0001
0000
0031
,
1001
0000
0100
1100
0000
0000
1001
0000
0100
0101
0000
0000
,
1010
0000
0010
0110
0000
0001
0011
0000
0010
0110
0000
1000
,
1100
0000
0100
0010
0001
1000
0002
0000
0000
0000
0000
2003
,
3001
0000
0001
0100
0010
1000
1100
0000
0100
0010
0000
0010
,
0011
0000
0001
0100
0000
1000
0100
0000
0001
0010
0000
1000
,
0010
0000
0100
0010
0000
0010
0100
0000
1000
1100
0000
0001
,
0101
0000
0000
0000
0001
0000
0011
0000
0000
0000
1000
0000
1010
0000
0000
0000
0001
0010
0100
0000
0000
0000
1000
0010
,
0100
0010
1000
1100
0000
0100
0010
0001
0010
0011
0000
0001
,
0201
0000
0000
1000
0000
0000
0001
0000
0000
1300
0000
0010
,
1020
0000
0000
0001
0000
0000
1000
0000
0000
0031
0000
1000
,
1001
0000
0000
0100
0100
0100
0010
0000
1000
1100
0000
0001
,
0101
0100
0010
1000
0010
0100
0001
0010
0100
0010
0001
0100
,
0110
0010
1000
0100
1000
0010
0100
0001
1000
0100
0010
0001
,
1001
0000
0000
0000
1000
0010
0100
0000
0000
0000
0001
0010
0100
0000
0000
0000
1000
0100
0010
0000
0000
0000
0001
0100
,
0010
0000
1000
0000
0100
0000
0010
0000
0001
0000
0100
0000
0001
0010
0100
1000
0010
0100
0001
0010
0100
1000
0001
1000
,
0001
0000
0100
0001
0000
0100
0001
0000
0100
1000
0000
0100
,
1000
0000
0010
1000
0000
0010
1000
0000
0010
0001
0000
0010
,
0001
0000
0100
1000
0000
0100
1000
0000
0100
0001
0000
0100
,
0001
0000
0010
1000
0000
0010
1000
0000
0010
0001
0000
0010
,
0011
0001
0100
0010
1000
0100
0010
0001
0100
1000
0100
0001
,
1001
1000
0010
0100
0001
0010
0100
1000
0010
0100
0010
1000
,
1100
0100
0010
0001
0100
0010
0101
0100
0010
1000
0100
0010
,
0100
0100
0100
0020
0000
1030
0002
0103
2000
3002
0023
2030
,
3002
0000
0000
0000
0000
0000
0000
0000
0000
0000
0000
0000
0000
0000
0000
0000
0000
0000
0000
0000
0000
0000
0000
0000
0000
0000
0000
0000
0000
0000
0000
0000
0000
0000
0000
0000
0000
0000
0000
0000
0000
0000
0000
0000
0000
0003
0000
0000
1001
0000
0000
0000
0000
0000
0000
0000
0000
0000
0000
0000
0000
0000
0000
0000
1000
0000
0000
0000
0000
0000
0000
0000
0000
0000
0000
0000
0000
0000
0000
0000
0100
0000
0000
0000
0000
0000
0000
0000
0000
0000
0000
0000
0000
0000
0000
0000
0010
0000
0000
0000
0000
0000
0000
0000
0000
0000
0000
0000
0000
0000
0000
0000
0001
0000
0000
0000
0000
0000
0000
0000
0000
0000
0000
0000
0000
0000
0000
0000
1000
0000
0000
0000
0000
0000
0000
0000
0000
0000
0000
0000
0000
0000
0000
0000
0001
0000
0000
0000
0000
0000
0000
0000
0000
0000
0000
0000
0000
0000
0000
0000
0100
0000
0000
0000
0000
0000
0000
0000
0000
0000
0000
0000
0000
0000
0000
0000
0010
0000
0000
0000
0000
0000
0000
0000
0000
0000
0000
0000
0000
0000
0000
0000
,
1000
0010
0001
0010
1000
0010
0100
0010
1000
0100
0001
1000
,
1001
0000
0000
1000
0100
0010
1000
0010
0001
0010
1000
0001
,
0001
1000
0010
0100
0001
1000
0100
0010
0100
0100
0001
0100
,
0110
0000
0000
1010
0010
1000
0001
0010
1000
0010
0001
0100
,
0110
0000
0000
0000
0000
0000
0000
0000
0000
0000
0000
0000
0000
0000
0000
0000
0010
0000
0000
0000
0000
0000
0000
0000
0000
0000
0000
0000
0000
0000
0000
0000
1000
0000
0000
0000
0000
0000
0000
0000
0000
0000
0000
0000
0000
0000
0000
0000
0100
0000
0000
0000
0000
0000
0000
0000
0000
0000
0000
0000
0000
0000
0000
0000
0010
0000
0000
0000
0000
0000
0000
0000
0000
0000
0000
0000
0000
0000
0000
0000
0001
0000
0000
0000
0000
0000
0000
0000
0000
0000
0000
0000
0000
0000
0000
0000
2000
0000
0000
3000
0000
0000
0000
0000
0000
0000
0000
0000
0000
0000
0000
0000
2000
0000
0000
3000
0000
0000
0000
0000
0000
0000
0000
0000
0000
0000
0000
0000
0001
0000
0000
0000
0000
0000
0000
0000
0000
0000
0000
0000
0000
0000
0000
0000
2000
0000
0000
3000
0000
0000
0000
0000
0000
0000
0000
0000
0000
0000
0000
0000
2000
0000
0000
3000
0000
0000
0000
0000
0000
0000
0000
0000
0000
0000
0000
0000
0001
0000
0000
0000
0000
0000
0000
0000
0000
0000
0000
0000
0000
0000
0000
0000
,
1100
0000
0000
0000
0000
0000
0000
0000
0000
0000
0000
0000
0000
0000
0000
0000
0010
0000
0000
0000
0000
0000
0000
0000
0000
0000
0000
0000
0000
0000
0000
0000
0200
0000
0000
0300
0000
0000
0000
0000
0000
0000
0000
0000
0000
0000
0000
0000
0200
0000
0000
0300
0000
0000
0000
0000
0000
0000
0000
0000
0000
0000
0000
0000
0001
0000
0000
0000
0000
0000
0000
0000
0000
0000
0000
0000
0000
0000
0000
0000
0200
0000
0000
0300
0000
0000
0000
0000
0000
0000
0000
0000
0000
0000
0000
0000
0200
0000
0000
0300
0000
0000
0000
0000
0000
0000
0000
0000
0000
0000
0000
0000
0010
0000
0000
0000
0000
0000
0000
0000
0000
0000
0000
0000
0000
0000
0000
0000
1000
0000
0000
0000
0000
0000
0000
0000
0000
0000
0000
0000
0000
0000
0000
0000
0100
0000
0000
0000
0000
0000
0000
0000
0000
0000
0000
0000
0000
0000
0000
0000
0010
0000
0000
0000
0000
0000
0000
0000
0000
0000
0000
0000
0000
0000
0000
0000
0100
0000
0000
0000
0000
0000
0000
0000
0000
0000
0000
0000
0000
0000
0000
0000
,
0010
0001
0010
0001
0010
0001
1000
0100
1000
0100
1000
0100
0020
0000
0000
0000
0000
0000
0130
0000
0000
0000
0000
0000
,
1100
0000
0000
0101
0000
0000
1100
0000
0001
0011
0000
0000
,
1010
0000
0000
0011
0000
1000
1100
0000
0000
0101
0000
0000
,
1000
0100
0010
0011
0000
1000
1010
0000
0001
0011
0000
1000
,
1001
0000
0000
0110
0000
0000
1001
0000
0100
1001
0000
0000
,
0110
0000
0000
1001
0000
0010
1001
0000
0000
0110
0000
0000
,
1001
0000
0100
1001
0000
0100
0110
0000
1000
1001
0100
0010
,
0011
0000
0001
1000
0000
1000
0010
0100
0001
0101
0000
0100
,
1000
0000
1000
0100
0001
0100
0110
0000
0010
0001
0000
0001
,
1000
0100
0010
0100
0100
0100
0020
0000
0000
1030
0000
1000
,
1100
0100
0010
0001
1000
0010
0100
0010
0010
0001
0010
1000
,
0010
0100
1000
0010
0100
0100
1000
0100
0001
1000
0010
0001
,
1000
0000
0100
0000
0001
0000
1000
0000
0100
0000
0010
0000
0001
0000
0010
0000
0100
0000
1000
0010
0100
0001
0100
0010
,
2000
0000
0000
0000
,
3000
0000
0000
0000
;

//--------------- dance-double - Fred-104 ----------------
#NOTES:
     dance-double:
     Fred-104:
     Easy:
     7:
     :
00000000
00000000
00000000
00000000
,
00000000
00000000
00000000
00000000
,
00000000
00000000
00000000
00000000
,
00000000
00000000
00000000
00000000
,
00000000
00000000
00000000
00000000
,
00000000
00000000
00000000
00000000
,
00000010
00000010
00010000
00001000
,
00100000
00100000
00010000
01000000
,
10000000
01000000
01000000
00010000
,
00001000
00000100
00000100
00000001
,
00002002
00000000
00000000
00000000
,
00003003
00000000
00000000
00000000
,
00000010
00000010
00001000
00010000
,
00100000
01000000
00100000
00100000
,
00001000
00010000
00001000
00001000
,
00010000
00001000
00000100
00000010
,
00001000
00000100
00000100
00000100
,
00010000
00001000
00100000
00100000
,
01000000
00100000
00100000
00001000
,
00010000
00000100
00000100
00000010
,
00000001
00000010
00000010
00001000
,
00010000
00001000
00001000
00010000
,
00100000
10000000
10000000
00100000
,
01000000
00010000
00220000
00330000
,
00001000
00001000
00000100
00000010
,
00010000
00001000
00001000
00000100
,
00000001
00000001
00000010
00000010
,
00002000
00000000
00023000
00000000
,
01030000
01000000
00100000
00100000
,
20000000
00000000
32000000
00000000
,
03010000
00010000
00001000
00001000
,
00010000
00000100
00000110
00000000
,
00001000
00000100
00000010
00000100
,
00000010
00000001
00000100
00001000
,
00010000
00001000
00010000
00100000
,
10000000
00010000
20000000
30020000
,
01030000
00010000
00001000
00000100
,
00001000
00010000
01000000
00010000
,
00001000
00000010
00010000
00001000
,
00100000
00010000
02020000
03030000
,
01000000
01000000
10000000
10000000
,
00100000
00100000
00010000
00010000
,
00001000
00001000
00000100
00000100
,
00000001
00000001
00000010
00000010
,
00000110
00000000
00001001
00000000
,
00000110
00000000
00010010
00000000
,
00011000
00000000
00101000
00000000
,
01100000
00000000
10010000
00000000
,
10000000
01000000
00100000
00000000
,
10000000
01000000
00100000
00000000
,
00010000
00001000
00010000
00000000
,
00001000
00001000
00000001
00000100
,
00000220
00000330
00000001
00000000
,
00000010
00000000
00001000
00010000
,
00100000
00000000
10000000
00000000
,
01000000
00000000
00010000
00001000
,
00000100
00000000
00000001
00000000
,
00000100
00000000
00000010
00000001
,
00001000
00000000
00000100
00000000
,
00010000
00010000
00001000
00001000
,
00011000
00000000
01000000
10000000
,
00000000
00100000
00010000
00000000
,
00001000
00000100
00000000
00000001
,
00000010
00000000
00001000
00010000
,
00000000
01000000
10000000
00000000
,
00100000
00010000
00000000
00001000
,
00000010
00000000
00000001
00000100
,
00000000
00001000
00010000
00000000
,
01000000
10000000
00000000
00100000
,
00010000
00000000
00001000
00000010
,
00000000
00000001
00000100
00000000
,
00001000
00010000
00000000
01000000
,
02200000
00000000
00000000
00000000
,
03300000
00000000
00000000
00000000
;

//--------------- dance-double - Fred-104 ----------------
#NOTES:
     dance-double:
     Fred-104:
     Medium:
     11:
     :
00000000
00000000
00000000
00000000
,
00000000
00000000
00000000
00000000
,
00000000
00000000
00000000
00000000
,
00000000
00000000
00000000
00000000
,
00000000
00000000
00000000
00000000
,
00000000
00000000
00000000
00000000
,
00001000
00000100
00000001
00000010
,
00001000
00010000
00100000
10000000
,
00010000
00000000
00010000
01000000
00000000
01000000
00100000
00000000
00100000
10000000
00000000
10000000
,
01000000
00010000
00001000
00000100
,
00000220
00000000
00000000
00000000
,
00000330
00000000
00000000
00000000
,
00010000
00000000
00000000
00001000
00000000
00000000
00100000
00000000
00000000
00010000
00000000
10000000
,
01000000
00000000
00000000
00100000
00000000
00000000
01000000
00000000
00000000
00100000
00000000
00001000
,
00010000
00000000
00000000
00001000
00000000
00000000
00000100
00000000
00000000
00000010
00000001
00000010
,
00000001
00000000
00000000
00000100
00000000
00000010
00000100
00000000
00000000
00000010
00000000
00000100
,
00000010
00000000
00000000
00001000
00000000
00000000
00010000
00000000
00010000
00001000
00000000
00000100
,
00000010
00000000
00000000
00001000
00000000
00001000
00000100
00000000
00000000
00010000
00000000
00001000
,
00010000
00000000
00000000
00001000
00000000
00000000
00100000
00000000
00100000
00010000
00000000
00010000
,
10000000
00000000
00000000
01000000
00000000
00000000
00010000
00000000
00000000
00001000
00010000
00001000
,
00010000
00000000
00000000
00000100
00000000
00000000
00000110
00000000
00000000
00000010
00000000
00000001
,
00000100
00000000
00000000
00000010
00000000
00000000
00001010
00000000
00000000
00000100
00000000
00010000
,
00001000
00000000
00000000
00100000
00000000
00000000
10010000
00000000
00000000
00010000
10000000
00010000
,
01000000
00000000
00000000
00100000
00000000
00001000
00010000
00000000
00010000
00001000
00000000
00001000
,
00010000
00000000
00000000
00000010
00000000
00000000
00001000
00000000
00001000
00000001
00000000
00000001
,
00000100
00000000
00000000
00000010
00000000
00001000
00000100
00000000
00000000
00010000
00000000
01000000
,
00100000
00000000
00000000
10000000
00000000
00000000
01000000
00000000
01000000
00100000
00000000
00100000
,
01000000
00000000
00000000
00010000
00000000
00000000
01000000
00000000
00000000
00100000
10000000
00100000
,
10000000
00000000
10000000
01000000
00000000
00000000
00010000
00000000
00010000
00001000
00000000
00000000
,
00000200
00000320
00000032
00002003
,
00003020
00020030
00032000
00203000
,
02300000
00000000
00000000
03100000
01000000
00100000
01000000
00000000
00000000
00000000
00000000
00100000
,
01000000
00000000
00000000
00100000
00000000
00010000
01000000
00000000
00000000
00100000
00000000
10000000
,
01000000
00000000
00000000
00100000
00000000
00000000
00001000
00000000
00000000
00010000
00000000
00001000
,
00010000
00000000
00001000
00000100
00000000
00000000
00000010
00000000
00000100
00000010
00000000
00000000
,
00000001
00000000
00000000
00001000
00000000
00000000
00000010
00000000
00000200
00000310
00000000
00002000
,
00003001
00000000
00000000
00000010
00000000
00000000
00001000
00000000
00000000
00010000
00000000
00001000
,
00010000
00001000
00000010
00001000
,
00010000
00100000
01000000
00010000
,
00001000
00000000
00000000
00010000
00001000
00010000
00000200
00000000
00000000
00000000
00000000
00000000
,
00001300
00000000
00001000
00000100
00000000
00000100
00000010
00000000
00000010
00000001
00000000
00000000
,
00000100
00000000
00000100
00010000
00000000
00010000
00001000
00000000
00001000
01000000
00000000
00000000
,
00100000
00000000
00100000
10000000
00000000
10000000
01000000
00000000
01000000
00100000
00000000
00100000
,
00001000
00000000
00001000
00010000
00000000
00010000
00000100
00000000
00000100
00000010
00000000
00000000
,
00000002
00000010
00000010
00000013
,
00002000
00000010
00003010
00001000
,
00020000
00100000
00100000
00130000
,
20000000
00100000
30100000
00010000
,
00011000
00000000
00000000
00000100
00000000
00000000
00000100
00000000
00000000
00000010
00000000
00000100
,
00000010
00000000
00000000
00000001
00000000
00000000
00000100
00000000
00000000
00000010
00000000
00000100
,
00000010
00000000
00000010
00001000
00000000
00001000
00010000
00000000
00010000
00100000
00000000
00100000
,
02000000
03020000
20030000
30010000
,
20020000
30030000
01000000
00010000
,
00001000
00010000
00001000
00010000
00000000
00000000
00000100
00000010
00000100
00000010
00000000
00000010
,
00000001
00000100
00000010
00001000
,
00000100
00010000
00000100
00010000
00000000
00000000
00001000
00100000
00001000
00100000
00000000
00010000
,
01000000
00100000
10000000
01000000
,
00100000
00000000
00100000
00001000
00000000
00001000
00010000
00000000
00010000
00000010
00000000
00000000
,
00001000
00000010
00000001
00000100
,
00002000
00023000
00230000
10300000
,
10010000
00000000
00000000
01000000
00000000
00000000
00101000
00000000
00001000
00010000
00000000
00000000
,
00001000
00000000
00000000
00000110
00000000
00000010
00000100
00000000
00000000
00000010
00000000
00000000
,
00000101
00000000
00000100
00000010
00000000
00000000
00001000
00000000
00000000
00001100
00000000
00000100
,
00010000
00000000
00000000
00001000
00000000
00000000
01010000
00000000
01000000
00010000
00000000
00000000
,
00100000
00000000
00000000
01100000
00000000
00100000
01000000
00000000
00000000
10000000
00000000
00000000
,
10010000
00000000
10000000
01000000
00000000
00000000
00100000
00000000
00000000
00001000
00010000
00001000
,
00010000
00000000
00000000
00001000
00000000
00000000
00000110
00000000
00000010
00000100
00000000
00000000
,
00000001
00000000
00000000
00000011
00000000
00000010
00000001
00000000
00000000
00000100
00000000
00000000
,
00001000
00000000
00001000
00010000
00001000
00010000
00002000
00000000
00000000
00013000
00000000
00000000
,
00100000
00000000
00000000
00010000
00000000
00000000
10000000
00000000
01000000
00100000
00000000
00000000
,
00001000
00000000
00000000
00010000
00000000
00100000
01000000
00000000
00000000
10000000
00000000
00000000
,
00100000
00000000
01000000
00010000
00000000
00000000
00001000
00000000
00000000
00000100
00000010
00000100
,
00000020
00000000
00000000
00000000
,
00000030
00000000
00000000
00000000
;

//--------------- dance-double - Fred-104 ----------------
#NOTES:
     dance-double:
     Fred-104:
     Hard:
     15:
     :
00000000
00000000
00000000
00000000
,
00000000
00000000
00000000
00000000
,
00000000
00000000
00000000
00000000
,
00000000
00000000
00000000
00000000
,
00000000
00000000
00000000
00000000
,
00000000
00000000
00000000
00000000
,
00011000
00010000
00001000
00000010
,
00000011
00000001
00000100
00001000
,
00011000
00000000
00001000
00010000
00000000
00010000
00001000
00000000
00001000
00010000
00000000
00010000
,
00001000
00010000
00001000
00100000
00010000
00100000
01000000
10000000
00100000
01000000
00010000
01000000
,
00200000
00000000
00000000
00000000
,
00000000
00000000
00000000
00300000
,
12000000
00000000
00000000
03100000
00000000
00000000
02010000
00000000
00000000
03100000
00000000
10000000
,
01000000
00000000
00000000
00120000
00000000
00000000
00031000
00000000
00000000
00011000
00000000
00000100
,
00001000
00000000
00000000
00001010
00000000
00000000
00000101
00000000
00000001
00000010
00000100
00010000
,
00001000
00000000
00000000
00011000
00000000
00010000
01000000
00000000
00000000
01100000
00000000
00100000
,
10000000
00000000
00000000
11000000
00000000
00000000
01010000
00000000
00010000
00001000
00000000
00001000
,
00000100
00000000
00000000
00000101
00000000
00000001
00000010
00000000
00000000
00000011
00000000
00000010
,
00001000
00000000
00000000
00011000
00000000
00000000
00110000
00000000
00100000
10000000
00000000
10000000
,
00010000
00000000
00000000
01010000
00000000
00000000
00011000
00000000
00000000
00010000
00001000
00000200
,
00000301
00000000
00000001
00000100
00000000
00000100
00000010
00000000
00000010
00001000
00000000
00010000
,
00001000
00000000
00001000
00010000
00000000
00010000
00100000
00000000
00100000
10000000
00000000
00010000
,
01000000
00000000
01000000
00100000
00000000
00100000
10000000
00000000
10000000
01000000
00100000
00001000
,
00010000
00000000
00010000
00001000
00010000
00000100
00001000
00000000
00000100
00000010
00000000
00000100
,
00001000
00000000
00001000
00000100
00000000
00000100
00000010
00000000
00000010
00000001
00000000
00000100
,
00000010
00000000
00000010
00010000
00000000
00010000
00001000
00000000
00001000
00100000
00000000
01000000
,
00100000
00000000
00010000
10000000
00000000
00100000
01000000
00000000
00100000
10000000
00000000
01000000
,
01100000
00000000
00000000
00011000
00000000
00000000
00000110
00000000
00000000
00001000
00000010
00000100
,
00000001
00000000
00000001
00000100
00000000
00000100
00000010
00000000
00000010
00000100
00000000
00000100
,
00000001
00000000
00000010
00001000
00000000
00000000
00001000
00000000
00010000
00100000
00000000
00000000
,
10000000
00000000
10000000
01000000
00000000
01000000
00100000
00000000
00001000
00010000
00000000
00010000
,
00011000
00000000
00000000
00010000
00001000
00000100
00000002
00000000
00000000
00000000
00000000
00000203
,
00000310
00000000
00000000
00000101
00000000
00000010
00001000
00000000
00000000
00010100
00000000
00001000
,
00010000
00000000
00000000
00101000
00000000
00010000
00001000
00000000
00000000
00110000
00000000
01000000
,
00100000
00000000
00100000
10000000
00000000
10000000
01000000
00000000
01000000
00100000
00000000
00100000
,
00001000
00000000
00001000
00010000
00000000
00010000
00001000
00000000
00000020
00001030
00000000
00200000
,
00301000
00000000
00001000
00000100
00000000
00000100
00000010
00000000
00000010
00000100
00000000
00001000
,
00020000
00000000
00000000
00000010
00000000
00000000
00100000
00000000
00000000
00030010
00000000
00010000
,
00002000
00000000
00000000
01000000
00000000
00000000
00000100
00000000
00000000
01003000
00000000
00001000
,
00011000
00000000
00000000
00001000
00010000
00001000
00010000
00000000
00010000
00001000
00000000
00001000
,
00010000
00000000
00010000
00100000
01000000
00100000
00010000
00000000
00010000
10000000
00000000
10000000
,
01000000
00000000
01000000
00100000
00000000
00100000
00010000
00000000
00010000
00001000
00000000
00001000
,
00000100
00000000
00000002
00000103
00000000
00002000
00003100
00000000
00000002
00000103
00000000
00002000
,
00003010
00010000
00001000
00100000
00010000
00100000
01000000
10000000
00010000
01000000
00000000
00000000
,
01100000
00000000
00010000
00000000
00000000
00010000
00000000
00000000
10000000
00000000
00000000
10000000
,
00000000
00000000
01000000
00000000
00000000
01000000
00000000
00000000
00010000
00000000
00000000
00010000
,
00000000
00000000
00001000
00000000
00000000
00001000
00000000
00000000
00000010
00000000
00000000
00000010
,
00000000
00000000
00000001
00000000
00000000
00000001
00000000
00000000
00000100
00000000
00000000
00000100
,
00000010
00001000
00000010
00001000
00000010
00000100
00000010
00001000
00000010
00010000
00000000
00010000
,
00001000
00100000
00001000
00100000
00010000
00100000
00001000
00010000
00001000
00100000
00000000
00100000
,
00010000
10000000
01000000
10000000
01000000
00100000
00001000
00010000
00001000
00010000
00000010
00001000
,
00000010
00000100
00000010
00000200
00000000
00000301
00000200
00000310
00002000
00003200
00020300
00032000
,
00023000
00000000
00000000
00031000
00010000
00001000
00100000
00010000
01000000
00100000
10000000
00010000
,
01000000
00100000
01000000
00000000
00100000
00010000
00100000
00001000
00010000
00001000
00000100
00000010
,
00001000
00000000
00000100
00000000
00000010
00000100
00000010
00000001
00000010
00000001
00001000
00000010
,
00000100
00000010
00001000
00000100
00010000
00001000
00010000
00100000
01000000
00010000
10000000
00010000
,
01000000
00000000
01000000
00100000
00010000
00000000
00001000
00010000
00001000
00000010
00001000
00010000
,
00000000
00001000
00000100
00000000
00000001
00000100
00000001
00000100
00001000
00010000
00001000
00010000
,
00100000
00000000
00100000
01000000
00000000
01000000
10000000
01000000
00010000
00001000
00000100
00000001
,
00001000
00000010
00010000
00011000
,
00001000
00000000
00000000
00110000
00000000
00000000
10100000
00000000
01000000
00100000
00000000
00000000
,
00110000
00000000
00000000
00101000
00000000
00001000
00010000
00000000
00000000
00011000
00000000
00000000
,
00001000
00000010
00000100
00000001
00000000
00000000
00000101
00000000
00000000
00000110
00000000
00000010
,
00001000
00000000
00000000
00010100
00000000
00000000
00011000
00000000
00010000
00100000
00000000
00000000
,
11000000
00000000
00000000
01010000
00000000
01000000
00100000
00000000
00000000
00110000
00000000
00000000
,
00101000
00000000
00001000
00010000
00000000
00010000
00001000
00000000
00001000
00000100
00000001
00000100
,
00001000
00000000
00001000
00000010
00000000
00000010
00000100
00000001
00000100
00000010
00000000
00000010
,
00001000
00000000
00001000
00000100
00010000
00001000
00100000
00000000
00100000
01000000
00000000
01000000
,
10000000
01000000
00100000
00001000
00010000
00001000
00000200
00000000
00000000
00001300
00000000
00000010
,
00000100
00000000
00000100
00000001
00000000
00000001
00000010
00000001
00000010
00000100
00000000
00000100
,
00010000
00000000
00010000
00001000
00100000
01000000
00100000
00000000
00100000
00010000
00000000
00010000
,
10000000
01000000
00010000
00001000
00010000
00001000
00000100
00000010
00000001
00000100
00000010
00001000
,
00000200
00000000
00000000
00000000
,
00000300
00000000
00000000
00000000
;

//--------------- dance-double - Fred-104 ----------------
#NOTES:
     dance-double:
     Fred-104:
     Challenge:
     18:
     :
00000000
00000000
00000000
00000000
,
00000000
00000000
00000000
00000000
,
00000000
00000000
00000000
00000000
,
00000000
00000000
00000000
00000000
,
00000000
00000000
00000000
00000000
,
00000000
00000000
00000000
00000000
,
00000011
00001010
00011000
00110000
,
11000000
01010000
00011000
00001100
,
00001001
00000000
00000010
00000100
00000000
00000100
00010000
00000000
00010000
00001000
00000000
00001000
,
00100000
00010000
00100000
01000000
10000000
00100000
10000000
01000000
00010000
00001000
00000010
00000001
,
00002002
00000000
00000000
00000000
,
00000000
00000000
00000000
00003003
,
00001010
00000000
00000010
00000100
00000000
00000100
00000001
00000000
00000001
00000010
00000000
00000010
,
00000110
00000000
00000100
00010000
00000000
00010000
00001000
00000000
00001000
01000000
00000000
01000000
,
01010000
00000000
00010000
00100000
00000000
00100000
01000000
00000000
10000000
01000000
00010000
00001000
,
00010000
00000000
00001000
00101000
00000000
00010000
00010100
00000000
00000000
00011000
00000000
00001000
,
00000100
00000000
00000100
00000001
00000000
00000001
00001000
00000000
00001000
00000010
00000000
00000100
,
00000010
00000000
00000000
00000110
00000000
00001000
00010000
00000000
00000000
01100000
00000000
00001000
,
00010000
00000000
00000000
00000000
00000000
00000000
00000000
00000000
00000000
00000000
00000000
00000000
00000000
00000000
00000000
00000000
00000000
00000000
00000000
00000000
00000000
00000000
00000000
00000000
00000000
00000000
00000000
00000000
00000000
00000000
00000000
00000000
00010000
00000000
00000000
00000000
00000000
00000000
00000000
00000000
00000000
00000000
00000000
00000000
00000000
00000000
00000000
00000000
00001000
00000000
00000000
00000000
00000000
00000000
00000000
00000000
00000000
00000000
00000000
00000000
00000000
00000000
00000000
00000000
00000000
00000000
00000000
00000000
00000000
00000000
00000000
00000000
00000000
00000000
00000000
00000000
00000000
00000000
00000000
00000000
00001000
00000000
00000000
00000000
00000000
00000000
00000000
00000000
00000000
00000000
00000000
00000000
00000000
00000000
00000000
00000000
00020000
00000000
00000000
00030000
00000000
00000000
00000000
00000000
00000000
00000000
00000000
00000000
00000000
00000000
00000000
00000000
00020000
00000000
00000000
00030000
00000000
00000000
00000000
00000000
00000000
00000000
00000000
00000000
00000000
00000000
00000000
00000000
00000100
00000000
00000000
00000000
00000000
00000000
00000000
00000000
00000000
00000000
00000000
00000000
00000000
00000000
00000000
00000000
00020000
00000000
00000000
00030000
00000000
00000000
00000000
00000000
00000000
00000000
00000000
00000000
00000000
00000000
00000000
00000000
00020000
00000000
00000000
00030000
00000000
00000000
00000000
00000000
00000000
00000000
00000000
00000000
00000000
00000000
00000000
00000000
00001000
00000000
00000000
00000000
00000000
00000000
00000000
00000000
00000000
00000000
00000000
00000000
00000000
00000000
00000000
00000000
,
01000000
00000000
00000000
00000000
00010000
00000000
00110000
00000000
00000000
00000000
10000000
00000000
10100000
00000000
00000000
00000000
01000000
00000000
00010000
00000000
00001000
00000000
00010000
00001000
,
00010000
00000000
00100000
10000000
00000000
00100000
00010000
00000000
00001000
00000010
00000000
00000001
,
00001001
00000000
00000001
00000100
00000000
00000100
00001000
00000000
00001000
00010000
00000000
00010000
,
00011000
00000000
00000000
00000000
00000000
00000000
00000000
00000000
00000000
00000000
00000000
00000000
00000000
00000000
00000000
00000000
00000000
00000000
00000000
00000000
00000000
00000000
00000000
00000000
00000000
00000000
00000000
00000000
00000000
00000000
00000000
00000000
00001000
00000000
00000000
00000000
00000000
00000000
00000000
00000000
00000000
00000000
00000000
00000000
00000000
00000000
00000000
00000000
01000000
00000000
00000000
00000000
00000000
00000000
00000000
00000000
00000000
00000000
00000000
00000000
00000000
00000000
00000000
00000000
00000000
00000000
00000000
00000000
00000000
00000000
00000000
00000000
00000000
00000000
00000000
00000000
00000000
00000000
00000000
00000000
01000000
00000000
00000000
00000000
00000000
00000000
00000000
00000000
00000000
00000000
00000000
00000000
00000000
00000000
00000000
00000000
00200000
00000000
00000000
00300000
00000000
00000000
00000000
00000000
00000000
00000000
00000000
00000000
00000000
00000000
00000000
00000000
00200000
00000000
00000000
00300000
00000000
00000000
00000000
00000000
00000000
00000000
00000000
00000000
00000000
00000000
00000000
00000000
01000000
00000000
00000000
00000000
00000000
00000000
00000000
00000000
00000000
00000000
00000000
00000000
00000000
00000000
00000000
00000000
00200000
00000000
00000000
00300000
00000000
00000000
00000000
00000000
00000000
00000000
00000000
00000000
00000000
00000000
00000000
00000000
00200000
00000000
00000000
00300000
00000000
00000000
00000000
00000000
00000000
00000000
00000000
00000000
00000000
00000000
00000000
00000000
01000000
00000000
00000000
00000000
00000000
00000000
00000000
00000000
00000000
00000000
00000000
00000000
00000000
00000000
00000000
00000000
,
10010000
00000000
10000000
01000000
00000000
01000000
00010000
00000000
00010000
00011000
00000000
00001000
,
00011000
00000000
00010000
00010010
00000000
00000010
00001010
00001000
00000100
00000110
00000010
00000001
,
00000101
00000000
00000100
00001000
00000000
00001000
00011000
00000000
00000000
00101000
00000000
00010000
,
00011000
00000000
00000000
00000000
00000000
00000000
00000000
00000000
00000000
00000000
00000000
00000000
00000000
00000000
00000000
00000000
00000000
00000000
00000000
00000000
00000000
00000000
00000000
00000000
00000000
00000000
00000000
00000000
00000000
00000000
00000000
00000000
00001000
00000000
00000000
00000000
00000000
00000000
00000000
00000000
00000000
00000000
00000000
00000000
00000000
00000000
00000000
00000000
00011000
00000000
00000000
00000000
00000000
00000000
00000000
00000000
00000000
00000000
00000000
00000000
00000000
00000000
00000000
00000000
00000000
00000000
00000000
00000000
00000000
00000000
00000000
00000000
00000000
00000000
00000000
00000000
00000000
00000000
00000000
00000000
00010000
00000000
00000000
00000000
00000000
00000000
00000000
00000000
00000000
00000000
00000000
00000000
00000000
00000000
00000000
00000000
00002000
00000000
00000000
00003000
00000000
00000000
00000000
00000000
00000000
00000000
00000000
00000000
00000000
00000000
00000000
00000000
00002000
00000000
00000000
00003000
00000000
00000000
00000000
00000000
00000000
00000000
00000000
00000000
00000000
00000000
00000000
00000000
00010000
00000000
00000000
00000000
00000000
00000000
00000000
00000000
00000000
00000000
00000000
00000000
00000000
00000000
00000000
00000000
00002000
00000000
00000000
00003000
00000000
00000000
00000000
00000000
00000000
00000000
00000000
00000000
00000000
00000000
00000000
00000000
00002000
00000000
00000000
00003000
00000000
00000000
00000000
00000000
00000000
00000000
00000000
00000000
00000000
00000000
00000000
00000000
00010000
00000000
00000000
00000000
00000000
00000000
00000000
00000000
00000000
00000000
00000000
00000000
00000000
00000000
00000000
00000000
,
00110000
00100000
01000000
11000000
10000000
00100000
01100000
01000000
00010000
00011000
00001000
00000100
,
00000110
00000000
00000002
00000100
00000000
00000203
00010000
00000000
00020300
01000000
00000000
01030000
,
01200000
10000000
00010000
10300000
,
01100000
00000000
00010000
00011000
00000000
00000000
00011000
00000000
00000010
00000110
00000000
00000100
,
00000110
00000000
00000001
00000100
00001000
00010000
00022000
00000000
00000000
00000000
00033000
00010000
,
00011000
00000000
00001000
00010000
00100000
10000000
00100000
00000000
00100000
00010000
00000000
00001000
,
00011000
00000000
00010000
00001000
00000010
00000001
00000010
00000000
00000010
00001000
00000000
00001000
,
00011000
00000000
00010000
01000000
00000000
01000000
00100000
00000000
10000000
01000000
00000000
01000000
,
01100000
00000000
00000000
00000000
00100000
00000000
00101000
00000000
00000000
00000000
00001000
00000000
00011000
00000000
00000000
00000000
00001000
00010000
00000100
00000000
00000000
00000000
00010000
00001000
,
01000000
00000000
01000000
00010000
00000000
00010000
00001000
00000000
00001000
00010000
00000000
00010000
,
00021000
00000000
00000000
01000000
00000000
00000000
00000100
00000000
00000000
01030000
00000000
00001000
,
00012000
00000000
00000000
00000010
00000000
00000000
00100000
00000000
00000000
00003010
00000000
00010000
,
00011000
00000000
00000000
01000000
01000000
01000000
00100000
00000000
10000000
10100000
00000000
00010000
,
00110000
00100000
01000000
10000000
01000000
00010000
00001000
00100000
00001000
00010000
00000100
00001000
,
00001100
00000100
00000010
00000001
00000010
00001000
00000010
00000001
00000100
00001000
00010000
00001000
,
00011000
00000000
00000000
00000000
00001000
00010000
00000010
00000000
00000000
00000000
00010000
00001000
00100000
00000000
00000000
00000000
00001000
00010000
00000100
00000000
00000000
00000000
00010000
00001000
,
01000000
00000000
00100000
00000000
10000000
00000000
01000000
00000000
00100000
00000000
00001000
00000000
00010000
00001000
00010000
00001000
00010000
00001000
00010000
00000100
00001000
00000100
00001000
00000100
,
00001000
00000000
00001000
00000100
00000000
00000100
00000001
00000000
00000001
00000010
00000000
00000010
,
00001000
00000000
00001000
00010000
00000000
00010000
00100000
00000000
00100000
10000000
00000000
10000000
,
01000000
00000000
01000000
00010000
00000000
00010000
00001000
00000000
00001000
00000100
00000000
00000100
,
00000001
00000000
00000001
00000010
00000000
00000010
00001000
00000000
00001000
00010000
00000000
00010000
,
00011000
00001000
00100000
00010000
01000000
00100000
10000000
01000000
00100000
01000000
10000000
00010000
,
10010000
10000000
01000000
00100000
00010000
00100000
00001000
00010000
00000100
00001000
00000100
00000010
,
00000011
00000001
00000100
00000010
00001000
00000100
00000110
00000010
00010000
00001000
00100000
00010000
,
01000000
01000000
01000000
00200000
00000000
10300000
00020000
01030000
00200000
00320000
00032000
00003200
,
00000320
00000000
00000000
00000000
00000000
00000000
00000000
00000000
00000000
00000000
00000000
00000000
00000000
00000000
00000000
00000000
00000000
00000000
00000000
00000000
00000000
00000000
00000000
00000000
00000000
00000000
00000000
00000000
00000000
00000000
00000000
00000000
00000000
00000000
00000000
00000000
00000000
00000000
00000000
00000000
00000000
00000000
00000000
00000000
00000000
00000030
00000000
00000000
00000110
00000000
00000000
00000000
00000000
00000000
00000000
00000000
00000000
00000000
00000000
00000000
00000000
00000000
00000000
00000000
00000100
00000000
00000000
00000000
00000000
00000000
00000000
00000000
00000000
00000000
00000000
00000000
00000000
00000000
00000000
00000000
00000001
00000000
00000000
00000000
00000000
00000000
00000000
00000000
00000000
00000000
00000000
00000000
00000000
00000000
00000000
00000000
00000100
00000000
00000000
00000000
00000000
00000000
00000000
00000000
00000000
00000000
00000000
00000000
00000000
00000000
00000000
00000000
00000010
00000000
00000000
00000000
00000000
00000000
00000000
00000000
00000000
00000000
00000000
00000000
00000000
00000000
00000000
00000000
00001000
00000000
00000000
00000000
00000000
00000000
00000000
00000000
00000000
00000000
00000000
00000000
00000000
00000000
00000000
00000000
00000010
00000000
00000000
00000000
00000000
00000000
00000000
00000000
00000000
00000000
00000000
00000000
00000000
00000000
00000000
00000000
00000100
00000000
00000000
00000000
00000000
00000000
00000000
00000000
00000000
00000000
00000000
00000000
00000000
00000000
00000000
00000000
00000001
00000000
00000000
00000000
00000000
00000000
00000000
00000000
00000000
00000000
00000000
00000000
00000000
00000000
00000000
00000000
,
00000100
00001000
00010000
01000000
10000000
00100000
01000000
00010000
01000000
00100000
00010000
01000000
,
01100000
00000000
00000000
10100000
00100000
00010000
10000000
01000000
00100000
00001000
00010000
00001000
,
01000000
00001000
00010000
00000010
00010000
00001000
00000100
00000001
00001000
00000010
00000100
00000001
,
00001001
00000000
00000001
00000100
00000000
00000100
00000010
00010000
00001000
00100000
00010000
01000000
,
01100000
00000000
00000000
00000000
00000000
00000000
00000000
00000000
00000000
00000000
00000000
00000000
00000000
00000000
00000000
00000000
00100000
00000000
00000000
00000000
00000000
00000000
00000000
00000000
00000000
00000000
00000000
00000000
00000000
00000000
00000000
00000000
10000000
00000000
00000000
00000000
00000000
00000000
00000000
00000000
00000000
00000000
00000000
00000000
00000000
00000000
00000000
00000000
00100000
00000000
00000000
00000000
00000000
00000000
00000000
00000000
00000000
00000000
00000000
00000000
00000000
00000000
00000000
00000000
01000000
00000000
00000000
00000000
00000000
00000000
00000000
00000000
00000000
00000000
00000000
00000000
00000000
00000000
00000000
00000000
00100000
00000000
00000000
00000000
00000000
00000000
00000000
00000000
00000000
00000000
00000000
00000000
00000000
00000000
00000000
00000000
00020000
00000000
00000000
00030000
00000000
00000000
00000000
00000000
00000000
00000000
00000000
00000000
00000000
00000000
00000000
00000000
00020000
00000000
00000000
00030000
00000000
00000000
00000000
00000000
00000000
00000000
00000000
00000000
00000000
00000000
00000000
00000000
00001000
00000000
00000000
00000000
00000000
00000000
00000000
00000000
00000000
00000000
00000000
00000000
00000000
00000000
00000000
00000000
00020000
00000000
00000000
00030000
00000000
00000000
00000000
00000000
00000000
00000000
00000000
00000000
00000000
00000000
00000000
00000000
00020000
00000000
00000000
00030000
00000000
00000000
00000000
00000000
00000000
00000000
00000000
00000000
00000000
00000000
00000000
00000000
00001000
00000000
00000000
00000000
00000000
00000000
00000000
00000000
00000000
00000000
00000000
00000000
00000000
00000000
00000000
00000000
,
00011000
00000000
00000000
00000000
00000000
00000000
00000000
00000000
00000000
00000000
00000000
00000000
00000000
00000000
00000000
00000000
00001000
00000000
00000000
00000000
00000000
00000000
00000000
00000000
00000000
00000000
00000000
00000000
00000000
00000000
00000000
00000000
00000200
00000000
00000000
00000300
00000000
00000000
00000000
00000000
00000000
00000000
00000000
00000000
00000000
00000000
00000000
00000000
00000200
00000000
00000000
00000300
00000000
00000000
00000000
00000000
00000000
00000000
00000000
00000000
00000000
00000000
00000000
00000000
00000010
00000000
00000000
00000000
00000000
00000000
00000000
00000000
00000000
00000000
00000000
00000000
00000000
00000000
00000000
00000000
00000200
00000000
00000000
00000300
00000000
00000000
00000000
00000000
00000000
00000000
00000000
00000000
00000000
00000000
00000000
00000000
00000200
00000000
00000000
00000300
00000000
00000000
00000000
00000000
00000000
00000000
00000000
00000000
00000000
00000000
00000000
00000000
00001000
00000000
00000000
00000000
00000000
00000000
00000000
00000000
00000000
00000000
00000000
00000000
00000000
00000000
00000000
00000000
00000010
00000000
00000000
00000000
00000000
00000000
00000000
00000000
00000000
00000000
00000000
00000000
00000000
00000000
00000000
00000000
00000100
00000000
00000000
00000000
00000000
00000000
00000000
00000000
00000000
00000000
00000000
00000000
00000000
00000000
00000000
00000000
00000001
00000000
00000000
00000000
00000000
00000000
00000000
00000000
00000000
00000000
00000000
00000000
00000000
00000000
00000000
00000000
00000100
00000000
00000000
00000000
00000000
00000000
00000000
00000000
00000000
00000000
00000000
00000000
00000000
00000000
00000000
00000000
,
00000010
00001000
00000010
00001000
00000010
00001000
00000010
00001000
00000010
00001000
00000010
00001000
00000010
00000000
00000000
00000000
00000000
00000000
00010010
00000000
00000000
00000000
00000000
00000000
,
00011000
00000000
00000000
01010000
00000000
00000000
11000000
00000000
00100000
00110000
00000000
00000000
,
00011000
00000000
00000000
00001010
00000000
00000001
00000011
00000000
00000000
00000101
00000000
00000000
,
00000100
00010000
00001000
00011000
00000000
00100000
00011000
00000000
00000010
00011000
00000000
00100000
,
00011000
00000000
00000000
01010000
00000000
00000000
11000000
00000000
01000000
01010000
00000000
00000000
,
00011000
00000000
00000000
01001000
00000000
00010000
00011000
00000000
00000000
00010100
00000000
00000000
,
00011000
00000000
00010000
00010010
00000000
00010000
00011000
00000000
00001000
00001100
00000100
00000010
,
00000011
00000000
00000001
00000100
00000000
00000100
00010100
00010000
00001000
00101000
00000000
00100000
,
01000000
00000000
01000000
11000000
10000000
01000000
01100000
00000000
00100000
00010000
00000000
00010000
,
00011000
00001000
00000100
00000010
00000010
00000010
00000200
00000000
00000000
00000301
00000000
00000001
,
00000101
00000100
00000010
00001000
00000100
00010000
00001000
00010000
00010000
00001000
00010000
00100000
,
10000000
00100000
00010000
01000000
00100000
00100000
10000000
01000000
00100000
01000000
00010000
00001000
,
00010000
00000000
00001000
00000000
00001000
00000000
00000100
00000000
00000010
00000000
00000001
00000000
00001000
00000000
00000010
00000000
00000100
00000000
00000001
00000100
00000001
00000100
00000010
00000100
,
00000020
00000000
00000000
00000000
,
00000030
00000000
00000000
00000000
;
