#TITLE:THE DEEP STRIKER;
#ARTIST:L.E.D.-G;
#GENRE:NU STYLE GABBA;
#BANNER:THE DEEP STRIKER.png;
#BACKGROUND:THE DEEP STRIKER-bg.png;
#CDTITLE:./CDTitles/bm IIDX 15 DJ TROOPERS.png;
#MUSIC:THE DEEP STRIKER.ogg;
#SAMPLESTART:90.173;
#SAMPLELENGTH:15;
#DISPLAYBPM:173;
#BPMS:0=173,107=346,108=173;
#STOPS:107=0.058,107.333333=0.058,107.666667=0.058,168=0.116,168.333333=0.115,168.666667=0.116,251=1.04;
#TIMESIGNATURES:0=4=4,168=3=4,171=4=4,251=1=4,252=4=4;

//--------------- dance-single - Fred-104 ----------------
#NOTES:
     dance-single:
     Fred-104:
     Beginner:
     2:
     :
0000
0000
0000
0000
,
0000
0000
0000
0000
,
0000
0000
0000
0000
,
0000
0000
0000
0000
,
0000
0000
0000
0000
,
1000
0000
0000
0000
,
0000
0000
0000
0000
,
0001
0000
0000
0000
,
0000
0000
0000
0000
,
1000
0000
1000
0000
,
0001
0000
0001
0000
,
1000
0000
0001
0000
,
1000
0000
1000
0000
,
1001
0000
0000
0000
,
0000
0000
0000
0000
,
0001
0000
0000
0000
,
0100
0000
0000
0000
,
0001
0000
0000
0000
,
0001
0000
0000
0000
,
1000
0000
0000
0000
,
1000
0000
0000
0000
,
0010
0000
0000
0000
,
1000
0000
0000
0000
,
0001
0000
0000
0000
,
1000
0000
0001
0000
,
1000
0000
0010
0000
,
1000
0000
1000
0000
,
0000
0001
0000
0001
,
0001
0000
1000
0000
,
0001
0000
1000
0000
,
0001
0000
0001
0000
,
1000
0000
0000
0000
,
0010
0000
0000
0000
,
1000
0000
0000
0000
,
0001
0000
0001
0000
,
0001
0000
0000
0000
,
0100
0000
0000
0000
,
0001
0000
0000
0000
,
1000
0000
0001
0000
,
1000
0000
0000
0000
,
0001
0000
0000
0000
,
0001
0000
0000
0000
,
1000
0000
0000
0001
,
0000
0000
0000
1000
,
0000
0000
0000
0001
,
0000
0001
0000
1000
,
0000
1000
0000
1001
,
0000
0000
0000
0000
,
0000
0000
0000
0000
,
0000
0000
0000
0000
,
0000
0000
0000
0000
,
0000
0000
0000
0000
,
0000
0000
0000
0000
,
0000
0000
0000
0000
,
0000
0000
0000
0001
,
0000
0000
0000
1000
,
0000
0000
0000
0001
,
0000
0000
0000
0001
,
0000
0000
0000
0100
,
0000
0000
0000
0001
,
0000
0000
0000
1000
,
0000
1000
0000
0001
,
0000
1000
0000
0001
,
0000
0000
0000
0000
,
1000
0000
0000
0000
,
0010
0000
0000
0000
,
0001
0000
0000
0000
,
0100
0000
0000
0000
,
1000
0000
0000
0000
,
0001
0000
0000
0000
,
1000
0000
0001
0000
,
1000
0000
0001
0000
,
1000
0000
0000
0000
,
0001
0000
0000
0000
,
0100
0000
0000
0000
,
0001
0000
0000
0000
,
1000
0000
0000
0000
,
0001
0000
0000
0000
,
1000
0000
0001
0000
,
1000
0000
0001
0000
,
0100
0000
0010
0000
,
0100
0000
0010
0000
,
1000
0000
0001
0000
,
1000
0000
0001
0000
,
1001
0000
0000
0000
;

//--------------- dance-single - Fred-104 ----------------
#NOTES:
     dance-single:
     Fred-104:
     Easy:
     7:
     :
0000
0000
0000
0000
,
0000
0000
0000
0000
,
0000
0000
0000
0000
,
0000
0000
0000
0000
,
0000
0000
0000
0000
,
1000
0000
0010
0000
,
1000
0000
0001
0001
,
0001
0000
1000
0000
,
0001
0000
1000
0100
,
1000
0000
0010
0000
,
1000
0000
0001
0000
,
0100
0100
0010
0010
,
0100
0100
0002
1003
,
2002
0000
0000
0000
,
3003
0000
0000
0000
,
0001
0001
0100
0010
,
0100
0000
0001
1000
,
0001
0000
1000
0010
,
1000
0000
0100
1000
,
0100
0100
1000
0001
,
2000
3000
0002
0003
,
1000
1000
0010
0100
,
0010
0000
1000
0001
,
1000
1000
0001
0100
,
0010
0000
0100
0200
,
0301
0100
0010
1000
,
0001
0000
1000
0002
,
1003
0010
1000
1000
,
0001
0100
0010
2000
,
3001
0001
1000
1000
,
0001
0000
0000
0000
0000
0000
1000
0000
0010
0000
0100
0000
,
0001
0000
0100
0010
,
0100
0100
0001
1000
,
0001
0000
1000
0100
,
0100
1000
0010
0100
,
0001
0000
0010
0001
,
1000
0001
0100
0010
,
1000
0000
0001
0010
,
0011
0000
0001
1000
,
0001
0100
0100
0010
,
0100
0100
0001
1000
,
0001
0010
0010
0001
,
1000
0001
1000
0002
0000
0000
0000
0000
0000
1003
0000
0000
,
0000
0010
1000
0001
,
0000
1000
0100
1000
,
1000
0001
0001
0100
,
0100
0010
0010
1001
,
0000
0000
0000
0000
,
0000
0000
0000
0001
,
0000
1000
0000
0020
,
0000
0030
0000
0100
,
0000
0001
0000
0200
,
0000
0300
0000
0010
,
0000
1000
0000
2002
,
0000
0000
3003
0001
,
0001
0001
0100
0010
,
1000
0001
1000
1000
,
0100
1000
1000
0001
,
0100
0010
0100
0001
,
0001
0010
0010
0100
,
0100
1000
1000
0001
,
0001
1000
1000
0010
,
0010
0000
0000
0100
0000
0000
0100
0000
0000
2002
3003
0000
,
0001
0000
1001
0000
,
1000
0010
1000
1000
,
0001
0000
0100
0010
,
0100
0100
0001
1000
,
0001
0000
1000
0100
,
0010
0001
1000
0001
,
0100
0000
0010
0100
,
0001
0001
1000
1000
,
0010
0000
0000
0010
0000
0000
0100
0000
0010
0000
0100
0000
,
0001
0000
1000
0000
,
0010
0010
0100
0001
,
1000
0000
0100
0000
,
1000
0100
0010
0001
,
1000
0000
0001
0000
,
0100
0000
0010
0000
,
0100
0001
1000
0010
,
0100
0000
0000
0001
0000
0000
1000
0000
0001
0000
0100
0000
,
0110
0000
1001
0000
,
0110
0000
1001
0000
,
0100
0100
0010
0010
,
1000
2000
3001
0001
,
1001
0000
0000
0000
;

//--------------- dance-single - Fred-104 ----------------
#NOTES:
     dance-single:
     Fred-104:
     Medium:
     11:
     :
0000
0000
0000
0000
,
0000
0000
0000
0000
,
0000
0000
0000
0000
,
0000
0000
0000
0000
,
0000
0000
0000
0000
,
0001
0001
0100
0100
,
0010
0010
1000
1000
,
0001
0001
0010
0010
,
0100
0100
1000
1000
,
0001
0100
0001
0100
,
0010
1000
0010
1000
,
0001
0000
0001
1000
0000
1000
0010
0000
0010
0100
0000
0100
,
0001
0000
0000
0010
0000
0000
0200
0000
0000
2300
0000
3000
,
2002
0000
0000
0000
,
3003
0000
0000
0000
,
0001
0000
0100
0001
0000
0000
1000
0000
0100
1000
0000
0000
,
0001
0000
0001
0100
0000
0100
1000
0000
1000
0100
0000
0100
,
0001
0000
0010
0001
0000
0000
1000
0000
0010
0100
0000
0000
,
0001
0000
0001
0010
0000
0010
0100
0000
0100
1000
0000
1000
,
0010
0000
1000
0100
0000
0000
0010
0000
0001
0100
0000
0000
,
0001
0000
0001
1000
0000
1000
0010
0000
0010
0200
0000
0000
,
0301
0000
0010
0100
0000
0000
1000
0000
0010
0100
0000
0000
,
0001
0000
1000
0100
0000
1000
0200
0000
0000
0320
0000
0000
,
0031
0000
0001
0100
0000
0100
0010
0000
0010
1000
0000
1000
,
0001
0000
0100
0010
0000
1000
0100
0000
0010
0002
0000
0000
,
1003
0000
0010
0100
0000
0000
0001
0000
0100
0010
0000
0000
,
1000
0000
0100
0010
0000
0000
0001
0000
1000
0002
0003
2000
,
3001
0000
0001
0100
0000
0100
0001
0000
0001
0010
0000
0000
,
0010
0000
0010
0100
0000
0100
1000
0000
1000
0002
0000
0000
,
1003
1100
0001
0101
,
1000
0000
1000
0100
0000
0100
0010
0000
0010
0002
0000
0000
,
1003
0000
0000
0001
0000
0100
0001
0000
0100
0010
0000
1000
,
0000
0000
1000
0000
0000
0001
0100
0000
0100
0010
0000
0000
,
1000
0000
0000
1000
0000
0001
0100
0000
0001
0100
0000
0010
,
0000
0000
1000
0000
0000
0001
0010
0000
0010
0002
0000
0000
,
1003
0000
0000
0001
0000
1000
0100
0000
1000
0100
0000
0010
,
0000
0000
0001
0000
0000
1000
0020
0000
0000
0230
0000
0000
,
0301
0000
0000
0001
0000
0010
0100
0000
0100
1000
0000
0010
,
0000
0000
0100
0000
0000
0001
0100
0000
0010
0200
0000
0000
,
0301
0000
0001
0100
0000
0000
0010
0000
0010
1000
0000
0000
,
1000
0000
1000
0100
0000
0000
0010
0000
0010
0001
0000
0000
,
1000
0000
0010
1000
0000
0000
0001
0000
0010
0001
0000
0000
,
0200
0300
0200
0300
0200
0300
0010
0000
0000
0000
0000
0000
1001
0000
0000
0000
0000
0000
1000
0000
0000
0000
0010
0000
,
0100
0000
0000
0001
0000
0010
0100
0000
0000
1000
0000
0001
,
0100
0000
0000
0001
0000
1000
0100
0000
0000
1000
0000
1000
,
0100
0000
0100
0010
0000
0010
0001
0000
0001
1000
0000
0000
,
0010
0100
0001
1001
,
0000
0000
0000
0000
,
0000
0000
0000
1000
,
0000
0100
0000
0002
,
0000
0003
0000
1000
,
0000
0010
0000
0002
,
0000
0003
0000
1000
,
0000
0100
0000
0002
,
0000
0000
0003
1000
,
1000
0010
0010
0100
,
0100
0001
0001
1000
,
0100
0010
0100
0001
,
0100
0010
0100
1000
,
0010
0000
1000
0010
0000
0000
0100
0000
0000
0001
0000
0100
,
0001
0000
0100
0010
0000
0000
1000
0000
1000
0001
0000
0000
,
0100
0000
0010
0100
0000
0000
0001
0000
1000
0001
0000
0100
,
0020
0000
0000
0000
0000
0000
1030
0000
0000
0000
0000
0000
0002
0000
0000
0000
0000
0000
2003
3000
0000
0000
0000
0000
,
0000
0000
0000
0000
,
0001
0000
0001
0100
0000
0100
0010
0000
0010
1000
0000
1000
,
0100
0000
0000
0010
0000
0000
0001
1000
0001
0100
0000
0000
,
0010
0000
0010
1000
0000
1000
0100
0000
0100
0010
0000
0010
,
0002
0000
0000
2003
0000
0000
3001
0100
0001
1000
0000
0000
,
0001
0000
0001
0100
0000
0100
0010
0000
1000
0000
0100
0000
,
0010
0000
0000
0001
0000
0000
1000
0100
1000
0001
0000
0000
,
0100
0000
0100
0010
0000
0010
1000
0000
0001
0100
0000
0001
,
1000
0000
0001
0020
0000
0000
0031
0000
0001
0000
0001
0000
,
1000
0000
0000
0010
0000
0000
0100
0000
0100
0001
0000
1000
,
0001
0000
0001
0010
0000
0010
0200
0000
0000
0320
0000
0000
,
0031
0000
0100
0001
0000
0100
0001
0000
0000
1000
0000
0000
,
0010
0000
0000
1000
0000
0000
0001
0100
0001
0100
0000
0000
,
0110
0000
0010
1000
,
0001
0000
0100
0010
,
1000
1000
0001
0001
,
1000
0000
0010
0100
0000
0001
0100
0000
0100
0000
0010
0000
,
1000
0000
0100
1000
0000
0000
0100
0000
0000
0010
0000
0000
,
0001
0000
0100
0001
0000
0000
0100
0000
0000
0010
0000
0000
,
1000
0000
1000
0100
0000
0100
0010
0000
0010
0001
0000
0001
,
0100
0000
0010
0200
0000
0000
0310
0000
0010
0000
0010
0000
,
1001
0000
0000
0000
;

//--------------- dance-single - Fred-104 ----------------
#NOTES:
     dance-single:
     Fred-104:
     Hard:
     15:
     :
0000
0000
0000
0000
,
0000
0000
0000
0000
,
0000
0000
0000
0000
,
0000
0000
0000
0000
,
0000
0000
0000
0000
,
1000
0200
0302
0203
,
2300
3020
0032
0023
,
2030
3200
0320
0032
,
1003
1000
0001
0001
,
1001
0000
0001
0100
0001
0100
0010
0000
0010
1000
0000
1000
,
0001
0000
1000
0100
0010
0100
0010
0000
0010
0001
0000
0001
,
1000
0000
1000
0001
0000
0001
0100
0000
0100
0010
0000
0010
,
1000
0100
0010
0001
0010
0100
2000
0000
0000
3002
0000
0003
,
2002
0000
0000
3003
,
0000
1000
0000
0100
0000
0010
0000
0001
0000
0000
0000
0000
0101
0000
0000
0000
0000
0000
1010
0000
0000
0000
0000
0000
,
1001
0000
1000
0010
0000
0010
0100
0000
0100
0001
0000
0001
,
0010
0100
1000
0100
0000
0100
0010
0000
0010
0001
0000
0001
,
1000
0010
1000
0100
0000
0100
1000
0000
1000
0001
0000
0001
,
0100
0010
0100
0001
0000
0001
1000
0000
1000
0010
0100
0001
,
1000
0001
1000
0001
0000
0001
0010
0000
0010
0100
0000
0100
,
1000
0000
0010
1000
0000
1000
0001
0000
0010
0002
0000
0000
,
1003
0010
0100
0010
0000
1000
0100
0000
0100
0010
0000
0010
,
0001
0000
0100
0001
0000
1000
0001
0010
0001
1000
0010
1000
,
0001
0000
0001
0100
0000
0100
0010
0000
0010
1000
0000
1000
,
0100
0001
0100
1000
0000
0001
0100
0000
1000
0200
0000
0000
,
0301
0100
0010
1000
0000
1000
0100
0000
0100
0010
0000
0010
,
0001
0000
0000
0000
0010
0000
1000
0000
0000
0000
0010
0000
0001
0000
0000
0000
0001
0000
0200
0300
0200
0300
0200
0300
,
0010
0000
0010
1000
0000
1000
0100
0000
0100
0010
0000
0010
,
0001
0010
0100
1000
0000
0001
0100
0000
0000
0110
0000
0000
,
0010
1000
0010
0100
0000
0001
0010
0000
0010
0001
0000
0001
,
1000
0100
0010
0001
1000
0000
1010
0000
0101
0000
1000
0100
,
0010
0000
0001
0010
0000
0001
0100
0000
0100
0010
0000
2000
,
0000
0000
3200
0000
0000
0301
0100
0000
1000
0002
0000
0000
,
1003
0000
0010
0100
0000
0010
1000
0000
0010
0100
0000
0002
,
0000
0000
0023
0000
0000
1030
0010
0000
0001
1000
0010
0100
,
0001
0000
1000
0001
0000
1000
0100
0000
0010
0001
0000
2000
,
0000
0000
3200
0000
0000
0301
0100
0000
1000
0020
0000
0000
,
0130
0000
0100
0001
0000
0010
0001
0000
1000
0100
0000
0002
,
0000
0000
0203
0000
0000
1300
0010
0000
0100
0001
1000
0100
,
0010
0000
0001
0100
0000
0010
0100
0000
0001
1000
0000
1100
,
0000
0000
0110
0000
0000
0010
0001
0000
0100
0001
0100
0010
,
1000
0000
0010
0100
0000
0100
0001
0000
0001
1000
0000
1000
,
2200
3300
0000
0000
0202
0303
0000
0000
2020
3030
0000
0000
0101
0000
0000
0000
0000
0000
0000
0000
0000
0000
0000
0000
1001
0000
0000
0000
0000
0000
0000
0000
0000
0000
0000
0000
1010
0000
0000
0000
0000
0000
0000
0000
0010
0000
0000
0000
,
0100
0000
0100
0001
1000
0001
0010
0000
0010
0100
0000
0100
,
1000
0000
1000
0001
0000
0001
0100
0000
0100
0010
0000
0010
,
1000
0000
1000
0001
0000
0001
0100
0000
0100
0001
0010
0100
,
1000
0100
0010
0001
1000
0010
0100
0001
1000
1001
0000
0000
,
0000
0000
0000
0000
,
0000
0000
0000
0001
,
0000
0100
0000
0001
,
0000
1000
0001
0100
,
0000
0001
0000
0010
,
0000
0100
1000
0001
,
0000
0010
0000
2002
,
0000
0000
0000
0000
0000
0000
3003
0000
0000
1000
0000
1000
,
0100
0000
0100
0010
0000
0010
0001
0000
0001
0100
0000
0100
,
0010
0000
0010
1000
0000
1000
0001
0000
0000
0100
0000
0100
,
0010
0000
0010
0100
0000
0100
0001
0000
0001
0010
0000
0010
,
0100
0000
0100
1000
0000
1000
0001
0000
0000
1000
0000
0010
,
1000
0100
1000
0001
0000
0100
0000
0010
1000
0001
0000
1000
,
0100
0010
0001
0100
0010
0100
0001
0100
0010
1010
0000
0000
,
1000
0000
0001
0101
0000
0000
1000
0000
0010
1000
0100
0010
,
0001
0000
0000
0000
1000
0000
0000
0000
0010
0000
0000
0000
0100
0000
0000
0000
0001
0000
0000
0000
1000
0000
0000
0000
0002
0000
0000
0000
0000
0000
0000
0000
0003
0000
0000
0000
2002
3003
0000
0000
0000
0000
0000
0000
0000
0000
0000
0000
,
0000
0001
0000
0100
0000
0010
0000
1000
0000
0000
0000
0000
1100
0000
0000
0000
0000
0000
0011
0000
0000
0000
0000
0000
,
1001
0000
1000
0100
0000
0010
0100
0000
0100
1000
0000
0001
,
0100
0010
0100
0001
0000
0010
0001
1000
0001
0010
0100
1000
,
0001
0000
0100
0010
0000
0010
1000
0000
0100
0010
0000
0001
,
1000
0100
0010
0100
1000
0010
0100
0001
0100
1000
0100
0001
,
1000
0000
0100
0000
0001
0100
1000
0000
0001
0000
0010
0100
,
1000
0010
0100
0001
0010
0001
1000
0100
0100
0001
0100
0100
,
1000
0000
1000
0010
0000
0010
0100
0000
0100
0001
0000
0001
,
1000
0010
0100
0002
0000
0003
1001
0000
0110
0000
0001
1000
,
0001
0000
0100
0010
1000
0010
0100
0000
0001
0010
0000
0010
,
0100
1000
0001
0100
0010
1000
0001
0010
1000
0010
0001
1000
,
0001
0010
0100
1000
0000
0010
0100
0000
0001
0100
0000
0010
,
0100
0001
0100
0010
1000
0100
1000
0100
0001
0100
1000
0010
,
0100
0000
0001
0010
0000
0010
0100
0000
0100
1000
0000
1000
,
0001
0010
0001
0100
0010
1000
0001
0010
1000
0010
0001
0100
,
0001
0000
0100
0010
0000
1000
0100
0000
0010
0001
0000
1000
,
0001
0100
0010
0200
0000
0300
0101
0000
1010
0000
0001
1000
,
0100
0000
0100
1000
0000
1000
0010
0000
0010
0100
0000
0100
,
0001
0000
0001
0010
0000
0010
0100
0010
0001
0010
0100
1000
,
0001
0100
0001
1000
0010
1000
0001
0010
0001
1000
0100
1000
,
0001
0010
0100
2000
0000
3000
1100
0000
0011
0000
1000
0001
,
1001
0000
0000
0000
;

//--------------- dance-double - Fred-104 ----------------
#NOTES:
     dance-double:
     Fred-104:
     Easy:
     7:
     :
00000000
00000000
00000000
00000000
,
00000000
00000000
00000000
00000000
,
00000000
00000000
00000000
00000000
,
00000000
00000000
00000000
00000000
,
00000000
00000000
00000000
00000000
,
00010000
00000000
00001000
00000000
,
00100000
00100000
00010000
00010000
,
10000000
10000000
01000000
01000000
,
00010000
00010000
00001000
00000100
,
00000001
00000000
00001000
00000000
,
00000010
00000000
00010000
00000000
,
00001000
00001000
00010000
00010000
,
00001000
00100000
00010000
10000000
,
20020000
00000000
00000000
00000000
,
30030000
00000000
00000000
00000000
,
00010000
00010000
10000000
00010000
,
01000000
00000000
00100000
00000000
,
10000000
01000000
01000000
00100000
,
00001000
00000000
00010000
00000100
,
00010000
00010000
00001000
00010000
,
00000010
00000000
00001000
00000020
,
00000130
00000100
00000001
00001000
,
00000001
00000000
00001000
00000001
,
00000100
00000100
00000010
00001000
,
00000100
00000000
00010000
00002000
,
00013000
00001000
00010000
01000000
,
10000000
00000000
00010000
20000000
,
30010000
01000000
01000000
00100000
,
20020000
30030000
02200000
03300000
,
10000000
01000000
00100000
00001000
,
00010000
00000000
00000000
00000000
00000000
00000000
00010000
00000000
00010000
00000000
00001000
00000000
,
00001000
00010000
00000100
00001000
,
00000001
00000000
00000100
00000010
,
00000100
00000001
00001000
00000001
,
00000100
00000000
00000010
00001000
,
00000010
00001000
00010000
00100000
,
01000000
00000000
10000000
00010000
,
10000000
00010000
01000000
00000000
,
01100000
00000000
10010000
00000000
,
01000000
01000000
00100000
10000000
,
01000000
00000000
00100000
00001000
,
00010000
00010000
00001000
00010000
,
00001000
00010000
00001000
00020000
00000000
00000000
00000000
00000000
00000000
00030010
00000000
00000000
,
00000100
00010000
00001000
00000010
,
00000100
00010000
00001000
00000100
,
00000001
00001000
00000001
00000100
,
00001000
00010000
01000000
01100000
,
00000000
00000000
00000000
00000000
,
00000000
00000000
00000000
10000000
,
00000000
01000000
00000000
00020000
,
00000000
00030000
00000000
00001000
,
00000000
00000010
00000000
00000002
,
00000000
00000003
00000000
00000100
,
00000000
00001000
00000000
00022000
,
00000000
00000000
00033000
00010000
,
00000000
01000000
00000000
00100000
,
00100000
10000000
00010000
10000000
,
00000000
01000000
00000000
00100000
,
00100000
00010000
00001000
00000010
,
00000000
00000001
00000000
00001000
,
00000000
00000010
00000000
00000100
,
00000000
00000001
00000000
00001000
,
00001000
00000000
00000000
00000010
00000000
00000000
00010000
00000000
00000000
00022000
00033000
00000000
,
00010000
00000000
10010000
00000000
,
10000000
01000000
10000000
01000000
,
00010000
00000000
01000000
00000000
,
10000000
00100000
10000000
00100000
,
01000000
00000000
00001000
00010000
,
00001000
00010000
00000100
00010000
,
00001000
00000000
00010000
00000000
,
00000010
00000100
00010000
00001000
,
00000010
00000000
00000000
00000200
00000000
00000000
00000310
00000000
00000010
00000000
00000010
00000000
,
00000100
00000001
00000100
00000100
,
00000001
00000010
00000100
00010000
,
00001000
00010000
00001000
00010000
,
00000100
00010000
00000010
00010000
,
00001000
00000000
00100000
00000000
,
00010000
01000000
00100000
01000000
,
00010000
00000000
10000000
00000000
,
00100000
10000000
01000000
00100000
,
00110000
00000000
00101000
00000000
,
00011000
00000000
00010010
00000000
,
00001010
00001000
00000001
00000001
,
00000100
00000200
00000310
00000010
,
00001001
00000000
00000000
00000000
;

//--------------- dance-double - Fred-104 ----------------
#NOTES:
     dance-double:
     Fred-104:
     Medium:
     12:
     :
00000000
00000000
00000000
00000000
,
00000000
00000000
00000000
00000000
,
00000000
00000000
00000000
00000000
,
00000000
00000000
00000000
00000000
,
00000000
00000000
00000000
00000000
,
00001000
00001000
00100000
00100000
,
00010000
00010000
10000000
10000000
,
01000000
01000000
00010000
00010000
,
00001000
00001000
00000100
00000100
,
00000001
00000100
00001000
00000100
,
00000001
00000100
00001000
00010000
,
00100000
00000000
00100000
10000000
00000000
10000000
00010000
00000000
00010000
01000000
00000000
01000000
,
00100000
00000000
00000000
10000000
00000000
00000000
02000000
00000000
00000000
03020000
00000000
00030000
,
00022000
00000000
00000000
00000000
,
00033000
00000000
00000000
00000000
,
00001000
00000000
00000100
00001000
00000000
00000000
00000001
00000000
00000100
00000001
00000000
00000000
,
00001000
00000000
00001000
00000010
00000000
00000010
00000100
00000000
00000100
00000001
00000000
00000001
,
00000010
00000000
00000100
00010000
00000000
00000000
00001000
00000000
00100000
00010000
00000000
00000000
,
01000000
00000000
01000000
00100000
00000000
00100000
00001000
00000000
00001000
00010000
00000000
00010000
,
01000000
00000000
00100000
01000000
00000000
00000000
00001000
00000000
00010000
00001000
00000000
00000000
,
00000010
00000000
00000010
00000100
00000000
00000100
00010000
00000000
00010000
00002000
00000000
00000000
,
00013000
00000000
01000000
00100000
00000000
00000000
01000000
00000000
00100000
01000000
00000000
00000000
,
00010000
00000000
00001000
00010000
00000000
00001000
00020000
00000000
00000000
00032000
00000000
00000000
,
00013000
00000000
00010000
00001000
00000000
00001000
00000010
00000000
00000010
00000001
00000000
00000001
,
00001000
00000000
00000001
00000100
00000000
00000010
00000100
00000000
00000001
00000020
00000000
00000000
,
00000031
00000000
00000100
00001000
00000000
00000000
00010000
00000000
01000000
10000000
00000000
00000000
,
00010000
00000000
10000000
01000000
00000000
00000000
00010000
00000000
00001000
00020000
00030000
00002000
,
00013000
00000000
00001000
00010000
00000000
00010000
00001000
00000000
00001000
00000100
00000000
00000000
,
00000010
00000000
00000010
00000001
00000000
00000001
00001000
00000000
00001000
00000020
00000000
00000000
,
00010030
00001000
00100000
00110000
,
00100000
00000000
00100000
00010000
00000000
10000000
00100000
00000000
01000000
00020000
00000000
00000000
,
10030000
00000000
00000000
01000000
00000000
00100000
01000000
00000000
01000000
10000000
00000000
00100000
,
00000000
00000000
01000000
00000000
00000000
00010000
00001000
00000000
00001000
00000100
00000000
00000000
,
00000010
00000000
00000000
00000001
00000000
00001000
00000010
00000000
00000010
00000100
00000000
00000001
,
00000000
00000000
00000100
00000000
00000000
00010000
00001000
00000000
00100000
00002000
00000000
00000000
,
00103000
00000000
00000000
00001000
00000000
00100000
00010000
00000000
10000000
00010000
00000000
01000000
,
00000000
00000000
00100000
00000000
00000000
10000000
02000000
00000000
00000000
03200000
00000000
00000000
,
00301000
00000000
00000000
00010000
00000000
00001000
00010000
00000000
00010000
00000010
00000000
00010000
,
00000000
00000000
00001000
00000000
00000000
00010000
00000100
00000000
00010000
00002000
00000000
00000000
,
00013000
00000000
00000100
00010000
00000000
00000000
00001000
00000000
01000000
00001000
00000000
00000000
,
00010000
00000000
00000010
00010000
00000000
00000000
00001000
00000000
00100000
00001000
00000000
00000000
,
00010000
00000000
00001000
00100000
00000000
00000000
00001000
00000000
00010000
00000010
00000000
00000000
,
00002000
00023000
00032000
00103000
00000000
00000000
01100000
00000000
00000000
10000000
00000000
10000000
,
01000000
00000000
00000000
00100000
00000000
00001000
00010000
00000000
00000000
00001000
00000000
00010000
,
00000010
00000000
00000000
00001000
00000000
00000100
00010000
00000000
00000000
00001000
00000000
00001000
,
00000100
00000000
00000100
00000001
00000000
00000001
00000100
00000000
00000100
00001000
00000000
00000000
,
00000010
00000001
00000010
00001001
,
00000000
00000000
00000000
00000000
,
00000000
00000000
00000000
00000001
,
00000000
00000100
00000000
00002000
,
00000000
00003000
00000000
00010000
,
00000000
00100000
00000000
20000000
,
00000000
30000000
00000000
00010000
,
00000000
00001000
00000000
00022000
,
00000000
00000000
00033000
00010000
,
00010000
00001000
00001000
00000100
,
00000100
00000001
00000001
00001000
,
00001000
00010000
00010000
01000000
,
01000000
10000000
10000000
00010000
,
01000000
00000000
00100000
01000000
00000000
00000000
00010000
00000000
00000000
10000000
00000000
10000000
,
01000000
00000000
00100000
01000000
00000000
00000000
00010000
00000000
01000000
00100000
00000000
00000000
,
00001000
00000000
00010000
00001000
00000000
00000000
00000010
00000000
00000100
00000010
00000000
00001000
,
00020000
00000000
00000000
00000000
00000000
00000000
00031000
00000000
00000000
00000000
00000000
00000000
00020000
00000000
00000000
00000000
00000000
00000000
00032000
00003000
00000000
00000000
00000000
00000000
,
00000000
00000000
00000000
00000000
,
00001000
00000000
00001000
00010000
00000000
00010000
01000000
00000000
01000000
10000000
00000000
10000000
,
00010000
00000000
00000000
10000000
00000000
00000000
00100000
10000000
00100000
10000000
00000000
00000000
,
00010000
00000000
00010000
10000000
00000000
10000000
01000000
00000000
01000000
00100000
00000000
00100000
,
00002000
00000000
00000000
00023000
00000000
00000000
00031000
00010000
00000010
00010000
00000000
00000000
,
00001000
00000000
00001000
00010000
00000000
00010000
00000100
00000000
00001000
00000000
00000010
00000000
,
00000100
00000000
00000000
00000001
00000000
00000000
00000100
00000010
00000100
00000001
00000000
00000000
,
00001000
00000000
00000010
00000100
00000000
00000100
00000001
00000000
00000010
00000100
00000000
00010000
,
00001000
00000000
00100000
02000000
00000000
00000000
03100000
00000000
00010000
00000000
10000000
00000000
,
00100000
00000000
00000000
01000000
00000000
00000000
00010000
00000000
00010000
10000000
00000000
10000000
,
01000000
00000000
01000000
00010000
00000000
00010000
00002000
00000000
00000000
00023000
00000000
00000000
,
10030000
00000000
00010000
10000000
00000000
00100000
01000000
00000000
00000000
00010000
00000000
00000000
,
10000000
00000000
00000000
01000000
00000000
00000000
00100000
00001000
00010000
00001000
00000000
00000000
,
00011000
00000000
00010000
00001000
,
00000100
00000000
00001000
00010000
,
01000000
10000000
00100000
01000000
,
00010000
00000000
10000000
01000000
00000000
00100000
00001000
00000000
00010000
00000000
00000100
00000000
,
00010000
00000000
00000010
00001000
00000000
00000000
00000001
00000000
00000000
00000100
00000000
00000000
,
00000010
00000000
00000100
00010000
00000000
00000000
00001000
00000000
00000000
00100000
00000000
00000000
,
10000000
00000000
10000000
01000000
00000000
01000000
00100000
00000000
00100000
00001000
00000000
00001000
,
00010000
00000000
00001000
00200000
00000000
00000000
00310000
00000000
01000000
00000000
00100000
00000000
,
10100000
00000000
00000000
00000000
;

//--------------- dance-double - Fred-104 ----------------
#NOTES:
     dance-double:
     Fred-104:
     Hard:
     15:
     :
00000000
00000000
00000000
00000000
,
00000000
00000000
00000000
00000000
,
00000000
00000000
00000000
00000000
,
00000000
00000000
00000000
00000000
,
00000000
00000000
00000000
00000000
,
00001000
00000020
00000032
00000203
,
00002300
00023000
02030000
23000000
,
30200000
00320000
00032000
00003020
,
00000031
00000100
00001000
00010000
,
00011000
00000000
00001000
00100000
00000000
00100000
00010000
00000000
00010000
10000000
00000000
10000000
,
00100000
00000000
01000000
00010000
10000000
00100000
01000000
00000000
01000000
00010000
00000000
00010000
,
10000000
00000000
10000000
01000000
00000000
01000000
00100000
00000000
00100000
00001000
00000000
00001000
,
00010000
00000100
00001000
00000010
00000100
00000001
00000010
00000000
00000000
00000100
00000000
00000000
,
00002002
00000000
00000000
00003003
,
00000000
00000001
00000000
00000010
00000000
00001000
00000000
00010000
00000000
00000000
00000000
00000000
00110000
00000000
00000000
00000000
00000000
00000000
10100000
00000000
00000000
00000000
00000000
00000000
,
10010000
00000000
00010000
01000000
00000000
01000000
00100000
00000000
00100000
10000000
00000000
10000000
,
01000000
00100000
00001000
00010000
00000000
00010000
00000010
00000000
00000010
00000100
00000000
00000100
,
00010000
00001000
00010000
00000010
00000000
00000010
00001000
00000000
00001000
00000100
00000000
00000100
,
00010000
00001000
00100000
01000000
00000000
00100000
00001000
00000000
00001000
00010000
00000100
00010000
,
00001000
00100000
00001000
00010000
00000000
00010000
00001000
00000000
00001000
00100000
00000000
00100000
,
00010000
00000000
00010000
01000000
00000000
00100000
10000000
00000000
01000000
00200000
00000000
00000000
,
00301000
00010000
00001000
00010000
00000000
00010000
00000010
00000000
00001000
00000100
00000000
00010000
,
00001000
00000000
00001000
00010000
00000000
00010000
00001000
00100000
00001000
00010000
00000010
00010000
,
00001000
00000000
00010000
00001000
00000000
01000000
00010000
00000000
00100000
00010000
00000000
10000000
,
01000000
00100000
01000000
10000000
00000000
00100000
01000000
00000000
00010000
00002000
00000000
00000000
,
00013000
00001000
00000100
00000010
00000000
00000010
00000001
00000000
00000001
00000100
00000000
00000100
,
00000010
00000000
00000000
00000000
00001000
00000000
00000001
00000000
00000000
00000000
00000100
00000000
00000010
00000000
00000000
00000000
00001000
00000000
00000200
00000300
00000200
00000300
00000200
00000300
,
00000010
00000000
00000001
00001000
00000000
00000010
00001000
00000000
00000100
00010000
00000000
00010000
,
00001000
00100000
00010000
10000000
00000000
01000000
00100000
00000000
00000000
00110000
00000000
00000000
,
00010000
10000000
00010000
01000000
00000000
01000000
00100000
00000000
10000000
01000000
00000000
00100000
,
00001000
00010000
00000100
00000010
00000001
00000000
00000101
00000000
00001100
00000000
00000100
00000001
,
00000010
00000000
00000100
00001000
00000000
00000100
00000010
00000000
00000001
00000100
00000000
00002000
,
00000000
00000000
00023000
00000000
00000000
01030000
00100000
00000000
10000000
00020000
00000000
00000000
,
10030000
00000000
01000000
00100000
00000000
01000000
10000000
00000000
00100000
01000000
00000000
00020000
,
00000000
00000000
00032000
00000000
00000000
00003100
00000001
00000000
00000100
00001000
00000010
00000100
,
00000001
00000000
00000001
00000010
00000000
00000010
00000100
00000000
00000010
00000001
00000000
00000020
,
00000000
00000000
00000230
00000000
00000000
00010300
00001000
00000000
00100000
02000000
00000000
00000000
,
13000000
00000000
00100000
01000000
00000000
00010000
10000000
00000000
01000000
00100000
00000000
00002000
,
00000000
00000000
00023000
00000000
00000000
01030000
00100000
00000000
00001000
00010000
01000000
00100000
,
00010000
00000000
00010000
00001000
00000000
00001000
00000100
00000000
00000100
00000010
00000000
00000011
,
00000000
00000000
00001010
00000000
00000000
00000010
00000001
00000000
00001000
00000001
00000100
00000010
,
00001000
00000000
00000010
00000100
00000000
00000001
00000100
00000000
00000010
00010000
00000000
00010000
,
00002000
00003000
00000000
00000000
00200000
00300000
00000000
00000000
00002000
00003000
00000000
00000000
00011000
00000000
00000000
00000000
00000000
00000000
00000000
00000000
00000000
00000000
00000000
00000000
00001001
00000000
00000000
00000000
00000000
00000000
00000000
00000000
00000000
00000000
00000000
00000000
00000110
00000000
00000000
00000000
00000000
00000000
00000000
00000000
00000100
00000000
00000000
00000000
,
00000001
00000000
00000001
00000010
00000000
00000010
00000100
00000000
00000100
00010000
00000000
00010000
,
00001000
00000000
00001000
00100000
00000000
00100000
01000000
00000000
01000000
10000000
00000000
00100000
,
01000000
00000000
00010000
00100000
00000000
00001000
00010000
00000000
00000010
00001000
00000010
00000100
,
00000001
00000100
00001000
00000100
00000001
00000100
00000010
00010000
00001000
00011000
00000000
00000000
,
00000000
00000000
00000000
00000000
,
00000000
00000000
00000000
00001000
,
00000000
00000100
00000000
00000001
,
00000000
00000010
00001000
00010000
,
00000000
00100000
00000000
10000000
,
00000000
01000000
00010000
00001000
,
00000000
00000100
00000001
00002002
,
00000000
00000000
00000000
00000000
00000000
00000000
00003003
00000000
00000000
00000001
00000000
00000001
,
00000100
00000000
00000100
00000010
00000000
00000010
00001000
00000000
00001000
00000100
00000000
00000100
,
00010000
00000000
00010000
00001000
00000000
00100000
01000000
00000000
00000000
01000000
00000000
01000000
,
10000000
00000000
10000000
00100000
00000000
00100000
01000000
00000000
01000000
00010000
00000000
00010000
,
10000000
00000000
10000000
01000000
00000000
00100000
00001000
00000000
00000000
00010000
00000000
00010000
,
00001000
00010000
00000100
00001000
00000000
00001000
00000000
00000010
00000100
00000001
00000000
00000001
,
00000100
00000001
00000100
00000010
00001000
00000010
00001000
00000001
00001000
00001001
00000000
00000000
,
00000010
00000000
00010000
00011000
00000000
00000000
00100000
00000000
10000000
00010000
01000000
00100000
,
10000000
00000000
00000000
00000000
01000000
00000000
00000000
00000000
00100000
00000000
00000000
00000000
00001000
00000000
00000000
00000000
00010000
00000000
00000000
00000000
00001000
00000000
00000000
00000000
00020000
00000000
00000000
00000000
00000000
00000000
00000000
00000000
00030000
00000000
00000000
00000000
00022000
00033000
00000000
00000000
00000000
00000000
00000000
00000000
00000000
00000000
00000000
00000000
,
00000000
00010000
00000000
00001000
00000000
00000100
00000000
00000001
00000000
00000000
00000000
00000000
00001100
00000000
00000000
00000000
00000000
00000000
00000101
00000000
00000000
00000000
00000000
00000000
,
00001001
00000000
00000001
00000010
00000000
00000010
00000100
00000000
00000100
00010000
00000000
00010000
,
00001000
00010000
00000100
00010000
00000000
00010000
00001000
00100000
00001000
01000000
00010000
01000000
,
00100000
00000000
00100000
01000000
00000000
00010000
10000000
00000000
10000000
01000000
00000000
00100000
,
00001000
00100000
00001000
00010000
00001000
00010000
00000100
00010000
00000010
00001000
00000010
00000100
,
00000001
00000000
00000100
00000000
00001000
00000100
00000001
00000000
00000010
00000000
00001000
00000010
,
00000001
00000100
00000001
00000100
00000010
00001000
00000010
00010000
00001000
00100000
00001000
00010000
,
00001000
00000000
00001000
00010000
00000000
00010000
01000000
00000000
01000000
10000000
00000000
10000000
,
00010000
01000000
00100000
20000000
00000000
30000000
11000000
00000000
01100000
00000000
00100000
00010000
,
01000000
00000000
00100000
10000000
00100000
01000000
00001000
00000000
00001000
00010000
00000000
00010000
,
00000100
00001000
00000100
00010000
00000010
00001000
00000010
00000100
00000010
00001000
00000001
00000010
,
00000100
00001000
00000001
00000100
00000000
00000100
00000010
00000000
00000010
00001000
00000000
00001000
,
00000001
00000010
00000100
00010000
00001000
00010000
00001000
00100000
00010000
10000000
00100000
01000000
,
00010000
00000000
00010000
10000000
00000000
10000000
01000000
00000000
01000000
00100000
00000000
00100000
,
01000000
10000000
00100000
01000000
00010000
00100000
00001000
00010000
00000100
00001000
00000010
00010000
,
00001000
00000000
00001000
00100000
00000000
00100000
00010000
00000000
01000000
00100000
00000000
01000000
,
00010000
00100000
00001000
00020000
00000000
00030000
00011000
00000000
00101000
00000000
00001000
00010000
,
00000010
00000000
00000010
00001000
00000000
00001000
00000001
00000000
00000001
00000100
00000000
00000100
,
00000010
00000000
00000010
00001000
00000000
00001000
00000001
00000010
00000100
00000010
00000001
00001000
,
00000001
00000100
00000001
00000100
00001000
00000100
00001000
00010000
00001000
00010000
01000000
00010000
,
01000000
10000000
00010000
02000000
00000000
03000000
10100000
00000000
00110000
00000000
00010000
00001000
,
00011000
00000000
00000000
00000000
;
