#VERSION:0.83;
#TITLE:THE BLACK KNIGHT;
#ARTIST:L.E.D.;
#GENRE:GOA TRANCE;
#BANNER:THE BLACK KNIGHT.png;
#BACKGROUND:THE BLACK KNIGHT-bg.png;
#CDTITLE:./CDTitles/bm IIDX 18 Resort Anthem.png;
#MUSIC:THE BLACK KNIGHT.ogg;
#SAMPLESTART:21.819;
#SAMPLELENGTH:15;
#BPMS:0=154;
#STOPS:38.75=0.39,85.75=0.389,246=1.169;
#TIMESIGNATURES:0=4=4,36=3=4,39=4=4,83=3=4,86=4=4,246=1=4,247=4=4;

//--------------- dance-single - Fred-104 ----------------
#NOTEDATA:;
#STEPSTYPE:dance-single;
#DESCRIPTION:Fred-104;
#DIFFICULTY:Beginner;
#METER:3;
#CREDIT:Fred-104;
#NOTES:
0000
0000
0000
0000
,
0000
0000
0000
0000
,
0000
0000
0000
0000
,
0000
0000
0000
0000
,
0000
0000
0000
0000
,
0000
0000
0000
0000
,
1000
0000
0000
0000
,
0000
0000
0000
0000
,
0001
0000
0000
0000
,
2000
0000
0000
0000
0000
0000
0000
0000
0000
0000
0000
3000
0000
0000
0000
0000
,
0000
1000
0000
0001
,
0000
0100
0000
0001
,
0000
1000
0000
1001
,
0000
0000
0000
0002
,
0000
0003
0000
1000
,
0000
0100
0000
0020
,
0000
0030
0000
0001
,
0000
1000
0000
0002
,
0000
0000
0003
2000
,
0000
0000
3000
0002
,
0000
0000
0003
2000
,
0000
0000
0000
0000
0000
0000
0000
3000
0000
0000
0000
0000
0000
0000
0000
0000
,
0000
0000
0001
0000
,
1000
0000
0200
0000
,
0000
0300
1000
0000
,
1000
0000
0002
0000
,
0000
0003
1000
0000
,
0001
0000
0020
0000
,
0000
0030
0100
0000
,
0100
0000
2000
0000
,
0000
3000
0002
0000
,
0000
0003
2000
0000
,
0000
3000
0001
0000
,
1000
0000
0200
0000
,
0000
0300
0020
0000
,
0000
0030
0200
0000
,
0000
0300
0010
0000
,
0001
0000
2000
0000
,
0000
3000
0002
0000
,
0000
0003
0200
0000
,
0000
0000
0000
0000
,
0000
0300
0020
0000
,
0000
0030
2000
0000
,
0000
3000
0002
0000
,
0000
0000
0000
0000
,
0000
0003
1000
0000
,
0001
0000
0200
0000
,
0300
0000
0001
0000
,
1000
0000
0020
0000
,
0030
0000
1000
0000
,
0001
0000
0010
0000
,
0100
0000
1000
0000
,
1000
0000
0001
0000
,
0001
0000
1001
0000
,
0000
0000
0000
0000
,
0000
0000
0000
0000
,
0000
0000
0000
0000
,
0000
0000
0001
0000
,
0000
0000
0000
0000
,
0000
0000
1000
0000
,
0000
0000
0002
0000
,
0000
0000
0003
1000
,
0000
0100
0000
0020
,
0000
0000
0030
0001
,
0000
1000
0000
0020
,
0000
0000
0030
0100
,
0000
0001
0000
0200
,
0000
0000
0300
0001
,
0000
1000
0000
0002
,
0000
0000
0003
1000
,
0000
0100
0000
2000
,
0000
0000
3000
0001
,
0000
1000
0000
0200
,
0000
0000
0300
1000
,
0000
0001
0000
0020
,
0000
0000
0030
0001
,
0000
1000
0000
2002
,
0000
0000
0000
0000
0000
0000
0000
0000
0000
0000
0000
3003
0000
0000
0000
0000
;

//--------------- dance-single - Fred-104 ----------------
#NOTEDATA:;
#STEPSTYPE:dance-single;
#DESCRIPTION:Fred-104;
#DIFFICULTY:Easy;
#METER:8;
#CREDIT:Fred-104;
#NOTES:
0000
0000
0000
0000
,
0000
0000
0000
0000
,
0000
0000
0000
0000
,
0000
0000
0000
0000
,
0000
0000
0000
0000
,
0000
0000
0000
0000
,
1001
0000
0000
0000
,
0110
0000
0000
0000
,
0001
0001
1000
1000
,
0002
0000
0000
0000
0000
0000
0000
0000
2000
0000
0000
3003
1000
0000
0000
0000
,
0100
0000
1000
0010
1000
0000
0001
0000
,
0010
0000
0001
0100
0001
0000
0100
0000
,
0010
0000
0100
0001
0100
0000
0001
0000
,
1000
2002
3003
1000
,
0000
0100
0000
0000
1000
0000
0001
0000
,
0100
0000
0010
0100
0010
0000
0100
0000
,
0000
0001
0000
0000
1000
0000
0001
0000
,
0001
1000
1000
0001
,
0000
0010
0000
0000
0100
0000
0010
0000
,
0000
0001
0000
0000
1000
0000
0001
0000
,
0000
0100
0000
0000
0010
0000
0100
0000
,
0100
0000
0110
0000
0001
0000
0000
1000
,
0000
0000
0001
0000
0100
0000
0000
0010
,
0000
0000
0100
0000
0001
0000
0000
1000
,
0000
0100
1000
0100
,
0001
0000
0100
0000
1000
0000
0000
0001
,
0000
0000
0010
0000
0001
0000
0000
0100
,
0000
0000
0010
0000
0100
0000
0000
0001
,
0000
1000
0001
0010
,
1000
0010
0001
1000
,
0100
1000
0100
0000
1000
0000
0001
0000
,
0100
0001
0100
0000
0001
0000
1000
0000
,
0010
1000
0010
0000
0100
0000
0001
0000
,
1000
0100
1000
0010
,
0100
0001
0100
0000
0001
0000
0010
0000
,
0100
1000
0100
0000
0010
0000
0100
0000
,
1000
0100
1000
0000
0001
0000
0100
0000
,
0010
0100
0002
0000
,
0000
0000
2003
0000
,
3002
0000
0203
0000
,
0000
0000
0000
0000
0310
0000
0000
0100
,
0000
0010
2000
0000
,
0000
0000
3200
0000
,
0320
0000
0032
0000
,
0000
0000
2000
0000
,
0000
3003
0001
0100
,
0001
1000
0001
0100
,
0010
0100
0001
0010
,
1000
0100
0002
0000
,
2003
0000
3100
0100
,
1000
1000
0001
0001
,
0010
0000
0010
0000
0001
0100
0001
0000
,
1000
0010
1000
0000
0001
1000
0001
1000
,
0001
1000
0001
0000
2002
0000
0000
0000
,
0000
0000
0000
0000
,
0000
0000
0000
0000
,
0000
0000
0000
0000
,
0000
3003
1001
0000
,
0000
0000
0110
0000
,
0000
0000
0001
0001
,
1000
1000
0100
0010
,
0001
1000
0002
0000
0003
0000
1000
0000
,
0100
1000
0001
0100
,
0010
0200
0300
0001
,
1000
0010
1000
0001
,
0010
0200
0300
1000
,
0100
1000
0100
0001
,
0010
2000
3000
0001
,
0100
0001
0100
1000
,
0010
0001
1000
0001
,
0100
0001
0010
0001
,
1000
0020
0030
0100
,
0001
0100
0010
0100
,
0001
2000
3000
0001
,
0010
1000
0010
0001
,
1000
0000
0002
0000
0003
0000
1000
0010
,
1000
0000
0001
0100
0001
0000
1000
0001
,
1000
0000
0001
0000
0010
0000
0100
0000
0010
0000
0200
0300
0000
0000
0000
0000
;

//--------------- dance-single - Fred-104 ----------------
#NOTEDATA:;
#STEPSTYPE:dance-single;
#DESCRIPTION:Fred-104;
#DIFFICULTY:Medium;
#METER:12;
#CREDIT:Fred-104;
#NOTES:
0000
0000
0000
0000
,
0000
0000
0000
0000
,
0000
0000
0000
0000
,
0000
0000
0000
0000
,
0000
0000
0000
0000
,
0000
0000
0000
0000
,
1100
0000
0000
0000
0000
0000
0000
0001
,
0101
0000
0000
0000
0000
0000
0000
1000
,
1010
0010
0100
0001
0011
0010
0100
1000
,
0001
0000
0100
0000
0010
0000
1000
0000
0002
0000
0000
0003
1000
0000
0100
0000
,
1000
0000
1000
0010
1000
0000
0001
0100
,
0001
0000
0001
0010
0001
0000
0100
0010
,
0100
0000
0100
0001
0100
0000
0100
0010
,
1000
0000
0001
0000
2002
0000
0000
0000
3003
0000
0000
0000
0001
0000
0000
0010
,
0000
0000
0100
0000
0000
1000
0000
0000
0001
0000
0100
0000
0010
0000
0000
0100
,
0000
0000
0001
0000
1000
0000
0100
0000
0010
0000
0001
0000
1000
0000
0000
0001
,
0000
0100
0010
0100
0001
1000
1100
0000
,
0101
0000
0000
0000
1000
0000
0100
0000
0010
0000
0001
0000
1000
0000
0000
0010
,
0000
0000
0001
0000
0000
0010
0000
0000
0100
0000
0001
0000
1000
0000
0000
0001
,
0000
0000
0100
0000
0000
1000
0000
0000
0100
0000
0010
0000
1000
0000
0000
0100
,
0000
0000
0001
0000
0000
0100
0000
0000
0010
0000
0001
0000
1001
0000
0000
0000
,
0110
0000
0000
0000
2002
0000
0000
3003
2000
0000
0000
3200
0000
0000
0320
0000
,
0000
0032
0000
0000
1003
0000
0001
0000
0200
0000
0000
0320
0000
0000
0230
0000
,
0000
0302
0000
0000
1003
0000
0100
0000
0020
0000
0000
0032
0000
0000
0203
0000
,
0000
0320
0000
0000
1030
0000
0001
0000
0010
0000
0100
0000
1100
0000
0000
0000
,
0010
0000
0100
0000
0101
0000
0000
0000
2000
0000
0000
3002
0000
0000
0203
0000
,
0000
0320
0000
0000
1030
0000
0001
0000
0020
0000
0000
0230
0000
0000
2300
0000
,
0000
3002
0000
0000
0103
0000
0010
0000
2000
0000
0000
3020
0000
0000
0230
0000
,
0000
0302
0000
0000
0013
0000
0100
0000
1000
0000
0100
0000
0001
0000
0100
0000
,
1000
0000
0001
0000
1001
0000
0000
0000
1000
0000
0001
0000
0010
0000
0100
0010
,
0000
0000
0001
0000
1000
0000
0001
0000
0100
0000
0010
0000
1000
0000
0001
1000
,
0000
0000
0010
0000
1000
0000
0001
0000
0010
0000
0100
0000
0010
0000
0001
1000
,
0000
0000
0001
0000
0100
0000
0010
0000
0100
0000
0001
0000
1000
0000
0100
0010
,
0000
0000
0001
0000
1000
0000
0001
0000
0100
0000
0001
0000
1000
0000
0001
0010
,
0000
0000
0100
0000
1000
0000
0010
0000
0100
0000
0001
0000
1000
0000
0100
0010
,
0000
0000
0001
0000
0100
0000
0010
0000
1000
0000
0001
0000
0100
0000
0001
0010
,
0000
0000
0001
0000
1000
0000
0001
0000
0100
0000
0010
0000
1000
0000
0100
0010
,
0000
0001
1000
0001
0020
0000
0000
0000
,
0000
0000
0000
0000
0000
0000
0000
0000
0230
0000
0000
2300
0000
0000
3002
0000
,
0203
0000
0000
0320
0000
0000
2030
0000
3200
0000
0000
0000
0000
0000
0000
0000
,
0000
0000
0000
0000
1300
0001
0100
1000
,
0001
0010
1000
0001
0020
0000
0000
0000
,
0000
0000
0000
0000
0000
0000
0000
0000
0230
0000
0000
2300
0000
0000
3200
0000
,
0310
0001
1000
0001
0200
0000
0010
0000
,
0001
0000
0310
0000
0100
0001
1000
0100
,
0010
0001
1000
0000
0001
0100
1000
0100
,
0001
0000
0000
0010
0000
0000
0100
0000
1000
0000
0000
0001
0000
0000
0100
0000
,
0010
0000
0000
0000
0100
0000
0001
0000
1000
0000
0000
0100
0000
0000
0010
0000
,
0001
0000
0000
1000
0000
0000
0001
0000
0010
0000
0000
0000
0001
0000
0000
0000
,
0100
0010
1000
0001
0010
0100
0010
0100
,
1000
0100
1000
0100
1000
0001
0010
0001
,
1000
0010
1000
0000
0001
0001
0010
0010
,
0100
0100
1000
1000
0001
0100
0010
1000
,
0001
0010
0100
1000
2002
0000
0000
0000
,
0000
0000
0000
0000
,
0000
0000
0000
0000
,
0000
0000
0000
0000
,
0000
3003
1010
0000
,
0000
0000
0000
0001
0011
0000
0000
0000
,
0000
0000
0000
1000
1100
0100
0010
0001
,
0101
0100
0010
1000
0001
0010
0100
1000
,
0001
1000
0001
1000
0001
1000
0001
1000
0000
0000
0000
0000
0001
0000
0010
0000
,
0100
0000
1000
0000
0001
0000
0000
0100
0000
0000
0010
0000
0100
0000
0001
0000
,
0010
0000
0100
0000
0010
0000
0000
0001
0000
0000
1000
0000
0001
0000
0100
0000
,
0010
0000
1000
0000
0100
0000
0000
0010
0000
0000
0001
0000
1000
0000
0001
0000
,
0100
0000
0010
0000
1000
0001
0000
0010
0000
0100
1000
0000
0001
0000
0100
0000
,
0010
0000
1000
0000
0010
0000
0000
0100
0000
0000
0001
0000
0010
0000
0100
0000
,
1000
0000
0001
0000
0100
0000
0000
0010
0000
0000
1000
0000
0010
0000
0100
0000
,
0001
0000
1000
0000
0100
0000
0000
0010
0000
0000
0001
0000
1000
0000
0001
0000
,
0100
0000
0010
0000
0100
0000
0001
0000
1000
0100
0000
0100
0010
0000
0001
0000
,
1000
0000
0001
0000
0100
0000
0000
0001
0000
0000
1000
0000
0100
0000
0010
0000
,
0001
0000
1000
0000
0001
0000
0000
0010
0000
0000
0100
0000
0010
0000
0001
0000
,
1000
0000
0010
0000
0100
0000
0000
0001
0000
0000
0010
0000
0100
0000
0010
0000
,
0001
0000
1000
0000
0001
0100
0000
0001
0000
1000
0100
0000
0010
0000
0001
0000
,
0100
0000
0010
0000
0100
0000
0000
0001
0000
0000
1000
0000
0001
0000
0010
0000
,
0100
0000
1000
0000
0001
0000
0000
0100
0000
0000
0010
0000
1000
0000
1000
0000
,
0100
0100
0010
0010
0001
0001
1000
0010
,
0100
0000
0001
0000
1000
0001
1000
0001
1000
0001
1000
0001
0000
0000
0000
0000
;

//--------------- dance-single - Fred-104 ----------------
#NOTEDATA:;
#STEPSTYPE:dance-single;
#DESCRIPTION:Fred-104;
#DIFFICULTY:Hard;
#METER:16;
#CREDIT:Fred-104;
#NOTES:
0000
0000
0000
0000
,
0000
0000
0000
0000
,
0000
0000
0000
0000
,
0000
0000
0000
0000
,
0000
0000
0000
0000
,
0000
0000
0000
0000
,
1001
0000
0000
0000
0000
0000
0000
0110
,
1001
0000
0000
0000
0000
0000
0000
0110
,
1000
0100
0010
0001
1000
0010
0100
0001
,
1000
0000
0000
0000
0010
0000
0000
0000
1000
0000
0000
0000
0010
0000
0000
0000
0100
0000
0000
0000
0001
0000
0000
0000
0100
0000
0000
0000
0001
0000
0000
0000
0010
0000
0000
0000
0100
0000
0000
0000
1000
0000
0000
0000
0002
0003
0000
0000
0100
0000
0000
0000
0000
0000
0000
0000
0001
0000
0000
0000
1000
0000
0000
0000
,
0010
0000
1000
0001
0010
0100
1000
0001
0100
0000
0001
1000
0100
0000
1000
0001
,
0010
0000
0100
1000
0001
0100
0010
0000
1000
0001
0010
0100
0010
0000
0001
1000
,
0010
0000
1000
0001
0010
0100
1000
0001
0100
0000
0010
0100
0010
0000
1000
0001
,
0010
0000
0100
0010
0001
0000
1000
0002
0000
0000
0000
0000
1003
0000
0001
0010
,
0000
0001
1000
0000
0001
0010
0100
1000
0001
0000
1000
0000
0001
0000
0100
0010
,
0000
0100
0001
0000
1000
0100
0010
0001
1000
0000
0001
0100
0010
0000
0100
0001
,
0000
0010
0100
0000
1000
0001
0100
0001
1000
0000
0100
0000
0120
0000
0031
0000
,
0210
0000
1300
0000
0120
0000
0031
0000
1000
0001
1000
0001
1000
0000
0001
0010
,
0000
0001
1000
0000
0001
0100
0000
0010
1000
0000
0100
0000
0010
0000
0001
0100
,
0000
0010
1000
0000
0001
0010
0100
0010
0100
0000
1000
0000
0001
0000
0100
0001
,
0000
1000
0001
0000
0010
0100
0000
1000
0001
0000
1000
0000
0120
0000
0031
0000
,
0210
0000
0000
0000
0000
0000
0000
0000
1300
0000
0000
0000
0000
0000
0000
0000
0001
0000
0000
0000
0100
0000
0000
0000
0010
0000
0000
0000
2000
3000
0000
0000
0002
0000
0000
0000
0000
0000
0000
0000
0000
0000
0000
0000
0100
0000
0000
0000
0000
0000
0000
0000
0000
0000
0000
0000
0010
0000
0000
0000
0000
0000
0000
0000
,
0000
1000
0000
0000
0103
0000
0010
0000
0200
0000
0000
1000
0000
0000
0010
0000
,
0000
0001
0000
0000
1300
0000
0001
0000
0200
0000
0000
0320
0000
0000
2030
0000
,
3001
0000
0010
0100
1000
0000
0001
0000
1000
0000
0100
0001
0100
0000
0010
0000
,
0001
0000
0100
1000
0100
0000
0010
0000
1000
0000
0100
1000
0000
0001
0100
0000
,
0010
1000
0000
0010
0001
0000
0010
0000
0100
0000
0001
1000
0000
0100
0001
0000
,
0100
0010
0000
0001
1000
0000
0001
0000
1000
0000
0001
0100
0000
0010
0100
0000
,
1000
0100
0000
0001
0100
0000
0010
0000
1000
0000
0001
1000
0100
0000
0010
0001
,
0100
0000
0010
1000
0001
0000
0000
0000
1000
0001
0100
0000
0001
0010
0000
0010
,
1000
0000
0001
0100
0000
0100
1000
0000
0001
1000
0100
0000
1000
0010
0000
0010
,
0001
0000
1000
0100
0000
0100
0001
0000
0010
0100
1000
0000
0001
0010
0000
0010
,
1000
0000
0001
0100
0000
0100
1000
0000
0010
0100
0001
0000
1000
0100
0000
0100
,
0001
0000
1000
0010
0000
0010
0001
0000
0100
0001
1000
0001
0010
0000
0100
1000
,
0000
0001
1000
0000
0010
1000
0001
0000
0100
0010
1000
0001
0010
0000
0100
0010
,
0000
0001
1000
0000
0001
0100
0010
0000
1000
0001
0100
0001
1000
0000
0100
0010
,
0000
0001
1000
0000
0010
0100
0001
0000
0100
0001
1000
0001
0010
0000
0100
1000
,
0000
0100
0001
0000
0100
0010
0100
0000
2000
0000
0000
0000
0010
0000
0000
0000
,
0001
0000
0000
0000
3100
0000
0010
0000
0002
0000
0000
0203
0000
0000
2300
0000
,
3002
0000
0000
0023
0000
0000
2030
0000
3002
0000
0000
0000
0100
0000
0000
0000
,
1000
0000
0000
0000
0013
0000
0100
0000
1000
0100
0001
0000
0100
0000
1000
0010
,
0001
0000
0010
1000
0001
0000
0100
0000
0002
0000
0000
0000
0100
0000
0000
0000
,
1000
0000
0000
0000
0013
0000
0001
0000
2000
0000
0000
3200
0000
0000
0320
0000
,
0031
0000
0100
0000
0010
0000
0100
0001
2000
0000
0000
0000
0100
0000
0000
0000
,
0001
0000
0000
0000
3010
0000
0100
0000
0001
0010
1000
0000
0010
0000
0001
0100
,
1000
0000
0100
0001
0010
0100
1000
0000
0001
0100
0010
1000
0010
0100
0001
0000
,
2000
0000
0000
3200
0000
0000
0320
0000
2030
0000
0000
3020
0000
0000
0032
0000
,
2003
0000
0000
0000
3010
0000
1000
0001
0020
0000
0000
0230
0000
0000
0302
0000
,
0203
0000
0000
0320
0000
0000
0032
0000
1003
0000
0010
0000
0100
0000
0001
0000
,
1000
0001
0010
0001
0100
0010
1000
0100
1000
0000
0001
0010
0100
0000
1000
0000
,
0001
0100
0010
0000
0100
0001
1000
0000
0001
0010
0100
1000
0100
0010
0001
0000
,
1000
0010
0100
0001
0100
0010
1000
0000
0001
0010
0100
0000
1000
0010
0100
0000
,
0001
0100
0010
0000
1000
0100
0010
0000
0001
0010
0100
0010
0001
1000
0010
0100
,
0001
0100
0010
1000
0001
0010
0100
1000
0002
0000
0000
0000
0000
0000
0000
0000
,
0000
0000
0000
0000
,
0000
0000
0000
0000
,
0000
0000
0000
0000
,
0000
0003
1001
0000
,
0000
0000
0000
1100
0011
0000
0000
0000
,
0000
0000
0000
1010
0101
0001
0010
0100
,
1100
0000
1000
0000
0001
0000
0100
0000
0001
0010
0001
0100
0010
1000
0100
1000
,
0010
0000
0000
0000
0100
0000
0000
0000
0001
0000
0000
0000
0010
0000
0000
0000
0100
0000
0000
0000
1000
0000
0000
0000
0001
0000
0000
0000
0200
0000
0000
0000
0000
0300
0000
0000
0000
0000
0000
0000
0000
0000
0000
0000
0000
0000
0000
0000
0001
0000
0000
0000
1000
0000
0000
0000
0100
0000
0000
0000
0000
0000
0000
0000
,
0010
0000
0001
1000
0010
0000
1000
0100
0000
0100
0001
0000
1000
0001
0010
0000
,
0100
0000
1000
0001
0010
0000
0001
0100
0000
0100
1000
0000
0001
1000
0010
0000
,
1000
0000
0100
0010
0001
0000
1000
0010
0000
0010
0001
0000
1000
0001
0100
0000
,
0001
0000
1000
0000
0100
0010
0001
1000
0000
1000
0010
0100
0010
1000
0001
0000
,
0010
0000
0100
1000
0001
0000
0010
1000
0000
0010
0100
0000
1000
0001
0100
0000
,
0001
0000
1000
0100
0010
0000
1000
0010
0000
0001
1000
0000
0001
1000
0100
0000
,
0010
0000
0001
0100
0010
0000
0001
0010
0000
1000
0100
0000
0010
0001
1000
0010
,
0100
0001
1000
0100
0010
0000
0001
0000
1000
0100
0000
0100
1000
0010
0100
0000
,
0001
0000
1000
0001
0100
0000
0010
0100
0000
0001
1000
0100
0010
0001
1000
0000
,
0001
0000
0100
0010
1000
0000
0001
0010
0000
0001
1000
0010
1000
0001
0100
0000
,
0010
0000
0100
0001
1000
0000
0100
0010
0000
0100
1000
0001
0100
0010
1000
0000
,
0001
0000
0010
0100
1000
0010
0100
1000
0100
0010
1000
0100
0010
0001
0010
0001
,
0010
0000
0001
1000
0010
0000
0100
0001
0000
0010
0001
1000
0010
0100
0010
0100
,
0010
0000
1000
0001
0100
0000
0010
1000
0000
0001
0010
0100
1000
0100
1000
0100
,
1000
0000
0001
1000
0010
0000
1000
0001
0100
0010
1000
0001
1000
0100
0010
0001
,
1000
0010
0100
0001
1000
0100
1000
0010
0100
0001
1000
0100
0000
0000
0000
0000
;

//--------------- dance-double - Fred-104 ----------------
#NOTEDATA:;
#STEPSTYPE:dance-double;
#DESCRIPTION:Fred-104;
#DIFFICULTY:Easy;
#METER:8;
#CREDIT:Fred-104;
#NOTES:
00000000
00000000
00000000
00000000
,
00000000
00000000
00000000
00000000
,
00000000
00000000
00000000
00000000
,
00000000
00000000
00000000
00000000
,
00000000
00000000
00000000
00000000
,
00000000
00000000
00000000
00000000
,
00001001
00000000
00000000
00000000
,
00000110
00000000
00000000
00000000
,
00000001
00000100
00001000
00010000
,
00002000
00000000
00000000
00000000
00000000
00000000
00000000
00000000
00020000
00000000
00000000
00033000
00001000
00000000
00000000
00000000
,
00010000
01000000
00100000
00010000
,
10000000
01000000
00010000
00001000
,
00000100
00000001
00000010
00001000
,
00010000
00022000
00033000
00001000
,
00000000
00100000
00000000
00000000
01000000
00000000
10000000
00000000
,
00010000
00000000
01000000
00100000
01000000
00000000
00010000
00000000
,
00000000
10000000
00000000
00000000
01000000
00000000
00100000
00000000
,
00001000
00010000
00100000
01000000
,
00000000
00001000
00000000
00000000
00010000
00000000
00001000
00000000
,
00000000
00000010
00000000
00000000
00000001
00000000
00000010
00000000
,
00000000
00000100
00000000
00000000
00001000
00000000
00000100
00000000
,
00010000
00000000
00011000
00000000
00001000
00000000
00000000
00010000
,
00000000
00000000
00001000
00000000
00100000
00000000
00000000
00010000
,
00000000
00000000
10000000
00000000
01000000
00000000
00000000
00100000
,
00000000
01000000
10000000
01000000
,
00010000
00000000
00001000
00000000
00010000
00000000
00000000
00100000
,
00000000
00000000
00010000
00000000
00001000
00000000
00000000
00000010
,
00000000
00000000
00001000
00000000
00010000
00000000
00000000
00001000
,
00000000
00000100
00000001
00000100
,
00000010
00010000
00001000
00010000
,
00001000
00100000
00001000
00000000
00010000
00000000
01000000
00000000
,
10000000
00100000
10000000
00000000
01000000
00000000
00100000
00000000
,
00001000
00010000
00001000
00000000
00010000
00000000
00001000
00000000
,
00000100
00000001
00000010
00000100
,
00010000
00001000
00010000
00000000
00001000
00000000
00000100
00000000
,
00000001
00000010
00000001
00000000
00001000
00000000
00000010
00000000
,
00010000
00001000
00010000
00000000
00001000
00000000
00010000
00000000
,
01000000
10000000
02000000
00000000
,
00000000
00000000
03200000
00000000
,
00302000
00000000
00023000
00000000
,
00000000
00000000
00000000
00000000
00031000
00000000
00000000
00000100
,
00000000
00000010
00002000
00000000
,
00000000
00000000
00003002
00000000
,
00000203
00000000
00002300
00000000
,
00000000
00000000
00020000
00000000
,
00000000
00033000
00001000
00010000
,
00100000
01000000
00010000
00100000
,
10000000
00000000
10000000
01000000
,
00010000
00001000
00000020
00000000
,
00000032
00000000
00001003
00000001
,
00000100
00000010
00001000
00000100
,
00010000
00000000
00001000
00000000
01000000
00010000
01000000
00000000
,
00100000
10000000
00100000
00000000
10000000
01000000
10000000
01000000
,
00100000
00001000
00010000
00000000
00022000
00000000
00000000
00000000
,
00000000
00000000
00000000
00000000
,
00000000
00000000
00000000
00000000
,
00000000
00000000
00000000
00000000
,
00000000
00033000
00011000
00000000
,
00000000
00000000
00001001
00000000
,
00000000
00000000
00000001
00000001
,
00000100
00000100
00001000
00010000
,
00001000
00010000
00002000
00000000
00003000
00000000
00001000
00000000
,
00010000
00100000
10000000
01000000
,
00100000
00002000
00003000
00010000
,
00001000
00000100
00000001
00000010
,
00000100
00020000
00030000
00001000
,
00010000
00100000
01000000
00010000
,
10000000
02000000
03000000
10000000
,
00100000
00010000
00001000
00000100
,
00000010
00001000
00000000
00000001
,
00000100
00001000
00010000
00100000
,
10000000
00020000
00030000
10000000
,
01000000
00010000
00001000
00000010
,
00000001
00002000
00003000
00000001
,
00000100
00001000
00000100
00000010
,
00001000
00000000
00000200
00000000
00000300
00000000
00010000
00001000
,
00010000
00000000
00001000
01000000
00001000
00000000
00100000
00010000
,
00100000
00000000
00010000
00000000
10000000
00000000
01000000
00000000
00100000
00000000
02000000
03000000
00000000
00000000
00000000
00000000
;

//--------------- dance-double - Fred-104 ----------------
#NOTEDATA:;
#STEPSTYPE:dance-double;
#DESCRIPTION:Fred-104;
#DIFFICULTY:Medium;
#METER:12;
#CREDIT:Fred-104;
#NOTES:
00000000
00000000
00000000
00000000
,
00000000
00000000
00000000
00000000
,
00000000
00000000
00000000
00000000
,
00000000
00000000
00000000
00000000
,
00000000
00000000
00000000
00000000
,
00000000
00000000
00000000
00000000
,
00011000
00000000
00000000
00000000
00000000
00000000
00000000
00000100
,
00000110
00000000
00000000
00000000
00000000
00000000
00000000
00000001
,
00001000
00000001
00000010
00000100
00010000
00001000
00100000
00010000
,
10000000
00000000
01000000
00000000
00010000
00000000
00001000
00000000
00020000
00000000
00000000
00030000
00001000
00000000
00010000
00000000
,
00001000
00000000
00001000
01000000
00001000
00000000
00010000
00000100
,
00010000
00000000
00010000
00001000
00010000
00000000
00000010
00001000
,
00000010
00000000
00000010
00000100
00000010
00000000
00001000
00000100
,
00000010
00000000
00000001
00000000
00002002
00000000
00000000
00000000
00003003
00000000
00000000
00000000
00001000
00000000
00000000
00000001
,
00000000
00000000
00000100
00000000
00000000
00001000
00000000
00000000
00010000
00000000
00100000
00000000
01000000
00000000
00000000
00010000
,
00000000
00000000
10000000
00000000
00100000
00000000
00010000
00000000
00001000
00000000
00010000
00000000
00100000
00000000
00000000
01000000
,
00000000
00001000
00010000
00001000
00000010
00000001
00000010
00000100
,
00001000
00000000
00000010
00000000
00010000
00000000
00001000
00000000
00010000
00000000
00000000
00000000
00001000
00000000
00000000
00010000
,
00000000
00000000
00100000
00000000
00000000
00010000
00000000
00000000
00001000
00000000
00010000
00000000
00001000
00000000
00000000
00010000
,
00000000
00000000
01000000
00000000
00000000
00010000
00000000
00000000
00001000
00000000
00010000
00000000
00000010
00000000
00000000
00001000
,
00000000
00000000
00000100
00000000
00000000
00000001
00000000
00000000
00000100
00000000
00001000
00000000
00000001
00000000
00000100
00000000
,
00001000
00000000
00010000
00000000
00022000
00000000
00000000
00033000
01100000
00000000
00000000
10000000
00000000
00000000
01000000
00000000
,
00000000
00100000
00000000
00000000
00001000
00000000
00010000
00000000
00001000
00000000
00000000
00010000
00000000
00000000
01000000
00000000
,
00000000
10000000
00000000
00000000
00010000
00000000
01000000
00000000
00100000
00000000
00000000
10000000
00000000
00000000
01000000
00000000
,
00000000
00010000
00000000
00000000
00001000
00000000
00000010
00000000
00000100
00000000
00000010
00000000
00000001
00000000
00000000
00000000
,
00000100
00000000
00000010
00000000
00001000
00000000
00000000
00000000
00000001
00000000
00000000
00000100
00000000
00000000
00001000
00000000
,
00000000
00010000
00000000
00000000
00001000
00000000
00000100
00000000
00000001
00000000
00000000
00000010
00000000
00000000
00001000
00000000
,
00000000
00010000
00000000
00000000
00001000
00000000
00010000
00000000
00100000
00000000
00000000
01000000
00000000
00000000
00100000
00000000
,
00000000
10000000
00000000
00000000
00010000
00000000
10000000
00000000
01000000
00000000
00100000
00000000
00001000
00000000
00010000
00000000
,
00001000
00000000
00010000
00000000
00011000
00000000
00000000
00000000
00010000
00000000
00001000
00000000
00000010
00000000
00000001
00000010
,
00000000
00000000
00000100
00000000
00001000
00000000
00000001
00000000
00000100
00000000
00001000
00000000
00010000
00000000
00001000
00010000
,
00000000
00000000
01000000
00000000
00100000
00000000
00010000
00000000
00100000
00000000
01000000
00000000
00100000
00000000
00010000
10000000
,
00000000
00000000
00100000
00000000
00010000
00000000
00001000
00000000
00010000
00000000
00000010
00000000
00001000
00000000
00000010
00000100
,
00000000
00000000
00000001
00000000
00001000
00000000
00000100
00000000
00000010
00000000
00000001
00000000
00001000
00000000
00000010
00000100
,
00000000
00000000
00000001
00000000
00000010
00000000
00000100
00000000
00000010
00000000
00001000
00000000
00010000
00000000
01000000
00100000
,
00000000
00000000
01000000
00000000
10000000
00000000
00010000
00000000
01000000
00000000
00100000
00000000
10000000
00000000
00010000
00100000
,
00000000
01000000
00100000
00001000
00010000
00001000
00000010
00000001
,
00001000
00000100
00000010
00000000
00000002
00000000
00000000
00000000
,
00000000
00000000
00000000
00000000
00000000
00000000
00000000
00000000
00002003
00000000
00000000
00003002
00000000
00000000
00000203
00000000
,
00002300
00000000
00000000
00023000
00000000
00000000
00230000
00000000
02300000
00000000
00000000
00000000
00001000
00000000
00000000
00000000
,
00001000
00000000
00001000
00000000
03001000
00010000
00100000
10000000
,
01000000
00100000
00001000
00010000
00002000
00000000
00010000
00000000
,
00000010
00000000
00000000
00000000
00010000
00000000
00000000
00000000
00023000
00000000
00000000
00032000
00000000
00000000
00003020
00000000
,
00000032
00000000
00000000
00000023
00000000
00000000
00000230
00000000
00020300
00000000
00000000
00000000
00000000
00000000
00000000
00000000
,
00000000
00000000
00000000
00000000
00031000
00010000
00100000
10000000
,
00010000
00100000
01000000
00000000
10000000
01000000
00010000
01000000
,
10000000
00000000
00000000
01000000
00000000
00000000
00010000
00000000
00001000
00000000
00000000
00000100
00000000
00000000
00000001
00000000
,
00001000
00000000
00000000
00000000
00000100
00000000
00000010
00000000
00000001
00000000
00000000
00000100
00000000
00000000
00001000
00000000
,
00010000
00000000
00000000
01000000
00000000
00000000
10000000
00000000
00020000
00000000
00000000
00000000
00000000
00000000
00000000
00000000
,
10030000
01000000
00100000
00000000
00001000
00010000
00001000
00010000
,
00000010
00001000
00000010
00001000
00000001
00000010
00000001
00000010
,
00000100
00001000
00000100
00001000
00000001
00000100
00001000
00000000
,
00010000
01000000
10000000
00000000
10000000
00100000
00010000
00001000
,
00000010
00000001
00001000
00000001
00002002
00000000
00000000
00000000
,
00000000
00000000
00000000
00000000
,
00000000
00000000
00000000
00000000
,
00000000
00000000
00000000
00000000
,
00000000
00003003
00000110
00000000
,
00000000
00000000
00000000
00010000
00011000
00000000
00000000
00000000
,
00000000
00000000
00000000
01000000
01100000
10000000
01000000
00100000
,
00001000
00010000
00001000
00000100
00000001
00000100
00000010
00001000
,
00000001
00001000
00000001
00001000
00000001
00001000
00000001
00001000
00000000
00000000
00000000
00000000
00000001
00000000
00001000
00000000
,
00000100
00000000
00000010
00000000
00000001
00000000
00000000
00000100
00000000
00000000
00001000
00000000
00010000
00000000
00001000
00000000
,
00010000
00000000
01000000
00000000
00100000
00000000
00000000
00010000
00000000
00000000
01000000
00000000
00100000
00000000
01000000
00000000
,
00010000
00000000
10000000
00000000
01000000
00000000
00000000
00100000
00000000
00000000
00001000
00000000
00010000
00000000
00001000
00000000
,
00000010
00000000
00000100
00000000
00001000
00000000
00000000
00000001
00000000
00000000
00000100
00000000
00000001
00000000
00000010
00000000
,
00000100
00000000
00000010
00000000
00000001
00000000
00000000
00000100
00000000
00000000
00001000
00000000
00010000
00000000
00001000
00000000
,
00000100
00000000
00001000
00000000
00010000
00000000
00000000
00001000
00000000
00000000
01000000
00000000
00001000
00000000
00010000
00000000
,
00100000
00000000
01000000
00000000
00001000
00000000
00000000
00010000
00000000
00000000
00100000
00000000
10000000
00000000
00100000
00000000
,
01000000
00000000
00010000
00000000
10000000
00000000
01000000
00000000
00100000
00001000
00000000
00001000
00010000
00000000
00001000
00000000
,
00000100
00000000
00000010
00000000
00001000
00000000
00000000
00000100
00000000
00000000
00000010
00000000
00000001
00000000
00000100
00000000
,
00001000
00000000
00000100
00000000
00000001
00000000
00000000
00000010
00000000
00000000
00000100
00000000
00001000
00000000
00000010
00000000
,
00000100
00000000
00001000
00000000
00010000
00000000
00000000
00001000
00000000
00000000
00010000
00000000
00001000
00000000
00010000
00000000
,
01000000
00000000
00100000
00000000
00010000
10000000
00000000
10000000
00000000
10000000
00010000
00000000
10000000
00000000
01000000
00000000
,
00100000
00000000
00001000
00000000
00010000
00000000
00010000
00001000
00000000
00001000
00000100
00000000
00000001
00000000
00001000
00000000
,
00000001
00000000
00000010
00000000
00000100
00000000
00000100
00000010
00000000
00000010
00001000
00000000
00010000
00000000
00001000
00000000
,
00010000
00100000
01000000
00010000
00100000
01000000
10000000
01000000
,
00010000
00000000
00001000
00000000
00010000
00001000
00010000
00001000
00010000
00001000
00010000
00001000
00000000
00000000
00000000
00000000
;

//--------------- dance-double - Fred-104 ----------------
#NOTEDATA:;
#STEPSTYPE:dance-double;
#DESCRIPTION:Fred-104;
#DIFFICULTY:Hard;
#METER:16;
#CREDIT:Fred-104;
#NOTES:
00000000
00000000
00000000
00000000
,
00000000
00000000
00000000
00000000
,
00000000
00000000
00000000
00000000
,
00000000
00000000
00000000
00000000
,
00000000
00000000
00000000
00000000
,
00000000
00000000
00000000
00000000
,
10010000
00000000
00000000
00000000
00000000
00000000
00000000
01100000
,
00011000
00000000
00000000
00000000
00000000
00000000
00000000
00000110
,
00001001
00000001
00000010
00000100
00001100
00000100
00010000
00001000
,
00010000
00000000
00000000
00000000
00000010
00000000
00000000
00000000
00001000
00000000
00000000
00000000
00000000
00000000
00000000
00000000
00010000
00000000
00000000
00000000
00001000
00000000
00000000
00000000
00100000
00000000
00000000
00000000
00000000
00000000
00000000
00000000
00010000
00000000
00000000
00000000
10000000
00000000
00000000
00000000
01000000
00000000
00000000
00000000
00200000
00300000
00000000
00000000
00001000
00000000
00000000
00000000
00000000
00000000
00000000
00000000
00010000
00000000
00000000
00000000
00000010
00000000
00000000
00000000
,
00001000
00000000
00000100
00000010
00000001
00000000
00000100
00001000
00010000
00000000
00001000
00010000
00001000
00000000
00010000
01000000
,
00100000
00000000
00010000
00100000
01000000
10000000
00010000
00000000
01000000
00000000
00100000
10000000
00010000
00000000
10000000
00100000
,
01000000
00000000
00100000
00010000
00001000
00000000
00000100
00000010
00000100
00000000
00000001
00001000
00000001
00000100
00001000
00000000
,
00010000
00000000
00001000
00000000
00010000
01000000
00100000
02000000
00000000
00000000
00000000
00000000
13000000
00000000
00010000
01000000
,
00000000
10000000
01000000
00000000
00010000
01000000
00000000
00100000
01000000
10000000
01000000
00000000
00010000
00000000
10000000
01000000
,
00000000
00010000
00001000
00000000
00000010
00000100
00001000
00000100
00000010
00000000
00000001
00000000
00001000
00000000
00000010
00000001
,
00000000
00000010
00000100
00000000
00000001
00000010
00000100
00010000
00001000
00000000
00010000
00000000
00021000
00000000
00031000
00000000
,
00012000
00000000
00013000
00000000
00001000
01000000
00010000
00000000
10000000
00010000
00100000
01000000
10000000
00000000
01000000
00100000
,
00000000
00001000
00010000
00000000
00100000
01000000
00000000
00001000
00010000
00000000
00100000
00000000
10000000
00000000
01000000
00010000
,
00000000
00001000
00010000
00000000
00000100
00000010
00000000
00000100
00001000
00000000
00000010
00000000
00010000
00000000
00001000
00000100
,
00000000
00000010
00010000
00000000
00001000
00000100
00000000
00000001
00001000
00000000
00000100
00000000
00002100
00000000
00003010
00000000
,
00000102
00000000
00000000
00000000
00000000
00000000
00000000
00000000
00000013
00000000
00000000
00000000
00000000
00000000
00000000
00000000
00001000
00000000
00000000
00000000
00000100
00000000
00000000
00000000
00010000
00000000
00000000
00000000
00002000
00003000
00000000
00000000
00010000
00000000
00000000
00000000
00000000
00000000
00000000
00000000
00010000
00000000
00000000
00000000
00001000
00000000
00000000
00000000
00000000
00000000
00000000
00000000
00010000
00000000
00000000
00000000
00000010
00000000
00000000
00000000
00000000
00000000
00000000
00000000
,
00010000
00001000
00000000
00010000
00000100
00000000
00010000
00000000
00001000
00000000
00001000
00010000
00000000
00001000
01000000
00000000
,
00001000
00010000
00000000
00001000
00100000
00000000
01000000
00000000
20000000
00000000
00000000
32000000
00000000
00000000
03020000
00000000
,
00031000
00000000
00010000
00100000
00010000
00000000
00001000
00000000
00010000
00000000
00001000
00000100
00000010
00000000
00010000
00000000
,
00001000
00000000
00000010
00000100
00000010
00000000
00000001
00000000
00000100
00000000
00000100
00000010
00000000
00000100
00000001
00000000
,
00000100
00001000
00000000
00000100
00000010
00000000
00010000
00000000
00001000
00000000
00001000
00010000
00000000
00001000
01000000
00000000
,
00001000
00010000
00000000
00001000
00100000
00000000
01000000
00000000
00100000
00000000
00100000
00010000
00000000
00100000
10000000
00000000
,
00100000
01000000
00000000
00100000
00010000
00000000
10000000
00100000
00010000
00000000
00001000
00000100
00000010
00000000
00001000
00000000
,
00000001
00000000
00000010
00000000
00001001
00000000
00000000
00000000
00001000
00000001
00000100
00000000
00000001
00000010
00000000
00000100
,
00010000
00000000
00001000
00100000
00000000
00010000
10000000
00000000
00010000
00100000
01000000
00000000
00100000
00010000
00000000
10000000
,
00010000
00000000
01000000
00100000
00000000
10000000
00100000
00000000
01000000
00010000
10000000
00000000
01000000
00100000
00000000
00001000
,
00010000
00000000
00000100
00000010
00000000
00000001
00001000
00000000
00000001
00000100
00001000
00000000
00010000
00001000
00000000
00010000
,
01000000
00000000
00100000
00010000
00000000
00100000
01000000
00000000
10000000
00100000
01000000
00000000
00010000
00000000
10000000
01000000
,
00000000
00100000
00001000
00000000
00010000
00000010
00001000
00000010
00010000
00001000
00000100
00000000
00000010
00000000
00001000
00000001
,
00000000
00000010
00000001
00000000
00001000
00000001
00000010
00000001
00001000
00000001
00000010
00000000
00000100
00000000
00001000
00000100
,
00000000
00010000
00001000
00000000
00100000
00010000
10000000
00010000
01000000
00100000
10000000
01000000
00100000
00000000
00001000
00010000
,
00000000
00100000
01000000
00000000
00001000
00010000
00001000
00000000
00020000
00000000
00000000
00000000
00001000
00000000
00000000
00000000
,
00000010
00000000
00000000
00000000
00031000
00000000
00000100
00000000
00000020
00000000
00000000
00002030
00000000
00000000
00003002
00000000
,
00000203
00000000
00000000
00002300
00000000
00000000
00023000
00000000
00032000
00000000
00000000
00000000
00010000
00000000
00000000
00000000
,
01000000
00000000
00000000
00000000
00013000
00000000
00100000
00000000
10000000
01000000
00100000
00000000
00010000
00000000
10000000
00100000
,
00010000
00000000
00001000
00010000
00100000
00000000
01000000
00000000
00002000
00000000
00000000
00000000
00010000
00000000
00000000
00000000
,
00000010
00000000
00000000
00000000
00013000
00000000
00000100
00000000
00002000
00000000
00000000
00003200
00000000
00000000
00000320
00000000
,
00000031
00000000
00001000
00000000
00000010
00000000
00000100
00000001
00002000
00000000
00000000
00000000
00000100
00000000
00000000
00000000
,
00000010
00000000
00000000
00000000
00010000
00000000
00000000
00000000
00003010
00000100
00000001
00000000
00001000
00000000
00000100
00000010
,
00000001
00000000
00000100
00001000
00010000
00000000
00001000
00000000
00010000
00001000
00100000
00001000
00010000
00000010
00001000
00000000
,
00000002
00000000
00000000
00000203
00000000
00000000
00002300
00000000
00023000
00000000
00000000
00230000
00000000
00000000
02300000
00000000
,
03020000
00000000
00000000
00000000
01030000
00000000
00001000
00010000
00002000
00000000
00000000
00023000
00000000
00000000
00032000
00000000
,
00003200
00000000
00000000
00000320
00000000
00000000
00002030
00000000
00003100
00000000
00000010
00000000
00000001
00000000
00001000
00000000
,
00000001
00000100
00000010
00001000
00000001
00000010
00000100
00010000
00001000
00000000
00100000
00010000
10000000
00000000
00010000
00000000
,
00100000
01000000
00100000
00000000
00001000
00010000
00000010
00000000
00001000
00000100
00000010
00000000
00000001
00000010
00000100
00000000
,
00010000
00001000
00000100
00000000
00000001
00000010
00001000
00000000
00010000
00000000
00001000
00000000
00010000
00000000
00100000
00000000
,
01000000
00000000
00100000
00000000
10000000
00000000
00010000
00000000
10000000
01000000
00100000
00001000
00010000
00000010
00001000
00000001
,
00001000
00000100
00010000
00001000
00100000
00010000
10000000
00100000
02000000
00000000
00000000
00000000
00000000
00000000
00000000
00000000
,
00000000
00000000
00000000
00000000
,
00000000
00000000
00000000
00000000
,
00000000
00000000
00000000
00000000
,
00000000
03000000
10010000
00000000
,
00000000
00000000
00000000
00011000
00011000
00000000
00000000
00000000
,
00000000
00000000
00000000
00001001
00001001
00000001
00000100
00000010
,
00001010
00000000
00001000
00000000
00000100
00000000
00010000
00000000
00001000
00100000
00010000
00000000
10000000
01000000
00100000
00000000
,
00001000
00000000
00000000
00000000
00010000
00000000
00000000
00000000
00000010
00000000
00000000
00000000
00001000
00000000
00000000
00000000
00000001
00000000
00000000
00000000
00000010
00000000
00000000
00000000
00000100
00000000
00000000
00000000
00002000
00000000
00000000
00000000
00000000
00003000
00000000
00000000
00000000
00000000
00000000
00000000
00000000
00000000
00000000
00000000
00000000
00000000
00000000
00000000
00000001
00000000
00000000
00000000
00000100
00000000
00000000
00000000
00000010
00000000
00000000
00000000
00000000
00000000
00000000
00000000
,
00001000
00000000
00000001
00000000
00000010
00000000
00000100
00010000
00000000
01000000
00100000
00000000
00001000
00010000
00100000
00000000
,
01000000
00000000
00001000
00000000
00000100
00000000
00000010
00001000
00000000
00000001
00001000
00000000
00000001
00000010
00001000
00000000
,
00010000
00000000
01000000
00000000
00100000
00000000
00010000
10000000
00000000
00100000
00010000
00000000
00001000
00000100
00000010
00000000
,
00001000
00000000
00000001
00000000
00000010
00000001
00001000
00000010
00000000
00010000
00001000
00010000
00000010
00010000
00001000
00000000
,
00100000
00000000
00010000
00000000
01000000
00100000
10000000
00010000
00000000
00010000
00100000
00000000
01000000
10000000
00010000
00000000
,
01000000
00000000
00001000
00000000
00010000
00001000
01000000
00001000
00000000
00001000
00010000
00000000
00000100
00010000
00001000
00000000
,
00010000
00000000
00001000
00000000
00000100
00000010
00001000
00000001
00000000
00000010
00000100
00000000
00000010
00000001
00001000
00000001
,
00000010
00000100
00001000
00000001
00000100
00000000
00001000
00000000
00010000
00100000
00000000
10000000
00010000
10000000
01000000
00000000
,
10000000
00000000
00010000
01000000
00100000
00000000
10000000
01000000
00000000
00010000
00001000
00000000
00010000
00001000
00000100
00000000
,
00000010
00000000
00001000
00000001
00000010
00000000
00000100
00010000
00000000
01000000
00100000
00000000
00001000
00010000
00100000
00000000
,
01000000
00000000
00010000
10000000
00100000
00000000
00001000
00000010
00000000
00010000
00001000
00000000
00000010
00000001
00000010
00000000
,
00000100
00000000
00001000
00000001
00000100
00000010
00000001
00000010
00000100
00000001
00001000
00000100
00010000
00001000
00010000
00000000
,
00001000
01000000
00010000
10000000
00010000
00000000
00100000
01000000
00000000
10000000
00010000
00000000
10000000
01000000
00100000
00000000
,
00010000
10000000
00100000
01000000
00010000
00000000
10000000
01000000
00000000
00010000
00001000
00000000
00010000
00000000
00001000
00000100
,
00000010
00000000
00001000
00000001
00000010
00000000
00000001
00000100
00000000
00000001
00001000
00000000
00000010
00000100
00001000
00000000
,
00010000
00100000
01000000
00000000
00010000
10000000
01000000
00010000
00001000
00000010
00000001
00001000
00000000
00000000
00000000
00000000
;
