#VERSION:0.83;
#TITLE:Super Rush;
#ARTIST:kors k;
#GENRE:HARDTEK;
#BANNER:Super Rush.png;
#BACKGROUND:Super Rush-bg.png;
#CDTITLE:./CDTitles/bm IIDX 24 SINOBUZ.png;
#MUSIC:Super Rush.ogg;
#SAMPLESTART:92.212;
#SAMPLELENGTH:15;
#BPMS:0=190;

//--------------- dance-single - Fred-104 ----------------
#NOTEDATA:;
#STEPSTYPE:dance-single;
#DESCRIPTION:Fred-104;
#DIFFICULTY:Beginner;
#METER:5;
#CREDIT:Fred-104;
#NOTES:
0000
0000
0000
0000
,
0000
0000
0000
0000
,
0000
0000
0000
0000
,
0000
0000
0000
0000
,
0000
0000
0000
0000
,
1000
0000
0001
0000
,
1000
0000
0010
0000
,
1000
0000
0001
0000
,
0100
0000
0001
0000
,
2000
0000
0000
3000
,
0002
0000
0000
0003
,
2000
0000
0000
3000
,
0002
0000
0000
0003
,
1000
0000
1000
0000
,
0001
0000
0001
0000
,
0100
0000
0100
0000
,
0220
0000
0000
0330
,
1000
0000
0010
0000
,
1000
0000
0001
0000
,
0100
0000
0010
0000
,
0100
0000
0001
1000
,
0001
0000
0010
0000
,
0001
0000
1000
0000
,
0001
0000
0100
0000
,
2002
0000
0000
3003
,
1000
0000
0001
0000
,
1000
0000
0100
0000
,
1000
0000
0001
0000
,
0100
0000
0001
0000
,
1000
0000
0010
0000
,
0100
0000
0001
0000
,
1000
0000
0001
0000
,
1000
1000
1000
1000
,
1000
0000
0100
0000
,
0010
0000
0001
1000
,
0001
0000
0100
0000
,
0010
0000
0100
0001
,
0100
0000
0010
0000
,
1000
0000
0001
1000
,
0001
0000
1000
0000
,
2002
0000
0000
3003
,
1000
0000
0100
0000
,
1000
0000
0001
0001
,
0001
0000
0100
0000
,
0010
0000
0100
0100
,
0100
0000
0001
0000
,
1000
0000
0010
0010
,
0010
0000
1000
0000
,
0001
0001
0001
0000
,
1000
0000
0001
0000
,
0100
0000
0010
0010
,
0010
0000
0100
0000
,
0001
0000
1000
1000
,
1000
0000
0010
0000
,
1000
0000
0001
0001
,
0001
0000
1000
0000
,
0001
0001
0001
0001
,
1001
0000
0000
0000
,
0000
0000
0000
0000
,
0000
0000
0000
0000
,
0000
0000
0000
0000
,
2000
0000
0000
3000
,
0002
0000
0000
0003
,
2000
0000
0000
3000
,
0002
0000
0000
0003
,
1000
0000
0010
0000
,
1000
0000
0001
0000
,
1000
0000
0100
0000
,
1000
0000
0001
0000
,
0100
0000
0010
0000
,
0100
0000
0001
0000
,
1000
1000
1000
1000
,
2002
0000
0000
3003
,
0001
0000
1000
0000
,
0001
0000
0100
0100
,
0100
0000
0001
0000
,
1000
0000
0010
0010
,
0010
0000
0100
0000
,
0010
0000
1000
1000
,
1000
0000
0001
0000
,
1000
1000
1000
0000
,
0001
0000
0100
0000
,
0010
0000
0100
0100
,
0100
0000
0001
0000
,
1000
0000
0001
0001
,
0001
0000
1000
0000
,
0010
0000
0100
0100
,
0100
0000
0001
0000
,
1000
1000
1000
0000
,
0001
0000
0010
0000
,
0100
0000
1000
0100
,
1000
0000
0001
0000
,
0100
0000
0010
1000
,
0010
0000
1000
0000
,
0001
0000
0100
0010
,
0100
0000
0001
0000
,
1000
1000
1000
1000
,
1001
0000
0000
0000
;

//--------------- dance-single - Fred-104 ----------------
#NOTEDATA:;
#STEPSTYPE:dance-single;
#DESCRIPTION:Fred-104;
#DIFFICULTY:Easy;
#METER:9;
#CREDIT:Fred-104;
#NOTES:
0000
0000
0000
0000
,
0000
0000
0000
0000
,
0000
0000
0000
0000
,
0000
0000
0000
0000
,
0000
0000
0000
0000
,
1000
0000
1000
0000
,
0001
0000
0001
0000
,
0100
0000
0100
0000
,
0010
0000
1000
0000
,
1001
0000
0001
0000
,
0100
0010
0100
0001
,
1000
0000
0100
0000
,
1000
0010
0100
0001
,
1000
1000
0100
0100
,
0010
0010
0001
0001
,
0100
0010
0100
0000
0001
1000
0001
0000
,
0200
0300
0200
0300
0010
0000
1001
0000
,
1000
0100
1000
0001
,
0100
0000
0010
0000
0100
0100
0100
0000
,
0001
1000
0001
0010
,
0001
1000
0001
0000
2002
0000
3003
0000
,
1000
0100
1000
0001
,
0100
0000
0010
0000
0100
0100
0100
0000
,
0001
0010
0001
1000
,
0001
0001
1000
1001
,
2000
0000
3200
0000
1300
0001
1000
0000
,
0002
0000
0103
0010
0100
0000
0001
0000
,
0020
0000
0032
0000
1003
0010
1000
0000
,
0002
2003
3100
1000
,
0001
1000
0001
0000
0100
0000
0010
0000
,
0200
0000
0310
0000
1000
0010
1000
0000
,
0002
0000
0203
0000
0310
0100
0001
0000
,
0200
0000
0320
0000
1030
0001
1001
0000
,
1100
0000
1000
0010
0000
1000
0000
0100
,
0000
0010
0001
0001
,
0100
0000
0010
0100
0000
0001
0000
0001
,
0000
1000
0001
0100
,
0110
0010
1000
0010
,
1000
0001
1000
0001
,
0100
0000
0010
0000
,
0100
0001
1000
0001
,
1001
0000
0001
0000
,
1000
0000
0001
0100
,
0010
0000
0100
0000
,
0001
0000
1000
0100
,
0001
0000
0100
0000
,
1000
0000
0001
0100
,
1000
0000
0100
0000
,
0010
0000
1000
0000
0100
1000
0001
0000
,
1000
0001
0100
0000
,
0001
0010
1001
1001
,
0001
0100
0010
0000
,
1000
0100
0110
0110
,
0010
0001
1000
0000
,
0001
0100
0110
0110
,
0010
1000
0100
1000
,
0001
0000
1000
0000
,
1002
0000
0000
0000
,
0000
0000
0000
0000
,
0203
0000
0000
0000
,
0000
0000
0000
0000
,
0320
0000
0000
0000
,
0000
0000
0000
0000
,
2030
0000
0000
0000
,
0000
0000
0000
3000
,
1000
0001
0100
0010
,
1000
0000
0010
0000
0100
0001
0100
0000
,
0001
0010
0100
1000
,
0001
0000
0100
0000
0010
1000
0010
0000
,
0100
0100
0001
0001
,
1000
1000
0010
0010
,
1000
0100
0010
0001
,
2002
0000
0000
3003
,
1000
0001
0100
0010
,
0100
0010
0100
0000
0001
0000
0000
0000
,
0100
0001
0010
0001
,
1000
0100
1000
0000
0010
0000
0000
0000
,
0100
0100
0001
1000
,
0001
0100
0001
0000
0010
0000
0000
0000
,
0100
1000
0001
0100
,
0010
0100
0010
0000
0100
0000
0110
0000
,
0001
1000
0001
0010
,
0001
1000
0001
0000
0100
0000
0010
0000
,
2000
3100
0001
0100
,
1000
0010
1000
0000
0001
0000
0000
0000
,
0100
0100
0010
0010
,
1000
1000
0001
0001
,
0010
0100
0010
0000
0001
1000
0001
0000
,
0100
0100
0010
1000
,
1100
0000
1000
0001
0000
0100
0000
0010
,
0000
0100
0001
1000
,
1001
0000
0001
0010
0000
0001
0000
0100
,
0000
0010
0100
0001
,
1001
1000
0100
0010
,
0001
0000
1000
0000
0001
0100
0001
0000
,
0100
0100
0010
0010
,
1000
0000
0001
1000
,
1001
0000
0000
0000
;

//--------------- dance-single - Fred-104 ----------------
#NOTEDATA:;
#STEPSTYPE:dance-single;
#DESCRIPTION:Fred-104;
#DIFFICULTY:Medium;
#METER:13;
#CREDIT:Fred-104;
#NOTES:
0000
0000
0000
0000
,
0000
0000
0000
0000
,
0000
0000
0000
0000
,
0000
0000
0000
0000
,
0000
0000
0000
0000
,
0001
0001
0100
0100
,
0010
0010
1000
1000
,
0100
0100
0010
0010
,
0001
0010
1000
0000
0001
0100
1000
0000
,
1001
0000
0001
0100
0001
1000
0001
0000
,
0100
0010
1000
0000
0010
1000
0001
0000
,
1001
0000
1000
0100
1000
0001
1000
0000
,
0010
0100
0001
0000
1000
0100
0010
0000
,
0001
0001
0100
0100
,
0010
0010
1000
1000
,
0001
0010
0100
1000
0010
0100
0001
1000
,
0002
0003
0002
0003
1000
0001
1001
0000
,
0001
0100
0001
1000
0001
0010
0001
0000
,
0100
0010
0100
0002
2003
3200
0320
0230
,
1300
0001
1000
0100
1000
0001
0010
0000
,
0001
0001
0001
1000
0100
0000
0110
0000
,
0010
0001
1000
0001
0100
0010
0100
0000
,
0001
1000
0100
1000
0010
0010
0100
0100
,
0001
0010
0001
0001
0001
1000
0010
0100
,
0001
1000
0001
1000
0001
0000
1001
0000
,
2000
0000
3020
0000
1030
0010
0100
0001
,
2000
0000
3100
0010
0001
1000
0010
0100
,
0002
0000
0023
0000
0031
1000
0001
0100
,
0020
0000
0000
0000
0230
0000
0000
0000
0301
0000
0000
1000
0001
0000
0100
0000
,
0010
0100
0110
0000
0001
1000
0010
0100
,
0002
0000
1003
0010
1000
1000
0100
0100
,
0020
0000
0230
0000
1300
0010
0100
0001
,
2000
0000
3002
0000
1003
0001
1001
0000
,
1001
0000
0001
0010
0001
1000
0000
0001
,
0000
0100
0010
0100
0110
0000
1001
0000
,
1100
0000
1000
0100
0010
0001
0000
1000
,
0000
0001
0100
0001
0101
0000
1010
0000
,
1001
0000
0000
0001
0000
0000
0100
0000
0010
0000
0000
1000
0000
0000
0100
0000
,
1000
0000
0000
0010
0000
0000
0100
0000
0101
0000
0000
0000
1001
0000
0000
0000
,
0001
0010
0100
1000
0001
0001
1000
1000
,
0001
0010
1000
0001
0100
1000
0001
0000
,
1000
0100
1000
0001
0000
0110
0000
1010
,
0000
1000
0100
0010
0011
0000
1001
0000
,
0001
0100
0001
0010
0000
0110
0000
1001
,
0000
0001
0100
0010
1010
0000
1100
0000
,
1000
0001
0010
0001
0000
1001
0000
0011
,
0000
0010
0100
0010
0011
0000
0101
0000
,
0001
0100
0001
1000
0000
0110
0000
0100
,
0110
1001
1100
0011
,
1000
1000
1000
0010
0000
0100
0001
1000
,
0000
0001
0010
0100
0010
0001
1000
0000
,
0001
0010
0001
1000
0000
0001
0100
0010
,
0000
1000
0001
0010
0100
1000
0010
0000
,
1000
1000
1000
0100
0000
1000
0001
0010
,
0000
0001
0100
0010
0100
0001
1000
0000
,
0001
0010
0100
1000
0001
0100
0010
1000
,
0001
0100
0010
1000
,
2001
0000
0000
0000
,
0000
0000
0000
0000
,
3020
0000
0000
0000
,
0000
0000
0000
0000
,
0230
0000
0000
0000
,
0000
0000
0000
0000
,
0302
0000
0000
0000
,
0000
0000
0000
0003
,
0110
0000
0001
1000
0010
1000
0100
0000
,
1000
0001
0100
0001
1000
0001
0010
0000
,
0110
0000
0100
1000
0001
1000
0010
0000
,
1000
0001
0010
0100
1000
0100
0010
0000
,
0001
0100
0001
0000
0100
0010
0100
0000
,
0010
1000
0010
0000
1000
0100
1000
0000
,
0001
0000
0010
0000
0100
0000
1000
0000
0100
1000
0100
1000
0100
1000
0100
1000
,
0200
0300
0200
0300
0010
0001
1001
0000
,
0101
0000
0001
1000
0001
0010
0001
0000
,
1000
0010
0100
0010
1000
0010
0100
0000
,
0001
0000
1000
0100
0010
0100
1000
0000
,
0010
1000
0001
1000
0100
1000
0001
0000
,
1000
1000
1000
0010
0100
0010
1000
0000
,
0001
0010
0100
1000
0001
1000
0010
0000
,
0100
0100
0001
1000
0010
0010
0100
0001
,
1000
0100
0010
0001
2000
3000
0002
0003
,
1001
0000
0001
0010
0100
1000
0001
0000
,
0100
0010
1000
0010
0100
0001
1000
0000
,
0001
0001
1000
0001
0100
0010
0100
0000
,
0001
0010
0100
1000
0100
0010
0001
0000
,
0100
0010
1000
0010
0100
0001
1000
0000
,
0010
1000
0001
1000
0100
1000
0001
0000
,
1000
0200
2300
3200
0301
0200
0302
0203
,
1300
0200
0320
0032
0103
0010
0110
0000
,
1001
0000
0001
0010
0001
1000
0000
0010
,
0000
0100
0001
1000
1100
0000
0011
0000
,
1010
0000
0001
1000
0100
1000
0000
0001
,
0000
0010
0100
0010
0011
0000
0101
0000
,
1001
0000
0000
0001
0000
0000
1000
0000
0010
0000
0000
1000
0000
0000
0100
0000
,
0010
0000
0000
0001
0000
0000
1000
0000
1100
0000
0000
0000
1001
0000
0000
0000
,
0011
0000
0000
0010
0000
0000
0001
0000
1000
0000
0000
0001
0000
0000
0100
0000
,
0010
0000
0000
1000
0000
0000
0100
0000
0110
0000
0000
0000
0011
0000
0000
0000
,
1001
0000
0000
0000
;

//--------------- dance-single - Fred-104 ----------------
#NOTEDATA:;
#STEPSTYPE:dance-single;
#DESCRIPTION:Fred-104;
#DIFFICULTY:Hard;
#METER:17;
#CREDIT:Fred-104;
#NOTES:
0000
0000
0000
0000
,
0000
0000
0000
0000
,
0000
0000
0000
0000
,
0000
0000
0000
0000
,
0000
0000
0000
0000
,
1000
0000
0001
0100
0010
0000
1000
0000
,
0001
0000
1000
0100
0010
0000
0100
0000
,
1000
0000
0010
1000
0001
0000
0100
0000
,
0001
0010
1000
0001
0100
1000
0001
0000
,
1002
0000
1003
0100
0010
1000
0010
0001
,
0010
0000
0100
0000
1000
0000
0001
0000
0100
0000
0010
1000
0001
0000
0100
0000
,
0020
0000
0031
0010
1000
0001
1000
0100
,
0001
0000
0100
0000
0010
0000
0100
0000
1000
0000
0010
0100
0001
0000
1000
0000
,
0002
0000
1003
0010
0001
0010
0100
0001
,
1000
0000
0001
0000
0010
0000
0100
0000
0001
0000
0100
0010
0001
0000
1000
0000
,
0010
0000
0100
0000
0001
0000
1000
0000
0001
0010
0100
0010
0001
1000
0010
0100
,
0002
0003
0002
0003
1000
0001
1001
0000
,
1000
0020
0130
2000
3100
0020
1030
0020
,
0130
0002
0103
0020
0032
0023
0230
0302
,
1003
0200
0310
2000
3010
0200
1300
0200
,
0310
0001
0010
0001
0010
0000
0100
0000
0001
0000
0000
0100
0020
0000
0032
0000
,
1003
0000
0002
0000
0103
0000
0020
0030
2010
0000
3002
0000
0013
0000
0200
0000
,
0310
0000
0000
0000
0000
0000
0000
0000
0002
0000
0000
0000
0000
0000
0000
0000
0203
0300
0000
0000
0000
0000
0000
0000
0200
0300
0000
0000
0000
0000
0000
0000
1000
0000
0000
0000
0010
0000
0000
0000
1000
0000
0000
0000
0010
0000
0000
0000
0100
0000
0000
0000
0001
0000
0000
0000
0100
0000
0000
0000
0001
0000
0000
0000
,
1000
0000
0200
0000
0310
0001
0010
0001
1000
0000
0001
1000
0010
0000
0200
0000
,
0301
0010
1000
0010
0001
0000
1001
0000
,
1200
0000
1300
0000
2001
0000
3001
0000
0100
0000
0001
1000
0010
0000
0100
0000
,
0102
0000
0103
0000
0010
0000
2000
0000
3200
0000
0320
0000
0032
0000
2003
3000
,
2010
0000
3010
0000
0120
0000
0130
0000
0001
0000
1000
0100
0010
0000
0001
0000
,
2000
0000
0010
0000
3002
0000
0100
0000
1003
0000
0000
0001
1000
0000
0100
0000
,
0010
0000
0010
0000
0011
0000
0000
0000
0001
0000
0100
0001
1000
0000
0010
0000
,
0210
0000
0000
0000
0301
0000
1000
0000
0100
1000
0100
1000
0001
0010
0001
0010
,
0002
0000
1003
0000
0020
0000
0130
0000
0001
1000
0001
1000
0100
0010
0100
0010
,
0001
1000
0100
0000
1000
0001
0100
0000
0001
1000
0100
0010
0001
1000
0001
0000
,
0101
0000
0000
0100
0000
0000
0010
0000
1000
0000
0000
0100
0000
0000
0010
0000
,
0001
0000
0000
1000
0000
0000
0010
0000
0110
0000
0000
0000
1001
0000
0000
0000
,
1100
0000
0000
0001
0000
0000
0100
0000
0010
0000
0000
1000
0000
0000
0001
0000
,
1000
0000
0000
0100
0000
0000
0010
0000
0011
0000
0000
0000
1100
0000
0000
0000
,
1010
0000
0000
0010
0100
0000
0001
0000
0011
0000
0000
0010
0100
0000
1000
0000
,
1100
0000
0000
0100
0010
0000
0001
0000
0101
0000
0000
0000
1010
0000
0000
0000
,
1000
0000
0010
0000
0100
0000
0001
0000
1000
0100
0010
0001
0010
0100
1000
0001
,
2000
3200
0302
0203
0320
0230
2300
3002
,
0103
0000
0010
1000
0010
0000
1000
0000
0001
0000
0010
0100
0010
0000
0001
0000
,
1000
0000
0001
0100
0010
0000
1000
0000
1100
0000
0000
0001
1000
0000
0001
0000
,
0100
0000
0001
0010
0001
0000
1000
0000
0001
0000
0010
0100
0010
0000
0001
0000
,
1000
0000
0001
0100
0010
0000
0100
0000
0101
0000
0000
0001
1000
0000
0010
0000
,
1010
0000
1000
0000
1001
0000
0001
0000
0100
0000
0010
1000
0001
0000
0010
0000
,
0100
0000
0010
0001
1000
0000
0001
0000
0101
0000
0000
0100
0010
0000
1000
0000
,
0001
0000
0010
0001
1000
0000
0100
1000
0001
0000
0100
0001
1000
0000
0010
1000
,
0001
0010
0100
0000
1000
0100
0010
0000
0001
1000
0010
1000
0001
0000
1000
0000
,
0100
0000
0100
0000
0120
0000
0031
0000
1000
0000
0001
1000
0100
0000
1000
0000
,
0001
0000
0010
0100
1000
0000
0001
1000
0100
0000
1000
0000
1001
0000
0000
0000
,
0001
0000
1000
0001
0010
0000
0100
0000
0010
0000
0001
1000
0010
0000
0100
0000
,
0001
0000
1000
0100
0010
0000
0001
0000
0101
0000
0100
0010
1000
0001
0000
1000
,
0001
0000
0010
0000
0210
0000
1300
0000
0001
0000
1000
0001
0100
0000
0010
0000
,
1000
0000
0100
0010
0001
0000
1000
0000
1100
0000
1010
0000
1001
0000
0000
0000
,
0001
0001
1000
1000
0001
0100
1000
0100
,
0001
0010
0100
1000
0100
0010
0001
0000
1000
0001
0100
0000
0001
1000
0010
0000
,
2001
0000
0000
0000
,
0000
0000
0000
0000
,
3200
0000
0000
0000
,
0000
0000
0000
0000
,
0320
0000
0000
0000
,
0000
0000
0000
0000
,
0032
0000
0000
0000
,
0000
0000
0000
0003
,
2001
0000
0000
0000
3001
0000
0100
0000
0010
0000
0001
0000
0010
0000
1000
0010
,
0100
0000
0001
0000
1000
0000
0100
0000
0010
0000
0001
0010
0100
0000
1000
0000
,
1002
0000
0000
0000
1003
0000
0010
0000
0001
0000
0010
0000
0100
0000
0001
0100
,
0010
0000
1000
0000
0001
0000
0010
0000
0100
0000
1000
0001
0100
0000
0010
0000
,
1000
0100
1000
0001
1000
0010
1000
0001
,
1000
0100
0010
0001
0010
0100
1000
0001
,
0100
0001
1000
0001
0100
0010
1000
0001
0010
0100
1000
0001
0100
0010
1000
0001
,
2000
3100
0002
0103
1000
0001
1001
0000
,
0001
0000
1000
0000
0001
0000
0100
0000
0010
0000
0001
0000
0010
0000
0100
0001
,
1000
0000
0100
0000
0010
0000
1000
0000
0010
0000
0100
1000
0001
0000
0100
0000
,
0001
0000
0010
0000
0100
0000
0001
0000
0100
0000
0010
0000
0001
0000
1000
0010
,
0100
0000
1000
0000
0100
0000
0010
0000
0100
0000
0001
1000
0100
0000
0010
0000
,
0001
0000
1000
0000
1001
0000
0001
0000
0100
0000
0010
0000
0001
0000
0010
0100
,
0001
0000
1000
0000
0100
0000
0010
0000
1000
0000
0010
0100
1000
0000
0001
0000
,
1001
1000
0001
0100
0110
0010
1000
0001
,
0010
0000
0100
0010
0001
0000
1000
0000
0010
1000
0200
0000
0310
0001
0200
0000
,
0301
0000
0100
0000
0010
0000
0001
0000
0010
0000
0100
0000
1000
0000
0100
0010
,
1000
0000
0100
0000
0010
0000
1000
0000
0010
0000
0100
1000
0010
0000
0100
0000
,
0002
0003
0000
0000
0002
0003
0000
0000
2100
0000
0000
0000
3001
0000
0000
0000
1000
0000
0000
0000
0001
0000
1000
0000
0010
0000
0000
0000
0100
0000
0010
0000
,
1000
0000
0001
0010
0100
0000
1000
0000
0001
0000
1000
0001
0100
0000
0001
0000
,
0010
0000
0100
0000
0001
0000
0100
0000
0010
0000
1000
0000
0010
0000
0100
1000
,
0001
0000
1000
0000
0010
0000
0100
0000
0001
1000
0001
1000
0001
0000
1000
0000
,
0001
0000
0000
0000
0000
0000
0000
0000
0020
0030
0000
0000
0000
0000
0000
0000
0020
0030
0000
0000
0000
0000
0000
0000
1000
0000
0000
0000
0000
0000
0000
0000
0001
0000
0000
0000
0000
0000
0000
0000
0200
0300
0000
0000
0000
0000
0000
0000
0200
0300
0000
0000
0000
0000
0000
0000
1000
0000
0000
0000
0000
0000
0000
0000
,
0001
0000
1000
0100
0010
0001
1000
0000
0010
0000
0100
0000
0101
0000
0000
0000
,
1001
0000
0001
0010
0000
0100
0010
0000
0001
0000
1000
0001
0000
0100
0001
0000
,
1000
0000
0001
0010
0000
0100
1000
0000
1010
0000
0000
0000
0101
0000
0000
0000
,
1010
0000
0010
1000
0000
0001
0100
0000
0001
0000
1000
0100
0000
0010
0100
0000
,
1000
0000
0001
0100
0000
0001
0010
0000
0011
0000
0000
0000
1100
0000
0000
0000
,
1001
0000
0001
0010
0000
0100
1000
0000
0001
0000
0100
0010
0000
1000
0001
0000
,
1000
0000
0100
0010
0000
0001
1000
0000
0110
0000
0000
0000
1001
0000
0000
0000
,
1100
0000
1000
0100
0000
0010
0001
1000
0010
0000
0100
0001
0000
0100
0010
1000
,
0001
0000
0010
0100
0000
1000
0001
0000
0101
0000
0000
0000
1010
0000
0000
0000
,
1001
0000
0000
0000
;

//--------------- dance-double - Fred-104 ----------------
#NOTEDATA:;
#STEPSTYPE:dance-double;
#DESCRIPTION:Fred-104;
#DIFFICULTY:Easy;
#METER:9;
#CREDIT:Fred-104;
#NOTES:
00000000
00000000
00000000
00000000
,
00000000
00000000
00000000
00000000
,
00000000
00000000
00000000
00000000
,
00000000
00000000
00000000
00000000
,
00000000
00000000
00000000
00000000
,
00010000
00000000
00001000
00000000
,
00010000
00000000
00001000
00000000
,
00100000
00000000
00001000
00000000
,
00100000
00000000
00001000
00000000
,
00011000
00000000
00001000
00000000
,
00010000
00001000
00000010
00000000
,
00000001
00000000
00001000
00000000
,
00000001
00000100
00001000
00000000
,
00010000
00100000
01000000
00010000
,
10000000
00010000
10000000
01000000
,
00100000
00100000
00001000
00001000
,
00020000
00030000
00020000
00030000
00001000
00000000
00011000
00000000
,
00010000
00001000
00000010
00000100
,
00010000
00000000
00001000
00000000
00000100
00000100
00000100
00000000
,
00000001
00001000
00000001
00001000
,
00000100
00001000
00000100
00000000
00000220
00000000
00000330
00000000
,
00000001
00000100
00001000
00010000
,
00100000
00000000
01000000
00000000
00010000
00010000
00010000
00000000
,
00100000
01000000
10000000
00010000
,
01000000
01000000
00100000
10010000
,
20000000
32000000
03100000
00001000
,
00020000
00000000
00030010
00001000
00000010
00000000
00010000
00000000
,
00002000
00000000
00203000
00000000
00301000
00010000
00001000
00000000
,
02000000
03002000
00013000
00000100
,
00010000
00001000
00010000
00000000
00000100
00000000
00001000
00000000
,
00000002
00000000
00001003
00000000
00000010
00010000
00000010
00000000
,
00020000
00000000
00032000
00000000
00103000
00010000
00100000
00000000
,
00002000
00000000
00023000
00000000
00031000
00010000
00011000
00000000
,
00011000
00000000
00001000
00010000
00000000
00001000
00000000
01000000
,
00000000
00001000
00010000
00001000
,
00010000
00000000
00001000
00010000
00000000
00000100
00000000
00010000
,
00000000
00001000
00010000
00001000
,
00011000
00001000
00010000
01000000
,
00100000
00010000
10000000
00100000
,
10000000
00000000
01000000
00000000
,
00100000
00100000
00001000
00001000
,
00011000
00000000
00010000
00000000
,
00001000
00010000
00000010
00001000
,
00000010
00000000
00001000
00000000
,
00000001
00000000
00000100
00000010
,
00000100
00000000
00000001
00000000
,
00000010
00000000
00001000
00010000
,
00001000
00000000
01000000
00000000
,
00100000
00000000
10000000
00000000
00010000
10000000
00010000
00000000
,
10000000
01000000
00100000
00000000
,
00001000
00010000
00011000
00011000
,
00010000
00000100
00010000
00000000
,
00000100
00001000
00001001
00001001
,
00000001
00000100
00000010
00000000
,
00001000
00000100
00010100
00010100
,
00010000
00001000
01000000
00001000
,
00010000
00000000
00001000
00000000
,
00021000
00000000
00000000
00000000
,
00000000
00000000
00000000
00000000
,
00030020
00000000
00000000
00000000
,
00000000
00000000
00000000
00000000
,
00002030
00000000
00000000
00000000
,
00000000
00000000
00000000
00000000
,
00003002
00000000
00000000
00000000
,
00000000
00000000
00000000
00000003
,
00001000
00000001
00000100
00000010
,
00000100
00000001
00001000
00000000
,
00000001
00000010
00001000
00010000
,
01000000
00000000
00100000
00000000
00010000
10000000
00010000
00000000
,
10000000
10000000
01000000
01000000
,
00100000
00100000
00001000
00001000
,
00010000
00001000
00000100
00000001
,
00002002
00000000
00000000
00003003
,
00000001
00001000
00000001
00000100
,
00000010
00010000
00000010
00000000
00010000
00000000
00000000
00000000
,
00001000
00100000
00001000
00010000
,
00001000
01000000
00001000
00000000
00010000
00000000
00000000
00000000
,
00001000
01000000
00010000
01000000
,
00010000
10000000
00010000
00000000
00100000
00000000
00000000
00000000
,
01000000
00100000
00010000
10000000
,
01000000
00100000
01000000
00000000
10000000
00000000
10010000
00000000
,
10000000
01000000
00100000
00001000
,
00010000
00001000
00010000
00000000
00000100
00000000
00000010
00000000
,
00000002
00000103
00001000
00000100
,
00000001
00000010
00000001
00000000
00001000
00000000
00000000
00000000
,
00000010
00000010
00010000
00010000
,
00001000
00001000
00100000
00100000
,
00001000
00010000
00001000
00000000
01000000
00001000
01000000
00000000
,
00001000
00010000
00001000
00010000
,
00011000
00000000
00010000
00000010
00000000
00001000
00000000
00000100
,
00000000
00010000
00001000
00010000
,
00011000
00000000
00001000
00100000
00000000
00010000
00000000
01000000
,
00000000
00001000
00010000
00001000
,
00011000
00001000
00010000
01000000
,
00100000
00000000
00010000
00000000
10000000
01000000
10000000
00000000
,
01000000
00100000
00001000
00010000
,
00100000
00000000
10000000
01000000
,
01100000
00000000
00000000
00000000
;

//--------------- dance-double - Fred-104 ----------------
#NOTEDATA:;
#STEPSTYPE:dance-double;
#DESCRIPTION:Fred-104;
#DIFFICULTY:Medium;
#METER:13;
#CREDIT:Fred-104;
#NOTES:
00000000
00000000
00000000
00000000
,
00000000
00000000
00000000
00000000
,
00000000
00000000
00000000
00000000
,
00000000
00000000
00000000
00000000
,
00000000
00000000
00000000
00000000
,
00001000
00001000
00010000
00010000
,
01000000
01000000
10000000
10000000
,
00010000
00010000
00100000
00100000
,
01000000
10000000
00010000
00000000
00100000
00010000
10000000
00000000
,
10010000
00000000
10000000
00100000
00010000
00000000
00001000
00000000
,
00000100
00000010
00001000
00000000
00000010
00000100
00000001
00000000
,
00001000
00000000
00000001
00000100
00001000
00000000
00010000
00000000
,
00100000
01000000
00010000
00000000
10000000
01000000
00100000
00000000
,
00010000
00100000
00001000
00010000
,
00001000
00000100
00000001
00001000
,
00000010
00000100
00000001
00000100
00000010
00010000
00001000
00010000
,
00002000
00003000
00002000
00003000
00010000
00001000
00011000
00000000
,
00001000
00010000
00001000
01000000
00010000
01000000
00001000
00000000
,
00010000
00001000
00010000
00000020
00000230
00002300
00023000
00032000
,
00103000
01000000
10000000
00010000
10000000
01000000
10000000
00000000
,
00100000
00100000
00100000
10000000
00010000
00000000
00110000
00000000
,
00001000
00010000
00001000
00100000
00010000
00100000
00001000
00000000
,
00010000
00000010
00001000
00000010
00001000
00000001
00000100
00000010
,
00001000
00000001
00000010
00000010
00000010
00000001
00001000
00000100
,
00010000
00001000
00010000
00001000
00010000
00000000
00011000
00000000
,
00002000
00000000
00023000
00000000
00130000
01000000
00010000
10000000
,
00020000
00000000
00130000
01000000
00010000
00001000
00000010
00000100
,
00002000
00000000
00003002
00000000
00001003
00000010
00000001
00000010
,
00002000
00000000
00000000
00000000
00003002
00000000
00000000
00000000
00000013
00000000
00000000
00000010
00000100
00000000
00010000
00000000
,
00001000
00010000
00011000
00000000
00001000
00010000
01000000
00100000
,
00002000
00000000
00013000
01000000
10000000
10000000
00010000
00010000
,
20000000
00000000
30200000
00000000
00310000
00001000
00000100
00000001
,
00002000
00000000
00003002
00000000
00001003
00000001
00001001
00000000
,
00000011
00000000
00000001
00000010
00000100
00010000
00000000
00011000
,
00000000
00001000
01000000
00010000
00100000
00000000
01100000
00000000
,
11000000
00000000
00010000
10000000
01000000
10000000
00000000
10100000
,
00000000
10000000
00100000
00010000
00001000
00000000
00011000
00000000
,
00010000
00000000
00000000
00000100
00000000
00000000
00001000
00000000
00000001
00000000
00000000
00001000
00000000
00000000
00000010
00000000
,
00000100
00000000
00000000
00000001
00000000
00000000
00000010
00000000
00000110
00000000
00000000
00000000
00011000
00000000
00000000
00000000
,
00001000
00010000
01000000
10000000
00010000
00100000
01000000
10000000
,
00100000
00010000
00001000
00010000
00000010
00000100
00000001
00000000
,
00001000
00000100
00000010
00000100
00000000
00001000
00000001
00000010
,
00000000
00001000
00010000
01000000
00100000
00000000
10010000
00000000
,
00010000
10000000
00100000
01000000
00000000
00100000
00010000
00001000
,
00000000
00000100
00000010
00001000
00000001
00000000
00001001
00000000
,
00001000
00000100
00000010
00000001
00000000
00001000
00000001
00000100
,
00000000
00001000
00010000
00100000
10000000
00000000
10010000
00000000
,
10000000
01000000
00100000
00001000
00000000
00010000
00000100
00001000
,
00001001
00000110
00000011
00001100
,
00000001
00000001
00000001
00000100
00000000
00000001
00001000
00000100
,
00000000
00010000
00001000
00010000
01000000
00100000
00010000
00000000
,
10000000
00010000
10000000
01000000
00000000
10000000
00100000
00010000
,
00000000
00001000
00000100
00000010
00001000
00000010
00000100
00000000
,
00000001
00000010
00000100
00010000
00000000
00001000
00100000
00010000
,
00000000
10000000
00100000
01000000
00010000
10000000
01000000
00000000
,
10000000
00100000
10000000
00100000
01000000
00010000
01000000
00010000
,
10000000
00100000
00010000
00001000
,
00021000
00000000
00000000
00000000
,
00000000
00000000
00000000
00000000
,
00030200
00000000
00000000
00000000
,
00000000
00000000
00000000
00000000
,
00002300
00000000
00000000
00000000
,
00000000
00000000
00000000
00000000
,
00003002
00000000
00000000
00000000
,
00000000
00000000
00000000
00000003
,
00001001
00000001
00000010
00001000
,
00010000
00001000
00000010
00000000
00000001
00000100
00001000
00000000
,
00010000
00000000
00001000
00000000
00010000
01000000
10000000
00000000
,
00010000
10000000
00100000
00000000
00010000
00001000
00000100
00000000
,
00000001
00001000
00000100
00000000
00001000
00000001
00000010
00000000
,
00000100
00010000
00001000
00000000
00010000
01000000
10000000
00000000
,
00010000
00000000
10000000
00000000
01000000
00000000
00100000
00000000
00001000
00010000
00001000
00010000
00001000
00010000
00001000
00010000
,
00002000
00003000
00002000
00003000
00010000
00001000
00011000
00000000
,
00010010
00000000
00010000
00001000
00010000
00000100
00010000
00000000
,
00001000
00010000
00000010
00010000
00001000
00100000
00010000
00000000
,
10000000
00000000
00010000
00100000
01000000
10000000
00010000
00000000
,
01000000
00100000
00010000
00001000
00000100
00000010
00001000
00000000
,
00000001
00000001
00000001
00001000
00000100
00000010
00000100
00000000
,
00010000
00001000
00010000
00100000
01000000
00010000
01000000
00000000
,
00100000
00100000
10000000
00010000
10000000
10000000
01000000
00100000
,
00001000
00010000
00000010
00010000
00002000
00003000
00020000
00030000
,
00011000
00000000
00010000
00001000
00000100
00000010
00001000
00000000
,
00000010
00001000
00000001
00000100
00000010
00001000
00000001
00000000
,
00000010
00000100
00010000
00001000
00010000
01000000
00100000
00000000
,
00010000
10000000
00100000
01000000
00100000
10000000
00010000
00000000
,
10000000
01000000
00100000
00010000
00100000
01000000
10000000
00000000
,
00010000
01000000
00001000
00010000
00000100
00001000
00000010
00000000
,
00001000
00000020
00002030
00003020
00000031
00000020
00000032
00000023
,
00001030
00000002
00000203
00002300
00013000
00100000
01000000
00000000
,
10010000
00000000
10000000
01000000
10000000
00100000
00000000
01100000
,
00000000
01000000
00001000
00010000
00001000
00000000
00011000
00000000
,
00010100
00000000
00010000
00001000
00000010
00000001
00000000
00001001
,
00000000
00001000
00000001
00000100
00000010
00000000
00001010
00000000
,
00000001
00000000
00000000
00000010
00000000
00000000
00001000
00000000
00010000
00000000
00000000
01000000
00000000
00000000
10000000
00000000
,
00010000
00000000
00000000
00100000
00000000
00000000
01000000
00000000
11000000
00000000
00000000
00000000
01010000
00000000
00000000
00000000
,
10000000
00000000
00000000
00100000
00000000
00000000
01000000
00000000
00100000
00000000
00000000
00010000
00000000
00000000
00001000
00000000
,
00000100
00000000
00000000
00000010
00000000
00000000
00001000
00000000
00001010
00000000
00000000
00000000
00000011
00000000
00000000
00000000
,
00001001
00000000
00000000
00000000
;

//--------------- dance-double - Fred-104 ----------------
#NOTEDATA:;
#STEPSTYPE:dance-double;
#DESCRIPTION:Fred-104;
#DIFFICULTY:Hard;
#METER:17;
#CREDIT:Fred-104;
#NOTES:
00000000
00000000
00000000
00000000
,
00000000
00000000
00000000
00000000
,
00000000
00000000
00000000
00000000
,
00000000
00000000
00000000
00000000
,
00000000
00000000
00000000
00000000
,
00010000
00000000
10000000
00010000
01000000
00000000
00100000
00000000
,
10000000
00000000
01000000
00100000
00001000
00000000
00010000
00000000
,
00000100
00000000
00000010
00000001
00001000
00000000
00000010
00000000
,
00001000
00000001
00000100
00001000
00010000
00100000
10000000
00000000
,
10020000
00000000
10030000
01000000
00010000
00001000
00000010
00000100
,
00001000
00000000
00000100
00000000
00000010
00000000
00000001
00000000
00001000
00000000
00000001
00000100
00000001
00000000
00001000
00000000
,
00000200
00000000
00000310
00000001
00000100
00001000
00010000
00100000
,
01000000
00000000
00010000
00000000
01000000
00000000
00100000
00000000
10000000
00000000
00010000
10000000
00010000
00000000
00100000
00000000
,
02000000
00000000
13000000
00100000
00010000
00001000
00000100
00000010
,
00001000
00000000
00000100
00000000
00000010
00000000
00000001
00000000
00000010
00000000
00001000
00010000
00001000
00000000
01000000
00000000
,
00100000
00000000
10000000
00000000
00010000
00000000
01000000
00000000
00100000
10000000
00100000
10000000
00010000
10000000
00010000
10000000
,
02000000
03000000
02000000
03000000
00100000
00001000
00011000
00000000
,
00010000
00002000
00003010
00000200
00010300
00002000
00003010
00000002
,
00001003
00000002
00000103
00002000
00023000
00230000
02300000
03020000
,
01030000
00002000
00013000
00002000
00003010
00000200
00001300
00000002
,
00001003
00000100
00001000
00000100
00000010
00000000
00000001
00000000
00001000
00000000
00000000
00000010
00020000
00000000
00032000
00000000
,
00013000
00000000
00000200
00000000
00001300
00000000
00000200
00000300
00000120
00000000
00000032
00000000
00001003
00000000
00000002
00000000
,
00001003
00000000
00000000
00000000
00000000
00000000
00000000
00000000
00000002
00000000
00000000
00000000
00000000
00000000
00000000
00000000
00000023
00000030
00000000
00000000
00000000
00000000
00000000
00000000
00000020
00000030
00000000
00000000
00000000
00000000
00000000
00000000
00001000
00000000
00000000
00000000
00000100
00000000
00000000
00000000
00001000
00000000
00000000
00000000
00000100
00000000
00000000
00000000
00010000
00000000
00000000
00000000
00001000
00000000
00000000
00000000
00010000
00000000
00000000
00000000
00001000
00000000
00000000
00000000
,
00010000
00000000
00002000
00000000
01003000
00010000
01000000
00010000
00100000
00000000
00001000
00010000
00001000
00000000
02000000
00000000
,
03010000
00100000
10000000
00100000
00010000
00000000
00011000
00000000
,
00012000
00000000
00013000
00000000
00020100
00000000
00030100
00000000
00001000
00000000
00000001
00001000
00000010
00000000
00000100
00000000
,
00000201
00000000
00000301
00000000
00000100
00000000
00000020
00000000
00002030
00000000
00003020
00000000
00020030
00000000
00032000
00003000
,
00021000
00000000
00031000
00000000
00102000
00000000
00103000
00000000
00010000
00000000
10000000
00010000
01000000
00000000
00100000
00000000
,
20000000
00000000
01000000
00000000
30200000
00000000
01000000
00000000
10300000
00000000
00000000
01000000
00010000
00000000
00001000
00000000
,
00010000
00000000
00000100
00000000
00000110
00000000
00000000
00000000
00000010
00000000
00000001
00001000
00000010
00000000
00000100
00000000
,
00000102
00000000
00000000
00000000
00001003
00000000
00000001
00000000
00000010
00000100
00000010
00000000
00000001
00000100
00000001
00000100
,
00000020
00000000
00001030
00000000
00000200
00000000
00000310
00000000
00000001
00000100
00000001
00000100
00000010
00001000
00000010
00001000
,
00000001
00000010
00000100
00000000
00010000
00001000
00010000
00000000
00001000
00100000
00010000
10000000
00010000
01000000
00100000
00000000
,
10000000
00000000
00000000
01000000
00000000
00000000
00010000
00000000
00001000
00000000
00000000
00000010
00000000
00000000
00000100
00000000
,
00001000
00000000
00000000
00000100
00000000
00000000
00000010
00000000
00000011
00000000
00000000
00000000
00001100
00000000
00000000
00000000
,
00000001
00000000
00000000
00000100
00000000
00000000
00001000
00000000
00010000
00000000
00000000
00100000
00000000
00000000
01000000
00000000
,
00010000
00000000
00000000
01000000
00000000
00000000
00100000
00000000
10100000
00000000
00000000
00000000
01010000
00000000
00000000
00000000
,
11000000
00000000
00000000
00100000
00000000
00000000
00001000
00000000
00011000
00000000
00000000
00000010
00000000
00000000
00001000
00000000
,
00001001
00000000
00000000
00000010
00000000
00000000
00000100
00000000
00000110
00000000
00000000
00000000
00011000
00000000
00000000
00000000
,
00100000
00000000
01000000
00000000
10000000
00000000
00010000
00000000
01000000
00010000
00100000
00001000
00010000
00000010
00001000
00000010
,
00000200
00000302
00002003
00003200
00000302
00000203
00000320
00000230
,
00001300
00000001
00000100
00002000
00013000
00200000
01300000
00002000
,
00013000
00000000
00000200
00000000
00001300
00000000
00000020
00000030
00010010
00000000
00000000
00001000
00010000
00000000
00001000
00000000
,
00100000
00010000
10000000
02000000
03010000
00002000
00013000
00000200
,
00000310
00000000
00000002
00000000
00000103
00000000
00002000
00003000
00011000
00000000
00000000
01000000
00100000
00000000
10000000
00000000
,
11000000
10000000
10010000
00020000
10030000
00200000
00310000
00002000
,
00003100
00000000
00000020
00000000
00001030
00000000
00000002
00000003
00000011
00000000
00000000
00000100
00001000
00000000
00000001
00000000
,
00000100
00000010
00000100
00001000
00010000
00100000
01000000
00010000
,
10000000
00100000
01000000
00000000
00100000
10000000
01000000
00000000
00100000
00010000
00100000
00010000
01000000
00000000
00001000
00000000
,
00010000
00000000
00010000
00000000
00021000
00000000
00030010
00000000
00010000
00000000
00001000
00010000
00000100
00000000
00001000
00000000
,
00000001
00000000
00000100
00000001
00000010
00000000
00000001
00000000
00000100
00000000
00000010
00000000
00000110
00000000
00000000
00000000
,
00001000
00000000
00000001
00000010
00000100
00000000
00000010
00000000
00000001
00000000
00000100
00001000
00010000
00000000
00001000
00000000
,
01000000
00000000
00100000
10000000
00010000
00000000
10000000
00000000
11000000
00000000
01000000
00100000
00010000
10000000
00000000
10000000
,
00010000
10000000
12000000
03100000
00010000
01000000
00001000
00010000
,
00001000
00000000
00000010
00000001
00001000
00000000
00000100
00000000
00001100
00000000
00010100
00000000
00011000
00000000
00000000
00000000
,
00010000
00000000
00010000
00000000
00001000
00000000
00001000
00000000
00100000
00001000
00010000
00000000
00000010
00001000
00000001
00000000
,
00001000
00000001
00000010
00000001
00001000
00000100
00010000
00000000
00001000
01000000
00010000
00000000
10000000
01000000
00100000
00000000
,
10020000
00000000
00000000
00000000
,
00000000
00000000
00000000
00000000
,
02030000
00000000
00000000
00000000
,
00000000
00000000
00000000
00000000
,
03002000
00000000
00000000
00000000
,
00000000
00000000
00000000
00000000
,
00023000
00000000
00000000
00000000
,
00000000
00000000
00000000
00030000
,
00012000
00000000
00000000
00000000
00013000
00000000
00001000
00000000
00000010
00000000
00000100
00000000
00001000
00000000
00000001
00000010
,
00000100
00001000
00000001
00000100
00001000
00010000
00100000
01000000
,
01020000
00000000
00000000
00000000
01030000
00000000
00100000
00000000
00010000
00000000
00001000
00000000
00010000
00000000
00000100
00000010
,
00000001
00000000
00000100
00000000
00001000
00000000
00010000
00000000
00100000
00000000
01000000
00010000
10000000
00000000
00010000
00000000
,
10000000
01000000
00010000
01000000
10000000
01000000
00010000
00001000
,
00010000
00000010
00000100
00000001
00001000
00000010
00000001
00000010
,
00001000
00000100
00001000
00000100
00010000
00001000
00010000
00001000
00100000
00010000
00100000
00010000
10000000
00100000
01000000
00010000
,
20000000
31000000
00020000
01030000
10000000
00010000
10010000
00000000
,
00010000
00000000
00100000
00000000
10000000
00000000
00100000
00000000
01000000
00000000
10000000
00000000
00010000
00000000
10000000
00100000
,
00010000
00000000
00001000
00000000
00000100
00000000
00000001
00000000
00001000
00000000
00000010
00010000
00001000
00000000
00010000
00000000
,
00000100
00000000
00010000
00000000
00001000
00000000
00010000
00000000
01000000
00000000
00100000
00000000
00010000
00000000
00100000
01000000
,
10000000
00000000
00010000
00000000
01000000
00000000
00100000
00000000
00010000
00000000
00001000
00000100
00000010
00000000
00001000
00000000
,
00000001
00000000
00000001
00000000
00001001
00000000
00001000
00000000
00000001
00000000
00000100
00000000
00000010
00000000
00000100
00001000
,
00010000
00000000
00100000
00000000
01000000
00000000
00010000
00000000
10000000
00000000
00010000
10000000
01000000
00000000
10000000
00000000
,
10010000
00010000
01000000
00100000
10100000
10000000
01000000
00100000
,
00001000
00000000
00010000
00000010
00001000
00000000
00000001
00000000
00001000
00000100
00000020
00000000
00000031
00000010
00000200
00000000
,
00001300
00000000
00000010
00000000
00000100
00000000
00001000
00000000
00010000
00000000
00100000
00000000
01000000
00000000
00010000
10000000
,
01000000
00000000
10000000
00000000
00010000
00000000
01000000
00000000
00100000
00000000
10000000
01000000
00010000
00000000
00001000
00000000
,
00020000
00030000
00000000
00000000
00020000
00030000
00000000
00000000
00021000
00000000
00000000
00000000
00030010
00000000
00000000
00000000
00000100
00000000
00000000
00000000
00000001
00000000
00000000
00000000
00001000
00000000
00000000
00000000
00000001
00000000
00000010
00000000
,
00000100
00000000
00000001
00000100
00000010
00000000
00000001
00000000
00001000
00000000
00000001
00000010
00000100
00000000
00010000
00000000
,
00001000
00000000
00010000
00000000
01000000
00000000
00100000
00000000
00010000
00000000
00100000
00000000
01000000
00000000
10000000
00010000
,
01000000
00000000
00100000
00000000
10000000
00000000
00100000
00000000
01000000
00010000
10000000
00010000
00100000
00000000
00001000
00000000
,
00010000
00000000
00000000
00000000
00000000
00000000
00000000
00000000
00002000
00003000
00000000
00000000
00000000
00000000
00000000
00000000
00002000
00003000
00000000
00000000
00000000
00000000
00000000
00000000
00000010
00000000
00000000
00000000
00000000
00000000
00000000
00000000
00010000
00000000
00000000
00000000
00000000
00000000
00000000
00000000
00002000
00003000
00000000
00000000
00000000
00000000
00000000
00000000
00002000
00003000
00000000
00000000
00000000
00000000
00000000
00000000
00000100
00000000
00000000
00000000
00000000
00000000
00000000
00000000
,
00010000
00000000
00001000
00010000
00000010
00010000
00001000
00000000
00010000
00000000
00001000
00000000
00011000
00000000
00000000
00000000
,
00011000
00000000
00000000
00010000
00000000
00000000
00000010
00000000
00001010
00000000
00000000
00001000
00000000
00000000
00000001
00000000
,
00000101
00000000
00000000
00001000
00000000
00000000
00000100
00000000
00010100
00000000
00000000
00000000
01001000
00000000
00000000
00000000
,
00101000
00000000
00000000
00100000
00000000
00000000
00010000
00000000
10010000
00000000
00000000
10000000
00000000
00000000
00100000
00000000
,
01100000
00000000
00000000
00001000
00000000
00000000
00010000
00000000
00011000
00000000
00000000
00000000
00000110
00000000
00000000
00000000
,
00001010
00000000
00001000
00000100
00000000
00000010
00000001
00000000
00001000
00000000
00000001
00000010
00000000
00000100
00000010
00000000
,
00001000
00000000
00010000
01000000
00000000
00100000
00010000
00000000
01010000
00000000
00000000
00000000
01100000
00000000
00000000
00000000
,
10010000
00000000
10000000
00100000
00000000
00010000
00001000
00000000
00000100
00000000
00000010
00001000
00000000
00000001
00000010
00000000
,
00001000
00000000
00010000
01000000
00000000
00100000
00010000
00000000
01010000
00000000
00000000
00000000
01001000
00000000
00000000
00000000
,
00011000
00000000
00000000
00000000
;
