#VERSION:0.83;
#TITLE:水簾ノ調;
#ARTIST:Capchii × Crawk;
#TITLETRANSLIT:Suiren no shirabe;
#BANNER:Suiren no shirabe.png;
#BACKGROUND:Suiren no shirabe-bg.png;
#CDTITLE:./CDTitles/SDVX IV HEAVENLY HAVEN.png;
#MUSIC:Suiren no shirabe.ogg;
#SAMPLESTART:93.475;
#SAMPLELENGTH:15;
#BPMS:0=190,166=95,167=190,199=95,211=47.5,212=95,214=190,274=95,276=190;
#TIMESIGNATURES:0=4=4,164=3=4,167=4=4,211=3=4,214=4=4,274=2=4,276=4=4;
#BGSTAGE:28;

//--------------- dance-single - Fred-104 ----------------
#NOTEDATA:;
#STEPSTYPE:dance-single;
#DESCRIPTION:Fred-104;
#DIFFICULTY:Beginner;
#METER:5;
#CREDIT:Fred-104;
#NOTES:
0000
0000
0000
0000
,
0000
0000
0000
0000
,
0000
0000
0000
0000
,
0000
0000
0000
0000
,
0000
0000
0000
0000
,
0000
0000
0000
0000
,
0001
0000
0000
0000
,
0000
0000
0000
0000
,
1000
0000
0001
0000
,
0010
0000
0001
0000
,
1001
0000
0001
0000
,
1000
1000
1000
0000
,
1001
0000
0110
0000
,
1001
0000
0110
0000
,
2000
0000
0000
0000
,
3002
0000
0000
0003
,
2000
0000
0000
3000
,
0002
0000
0000
0003
,
1000
0000
1000
0000
,
0001
0000
0010
0000
,
0100
0000
0100
0000
,
1000
0000
0001
0000
,
1000
0000
1001
0000
,
0001
0000
0010
0000
,
0100
0000
0100
0000
,
1000
0000
0001
0000
,
2000
0000
3000
0000
,
0001
0000
1000
0000
,
0001
0000
0100
0000
,
0010
0000
0100
0000
,
0001
0000
1000
0000
,
0001
0001
0001
0001
,
0002
0003
2000
3000
,
0001
0000
2002
3003
,
1000
0000
0000
1000
,
0001
0000
0001
0000
,
0100
0000
0100
0000
,
0010
0010
0010
0000
,
0100
0000
0000
0100
,
0001
0000
1000
0000
,
0001
0000
1000
0000
,
0001
0001
0001
1000
,
0000
0000
0001
0100
,
0000
0010
0000
0100
,
0000
0010
0000
0100
,
0100
0100
0000
0001
,
0000
1000
0000
0100
,
0000
0010
0000
0100
,
0100
0100
0000
1000
,
0001
1000
0000
2002
,
0000
0000
3003
0002
,
2003
3002
2003
3002
,
0003
2000
3000
1001
,
0000
0000
0001
0000
,
1000
0000
0010
0010
,
0010
0000
0100
0000
,
0010
0000
0100
0100
,
0100
0000
0001
0000
,
1000
0000
0001
0001
,
0001
0000
0010
0000
,
0100
0000
1000
0000
,
0001
0000
0100
0100
,
0100
0000
0010
0000
,
0100
0000
0010
0000
,
1000
0000
0001
0001
,
0001
0000
1000
0000
,
0100
0000
0010
0000
,
0001
0000
1000
1000
,
1000
0000
1001
0000
,
0001
0000
1000
0000
,
0001
0000
0100
0000
,
0010
0000
0100
0000
,
0001
0000
0100
0000
,
0001
0000
1000
0000
,
0001
0001
0001
0000
,
1000
0000
0100
0000
,
0010
0010
0010
0000
,
0100
0000
0010
0000
,
0002
0003
2000
3000
,
0001
0000
1000
0000
,
0100
0100
0100
0000
,
1000
0000
0001
0000
,
0100
0100
0100
0000
,
0010
0010
0010
0000
,
1000
1000
1000
1000
,
2002
0000
0000
0000
,
0000
0000
0000
0000
,
0000
0000
0000
0000
,
0000
0000
0000
0000
0000
0000
0000
3003
;

//--------------- dance-single - Fred-104 ----------------
#NOTEDATA:;
#STEPSTYPE:dance-single;
#DESCRIPTION:Fred-104;
#DIFFICULTY:Easy;
#METER:9;
#CREDIT:Fred-104;
#NOTES:
0000
0000
0000
0000
,
0000
0000
0000
0000
,
0000
0000
0000
0000
,
0000
0000
0000
0000
,
0000
0000
0000
0000
,
0000
0000
0000
0000
,
1000
0000
0001
0000
,
0010
0100
0100
0100
,
0100
0000
1000
0000
,
0001
0001
1000
0001
,
1001
0000
0110
0000
,
0001
1000
1001
0000
,
1100
0000
0101
0000
,
1010
0000
0011
0000
,
1000
0100
0001
0010
,
1000
0100
0001
0010
,
1000
0100
0010
0001
,
2002
0000
0000
3003
,
0001
0000
0000
0001
0000
0000
0001
0000
0001
0000
0000
0000
0000
0000
0000
0000
,
2000
3020
0032
0203
,
1300
0001
0100
0010
,
1000
0001
1001
0000
,
0001
0000
0010
0000
0100
0100
0000
0000
,
1000
0001
0100
0000
,
0001
0000
0000
0100
0000
0000
0100
0000
,
0010
0100
0001
1000
,
0100
0000
0000
0100
0000
0000
0100
0000
0100
0000
0000
0000
0000
0000
0000
0000
,
2000
3200
0302
0023
,
1030
0100
0010
0001
,
1000
0010
0110
0000
,
0001
0100
1000
0100
,
0001
1000
0001
0020
,
0130
0000
1000
0000
,
0001
1000
2002
3003
,
1000
0000
0000
0100
0000
0000
0010
0000
,
0001
0000
0001
0000
0100
0100
0010
0000
,
0100
0000
0000
0100
0000
0000
0100
0000
0010
0000
0000
0010
0000
0000
0010
0000
,
0100
0001
2002
3003
,
0001
0000
0000
0010
0000
0000
1000
0000
,
0001
0100
1000
1000
,
0001
0000
0000
0001
0000
0000
0001
0000
0100
0000
0000
0000
0010
0000
0000
0000
,
0100
0000
0001
0000
0100
0000
0000
0000
2002
0000
0000
3003
0001
0000
0000
0000
,
0000
0100
0000
0000
1000
0000
0001
0000
,
0010
0000
0000
0000
1000
0000
0000
0000
0001
0000
0000
0000
0010
0000
0000
0010
,
0000
0000
0010
0000
0100
0000
0000
0100
0000
0000
0100
0000
1000
0000
0000
0000
,
0001
0100
0100
0010
,
0100
0100
0001
1000
,
0100
0000
0000
0000
1000
0000
0001
0000
1000
0000
0000
0000
0001
0000
0000
0001
,
0000
0001
1000
0001
1000
0000
0100
0000
,
0010
0001
1000
1002
,
0000
2003
3200
0320
,
0032
2003
3002
0203
,
0000
0020
0330
2002
,
3003
0000
0000
0000
0001
0000
0000
0001
,
0000
0010
0100
1000
,
0001
0100
0010
0010
,
0100
0010
0100
0000
0001
0000
0001
0000
,
1000
0000
0001
0000
0010
0100
0010
0000
,
0001
0000
0000
0001
0000
0000
0001
0000
1000
0000
0000
0000
0010
0000
0000
0000
,
0100
0100
0010
1000
,
0001
0010
0100
1000
,
0001
0100
0100
0110
,
1001
0000
1000
0100
,
0001
0100
1000
1000
,
0001
0100
0010
0100
,
0010
1000
0010
0000
0100
0000
0001
0000
,
1000
0100
0001
0100
,
1000
0001
0100
0010
,
1000
0001
1000
0000
2002
0000
0000
3003
,
1000
1000
0100
0010
,
0100
0000
0100
0000
1000
0001
1000
0000
,
0001
0100
0010
1000
,
0100
0000
0010
0000
0001
0010
0001
0000
,
0100
0010
0100
0001
,
1000
0000
0000
1000
0000
0000
1000
0000
0100
0000
0000
0000
0110
0000
0000
0000
,
0001
1000
0001
0100
,
0010
0000
0000
0010
0000
0000
0010
0000
0010
0000
0000
0000
1001
0000
0000
0000
,
0001
1000
0010
0100
,
0002
0203
2300
3020
,
0031
0000
1000
0000
0001
0100
0001
0000
,
0100
0000
0000
0100
0000
0000
0100
0000
0100
0000
0000
0001
0000
0000
0001
0000
,
1000
0000
0100
0000
0010
0001
0010
0000
,
0001
0000
0100
0000
0010
1000
0010
0000
,
0100
0000
0001
0000
1000
0100
1000
0000
,
0001
0100
0001
0000
1000
0001
1000
0000
,
0002
0000
0023
0000
,
1030
0010
0001
1000
,
0002
0000
0203
0000
,
1300
0000
0100
0000
0001
1000
0001
1000
;

//--------------- dance-single - Fred-104 ----------------
#NOTEDATA:;
#STEPSTYPE:dance-single;
#DESCRIPTION:Fred-104;
#DIFFICULTY:Medium;
#METER:12;
#CREDIT:Fred-104;
#NOTES:
0000
0000
0000
0000
,
0000
0000
0000
0000
,
0000
0000
0000
0000
,
0000
0000
0000
0000
,
0000
0000
0000
0000
,
0000
0000
0000
0000
,
0110
0000
0000
0001
,
1000
0100
0010
0011
,
1000
0001
0100
0010
,
1000
0000
0100
0000
0010
0000
0001
1000
,
1001
0000
0110
0000
,
1010
0101
1100
0000
,
0011
1000
1010
0001
,
1100
0001
0101
1000
,
0001
0000
0000
0010
0000
0000
0100
0000
0100
1000
0000
1000
,
0001
0000
0000
0100
0000
0000
0010
0000
0010
1000
0000
1000
,
0001
0010
0100
1000
0001
0100
0010
0000
,
2002
0000
0000
3003
,
1000
0000
0000
1000
0000
0000
1000
0000
1000
0000
0000
0000
0001
0000
1000
0000
,
0200
0001
0010
2300
,
3001
0010
0100
0000
1000
0001
0100
0000
,
0010
0000
1000
0001
0010
0000
0110
0000
,
1000
0000
0001
0100
0010
0020
0000
0030
,
1000
0001
0100
0000
0001
1000
0100
0000
,
0010
0000
0100
1000
0002
2003
3002
0000
,
1003
0100
1000
0001
0100
0010
0200
0000
,
0301
0000
0000
0001
0000
0000
0001
0000
1000
0000
0000
0000
0001
0000
1000
0000
,
0200
0001
1000
0310
,
0001
1000
0010
0000
1000
0001
0010
0000
,
0100
1000
0001
1000
0100
1000
0001
0000
,
1000
0100
1000
0100
0001
0100
0001
0100
,
1000
0100
0010
0000
0001
1000
0020
0000
,
0130
0000
0001
0000
1000
0001
1000
0000
,
0001
0010
0100
1001
,
0001
0010
0000
0010
0100
0000
0100
1000
,
0000
1000
0001
0000
0100
0010
0200
0000
,
0301
0000
0000
1000
0000
0000
0010
0000
1000
0000
0000
0100
0000
0000
0010
0000
,
0001
0100
0001
0100
0001
1000
0001
0000
,
1000
0100
0010
0000
0001
1000
0010
0000
,
0100
0001
0100
0000
0010
0000
1001
0000
,
0001
0000
0000
0010
0000
0000
0100
0000
1000
0000
0010
0000
0100
0000
0010
0000
,
1000
0100
0010
0010
0002
0000
1003
0100
,
0000
0001
0100
0000
1000
0100
0010
0001
,
0010
0000
0000
0000
0001
0000
1000
0000
0010
0000
0000
0000
0100
0000
0000
0100
,
0000
0000
0001
0000
0010
0000
0000
0010
0000
0000
0100
0000
1000
0000
0010
0000
,
0100
0010
1000
0000
1001
0000
0001
0010
,
0100
0000
1000
0001
0200
0000
0310
1000
,
0100
0000
0010
0000
0001
0000
0010
0000
0001
0000
0000
0000
1000
0000
0000
0100
,
0000
0001
1000
0010
0001
0000
1000
0100
,
0010
0001
1000
0001
0100
0000
1002
0000
,
0000
0000
1003
0100
1000
0100
0020
0000
,
0032
0000
0000
0000
2003
0000
0000
0000
3020
0000
0000
0000
0130
0000
0000
0001
,
0000
1000
0200
0000
0320
0030
2002
0000
,
3003
0000
0000
0000
0001
0100
0001
0100
,
0000
0010
1000
0010
0100
0001
1000
0000
,
0100
0010
0001
0000
1000
0010
1000
0000
,
0100
0010
0100
0000
1000
0010
0100
0010
,
1000
0001
0010
0000
0100
0000
1000
0001
,
1000
0000
0000
1000
0000
0000
1000
0000
0001
0000
0100
0000
0001
0000
0000
0000
,
0100
0010
0100
0000
0001
0010
0100
0000
,
1000
0010
0100
0100
,
0001
1001
0110
1001
,
0001
0000
0000
0010
0000
0000
0010
0000
0100
0000
0000
0000
1000
0000
0000
0000
,
0001
0100
0010
0000
0100
0010
1000
0000
,
0001
0000
0010
0000
0100
0010
0001
0000
,
0010
0001
1000
0000
0001
1000
0001
0000
,
0100
0000
0100
0000
0010
0100
0010
0000
,
1000
0001
1000
0000
0001
0010
1000
0000
,
0001
0100
1000
0000
2002
0000
0000
3003
,
0001
0010
0001
1000
0001
0100
0001
0000
,
0100
0010
0100
0000
0010
1000
0001
0000
,
0010
0100
1000
0000
0010
1000
0001
0000
,
0100
0001
1000
0001
0100
0001
0010
0000
,
0100
1000
0001
0000
0100
0001
1000
0000
,
0100
0000
0000
0100
0000
0000
0100
0000
0010
0000
0001
0000
0010
0000
0000
0000
,
0001
1000
0001
0000
0010
0100
1000
0000
,
0001
0000
0000
0101
0000
0000
1000
0000
0001
0000
0010
0000
0200
0000
0000
0000
,
1300
0010
1000
0000
0001
1000
0100
0000
,
0020
0230
2300
3002
,
0103
0001
1000
0001
0010
0001
0100
0000
,
0010
0000
0000
0010
0000
0000
0010
0000
0100
0000
0010
0000
0110
0000
0000
0000
,
0001
1000
0100
1000
0001
1000
0010
0000
,
0100
0010
1000
0010
0100
0010
1000
0000
,
0001
0010
0001
0010
0100
1000
0001
1000
,
0010
0100
0010
1000
0001
0010
0100
0000
,
2000
0000
3020
0000
,
0031
0100
1000
0001
,
0020
0000
2030
0000
,
3100
0000
0001
0000
1000
0100
0010
0001
;

//--------------- dance-single - Fred-104 ----------------
#NOTEDATA:;
#STEPSTYPE:dance-single;
#DESCRIPTION:Fred-104;
#DIFFICULTY:Hard;
#METER:16;
#CREDIT:Fred-104;
#NOTES:
0000
0000
0000
0000
,
0000
0000
0000
0000
,
0000
0000
0000
0000
,
0000
0000
0000
0000
,
0000
0000
0000
0000
,
0000
0000
0000
0000
,
1001
0000
0000
0000
0000
0000
0001
1000
,
0010
0100
0010
1000
0001
1000
1001
0000
,
0001
0100
0001
0100
0010
1000
0010
1000
,
0001
0000
0010
0000
0100
0000
1000
0000
0100
0000
0010
0000
0001
1000
0001
1000
,
0001
0100
0110
1000
,
1100
0101
1001
0000
,
2100
0000
3010
0000
0102
0000
0013
1000
,
2100
3001
0102
1003
,
0001
0010
0100
1000
0100
0010
0001
0100
0010
1000
0010
0100
,
0001
1000
0100
0010
0001
1000
0010
0100
0010
1000
0001
0010
,
0100
1000
0100
0000
1000
0000
0001
0100
0001
0000
1000
0000
0010
0100
0010
0000
,
2000
0000
0000
0000
0000
0000
0000
0000
0000
0000
0000
3000
1001
0000
0000
0000
,
1100
0000
0000
0001
0000
0000
0100
0000
0110
0000
0000
0000
0001
1000
0001
1000
,
0001
0020
1000
0000
0001
0000
0230
0000
,
1300
0000
0100
0000
0010
0000
0001
1000
0001
0000
0100
0000
0010
1000
0010
0000
,
0100
0000
0001
0000
0100
0000
0100
0010
1000
0000
0001
1000
0001
0000
0010
0000
,
0110
0000
0000
0000
1000
0000
0001
1000
0100
0000
0220
0000
0000
0000
0330
0000
,
0010
0000
0001
0000
1000
0000
0001
0100
0001
1000
0001
0100
0001
0000
0010
0100
,
0010
0001
1000
0010
0200
0302
0203
0000
,
0301
1000
0010
1000
0001
0010
0100
0000
1000
0100
1000
0000
0002
0000
0000
0003
,
1001
0000
0000
0001
0000
0000
1000
0000
1010
0000
0000
0000
0001
1000
0010
1000
,
0001
0200
1000
0000
0001
0000
0320
0000
,
1030
0000
0100
0000
0010
0000
0001
1000
0001
0000
0100
0010
1000
0010
0100
0000
,
0001
0000
1000
0000
0100
0000
0100
0010
0001
0000
0010
0001
1000
0000
0010
0000
,
0100
0001
0100
0000
0100
1000
0100
0000
0100
0010
0100
0000
0100
0001
0100
0000
,
0001
1000
0010
0000
0100
0000
0001
0000
1000
0000
0100
0010
0002
0000
0000
0000
,
1003
0000
0100
0000
0001
0000
0100
0000
1000
0100
1000
0100
0010
0000
0000
0000
,
0001
0000
1000
0001
0100
0000
0001
1000
0100
0000
0000
0000
0011
0000
0000
0000
,
0001
0100
1000
0001
0010
1000
0001
0010
,
0100
0001
1000
0010
0100
1000
0002
0000
,
1003
0000
1000
0100
0010
0000
0010
0000
0001
0000
0001
0100
0010
0000
0010
0000
,
1000
0001
0010
0100
2000
3001
1001
0000
,
0001
0000
0100
0010
0100
0000
0001
0000
1000
0100
1000
0000
0001
0000
0100
0010
,
0100
0000
0001
0000
1000
0001
1000
0000
1100
0000
0000
0000
0101
0000
0000
0000
,
1000
0000
1000
0010
0100
0000
0100
0000
0001
0010
0001
0010
0200
0000
2300
0000
,
3001
0000
0100
0000
0010
1000
0001
0000
2000
3200
0320
0032
1003
0000
0100
0000
,
0010
1000
0001
0100
0010
0001
1000
0010
,
0001
0000
1000
0000
0100
0000
0010
0000
1000
0000
0000
0000
0001
0000
0000
0001
,
0010
0000
0100
1000
0001
0000
0000
0001
0100
0000
0010
1000
0001
0000
1000
0000
,
0100
0000
0010
0001
0010
0000
0001
0000
0011
0000
0000
0000
0001
0000
0100
0000
,
0010
0000
1000
0001
0010
0000
0100
0000
2000
0000
0000
0000
3001
0000
0100
0000
,
0010
0000
1000
0000
0001
0000
0010
0000
0011
0000
0000
0000
1000
0000
1000
0001
,
0100
0000
0010
0000
1000
0000
1000
0001
0010
0100
0010
0100
0010
0000
0001
0000
,
1000
0001
0100
0010
0110
0000
2001
0000
,
0000
0000
3002
0203
2300
3020
0032
0000
,
2003
0000
0000
0000
3200
0000
0000
0000
0320
0000
0000
0000
0032
0000
0000
2003
,
0000
0000
3002
0000
0203
0000
0000
0000
0020
0000
0330
0000
2002
0000
0000
3003
,
0220
0000
0000
0330
1000
0010
0100
1000
,
0001
0010
0100
0001
0010
0100
1000
0010
,
0100
0001
1000
0001
0010
0000
0100
0000
1000
0001
1000
0001
1000
0000
1000
0000
,
0001
0000
0100
0010
0100
0000
0001
0000
1000
0000
0100
0010
0001
0000
1000
0100
,
0010
0000
0001
0000
1000
0001
0000
0100
0001
0000
1000
0000
0100
0010
0100
0010
,
0100
0000
1000
0001
0000
0100
0001
0000
0010
0000
0100
1000
0100
0000
0010
0001
,
0010
0000
0100
0000
1000
0000
0001
0000
0100
0010
0100
0010
1000
0000
0010
0000
,
1000
0000
0001
0010
0100
0000
1000
0000
0001
0000
0100
0010
0000
0010
1000
0000
,
0001
0000
0010
0000
0110
0000
0000
0000
1100
0000
0000
0000
1001
0000
1000
0001
,
0010
0000
0100
0010
0000
0001
1000
0000
0001
0000
0100
0000
0010
0000
1000
0000
,
0001
1000
0001
1000
0100
0000
0010
0000
0001
0010
0001
0010
0100
0000
1000
0000
,
0010
0000
0100
0010
0100
0000
0001
1000
0001
0000
1000
0000
0100
0000
0010
0100
,
1000
0000
0001
0000
0100
0001
0000
1000
0001
0000
0010
0000
0100
0000
0010
0001
,
0010
0000
0000
0001
1000
0000
1000
0000
0001
0000
0100
0010
1000
0000
0010
0100
,
0001
0000
1000
0001
1000
0000
0001
0000
1000
0100
1000
0000
0001
0100
0001
0000
,
1000
0100
0010
0001
1000
0000
0001
0000
2002
0000
0000
0000
0000
0000
3003
0000
,
1000
0000
0010
0100
0000
0010
1000
0000
0001
0000
0010
0000
0100
0010
0001
0000
,
1000
0000
0001
0000
0100
0010
1000
0010
1000
0000
0001
0000
0010
0000
0100
1000
,
0001
1000
0010
0000
0100
0000
0001
1000
0100
0000
0010
0000
0001
1000
0001
0000
,
0100
0010
0100
0000
0001
0000
1000
0100
1000
0100
0010
0100
0010
0000
0001
0000
,
1000
0000
0001
0000
0100
0010
1000
0000
0001
0010
0100
0000
1000
0000
0001
0100
,
0020
0000
1000
0001
0030
0001
1000
0000
0001
0000
0010
0000
0100
0000
1000
0000
,
0001
0100
0001
1000
0010
0000
0000
0100
0001
0000
1000
0000
0100
0000
1000
0100
,
0010
0000
0000
0011
0000
0000
1001
0000
0001
0000
2000
0000
3100
0000
1000
0000
,
0001
0000
1000
0001
0010
0000
0100
1000
0001
0000
0100
0000
0010
1000
0001
0000
,
0010
0100
0010
0000
0100
1000
0100
0000
1000
0001
1000
0000
0001
0100
0001
0000
,
1000
0100
0001
1000
0010
0100
0010
0001
,
1000
0000
0100
1000
0001
0100
0001
0000
1000
0000
0100
0010
0001
0000
1000
0000
,
0001
0000
1000
0010
1000
0010
0100
0000
0010
0000
1000
0001
0010
0000
0100
0000
,
1000
0000
0001
0100
0010
0100
0001
0000
1000
0100
0010
0000
0001
0010
0100
0000
,
1000
0001
0100
0000
0001
1000
0100
0000
0010
0001
0010
0001
0010
0000
0100
0000
,
1000
0000
0001
0000
0100
0000
0010
1000
0000
1000
0001
0000
1001
0000
0000
0000
,
1000
0100
0001
0000
1000
0010
0001
0000
,
1000
0100
0010
0001
0010
0100
1000
1000
,
0000
0001
0100
1000
0000
0001
0010
1000
,
0001
0100
0010
1000
0010
0100
0001
0001
;

//--------------- dance-single - Fred-104† ----------------
#NOTEDATA:;
#STEPSTYPE:dance-single;
#DESCRIPTION:Fred-104†;
#DIFFICULTY:Challenge;
#METER:18;
#CREDIT:Fred-104†;
#NOTES:
0000
0000
0000
0000
,
0000
0000
0000
0000
,
0000
0000
0000
0000
,
0000
0000
0000
0000
,
0000
0000
0000
0000
,
0000
0000
0000
0000
,
0001
0000
0010
0000
0001
0000
1000
0010
,
0100
0010
1000
0100
0010
0001
1001
0000
,
0001
0100
0010
0001
1000
0100
0010
1000
,
0100
0000
0010
0000
0001
0000
0100
0000
0010
0000
1000
0000
0001
0010
0001
0010
,
0100
1000
0101
1000
,
0011
1100
0101
0000
,
2100
3000
0010
0000
0102
0003
0010
1000
,
1100
0100
0010
0000
0101
0100
0010
1000
,
0001
0100
1000
0001
0010
0100
0010
1000
0001
0010
0100
1000
,
0001
0100
1000
0001
0010
0100
0001
1000
0100
0010
0001
1000
,
0001
0100
0001
0100
0001
0000
1000
0100
0010
0001
1000
0000
0010
0100
0010
0000
,
1000
0001
1000
0001
0010
0100
0010
0100
1000
0001
1000
0001
0100
0010
1000
0001
,
0100
0000
0000
0010
0000
0000
1000
0000
1001
0000
0000
0000
0001
1000
0100
1000
,
0001
0200
1000
0000
0010
0000
0302
0000
,
1003
0000
0000
0000
0000
0000
0100
0000
0000
0000
0000
0000
0010
0000
0000
0000
0000
0000
0001
0000
1000
0000
0001
0000
1000
0000
0000
0000
0000
0000
0001
0000
0000
0100
0000
0000
0010
0000
0000
1000
0000
0000
0010
0000
0000
0000
0000
0000
,
1000
0000
0002
0000
0010
0000
0013
0100
0010
0001
0010
0001
1000
0000
0001
0000
,
0101
0000
0000
0000
0110
0000
1000
0001
0010
0000
0220
0000
0000
0000
0330
0000
,
1000
0000
0100
0000
0010
0000
0001
1000
0100
1000
0001
0100
0001
1000
0100
0010
,
0001
0000
0100
0010
1000
0001
0100
0000
0102
0000
2003
0000
3002
0000
0000
0000
,
1003
0000
0000
0100
0000
0000
0010
0000
0000
0001
0000
0000
0010
0000
0000
0100
0000
0000
1000
0000
0000
0000
0000
0000
0001
0000
1000
0000
0001
0000
1000
0000
0000
0000
0000
0000
0200
0000
0000
0000
0000
0000
0000
0000
0000
0300
0000
0000
,
1100
0000
0000
0001
0000
0000
0100
0000
0110
0000
0000
0000
1000
0100
0010
0001
,
1000
0020
0001
0000
0100
0000
2030
0000
,
3001
0000
0000
0000
0000
0000
0100
0000
0000
0000
0000
0000
0010
0000
0000
0000
0000
0000
1000
0000
0001
0000
1000
0000
0001
0000
0000
0000
0000
0000
0010
0000
0000
0100
0000
0000
1000
0000
0000
0001
0000
0000
0100
0000
0000
0000
0000
0000
,
0010
0000
2000
0000
0100
0000
3100
0010
0001
0010
0100
0010
0001
0000
1000
0000
,
0001
0010
1000
0000
1000
0010
0001
0000
0001
0100
1000
0000
1000
0100
0001
0000
,
0010
0100
1000
0000
0001
0000
0001
0000
0100
0010
1000
0001
0010
0100
0010
0001
,
1000
0010
0100
1000
0100
0000
0001
1000
0100
0010
0001
0100
0010
2000
0001
0000
,
3001
0000
0010
0100
0010
0001
0010
0100
0010
0000
0001
0000
1001
0000
0000
0000
,
1000
0000
0010
0000
0100
0000
1000
0000
0001
0000
0010
0000
0100
0001
1000
0000
,
0001
0010
0100
0001
1000
0010
0002
0000
,
1003
0000
1000
0100
0010
0000
0001
0000
1000
0000
1000
0010
0100
0000
0001
0000
,
0010
0000
0100
0000
0001
0000
0100
0000
0020
0000
0031
0000
1001
0000
1000
0001
,
1000
0000
0100
0010
0001
0000
1000
0000
0010
0100
0001
0010
0100
0000
1000
0001
,
1000
0010
1000
0001
0010
0000
0100
0000
0110
0000
0000
0000
1001
0000
0000
0000
,
0001
0000
0001
0010
0100
0000
1000
0000
0001
0100
0010
1000
0001
0010
0200
0000
,
1300
0000
0010
0000
0100
0001
1000
0001
0200
0320
2030
3002
1003
0000
0100
0000
,
0010
1000
0001
0100
0010
0001
0100
0010
,
0001
1000
0100
0000
0010
0000
1000
0001
1000
0000
0000
0000
0120
0000
0001
0130
,
0020
0000
1000
0130
0020
0000
0001
0130
0020
0000
1000
0130
0010
0000
0001
0000
,
1000
0000
0010
0100
0001
0000
0010
0000
0100
0000
0100
1000
0001
0000
0100
0000
,
0010
0000
0001
1000
0100
0000
0010
0000
2000
0000
0000
0000
3001
0000
0010
0000
,
1000
0000
0010
0000
0001
0000
1000
0000
1001
0000
0000
0000
0001
0000
0001
0100
,
0010
0000
1000
0000
0001
0000
0010
0100
1000
0001
0100
0001
1000
0100
1000
0100
,
0010
0001
0010
0100
1100
0000
2000
0000
,
0000
0000
0000
0000
3001
0000
0100
0000
1000
0100
0010
0000
0200
0000
0000
0000
,
0302
0000
0000
0000
2003
0000
0000
0000
3200
0000
0000
0000
0302
0000
0103
0020
,
0000
0031
2000
0000
3020
0000
0130
0000
2000
3100
0001
0000
2002
0000
0000
3003
,
0001
1000
0001
1000
0001
1000
0001
1000
0001
1000
0001
1000
0001
0000
0000
0000
1000
0000
0000
0000
0100
0000
0000
0000
0010
0000
0001
0000
1000
0000
0010
0000
,
0100
0000
0010
1000
0001
0010
0100
0000
1100
0000
0000
0101
0000
0000
1100
0000
,
1000
0100
0010
0001
1000
0001
0010
0000
0100
1000
0100
1000
0001
0100
0010
0000
,
1000
0001
0010
0100
0010
0000
0001
0000
1000
0100
0010
0100
0010
0000
1000
0010
,
0001
0000
1000
0010
0100
0001
1000
0000
0001
0000
0100
0000
0010
1000
0001
0010
,
0100
0000
1000
0001
1000
0100
0010
0000
0001
0000
1000
0100
1000
0001
1000
0010
,
0100
0000
0001
1000
0100
0001
1000
0000
0010
0100
1000
0010
0100
1000
0001
0000
,
0010
0000
0100
0000
0001
0000
1000
0000
0001
0010
0001
1000
0010
0100
0010
0000
,
1000
0000
0001
0000
1001
0000
0000
0000
1100
0000
0000
0000
0101
0000
1000
0100
,
0010
0000
0000
0011
0000
0000
0011
0000
0010
0000
0001
0000
0100
0000
0010
0000
,
1000
0001
1000
0100
0010
0001
0010
0000
0001
0100
0010
1000
0010
0000
0100
0000
,
0001
1000
0100
0010
0001
0000
1000
0001
0100
0000
0010
0000
1000
0000
0001
0000
,
0010
0000
0100
0010
0100
1000
0000
0001
0100
0000
0001
0000
1000
0100
0010
0001
,
1000
0000
0001
0100
0000
1000
0100
0000
0001
0000
1000
0100
0010
0000
0001
1000
,
0010
0000
0100
0001
1000
0000
0100
0010
0001
0010
0001
0010
0100
1000
0100
1000
,
0001
0000
0100
0000
0010
0000
1000
0000
0100
0000
0010
0000
0002
0000
0000
0000
2003
0000
3200
0000
0302
0000
2003
0000
3020
0000
0032
0003
2002
0000
3003
0000
,
1000
0100
0010
0001
1000
0100
0010
0000
0001
0000
1000
0000
0010
0100
1000
0000
,
0100
0000
0001
0000
1000
0100
0010
0001
1000
0000
0010
0000
0001
0000
0010
0100
,
0010
1000
0010
0000
1000
0000
0100
0010
0001
1000
0010
0000
1000
0001
0010
0000
,
0100
0001
0100
0000
1000
0000
0100
0010
0001
1000
0001
0100
0010
0000
0010
0000
,
1001
0000
1000
0100
0010
0001
0010
0000
0001
1000
0100
1000
0001
1000
0010
0100
,
0020
0000
1000
0001
0030
0001
1000
0000
0001
0010
0100
1000
0001
0100
0001
0000
,
1000
0100
0010
0001
0010
0000
0001
1000
0001
0010
0100
0000
1000
0000
0001
0100
,
0001
0000
0000
0000
0000
0000
0000
0000
0000
0011
0000
0000
0000
0000
0000
0000
0000
0000
1001
0000
0000
0000
0000
0000
1000
0000
0000
0000
0000
0000
0100
0000
0010
0000
0001
0000
1000
0000
0000
0000
0000
0000
0001
0000
0000
0000
0000
0000
,
1000
0001
0100
0020
0001
0000
1030
0000
0001
0100
1000
0000
0001
0010
1000
0000
,
0001
0010
0100
1000
0001
0100
0010
1000
0001
0010
0100
1000
0001
0100
0001
1000
,
0020
0001
0100
1030
0002
0100
1000
0013
,
0100
1000
0100
1000
0001
0100
0001
0100
0010
1000
0100
0010
0001
0010
0100
1000
,
0001
0000
0100
0001
1000
0001
0010
0000
0100
0010
0001
1000
0010
0100
0010
1000
,
0001
0000
1000
0100
0010
0001
1000
0000
0010
1000
0100
1000
0010
1000
0100
1000
,
0001
0100
0010
1000
0010
0100
0010
1000
0001
0010
0100
0010
0001
0000
1000
0000
,
0001
0000
0100
0001
1000
0001
0010
0100
0010
0001
1000
0010
1000
0001
0100
0001
,
2000
0000
0000
0000
0000
0000
0000
3001
,
0010
0000
0100
0000
0010
0010
0011
0000
,
1100
0000
0000
0000
0001
0000
0100
0000
0000
0000
1000
0000
0100
0000
0001
1000
,
0001
0010
0100
0010
1000
0001
0100
1000
;

//--------------- dance-double - Fred-104 ----------------
#NOTEDATA:;
#STEPSTYPE:dance-double;
#DESCRIPTION:Fred-104;
#DIFFICULTY:Easy;
#METER:9;
#CREDIT:Fred-104;
#NOTES:
00000000
00000000
00000000
00000000
,
00000000
00000000
00000000
00000000
,
00000000
00000000
00000000
00000000
,
00000000
00000000
00000000
00000000
,
00000000
00000000
00000000
00000000
,
00000000
00000000
00000000
00000000
,
10000000
00000000
00010000
00000000
,
10000000
01000000
01000000
01000000
,
00100000
00000000
00001000
00000000
,
00010000
00001000
00010000
00001000
,
00011000
00000000
00001001
00000000
,
00010000
00001000
00011000
00000000
,
01100000
00000000
10010000
00000000
,
01100000
00000000
00011000
00000000
,
00010000
00001000
00000010
00000100
,
00010000
00001000
00000100
00000001
,
00000010
00001000
00010000
00001000
,
00022000
00000000
00000000
00033000
,
00001000
00000000
00000000
00001000
00000000
00000000
00001000
00000000
00010000
00000000
00000000
00000000
00000000
00000000
00000000
00000000
,
00002000
00023000
02030000
23000000
,
30010000
01000000
10000000
01000000
,
00010000
10000000
10010000
00000000
,
10000000
00000000
01000000
00000000
00100000
00100000
00000000
00000000
,
00001000
00010000
00001000
00000000
,
00010000
00000000
00000000
00000100
00000000
00000000
00010000
00000000
,
00000100
00000000
00001000
00000000
00000100
00000010
00000001
00000000
,
00000100
00000000
00000000
00000100
00000000
00000000
00000100
00000000
00000100
00000000
00000000
00000000
00000000
00000000
00000000
00000000
,
00000002
00000023
00002030
00023000
,
00031000
00010000
00100000
10000000
,
00010000
01000000
01100000
00000000
,
10000000
01000000
00010000
00001000
,
00010000
00100000
01000000
00020000
,
10030000
00000000
01000000
00000000
,
00100000
00001000
00011000
00000000
,
00010000
00000000
00000000
00001000
00000000
00000000
00000100
00000000
,
00000001
00000000
00000010
00000000
00000100
00000100
00001000
00000000
,
00000100
00000000
00000000
00000100
00000000
00000000
00000100
00000000
00010000
00000000
00000000
00010000
00000000
00000000
00010000
00000000
,
00001000
00010000
00022000
00033000
,
00001000
00000000
00000000
00010000
00000000
00000000
00100000
00000000
,
10000000
00010000
00100000
01000000
,
00100000
00000000
00000000
00001000
00000000
00000000
00001000
00000000
00001000
00000000
00000000
00000000
00010000
00000000
00000000
00000000
,
00000100
00000000
00001000
00000000
00000001
00000000
00000000
00000000
00002002
00000000
00000000
00003003
00000001
00000000
00000000
00000000
,
00000000
00000100
00000000
00000000
00001000
00000000
00010000
00000000
,
01000000
00000000
00000000
00000000
10000000
00000000
00000000
00000000
01000000
00000000
00000000
00000000
00100000
00000000
00000000
00100000
,
00000000
00000000
00100000
00000000
00001000
00000000
00000000
00001000
00000000
00000000
00001000
00000000
00010000
00000000
00000000
00000000
,
00001000
00000010
00000100
00001000
,
00000010
00000100
00001000
00010000
,
00100000
00000000
00000000
00000000
01000000
00000000
00100000
00000000
01000000
00000000
00000000
00000000
00010000
00000000
00000000
00010000
,
00000000
00010000
10000000
01000000
00100000
00000000
00001000
00000000
,
00010000
00000010
00010000
00012000
,
00000000
00023000
00032000
00003020
,
00000032
00000203
00002300
00023000
,
00000000
00002000
00033000
00022000
,
00033000
00000000
00000000
00000000
00001000
00000000
00000000
00010000
,
00000000
00100000
10000000
00010000
,
10000000
01000000
00100000
00100000
,
00001000
00100000
00001000
00000000
00010000
00000000
00010000
00000000
,
00001000
00000000
00000100
00000000
00000001
00000010
00000001
00000000
,
00001000
00000000
00000000
00001000
00000000
00000000
00001000
00000000
00000001
00000000
00000000
00000000
00000010
00000000
00000000
00000000
,
00000100
00000100
00010000
00001000
,
00010000
00100000
01000000
00010000
,
10000000
01000000
00010000
00011000
,
00010100
00000000
00010000
00001000
,
00000100
00000001
00000010
00001000
,
00010000
00001000
00010000
00000100
,
00001000
00000100
00000010
00000000
00000001
00000000
00000100
00000000
,
00000010
00001000
00000100
00010000
,
00001000
00100000
00010000
01000000
,
00100000
10000000
00010000
00000000
20020000
00000000
00000000
30030000
,
10000000
10000000
01000000
00010000
,
01000000
00000000
00010000
00000000
00001000
00010000
00001000
00000000
,
00010000
00000100
00010000
00000100
,
00001000
00000000
00000100
00000000
00000010
00000001
00001000
00000000
,
00000010
00000100
00001000
00010000
,
00001000
00000000
00000000
00010000
00000000
00000000
01000000
00000000
00100000
00000000
00000000
00000000
00110000
00000000
00000000
00000000
,
10000000
00100000
00010000
00001000
,
00010000
00000000
00000000
00010000
00000000
00000000
00010000
00000000
00001000
00000000
00000000
00000000
00011000
00000000
00000000
00000000
,
00010000
00001000
00000100
00000010
,
00020000
00032000
00003200
00000302
,
00000013
00000000
00001000
00000000
00010000
00001000
00010000
00000000
,
00001000
00000000
00000000
00001000
00000000
00000000
00001000
00000000
01000000
00000000
00000000
01000000
00000000
00000000
00100000
00000000
,
10000000
00000000
01000000
00000000
00100000
00001000
00100000
00000000
,
00001000
00000000
00010000
00000000
00000010
00001000
00000010
00000000
,
00001000
00000100
00001000
00000000
00000001
00000100
00000001
00000000
,
00000100
00001000
00000100
00000000
00001000
00010000
00001000
00000000
,
00020000
00000000
00230000
00000000
,
10300000
00010000
10000000
01000000
,
00020000
00000000
00032000
00000000
,
00003010
00000000
00000001
00000000
00001000
00000010
00000100
00000001
;

//--------------- dance-double - Fred-104 ----------------
#NOTEDATA:;
#STEPSTYPE:dance-double;
#DESCRIPTION:Fred-104;
#DIFFICULTY:Medium;
#METER:12;
#CREDIT:Fred-104;
#NOTES:
00000000
00000000
00000000
00000000
,
00000000
00000000
00000000
00000000
,
00000000
00000000
00000000
00000000
,
00000000
00000000
00000000
00000000
,
00000000
00000000
00000000
00000000
,
00000000
00000000
00000000
00000000
,
00001001
00000000
00000000
00000001
,
00000100
00001000
00010000
00011000
,
00001000
00010000
01000000
00100000
,
00010000
00000000
10000000
00000000
00100000
00000000
00010000
00001000
,
00011000
00000000
00000110
00000000
,
00001010
00000101
00001100
00000000
,
00000011
00001000
00010100
00001000
,
00110000
10000000
01010000
10000000
,
01000000
00000000
01000000
00100000
00000000
00000000
00001000
00000000
00001000
00010000
00000000
00000000
,
00000010
00000000
00000010
00001000
00000000
00000000
00000100
00000000
00000100
00000010
00000000
00000000
,
00000001
00000100
00000010
00000100
00001000
00010000
00001000
00000000
,
00022000
00000000
00000000
00033000
,
01000000
00000000
00000000
01000000
00000000
00000000
01000000
00000000
01100000
00000000
00000000
00000000
00010000
00000000
10000000
00000000
,
02000000
00010000
00100000
23000000
,
31000000
00100000
00001000
00000000
00010000
00000010
00001000
00000000
,
00000001
00000010
00000100
00001000
00000100
00000000
00011000
00000000
,
00010000
00000000
00001000
00000100
00000001
00002000
00000000
00003000
,
00000001
00000000
00000100
00000000
00001000
00010000
00001000
00000000
,
00010000
00000000
01000000
00100000
02000000
03200000
02300000
00000000
,
13000000
00100000
00010000
00000000
00001000
00010000
00000020
00000000
,
00001030
00000000
00000000
00001000
00000000
00000000
00001000
00000000
00000100
00000000
00000000
00000000
00001000
00000000
00000001
00000000
,
00000200
00001000
00000010
00000302
,
00001003
00000010
00000100
00000000
00001000
00010000
00001000
00000000
,
00010000
00100000
01000000
00100000
10000000
00010000
10000000
00000000
,
00010000
10000000
01000000
10000000
01000000
00010000
00001000
00010000
,
00001000
00000100
00000001
00000000
00000010
00000100
00002000
00000000
,
00003100
00000000
00010000
00000000
00001000
00010000
00001000
00000000
,
00000010
00000001
00000220
00000330
,
00000001
00000100
00000001
00000100
00001000
00010000
00001000
00000000
,
00010000
01000000
00010000
01000000
10000000
00010000
10000000
00000000
,
01000000
00000000
00000000
00100000
00000000
00000000
00001000
00000000
00010000
00000000
00000000
00100000
00000000
00000000
10000000
00000000
,
00010000
00100000
01000000
00100000
00001000
00010000
00001000
00000000
,
00010000
00001000
00000010
00000000
00000001
00000010
00000100
00000000
,
00001000
00000001
00000100
00000000
00001000
00000000
00011000
00000000
,
00001000
00000000
00000000
00001000
00000000
00000000
00001000
00000000
00010000
00000000
00100000
00000000
01000000
00000000
10000000
00000000
,
01000000
00010000
10000000
01000000
00200000
00000000
00301000
00001000
,
00000000
00010000
00010000
00000000
00000100
00001000
00000001
00001000
,
00000100
00000000
00000000
00000000
00000010
00000000
00000000
00000000
00000001
00000000
00000000
00000000
00000100
00000000
00000000
00000001
,
00000000
00000000
00000010
00000000
00000001
00000000
00000000
00000100
00000000
00000000
00001000
00000000
00010000
00000000
01000000
00000000
,
10000000
01000000
00100000
00000000
00011000
00000000
00010000
00001000
,
00000100
00000000
00000010
00000001
00000010
00000000
00001000
00000000
,
00000001
00000000
00000010
00000000
00000100
00000000
00001000
00000000
00000100
00000000
00000000
00000000
00010000
00000000
00000000
00010000
,
00000000
00010000
00001000
00100000
00010000
00000000
10000000
00100000
,
00010000
00001000
00000010
00000001
00001000
00000000
00002001
00000000
,
00000000
00000000
00003001
00000100
00001000
00010000
00200000
00000000
,
02300000
00000000
00000000
00000000
03020000
00000000
00000000
00000000
20030000
00000000
00000000
00000000
31000000
00000000
00000000
00010000
,
00000000
00001000
00020000
00000000
00230000
00300000
20020000
00000000
,
30030000
00000000
00000000
00000000
10000000
01000000
10000000
01000000
,
00000000
00010000
00001000
00010000
00000100
00000010
00000001
00000000
,
00000010
00000100
00001000
00000000
00000001
00000100
00000001
00000100
,
00001000
00010000
00001000
00000000
00010000
00100000
01000000
00010000
,
00100000
01000000
00100000
00000000
00010000
00000000
01000000
00100000
,
00010000
00000000
00000000
00001000
00000000
00000000
00010000
00000000
00001000
00000000
00000200
00000000
00000310
00000000
00000000
00000000
,
00010000
00001000
00000010
00000000
00000100
00010000
00001000
00000000
,
00010000
00001000
00010000
00100000
,
01000000
01010000
10100000
10010000
,
10000000
00000000
00000000
01000000
00000000
00000000
00010000
00000000
00001000
00000000
00000000
00000000
00000100
00000000
00000000
00000000
,
00000010
00001000
00000001
00000000
00000010
00000100
00001000
00000000
,
00000001
00000000
00000100
00000000
00001000
00010000
00001000
00000000
,
01000000
00010000
01000000
00000000
00001000
00100000
00010000
00000000
,
00100000
00000000
00100000
00000000
01000000
10000000
00010000
00000000
,
10000000
00100000
00010000
00000000
00001000
00000100
00000001
00000000
,
00000010
00000100
00010000
00000000
00022000
00000000
00000000
00033000
,
00001000
00010000
00100000
01000000
00010000
00100000
01000000
00000000
,
00100000
00001000
00010000
00000000
00001000
00010000
00000010
00000000
,
00001000
00000010
00010000
00000000
00000100
00000010
00001000
00000000
,
00010000
01000000
00100000
00001000
00010000
00100000
01000000
00000000
,
00001000
00010000
00100000
10000000
00010000
00100000
01000000
00000000
,
00100000
00000000
00000000
00100000
00000000
00000000
00100000
00000000
00001000
00000000
00000010
00000000
00000100
00000000
00000000
00000000
,
00001000
00000001
00001000
00000000
00000001
00000100
00001000
00000000
,
00010000
00000000
00000000
00011000
00000000
00000000
00001000
00000000
01000000
00000000
00010000
00000000
00200000
00000000
00000000
00000000
,
01300000
10000000
00100000
00000000
01000000
00001000
00010000
00000000
,
00002000
00003200
00000320
00000230
,
00001300
00010000
00001000
00010000
00100000
10000000
00100000
00000000
,
01000000
00000000
00000000
01000000
00000000
00000000
01000000
00000000
00100000
00000000
01000000
00000000
01100000
00000000
00000000
00000000
,
10000000
01000000
00010000
00001000
00000100
00000001
00001000
00000000
,
00000100
00000010
00000001
00000100
00000010
00000100
00001000
00000000
,
00010000
00100000
01000000
00100000
10000000
00010000
00100000
00001000
,
00010000
00000010
00001000
00000001
00000010
00000100
00010000
00001000
,
00020000
00000000
00032000
00000000
,
00003100
00000000
00000001
00000000
00000010
00001000
00010000
00000000
,
02000000
00000000
23000000
00000000
,
30100000
00000000
00010000
00000000
00001000
00000100
00000001
00001001
;

//--------------- dance-double - Fred-104 ----------------
#NOTEDATA:;
#STEPSTYPE:dance-double;
#DESCRIPTION:Fred-104;
#DIFFICULTY:Hard;
#METER:16;
#CREDIT:Fred-104;
#NOTES:
00000000
00000000
00000000
00000000
,
00000000
00000000
00000000
00000000
,
00000000
00000000
00000000
00000000
,
00000000
00000000
00000000
00000000
,
00000000
00000000
00000000
00000000
,
00000000
00000000
00000000
00000000
,
00011000
00000000
00000000
00000000
00000000
00000000
00010000
00001000
,
00000100
00000001
00000010
00000100
00000010
00001000
00010000
00000000
,
00011000
00000000
00001000
00010000
00100000
00000000
01000000
00010000
,
10000000
00000000
00000000
00000000
01000000
00000000
00100000
00000000
00001000
00000000
00010000
00000000
00000010
00001000
00000010
00001000
,
00000001
00001000
00010010
00001000
,
01010000
11000000
01100000
00000000
,
10010000
00000000
01000000
00000000
00011000
00000000
00000100
00001000
,
00001010
00000001
00000011
00001000
,
00000001
00000000
00000001
00000100
00000000
00000100
00001000
00010000
00001000
00010000
01000000
10000000
,
00010000
00000000
00010000
10000000
00000000
10000000
00100000
00010000
00001000
00010000
00001000
00000010
,
00000001
00001000
00000001
00000000
00001000
00000000
00000100
00010000
00001000
00000000
01000000
00000000
00010000
10000000
01000000
00000000
,
00200000
00000000
00000000
00000000
00000000
00300000
00011000
00000000
,
00000110
00000000
00000000
00000001
00000000
00000000
00001000
00000000
00001100
00000000
00000000
00000000
00000001
00001000
00000010
00010000
,
00001000
00020000
01000000
00000000
00001000
00000000
00230000
00000000
,
10300000
00000000
01000000
00000000
00100000
00000000
00001000
00010000
00001000
00000000
00000010
00000000
00000100
00001000
00000100
00000000
,
00000010
00000000
00000001
00000000
00001000
00000000
00001000
00000010
00010000
00000000
00001000
00100000
00010000
00000000
00100000
00000000
,
00110000
00000000
00000000
00000000
10000000
00000000
00100000
00010000
00001000
00000000
00022000
00000000
00000000
00000000
00033000
00000000
,
00010000
00000000
00001000
00000000
00000100
00000000
00000010
00010000
00001000
00010000
00000100
00001000
00000001
00000000
00000100
00000010
,
00000100
00000001
00000010
00000100
00020000
00032000
00023000
00000000
,
00031000
01000000
00001000
01000000
00010000
10000000
01000000
00000000
00100000
00001000
00010000
00000000
00002000
00000000
00000000
00003000
,
00011000
00000000
00000000
00000100
00000000
00000000
00001000
00000000
00001001
00000000
00000000
00000000
00000001
00000100
00000010
00001000
,
00000001
00000020
00001000
00000000
00000100
00000000
00000032
00000000
,
00001003
00000000
00000010
00000000
00000100
00000000
00001000
00010000
00001000
00000000
00010000
00001000
01000000
00001000
00010000
00000000
,
00001000
00000000
00010000
00000000
00100000
00000000
10000000
00100000
00010000
00000000
00010000
00100000
10000000
00000000
01000000
00000000
,
00100000
00010000
00100000
00000000
00001000
00010000
00001000
00000000
01000000
00010000
01000000
00000000
00001000
00010000
00001000
00000000
,
00010000
00001000
00000100
00000000
00000010
00000000
00001000
00000000
00000001
00000000
00000010
00000100
00002000
00000000
00000000
00000000
,
00003001
00000000
00000100
00000000
00001000
00000000
00010000
00000000
01000000
10000000
01000000
10000000
00020000
00000000
00030000
00000000
,
00100000
00000000
01000000
00010000
00001000
00000000
00000010
00000100
00001000
00000000
00000000
00000000
00011000
00000000
00000000
00000000
,
00001000
00010000
00100000
01000000
00010000
00100000
01000000
00100000
,
00001000
00000010
00000100
00001000
00000010
00010000
00001000
00000000
,
00010000
00000000
00010000
00001000
00000100
00000000
00000100
00000000
00000001
00000000
00000001
00001000
00000100
00000000
00000100
00000000
,
00000010
00000001
00000100
00001000
00020000
00031000
00011000
00000000
,
00001000
00010000
00100000
01000000
00010000
00100000
01000000
00010000
,
00001000
00000010
00000100
00010000
00001000
00000000
00011000
00000000
,
00001000
00000000
00001000
00010000
00100000
00000000
01000000
00000000
00010000
01000000
00010000
01000000
20000000
00000000
32000000
00000000
,
03100000
00000000
10000000
00000000
01000000
00000000
00010000
00000000
00002000
00003200
00000320
00002030
00003001
00000000
00000100
00000000
,
00001000
00010000
00001000
00000100
00001000
00010000
01000000
00010000
,
00001000
00000000
00010000
00000000
00100000
00000000
10000000
00000000
00010000
00000000
00000000
00000000
10000000
00000000
10000000
01000000
,
00010000
00000000
00010000
00000000
00001000
00000000
00001000
00000100
00000001
00000000
00000001
00000000
00000010
00000000
00001000
00000000
,
00010000
00000000
00010000
00100000
10000000
00000000
00010000
00000000
10010000
00000000
00000000
00000000
10000000
00000000
00100000
00000000
,
01000000
00100000
00010000
00001000
00020000
00000000
00031000
00000010
,
00000001
00000000
00000010
00000000
00000100
00000000
00010000
00000000
00011000
00000000
00000000
00000000
00010000
00000000
00000010
00001000
,
00000001
00000000
00000010
00000000
00000100
00000000
00010000
00001000
01000000
00010000
01000000
00010000
00100000
00000000
01000000
00000000
,
00010000
00001000
00000010
00000100
00001100
00000000
00021000
00000000
,
00000000
00000000
00032000
00003020
00000032
00000203
00002300
00000000
,
00023000
00000000
00000000
00000000
02030000
00000000
00000000
00000000
23000000
00000000
00000000
00000000
32000000
00000000
00000000
03200000
,
00000000
00000000
00302000
00000000
00023000
00000000
00000000
00000000
00002000
00000000
00033000
00000000
00002002
00000000
00000000
00003003
,
00000220
00000000
00000000
00000330
00000001
00001000
00000010
00000100
,
00001000
00010000
00100000
01000000
00001000
00010000
00100000
10000000
,
01000000
00100000
00010000
00100000
00001000
00000000
00010000
00000000
00000100
00010000
00000100
00010000
00000100
00000000
00001000
00000000
,
00000100
00000000
00000010
00000001
00001000
00000000
00000010
00000000
00010000
00000000
00001000
00010000
00100000
00000000
01000000
00100000
,
10000000
00000000
00100000
00000000
01000000
00010000
00000000
10000000
00010000
00000000
00100000
00000000
01000000
10000000
00010000
10000000
,
01000000
00000000
00000000
00100000
00000000
00000000
00001000
00000000
00010000
00000000
00000100
00001000
00000100
00000000
00000010
00000001
,
00000010
00000000
00000100
00000000
00010000
00000000
00001000
00000000
00000100
00000001
00000100
00000001
00001000
00000000
00000100
00000000
,
00000010
00000000
00000001
00000010
00000100
00000000
00010000
00000000
00001000
00000000
00010000
00001000
00000000
00000100
00000010
00000000
,
00001000
00000000
00000100
00000000
00000110
00000000
00000000
00000000
00000011
00000000
00000000
00000000
00011000
00000000
00001000
00100000
,
00010000
00000000
00100000
10000000
00000000
00100000
01000000
00000000
10000000
00000000
00010000
00000000
01000000
00000000
00100000
00000000
,
10000000
01000000
00100000
00010000
00100000
00000000
00001000
00000000
00010000
00000010
00001000
00000010
00010000
00000000
00000010
00000000
,
00001000
00000000
00000100
00000010
00000100
00000000
00000010
00000001
00001000
00000000
00000010
00000000
00000100
00000000
00001000
00010000
,
00001000
00000000
00010000
00000000
00100000
10000000
00000000
00010000
00100000
00000000
01000000
00000000
00010000
00000000
00001000
00010000
,
00001000
00000000
00000000
00001000
00010000
00000000
00010000
00000000
00000010
00000000
00001000
00000000
00000010
00000000
00010000
00001000
,
00010000
00000000
00000000
01000000
10000000
00000000
01000000
00000000
00100000
00000000
00001000
00000000
00010000
00000000
00000010
00000000
,
00001000
00000001
00001000
00000001
00000010
00000100
00000010
00000100
00002000
00000000
00000000
00000000
00000000
00000000
00003000
00000000
,
00001001
00000000
00000001
00001000
00000000
00000010
00010000
00000000
00001000
00000000
00100000
00000000
01000000
00100000
00010000
00000000
,
10000000
00000000
00100000
00000000
00010000
00001000
00010000
00001000
00010000
00000000
00001000
00000000
00000100
00000000
00000010
00010000
,
00000010
00010000
00001000
00000000
00010000
00000000
00100000
01000000
00100000
00000000
10000000
00000000
01000000
00100000
00010000
00000000
,
00100000
00001000
00010000
00000000
00000100
00000000
00001000
00000100
00000010
00000100
00000010
00000001
00000010
00000000
00000001
00000000
,
00001000
00000000
00000001
00000000
00000010
00000100
00001000
00000000
00000100
00010000
00001000
00000000
00100000
00010000
10000000
00000000
,
02000000
00000000
10000000
00010000
03000000
00010000
10000000
00000000
01000000
00000000
10000000
00000000
00010000
00000000
01000000
00000000
,
00100000
00010000
00001000
00010000
00001000
00000000
00000000
00010000
00001000
00000000
00000100
00000000
00000010
00000000
00001000
00000100
,
00000010
00000000
00000000
00000011
00000000
00000000
00000001
00000000
00000100
00000000
00001000
00000000
00010000
00000000
00000000
00000000
,
00001000
00000000
00010000
00100000
01000000
00000000
00100000
00010000
00001000
00000000
00010000
00000000
00001000
00000010
00000100
00000000
,
00001000
00000100
00000010
00000000
00000100
00010000
00001000
00000000
00100000
00010000
01000000
00000000
00010000
10000000
00100000
00000000
,
01000000
00100000
00010000
00001000
00000100
00000010
00001000
00000001
,
00000010
00000100
00000010
00000000
00000001
00001000
00000001
00000000
00000100
00000000
00001000
00010000
00001000
00000000
01000000
00000000
,
00010000
00000000
10000000
01000000
10000000
01000000
00100000
00000000
00010000
00000000
00100000
01000000
00100000
00000000
00001000
00000000
,
00010000
00000000
00000010
00001000
00000001
00001000
00000100
00000000
00000010
00000001
00001000
00000000
00000010
00001000
00000001
00000000
,
00000010
00000100
00000010
00000000
00000100
00001000
00000100
00000000
00010000
00001000
00010000
00001000
00010000
00000000
01000000
00000000
,
10000000
00000000
00010000
00000000
00100000
00000000
01000000
10000000
01000000
10000000
00010000
00000000
01000000
00000000
00100000
00000000
,
20000000
00000000
32000000
00000000
,
03100000
00001000
00000010
00000001
,
00002000
00000000
00003002
00000000
,
00000103
00000000
00001000
00000000
00010000
01000000
10000000
00010000
;

//--------------- dance-double - Fred-104† ----------------
#NOTEDATA:;
#STEPSTYPE:dance-double;
#DESCRIPTION:Fred-104†;
#DIFFICULTY:Challenge;
#METER:18;
#CREDIT:Fred-104†;
#NOTES:
00000000
00000000
00000000
00000000
,
00000000
00000000
00000000
00000000
,
00000000
00000000
00000000
00000000
,
00000000
00000000
00000000
00000000
,
00000000
00000000
00000000
00000000
,
00000000
00000000
00000000
00000000
,
00001000
00000000
00010000
00000000
00100000
00000000
10000000
01000000
,
00010000
00001000
00010000
00001000
00000100
00000010
00001010
00000000
,
00000001
00000010
00000100
00000001
00001000
00000010
00000100
00001000
,
00000001
00000000
00000100
00000000
00001000
00000000
00010000
00000000
00100000
00000000
10000000
00000000
01000000
00100000
01000000
00100000
,
00010000
00100000
00001000
00000000
00011000
00000000
00000010
00000000
,
00001001
00000110
00001001
00000000
,
00000110
00000000
00010000
00000000
00101000
00000000
00001000
00010000
,
00011000
01001000
00010100
00001001
,
00000001
00000010
00000001
00001000
00000010
00001000
00000001
00000010
00000100
00010000
00001000
00100000
,
00010000
00100000
01000000
10000000
00010000
01000000
00100000
10000000
00010000
00100000
00001000
00010000
,
00001000
00010000
00000010
00010000
00001000
00000000
00010000
00000100
00001000
00000001
00000100
00000000
00000010
00010000
00001000
00000000
,
00010000
00001000
00010000
00001000
01000000
00100000
01000000
00000000
00010000
10000000
01000000
10000000
00010000
01000000
00001000
00000000
,
00011000
00000000
00000000
00001000
00000000
00000000
01000000
00000000
01100000
00000000
00000000
00000000
00010000
00100000
01000000
10000000
,
00010000
02000000
10000000
00000000
00100000
00000000
03020000
00000000
,
10030000
00000000
00000000
00000000
00000000
00000000
01000000
00000000
00000000
00000000
00000000
00000000
00100000
00000000
00000000
00000000
00000000
00000000
00001000
00000000
00010000
00000000
00001000
00000000
00010000
00000000
00000000
00000000
00000000
00000000
00000010
00000000
00000000
00001000
00000000
00000000
00000100
00000000
00000000
00001000
00000000
00000000
00000001
00000000
00000000
00000000
00000000
00000000
,
00000100
00000000
00000020
00000000
00001000
00000000
00001030
00000001
00000010
00000100
00010000
00001000
00010000
00000000
00001000
00000000
,
00011000
00000000
00000000
00000000
00010000
00000000
00001000
00000100
00000001
00000000
00000022
00000000
00000000
00000000
00000033
00000000
,
00001000
00000000
00000001
00000000
00000100
00000000
00000010
00000100
00001000
00010000
00001000
00100000
00010000
10000000
00010000
01000000
,
00100000
00000000
10000000
00010000
10000000
01000000
00100000
00000000
00201000
00000000
00302000
00000000
00023000
00000000
00000000
00000000
,
00031000
00000000
00000000
00010000
00000000
00000000
00000010
00000000
00000000
00010000
00000000
00000000
00001000
00000000
00000000
00010000
00000000
00000000
00000010
00000000
00000000
00000000
00000000
00000000
00001000
00000000
00000001
00000000
00001000
00000000
00000001
00000000
00000000
00000000
00000000
00000000
00000020
00000000
00000000
00000000
00000000
00000000
00000000
00000000
00000000
00000030
00000000
00000000
,
00000110
00000000
00000000
00010000
00000000
00000000
00001000
00000000
01100000
00000000
00000000
00000000
00010000
10000000
01000000
10000000
,
00010000
02000000
10000000
00000000
00010000
00000000
03200000
00000000
,
10300000
00000000
00000000
00000000
00000000
00000000
01000000
00000000
00000000
00000000
00000000
00000000
00010000
00000000
00000000
00000000
00000000
00000000
00001000
00000000
00010000
00000000
00001000
00000000
00010000
00000000
00000000
00000000
00000000
00000000
00000010
00000000
00000000
00001000
00000000
00000000
00000100
00000000
00000000
00000010
00000000
00000000
00000001
00000000
00000000
00000000
00000000
00000000
,
00001000
00000000
00000002
00000000
00000100
00000000
00000103
00000001
00001000
00000100
00010000
00001000
01000000
00010000
10000000
00000000
,
00010000
00100000
00010000
00000000
10000000
00100000
00010000
00000000
00001000
00000010
00000001
00000000
00001000
00000010
00001000
00000000
,
00000001
00000100
00000010
00000000
00001000
00000000
00001000
00000000
00000001
00000010
00000100
00001000
00000100
00010000
00001000
01000000
,
00001000
00020000
00001000
00000000
00030100
00000000
00001000
00000001
00000010
00000001
00001000
00000010
00010000
00001000
00010000
00000000
,
00001000
00000000
01000000
00010000
10000000
00000000
01000000
00100000
00010000
00000000
00000000
00000000
10010000
00000000
00000000
00000000
,
00010000
00000000
00100000
00000000
10000000
00000000
00010000
00000000
01000000
00000000
00100000
00000000
00010000
10000000
00100000
00000000
,
00010000
00001000
00000010
00000100
00001000
00000010
00020000
00000000
,
00031000
00000000
00001000
00010000
00100000
00000000
10000000
00000000
01000000
00000000
01000000
00010000
00001000
00000000
00000100
00000000
,
00000001
00000000
00000010
00000000
00001000
00000000
00000010
00000000
00000002
00000000
00000103
00000000
00000110
00000000
00000010
00001000
,
00000001
00000000
00000010
00000100
00001000
00000000
00010000
00000000
00001000
00000100
00001000
00000000
00000001
00000000
00000100
00000001
,
00000010
00000000
00000100
00001000
00000100
00000000
00010000
00000000
00011000
00000000
00000000
00000000
10010000
00000000
00000000
00000000
,
10000000
00000000
00010000
01000000
10000000
00000000
01000000
00000000
00010000
10000000
01000000
00100000
00002000
00000000
00023000
00000000
,
00031000
00000000
00000100
00000000
00000001
00000000
00000010
00000000
00000002
00002003
00023000
00230000
01300000
00000000
10000000
00000000
,
00100000
01000000
10000000
00010000
00100000
01000000
00010000
10000000
,
00100000
00010000
00001000
00000000
00000010
00000001
00000010
00000000
00000011
00000000
00000000
00000000
00000210
00000000
00001000
00000310
,
00000200
00000000
00000001
00000310
00000200
00000000
00001000
00000310
00000200
00000000
00000001
00000310
00000100
00000000
00010000
00000000
,
00001000
00000000
00010000
00100000
01000000
00000000
00010000
00000000
00100000
00000000
01000000
00010000
00001000
00000000
00010000
00000000
,
00001000
00000000
00000100
00000010
00001000
00000000
00010000
00000000
02000000
00000000
00000000
00000000
03100000
00000000
10000000
00000000
,
01000000
00000000
00010000
00000000
00001000
00000000
00010000
00000000
00011000
00000000
00000000
00000000
00010000
00000000
00010000
00001000
,
00000100
00000000
00000001
00000000
00001000
00000000
00001000
00000100
00000010
00000001
00001000
00000010
00000100
00001000
00010000
00001000
,
01000000
00010000
10000000
01000000
01100000
00000000
00021000
00000000
,
00000000
00000000
00000000
00000000
00031000
00000000
00010000
00000000
01000000
10000000
00100000
00000000
00020000
00000000
00000000
00000000
,
00032000
00000000
00000000
00000000
00003200
00000000
00000000
00000000
00000302
00000000
00000000
00000000
00000023
00000000
00000130
00020000
,
00000000
00031000
00020000
00000000
00230000
00000000
10300000
00000000
02000000
00000000
03100000
00000000
00022000
00000000
00000000
00033000
,
00010000
00001000
00010000
00001000
00010000
00001000
00010000
00001000
00010000
00001000
00010000
00001000
00010000
00000000
00000000
00000000
00001000
00000000
00000000
00000000
00010000
00000000
00000000
00000000
00100000
00000000
01000000
00000000
00100000
00000000
01000000
00000000
,
00100000
00000000
10000000
01000000
00100000
00001000
00010000
00000000
00011000
00000000
00000000
00001010
00000000
00000000
00011000
00000000
,
00010000
00000100
00001000
00000100
00000010
00000001
00001000
00000000
00000010
00000100
00000010
00000100
00001000
00010000
00001000
00000000
,
00010000
01000000
00100000
00010000
00100000
00000000
01000000
00000000
10000000
00010000
01000000
00100000
10000000
00000000
01000000
00000000
,
00100000
00001000
00010000
00000010
00001000
00000010
00010000
00000000
00001000
00000000
00010000
00000000
00000100
00001000
00000100
00000010
,
00000001
00000000
00000100
00000010
00000000
00000001
00000010
00000000
00001000
00000000
00000001
00001000
00000100
00000000
00000010
00001000
,
00010000
00000000
01000000
00100000
01000000
00100000
01000000
00000000
10000000
00010000
01000000
00100000
01000000
00010000
10000000
00000000
,
01000000
00000000
00010000
00000000
00001000
00000000
00010000
00000000
00000010
00001000
00000010
00000100
00000010
00001000
00000001
00000000
,
00000011
00000000
00000000
00000000
00001100
00000000
00000000
00000000
00001001
00000000
00000000
00000000
00011000
00000000
00001000
01000000
,
00001000
00000000
00000000
00101000
00000000
00000000
00110000
00000000
00010000
00000000
00100000
00000000
00010000
00000000
10000000
00000000
,
00010000
01000000
00100000
10000000
00010000
00000000
10000000
00000000
01000000
00100000
00001000
00010000
00001000
00000000
00000100
00000000
,
00000001
00001000
00000100
00000010
00001000
00000000
00010000
00001000
01000000
00000000
00010000
00000000
00100000
00000000
01000000
00000000
,
00100000
00000000
00001000
00010000
00001000
00010000
00000000
00000100
00000010
00000000
00000100
00000000
00001000
00000001
00000100
00000000
,
00000001
00000010
00000000
00000010
00000100
00000000
00010000
00000000
00001000
00000000
00100000
00001000
00010000
00000000
00001000
01000000
,
00010000
00000000
10000000
01000000
00100000
00000000
00001000
00010000
00000010
00001000
00000010
00001000
00000001
00000010
00000001
00000010
,
00000100
00001000
00000100
00001000
00000100
00010000
00002000
00000000
00023000
00032000
00003020
00000032
00000203
00002300
00023000
00030000
,
00011000
00000000
00001000
01000000
00010000
10000000
01000000
00000000
00100000
00000000
00001000
00000000
00010000
00000010
00010000
00000000
,
00001000
00000000
00010000
00000000
00001000
00000100
00000010
00001000
00000100
00000000
00000010
00000000
00000001
00000000
00000100
00000010
,
00000100
00001000
00000100
00000000
00000001
00000000
00001000
00000010
00010000
00001000
00010000
00000000
00001000
00000000
01000000
00000000
,
00010000
10000000
00010000
00000000
10000000
00000000
01000000
00100000
00010000
00100000
00001000
00010000
00001000
00000000
00001000
00000000
,
00011000
00000000
00010000
00000100
00001000
00000001
00000100
00000000
00000010
00001000
00000001
00000010
00000100
00001000
00000100
00000000
,
00020000
00000000
00001000
00100000
00030000
00100000
00001000
00000000
00010000
00001000
01000000
00010000
10000000
01000000
00100000
00000000
,
01000000
10000000
00010000
01000000
00100000
00000000
00010000
00001000
00000100
00000010
00001000
00000000
00000001
00000010
00001000
00010000
,
00001000
00000000
00000000
00000000
00000000
00000000
00000000
00000000
00000000
00011000
00000000
00000000
00000000
00000000
00000000
00000000
00000000
00000000
00010010
00000000
00000000
00000000
00000000
00000000
00010000
00000000
00000000
00000000
00000000
00000000
00000100
00000000
00001000
00000000
00000001
00000000
00001000
00000000
00000000
00000000
00000000
00000000
00000001
00000000
00000000
00000000
00000000
00000000
,
00000100
00000001
00001000
00000000
00000100
00010000
00001000
00000000
01000000
00010000
10000000
00000000
01000000
00100000
00001000
00000000
,
00010000
00000010
00001000
00000001
00001000
00000100
00010000
00000000
00001000
01000000
00010000
10000000
00010000
00100000
00001000
00000000
,
00020000
00032000
00003020
00000031
00000002
00000203
00002300
00013000
,
00010000
00001000
01000000
00000000
00001000
00010000
00000100
00000000
00001000
00000001
00000100
00000010
00000100
00000001
00001000
00000000
,
00000001
00000000
00000010
00000100
00000010
00000001
00001000
00000000
00000010
00010000
00001000
00010000
00000100
00010000
00001000
00000000
,
00100000
00000000
00001000
00010000
00001000
01000000
00010000
00000000
10000000
01000000
00100000
00010000
10000000
00010000
01000000
00001000
,
00010000
00000100
00010000
00000100
00001000
00000100
00000010
00000001
00001000
00000010
00000100
00000010
00001000
00000000
00000001
00000000
,
00000010
00000000
00000100
00001000
00000001
00000100
00000010
00000100
00001000
00010000
00100000
01000000
00100000
10000000
00010000
00100000
,
02000000
00000000
00000000
00000000
00000000
00000000
00000000
13000000
,
00100000
00000000
00010000
00000000
00001000
00010000
00011000
00000000
,
00000110
00000000
00000000
00000000
00001000
00000000
00000100
00000000
00000000
00000000
00000010
00000000
00000001
00000000
00001000
00000010
,
00001000
00000100
00000010
00001000
00010000
01000000
10000000
10010000
;
