#TITLE:ストレイ・マーチ;
#ARTIST:少年ゾディアック;
#TITLETRANSLIT:Stray march;
#ARTISTTRANSLIT:Shounen zodiac;
#GENRE:ZODIAC ORACLE 1;
#BANNER:Stray march.png;
#BACKGROUND:Stray march-bg.png;
#CDTITLE:./CDTitles/RB colette -Spring-.png;
#MUSIC:Stray march.ogg;
#SAMPLESTART:69.111;
#SAMPLELENGTH:15;
#BPMS:0=180;
#BGSTAGE:30;

//--------------- dance-single - Fred-104 ----------------
#NOTES:
     dance-single:
     Fred-104:
     Beginner:
     3:
     :
0000
0000
0000
0000
,
0000
0000
0000
0000
,
0000
0000
0000
0000
,
0000
0000
0000
0000
,
0000
0000
0000
0000
,
1000
0000
0000
0000
,
0001
0000
0000
0000
,
1000
0000
0000
0000
,
0001
0000
0000
0000
,
1001
0000
0000
0000
,
1000
0000
0000
0000
,
0001
0000
0000
0000
,
0010
0000
0000
0000
,
0001
0000
0000
0000
,
0100
0000
0000
0000
,
0001
0000
0000
0000
,
1000
0000
0000
0000
,
0001
0000
0000
0000
,
1000
0000
0000
0000
,
0001
0000
0000
0000
,
1001
0000
0000
0000
,
1000
0000
0010
0000
,
1000
0000
0000
0000
,
0001
0000
0100
0000
,
0010
0000
0000
0000
,
0100
0000
0001
0000
,
1000
0000
0000
0000
,
0001
0000
1000
0000
,
0002
0000
0000
0000
,
0000
0000
0000
0000
,
0003
0000
0000
0000
,
0000
0000
0000
0000
,
2000
0000
3000
0000
,
0002
0000
0003
0000
,
2000
0000
3000
0000
,
0002
0000
0003
0000
,
1000
0000
1000
0000
,
0100
0000
0100
0000
,
0010
0000
0010
0000
,
0001
0000
0001
0000
,
1000
0000
1000
0000
,
0001
0000
0001
0000
,
0100
0000
0100
0000
,
0010
0000
0010
0000
,
2000
0000
3000
0000
,
0002
0000
0003
0000
,
2000
0000
3000
0000
,
0002
0000
0003
0000
,
0200
0000
0300
0000
,
0020
0000
0030
0000
,
0200
0000
0300
0000
,
0020
0000
0030
0000
,
1001
0000
0000
0000
,
0001
0000
1000
0000
,
0100
0000
1000
0000
,
0001
0000
1000
0000
,
0010
0000
0100
0000
,
0001
0000
1000
0000
,
0100
0000
1000
0000
,
0001
0000
0001
0000
,
1001
0000
0000
0000
,
1000
0000
0001
0000
,
0010
0000
0100
0000
,
1000
0000
0001
0000
,
0100
0000
0100
0000
,
0010
0000
0010
0000
,
0100
0000
0100
0000
,
0001
0000
1000
0000
,
1001
0000
0000
0000
,
0000
0000
0000
0000
,
0002
0003
2000
3000
,
0002
0003
2000
3000
,
1001
0000
0000
0000
,
0001
0000
1000
0000
,
0100
0000
0100
0000
,
0010
0000
0010
0000
,
0100
0000
1000
0000
,
0001
0000
1000
0000
,
0002
0003
0002
0003
,
1000
0000
0001
0000
,
0200
0300
0200
0300
,
0010
0000
0010
0000
,
0200
0300
0200
0300
,
0001
0000
0001
0000
,
2000
3000
2000
3000
,
0001
0001
0001
0001
,
2002
0000
0000
0000
,
0000
0000
0000
0000
,
0000
0000
0000
0000
,
0000
0000
0000
0000
,
0000
0000
0000
0000
,
0000
0000
0000
0000
,
3003
0000
0000
0000
;

//--------------- dance-single - Fred-104 ----------------
#NOTES:
     dance-single:
     Fred-104:
     Easy:
     7:
     :
0000
0000
0000
0000
,
0000
0000
0000
0000
,
0000
0000
0000
0000
,
0000
0000
0000
0000
,
0000
0000
0000
0000
,
0001
0000
1000
0000
,
0001
0000
0100
0000
,
0001
0001
1000
1000
,
0002
0000
2000
3003
,
1000
1000
0001
0001
,
1001
0000
0001
0000
,
0100
0001
1000
0000
,
0001
0000
0010
0000
,
1000
0000
0010
0001
,
1000
0000
0001
0000
,
0100
0010
0100
0000
,
0001
1000
0001
0000
,
1000
0001
0100
0000
,
0010
0000
0100
0000
,
0001
0010
1000
0010
,
0001
0000
1000
0000
,
0001
0000
0100
0010
,
0100
0000
0001
0000
,
1100
0000
0011
0000
,
1000
0000
0001
0000
,
0100
0010
0100
0000
,
0001
0000
1000
0000
,
0100
0100
1000
1000
,
2002
0000
0000
0000
,
3003
0000
0001
1000
,
0001
0100
0020
0000
,
0000
0000
1030
0010
,
0100
0000
0000
0001
,
1000
0000
0000
0100
,
0010
0000
0000
0001
0000
0000
1000
0000
1000
0000
1000
0000
,
2002
0000
0000
3003
,
2000
3000
0200
0300
,
0020
0030
0001
1000
,
0002
0003
0200
0300
,
0020
0030
0100
0001
,
2000
3000
0200
0300
,
0002
0003
0100
1000
,
0002
0003
0200
0300
,
0001
1000
0001
0100
,
0002
0000
1003
0000
,
0002
0000
0103
0000
,
0020
0000
0230
0000
,
0302
0000
1003
0000
,
0001
0000
0101
0000
,
1000
0000
1010
0000
,
2002
0000
0000
3003
,
0220
0000
0330
0000
,
0002
0000
1003
0100
,
0001
0000
0010
0000
,
1000
1000
0001
0100
,
0110
0000
1001
0000
,
0001
0001
0010
0010
,
1000
1000
0100
0100
,
0001
1000
0001
0100
,
0002
0000
1003
0000
,
1001
0000
0001
0000
,
1000
0100
0001
0100
,
1000
1000
0001
0100
,
0110
0000
0001
0000
,
1000
1000
0100
0100
,
0010
0010
0001
0001
,
1000
0000
0001
0000
,
1000
0010
0001
0100
,
1000
0000
0000
0000
,
0000
0000
0000
0000
,
0001
0000
0001
0000
0001
0000
1000
0000
1000
0000
1000
0000
,
0001
0000
0001
0000
0001
0000
1000
0000
1000
0000
1000
0000
,
0001
0000
0100
0000
,
0001
0010
0100
1000
,
0001
0100
0110
0000
,
1000
0100
0110
0000
,
0001
0000
1000
0000
,
0001
0000
0001
0000
0001
0000
0001
0000
0000
1000
0000
0000
,
1001
0000
0002
0003
,
1000
0010
0100
0001
,
2000
3000
0100
0010
,
0001
0010
1000
0010
,
0002
0003
2000
3000
,
0001
0100
0010
1000
,
0200
0300
2000
3000
,
0001
0000
0000
0100
0000
0000
0001
0000
0001
0000
1000
0000
,
2002
0000
0000
0000
,
0000
0000
0000
0000
,
0000
0000
0000
0000
,
0000
0000
0000
0000
,
0000
0000
0000
0000
,
0000
0000
0000
0000
,
3003
0000
0000
0000
;

//--------------- dance-single - Fred-104 ----------------
#NOTES:
     dance-single:
     Fred-104:
     Medium:
     11:
     :
0000
0000
0000
0000
,
0000
0000
0000
0000
,
0000
0000
0000
0000
,
0000
0000
0000
0000
,
0000
0000
0000
0000
,
1000
0000
0100
0000
,
0001
0000
0010
0000
,
1000
0001
0010
0100
,
2000
0000
0002
3003
,
1000
0100
0001
0100
,
1001
0000
0000
1000
0000
0010
0100
0000
0000
0001
0000
0000
,
1000
0000
0000
0001
0000
0100
0001
0000
0010
0100
0000
0000
,
1000
0000
0000
0100
0000
0010
0001
0000
0000
0100
0000
0010
,
1000
0000
0010
0100
0000
0001
1000
0000
0100
0000
0010
0000
,
0001
0000
0000
1000
0000
0010
0100
0000
0000
0010
0000
1000
,
0100
0000
0010
0001
0000
1000
0001
0000
0100
0000
0010
0000
,
1000
0000
0100
0000
0001
0000
1000
0000
0010
0000
0001
0000
,
1000
0000
0010
0000
0001
0000
1000
0000
0100
0000
0001
0000
,
1000
0000
0001
0000
0100
0000
0010
0000
0000
0000
0100
0000
,
0001
0000
1000
0000
0001
0000
0100
0000
0000
0110
0000
0000
,
1001
0000
0000
0001
0000
0010
0100
0000
0000
1000
0000
0010
,
0100
0000
0000
0001
0000
1000
0100
0000
0100
0010
0000
0010
,
0001
0000
0000
1000
0000
0001
0010
0000
0010
0100
0000
0000
,
1000
0100
1000
0100
0000
0000
0010
0001
0010
0001
0000
0000
,
1000
0000
0000
0001
0000
0100
0010
0000
0000
0100
0000
0001
,
0010
0000
0000
0100
0000
1000
0001
0000
0100
0010
0000
1000
,
0001
0000
0000
0010
0000
0100
1000
0000
0000
0001
0000
1000
,
0001
0000
0001
0100
0000
0100
0010
0000
1000
0000
0001
0000
,
2002
0000
0000
0000
,
3003
0000
1000
0100
,
0001
0010
2000
0000
,
0000
0000
3001
0100
,
1000
0010
0001
1000
,
0100
0010
1000
0010
,
0001
0000
0000
1000
0000
0000
0001
0000
1000
0000
0001
0000
,
0200
0000
0000
0300
,
1001
0000
0000
0001
0000
0100
0001
0000
0000
1000
0000
0100
,
1000
0000
0000
0001
0000
0010
0001
0000
0000
1000
0000
0010
,
1000
0000
0000
0001
0000
0010
0100
0000
0000
1000
0000
0010
,
0100
0000
0000
0001
0000
0100
0010
0000
0000
1000
0000
0100
,
0010
0000
0000
0001
0000
0001
0100
0000
0000
1000
0000
1000
,
0100
0000
0000
0001
0000
0001
0010
0000
0000
1000
0000
1000
,
0010
0000
0000
0001
0000
0100
0010
0000
0000
1000
0000
0100
,
0010
0000
0000
0001
0000
0001
1000
0000
1000
0010
0000
0100
,
0001
0000
1000
0000
0001
0000
0202
0000
0000
0303
0000
0000
,
1000
0000
0100
0000
0010
0000
0022
0000
0000
0033
0000
0000
,
0001
0000
0100
0000
0010
0000
0100
0000
0001
0000
1000
0000
,
0001
0000
0010
0000
0100
0000
2200
0000
0000
3300
1000
0000
,
0100
0000
0010
0000
0001
0000
2002
0000
0000
3003
0001
0000
,
0100
0000
0010
0000
1000
0000
2002
0000
0000
3003
1000
0000
,
0002
0000
0000
0003
0000
0000
1000
0000
0001
0000
0100
0000
,
0110
0000
0110
0000
0110
0000
2002
0000
0000
3003
1000
0000
,
0100
0000
0000
1000
0000
0010
0100
0000
0001
0000
1000
0000
,
0100
0000
0000
0010
0000
0001
1000
0000
0010
0100
0000
0000
,
0001
0000
0001
0100
0000
0000
1000
0000
1000
0100
0000
0000
,
0001
0000
0001
0010
0000
0000
1000
0000
1000
0010
0000
0000
,
0001
0101
1000
1100
,
0001
0011
1000
1100
,
1010
0011
1100
0101
,
1000
0000
0001
0000
0100
0000
0010
0000
0000
0110
0000
0000
,
1001
0000
0000
0001
0000
0100
0001
0000
0000
1000
0000
0001
,
0010
0000
0000
0100
0000
0010
0001
0000
1000
0000
0001
0000
,
1000
0000
0100
0010
0000
0000
0001
0000
0100
0010
0000
0000
,
1000
0000
0010
0100
0000
0000
0001
0000
0010
0100
0000
0000
,
2100
3010
0102
0013
,
2010
3100
0012
0103
,
1001
0000
0000
1000
0000
0001
0100
0000
0000
0001
0000
1000
,
0100
0000
0100
0010
0000
0010
0001
0000
0001
1000
0000
0000
,
1001
0000
0000
0000
,
0000
0000
0000
0000
,
1000
0000
0100
0000
0100
0000
0001
0000
0010
0000
0010
0000
,
1000
0000
0100
0000
0010
0000
0001
0000
0100
0000
0010
0000
,
1001
0000
0000
1000
0000
0001
0100
0000
0000
0001
0000
0010
,
0100
0000
0010
0001
0000
1000
0001
0000
0100
0000
1000
0000
,
0100
0000
0001
0000
1000
0000
0001
0000
0010
0000
0100
0000
,
1000
0000
0010
0000
0001
0000
0010
0000
0100
0000
0001
0000
,
1000
0000
0000
0100
0000
0010
0001
0000
1000
0001
0000
0100
,
0010
0000
1000
0000
0001
0000
0010
0000
0000
0110
0000
0000
,
1001
0000
0000
1000
0000
0001
0100
0000
0000
0001
0000
1000
,
0100
0000
0000
1000
0000
0001
0010
0000
0100
0010
0000
0001
,
1000
0000
0000
0001
0000
0100
0010
0000
1000
0010
0000
0000
,
0110
1000
0110
0001
,
1000
0000
0000
0001
0000
0100
0010
0000
0000
1000
0000
0001
,
0010
0000
0000
0100
0000
0010
0001
0000
1000
0001
0000
0010
,
0100
0000
0000
1000
0000
0001
1000
0000
1000
0010
0000
0010
,
0100
0000
0100
0001
1000
0001
1000
0000
0001
0000
1000
0000
,
2002
0000
0000
0000
,
0000
0000
0000
0000
,
0000
0000
0000
0000
,
0000
0000
0000
0000
,
0000
0000
0000
0000
,
0000
0000
0000
0000
,
3003
0000
0000
0000
;

//--------------- dance-single - Fred-104 ----------------
#NOTES:
     dance-single:
     Fred-104:
     Hard:
     15:
     :
0000
0000
0000
0000
,
0000
0000
0000
0000
,
0000
0000
0000
0000
,
0000
0000
0000
0000
,
0000
0000
0000
0000
,
1000
0000
0010
0000
,
0001
0000
0100
0000
,
1000
0001
0100
0010
,
2000
0000
0002
3003
,
1001
0000
1000
0001
0000
0001
1000
0010
0100
0001
0100
0010
,
1000
0000
0000
0001
0100
0010
1000
0000
0000
0100
0010
0001
,
1000
0000
0000
0010
1000
0001
0100
0000
0000
1001
0000
0000
,
0011
0000
0000
1001
0000
1000
0100
0000
0000
1001
0000
0001
,
0100
0000
0000
1001
0000
1000
0100
0000
0010
0000
0001
0000
,
0101
0000
0000
0001
1000
0010
0100
0000
0000
0010
1000
0001
,
1000
0000
0000
1100
0000
0100
0010
0000
0001
0000
0100
0000
,
0010
0000
1000
0000
0001
0000
1001
0000
1000
0001
0000
0001
,
0100
0000
0010
0000
1000
0000
1100
0000
0000
0001
1000
0001
,
0010
0000
0000
0110
0000
0100
1000
0000
0001
0100
0010
1000
,
0001
0000
0010
0000
0100
0000
1100
0000
0000
1001
0000
1000
,
0001
0000
0000
0101
0000
0001
1000
0001
0010
0001
0000
1000
,
0001
0010
0100
0010
0000
0100
1000
0001
1000
0010
0000
0100
,
0001
0000
0000
1001
0000
1000
0100
0010
0001
0010
0000
0001
,
1000
0100
0000
0110
0000
0010
0001
1000
0010
0100
0000
0000
,
1001
0000
0000
1000
0001
0010
0001
1000
0001
0100
0000
0010
,
0100
0000
0000
0101
0000
0001
1000
0100
0010
0100
0000
1000
,
0001
0101
1000
1100
,
0001
0010
0000
0110
0000
0100
1000
0000
0001
0000
1000
0000
,
2002
0000
0000
0000
,
0000
3003
2000
3200
,
0320
0032
2003
0000
,
0000
0000
3002
0203
,
2300
3200
0320
0230
,
0302
2003
3200
0320
,
0032
0000
0000
2003
0000
0000
3002
0000
0203
0000
0320
0000
,
0230
0000
0000
0301
,
1001
0000
0000
1000
0100
0010
0001
0000
0000
1000
0100
0010
,
0001
0000
0000
1000
0010
0100
0001
0000
0000
1000
0010
0100
,
0001
0000
0000
1000
0001
0010
0100
0000
0000
1000
0001
0010
,
0100
0000
0000
1000
0001
0100
0010
0000
0000
1000
0001
0100
,
0010
0000
0000
1000
0100
0010
0100
0000
0000
1000
0010
0100
,
0010
0000
0000
1000
0001
0010
0100
0000
0000
1000
0100
0010
,
0001
0000
0000
1000
0001
0100
0010
0000
0000
1000
0010
0100
,
0001
0000
0000
1000
0100
0010
0001
0100
0010
1000
0100
0010
,
0001
0000
1000
0000
0010
0000
0220
0000
0000
0330
0000
0000
,
0100
0000
0001
0000
1000
0000
2200
0000
0000
3300
0000
0000
,
1000
0000
0100
0000
0001
0000
1000
0000
0010
0000
0001
0000
,
1000
0000
0100
0000
0010
0000
2002
0000
0000
3003
0001
0000
,
0100
0000
0001
0000
0011
0000
2002
0000
0000
3003
0000
0000
,
1000
0000
0100
0000
1100
0000
2002
0000
0000
3003
0001
0000
,
0200
0000
0000
0000
0000
0300
1100
0000
0101
0000
1010
0000
,
0011
0000
1100
0000
0101
0000
2002
0000
0000
3003
0001
0000
,
0100
0010
1000
0010
0000
0100
0001
1000
0100
0010
0001
1000
,
0001
0000
0100
0010
1000
0010
0100
0001
1000
0100
0000
0000
,
1000
0100
0010
0001
0000
0001
1000
0010
0100
0001
0000
0001
,
0010
0100
0010
0001
0000
0001
0100
0010
0100
0001
0000
0001
,
1000
0000
1000
0100
0000
0001
0100
0000
1000
0001
0000
0010
,
0001
0000
0001
0100
0000
1000
0100
0000
0001
1000
0000
0010
,
1000
0000
1000
0100
0000
0100
0010
0000
0001
1000
0000
0000
,
1010
0000
0101
0000
1100
0000
0110
0000
0000
1001
0000
0000
,
0110
0000
0000
1000
0100
0010
0001
1000
0010
1000
0001
0100
,
0010
0000
0000
0100
0001
1000
0010
0000
1010
0000
1001
0000
,
0001
0100
0010
1000
0000
0000
0001
0010
0100
1000
0000
0000
,
1001
0000
0001
1000
0100
0010
0001
0100
0010
0100
0010
1000
,
0001
0010
0100
1100
0000
0000
0001
0100
0010
1010
0000
0000
,
1000
0100
0010
0011
0000
0000
1000
0010
0100
0101
0000
0000
,
0110
0000
0000
1001
0000
0001
0100
0010
1000
0010
0100
0001
,
1000
0100
0010
0100
0010
0001
1000
0010
0100
0010
0100
0001
,
1000
0000
0000
0000
,
0000
0000
0000
2000
,
3001
0000
0101
0000
1100
0000
1000
0000
1010
0000
0011
0000
,
0001
0000
0101
0000
1100
0000
1000
0000
1010
0000
0011
0000
,
1001
0000
0000
1100
0000
0100
0010
0000
0000
0011
0000
0001
,
1000
0001
0100
0010
1000
0010
0100
0000
0101
0000
1001
0000
,
1100
0000
0110
0000
0011
0000
1001
0000
0001
1000
0010
0100
,
0010
0000
1010
0000
0101
0000
1100
0000
0000
0001
0000
1000
,
0100
0000
0000
0010
0000
0100
1000
0001
0100
0010
1000
0001
,
1000
0000
0100
0000
0010
0000
0001
0000
0000
1001
0000
0001
,
1000
0000
1000
0100
0010
0100
1000
0000
1000
0010
0100
0010
,
1000
0000
1000
0100
0001
0100
1000
0000
0010
0100
0000
0001
,
1000
0000
1000
0010
0001
0010
1000
0010
0100
0001
1000
0001
,
1000
0100
0010
0001
0000
1000
0010
0100
0001
2000
0000
0000
,
3001
0010
0100
0010
0000
0010
0001
0100
0010
0100
0000
0100
,
0001
0010
1000
0010
0000
0001
1000
0100
0010
0001
0100
0010
,
1000
0000
0000
1100
0000
0001
0100
0010
1000
0010
0100
0001
,
1000
0100
0010
0001
0100
0010
1000
0000
0100
0000
0010
0000
,
2002
0000
0000
0000
,
0000
0000
0000
0000
,
0000
0000
0000
0000
,
0000
0000
0000
0000
,
0000
0000
0000
0000
,
0000
0000
0000
0000
,
3003
0000
0000
0000
;

//--------------- dance-double - Fred-104 ----------------
#NOTES:
     dance-double:
     Fred-104:
     Easy:
     7:
     :
00000000
00000000
00000000
00000000
,
00000000
00000000
00000000
00000000
,
00000000
00000000
00000000
00000000
,
00000000
00000000
00000000
00000000
,
00000000
00000000
00000000
00000000
,
00000001
00000000
00001000
00000000
,
00000001
00000000
00000100
00000000
,
00001000
00010000
00100000
01000000
,
00020000
00000000
20000000
30030000
,
10000000
00100000
00010000
00100000
,
10010000
00000000
10000000
00000000
,
01000000
00100000
00001000
00000000
,
00010000
00000000
00001000
00000000
,
00000010
00000000
00001000
00010000
,
00001000
00000000
00010000
00000000
,
00000100
00001000
00000001
00000000
,
00000100
00000010
00000100
00000000
,
00000001
00000100
00001000
00000000
,
00010000
00000000
01000000
00000000
,
10000000
00100000
00010000
00100000
,
10000000
00000000
01000000
00000000
,
00100000
00000000
00001000
00010000
,
00001000
00000000
00010000
00000000
,
00010010
00000000
01001000
00000000
,
00010000
00000000
00001000
00000000
,
00000100
00000010
00001000
00000000
,
00000100
00000000
00010000
00000000
,
00001000
00010000
00100000
10000000
,
20020000
00000000
00000000
00000000
,
30030000
00000000
10000000
01000000
,
00010000
00001000
00020000
00000000
,
00000000
00000000
00031000
00000010
,
00000001
00000000
00000000
00000100
,
00001000
00000000
00000000
00010000
,
00100000
00000000
00000000
01000000
00000000
00000000
00010000
00000000
00100000
00000000
00001000
00000000
,
00022000
00000000
00000000
00033000
,
00020000
00030000
00002000
00003000
,
00000020
00000030
00001000
00010000
,
00002000
00003000
00020000
00030000
,
02000000
03000000
00010000
00001000
,
00020000
00030000
00002000
00003000
,
00000200
00000300
00000010
00001000
,
00000002
00000003
00000020
00000030
,
00001000
00010000
01000000
00100000
,
00020000
00000000
10030000
00000000
,
02000000
00000000
03100000
00000000
,
00002000
00000000
00023000
00000000
,
00032000
00000000
00013000
00000000
,
00001000
00000000
00010100
00000000
,
00001000
00000000
00010010
00000000
,
00022000
00000000
00000000
00033000
,
02200000
00000000
03300000
00000000
,
20000000
00000000
31000000
00010000
,
01000000
00000000
10000000
00000000
,
01000000
00100000
00001000
00010000
,
00011000
00000000
00010010
00000000
,
00010000
00001000
00000100
00000010
,
00010000
00001000
00000010
00000100
,
00001000
00000100
00000010
00000001
,
00002000
00000000
00003010
00000000
,
00000110
00000000
00000001
00000000
,
00001000
00000010
00010000
00001000
,
00010000
00001000
00100000
00010000
,
10010000
00000000
10000000
00000000
,
01000000
01000000
00100000
00100000
,
00001000
00001000
00010000
00010000
,
00000010
00000000
00010000
00000000
,
00001000
00010000
00100000
01000000
,
00001000
00000000
00000000
00000000
,
00000000
00000000
00000000
00000000
,
00001000
00000000
00001000
00000000
00001000
00000000
00010000
00000000
00010000
00000000
00010000
00000000
,
00001000
00000000
00010000
00000000
00010000
00000000
00001000
00000000
00001000
00000000
00001000
00000000
,
00010000
00000000
01000000
00000000
,
10000000
00010000
00100000
01000000
,
10000000
01000000
01100000
00000000
,
00010000
01000000
01100000
00000000
,
10000000
00000000
00010000
00000000
,
00100000
00000000
00001000
00000000
00010000
00000000
00000100
00000000
00000000
00001000
00000000
00000000
,
00001100
00000000
00000200
00000300
,
00000010
00000001
00001000
00000010
,
00020000
00030000
00001000
00010000
,
00001000
00000010
00001000
00010000
,
00002000
00003000
02000000
03000000
,
00001000
00010000
00100000
10000000
,
02000000
03000000
00020000
00030000
,
00001000
00000000
00000000
00010000
00000000
00000000
00100000
00000000
10000000
00000000
01000000
00000000
,
20020000
00000000
00000000
00000000
,
00000000
00000000
00000000
00000000
,
00000000
00000000
00000000
00000000
,
00000000
00000000
00000000
00000000
,
00000000
00000000
00000000
00000000
,
00000000
00000000
00000000
00000000
,
30030000
00000000
00000000
00000000
;

//--------------- dance-double - Fred-104 ----------------
#NOTES:
     dance-double:
     Fred-104:
     Medium:
     11:
     :
00000000
00000000
00000000
00000000
,
00000000
00000000
00000000
00000000
,
00000000
00000000
00000000
00000000
,
00000000
00000000
00000000
00000000
,
00000000
00000000
00000000
00000000
,
00010000
00000000
00001000
00000000
,
00000010
00000000
00001000
00000000
,
00010000
00001000
00000010
00000100
,
00020000
00000000
00002000
00033000
,
00010000
00001000
00000100
00000001
,
00001001
00000000
00000000
00000001
00000000
00000010
00000100
00000000
00000000
00001000
00000000
00000000
,
00000001
00000000
00000000
00000100
00000000
00000010
00000100
00000000
00001000
00010000
00000000
00000000
,
00100000
00000000
00000000
01000000
00000000
00010000
10000000
00000000
00000000
00010000
00000000
00100000
,
01000000
00000000
10000000
00100000
00000000
01000000
00010000
00000000
10000000
00000000
01000000
00000000
,
00100000
00000000
00000000
00001000
00000000
00010000
00001000
00000000
00000000
01000000
00000000
00001000
,
00010000
00000000
00000100
00010000
00000000
00000100
00001000
00000000
00000100
00000000
00000010
00000000
,
00000001
00000000
00000100
00000000
00001000
00000000
00010000
00000000
00100000
00000000
01000000
00000000
,
00010000
00000000
10000000
00000000
01000000
00000000
00010000
00000000
00001000
00000000
00000010
00000000
,
00000100
00000000
00001000
00000000
00000001
00000000
00001000
00000000
00000000
00000000
00000100
00000000
,
00010000
00000000
00001000
00000000
00010000
00000000
00001000
00000000
00000000
00101000
00000000
00000000
,
00011000
00000000
00000000
00001000
00000000
00100000
00010000
00000000
00000000
10000000
00000000
01000000
,
00100000
00000000
00000000
00010000
00000000
10000000
00100000
00000000
00100000
01000000
00000000
01000000
,
00010000
00000000
00000000
00100000
00000000
00001000
00010000
00000000
00010000
00000010
00000000
00000000
,
00001000
00000100
00001000
00000100
00000000
00000000
00000010
00000001
00000010
00000001
00000000
00000000
,
00001000
00000000
00000000
00000001
00000000
00000010
00000100
00000000
00000000
00010000
00000000
00001000
,
00010000
00000000
00000000
00000010
00000000
00010000
00001000
00000000
00100000
00001000
00000000
00010000
,
00001000
00000000
00000000
00100000
00000000
00010000
10000000
00000000
00000000
01000000
00000000
00100000
,
00010000
00000000
10000000
00100000
00000000
01000000
00010000
00000000
01000000
00000000
00001000
00000000
,
00022000
00000000
00000000
00000000
,
00033000
00000000
00001000
00010000
,
00100000
10000000
00020000
00000000
,
00000000
00000000
10030000
01000000
,
00010000
00001000
00000010
00000001
,
00000100
00001000
00010000
00100000
,
10000000
00000000
00000000
01000000
00000000
00000000
00010000
00000000
00001000
00000000
00000010
00000000
,
00000002
00000000
00000000
00000003
,
00001001
00000000
00000000
00000001
00000000
00000001
00000100
00000000
00000000
00000010
00000000
00000010
,
00010000
00000000
00000000
00001000
00000000
00001000
00100000
00000000
00000000
00010000
00000000
00010000
,
10000000
00000000
00000000
00100000
00000000
00100000
01000000
00000000
00000000
00001000
00000000
00001000
,
00010000
00000000
00000000
00000010
00000000
00000010
00001000
00000000
00000000
00000001
00000000
00000001
,
00001000
00000000
00000000
00000010
00000000
00000100
00000001
00000000
00000000
00000010
00000000
00000100
,
00001000
00000000
00000000
00000001
00000000
00000100
00000010
00000000
00000000
00010000
00000000
00001000
,
01000000
00000000
00000000
00010000
00000000
01000000
00100000
00000000
00000000
10000000
00000000
01000000
,
00100000
00000000
00001000
00010000
00000000
00100000
01000000
00000000
00010000
10000000
00000000
01000000
,
10000000
00000000
01000000
00000000
00100000
00000000
00022000
00000000
00000000
00033000
00000000
00000000
,
01000000
00000000
00001000
00000000
00010000
00000000
00020200
00000000
00000000
00030300
00000000
00000000
,
00010000
00000000
00001000
00000000
00000100
00000000
00000010
00000000
00010000
00000000
00001000
00000000
,
00000100
00000000
00000001
00000000
00000010
00000000
00000220
00000000
00000000
00000330
00000001
00000000
,
00000100
00000000
00001000
00000000
00010000
00000000
00022000
00000000
00000000
00033000
00001000
00000000
,
00010000
00000000
00100000
00000000
10000000
00000000
20020000
00000000
00000000
30030000
10000000
00000000
,
02000000
00000000
00000000
03000000
00000000
00000000
00100000
00000000
00001000
00000000
00010000
00000000
,
00011000
00000000
00011000
00000000
00011000
00000000
00022000
00000000
00000000
00033000
00010000
00000000
,
00000010
00000000
00000000
00001000
00000000
00000001
00001000
00000000
00000010
00000000
00000100
00000000
,
00000001
00000010
00001000
00010000
,
01000000
00000000
00100000
00010000
00000000
00000000
10000000
00000000
00100000
01000000
00000000
00000000
,
00010000
00000000
10000000
01000000
00000000
00000000
00010000
00000000
00001000
00010000
00000000
00000000
,
00001000
00101000
00010000
00010010
,
00001000
01001000
00010000
00010100
,
00010000
00001000
00000100
00000010
,
00010000
00000000
00001000
00000000
01000000
00000000
00100000
00000000
00000000
01100000
00000000
00000000
,
10010000
00000000
00000000
10000000
00000000
01000000
00100000
00000000
00000000
00001000
00000000
00010000
,
00001000
00000000
00000000
01000000
00000000
00100000
00010000
00000000
00001000
00000000
00100000
00000000
,
00001000
00000000
00010000
00000010
00000000
00000000
00010000
00000000
00000100
00001000
00000000
00000000
,
00000100
00000000
00010000
00001000
00000000
00000000
01000000
00000000
00001000
00010000
00000000
00000000
,
00001000
00010000
00100000
10000000
,
01000000
00010000
00001000
00010000
,
00001000
00000000
00000000
00010000
00000000
00000100
00001000
00000000
00000010
00000100
00000000
00000001
,
00000100
00000000
00000100
00000010
00000000
00000010
00001000
00000000
00000100
00010000
00000000
00000000
,
00011000
00000000
00000000
00000000
,
00000000
00000000
00000000
00000000
,
00010000
00000000
00001000
00000000
00000100
00000000
00000001
00000000
00000010
00000000
00001000
00000000
,
00010000
00000000
01000000
00000000
10000000
00000000
00100000
00000000
00010000
00000000
00001000
00000000
,
00011000
00000000
00000000
00010000
00000000
00000100
00001000
00000000
00000000
00000001
00000000
00001000
,
00000010
00000000
00010000
00001000
00000000
00100000
00010000
00000000
10000000
00000000
01000000
00000000
,
00100000
00000000
00001000
00000000
00010000
00000000
00100000
00000000
10000000
00000000
01000000
00000000
,
00010000
00000000
00001000
00000000
00000010
00000000
00000100
00000000
00000010
00000000
00000001
00000000
,
00000100
00000000
00000000
00001000
00000000
00010000
00100000
00000000
01000000
00100000
00000000
10000000
,
00010000
00000000
01000000
00000000
00100000
00000000
10000000
00000000
00000000
11000000
00000000
00000000
,
01100000
00000000
00000000
00100000
00000000
00001000
00010000
00000000
00000000
00000010
00000000
00010000
,
00001000
00000000
00000000
00100000
00000000
00001000
00010000
00000000
00000100
00001000
00000000
00000001
,
00001000
00000000
00000000
00000001
00000000
00000100
00001000
00000000
00010000
00001000
00000000
00000000
,
00011000
00100000
10010000
01000000
,
10000000
00000000
00000000
01000000
00000000
00100000
00001000
00000000
00000000
00010000
00000000
00000010
,
00010000
00000000
00000000
00001000
00000000
00010000
00000100
00000000
00001000
00000001
00000000
00000010
,
00000100
00000000
00000000
00010000
00000000
00001000
00000100
00000000
00000010
00000100
00000000
00001000
,
00010000
00000000
00001000
00100000
00010000
10000000
00100000
00000000
01000000
00000000
00001000
00000000
,
00022000
00000000
00000000
00000000
,
00000000
00000000
00000000
00000000
,
00000000
00000000
00000000
00000000
,
00000000
00000000
00000000
00000000
,
00000000
00000000
00000000
00000000
,
00000000
00000000
00000000
00000000
,
00033000
00000000
00000000
00000000
;

//--------------- dance-double - Fred-104 ----------------
#NOTES:
     dance-double:
     Fred-104:
     Hard:
     15:
     :
00000000
00000000
00000000
00000000
,
00000000
00000000
00000000
00000000
,
00000000
00000000
00000000
00000000
,
00000000
00000000
00000000
00000000
,
00000000
00000000
00000000
00000000
,
10000000
10000000
01000000
01000000
,
00010000
00010000
00001000
00001000
,
00000010
00000100
00001000
00000001
,
00002000
00000000
00000002
00003003
,
00000001
00000100
00000001
00001000
00000100
00001000
00000010
00010000
00001000
00010000
00000000
00000000
,
00011000
00000000
00000000
00001000
00010000
01000000
10000000
00000000
00000000
00010000
00100000
01000000
,
10000000
00000000
00000000
00100000
10000000
00010000
01000000
00000000
00001000
00010000
00000000
00000000
,
00011000
00000000
00000000
00010010
00000000
00010000
00001000
00000000
00000000
00101000
00000000
00001000
,
00010000
00000000
00001000
00100000
00000000
00001000
00010000
00000000
00000010
00000000
00001000
00000000
,
00001100
00000000
00000000
00010000
00001000
00000100
00000001
00000000
00000000
00001000
00000100
00000010
,
00000001
00000000
00000000
00001001
00000000
00000001
00000100
00000000
00001000
00000000
00010000
00000000
,
00100000
00000000
01000000
00000000
00010000
00000000
10000000
00000000
01000000
00100000
00000000
00001000
,
00010000
00000000
00001000
00000000
00000100
00000000
00000010
00000000
00000000
00001000
00000001
00000010
,
00000100
00000000
00000000
00000110
00000000
00000001
00001000
00000000
00000010
00000100
00000001
00001000
,
00000100
00000000
00010000
00000000
01000000
00000000
00100000
00000000
00000000
10010000
00000000
00000000
,
11000000
00000000
00000000
01100000
00000000
00100000
00001000
00010000
00000010
00010000
00000000
00001000
,
00010000
00000100
00001000
00000100
00000000
00000010
00000001
00001000
00000001
00000100
00000000
00000010
,
00000100
00000000
00000000
00001001
00000000
00000001
00000010
00000100
00010000
00001000
00000000
01000000
,
00001000
00010000
00000000
00110000
00000000
00001000
00100000
00010000
10000000
00100000
00000000
00000000
,
10010000
00000000
00000000
10000000
01000000
00100000
00010000
01000000
00001000
00010000
00000000
00000100
,
00010000
00000000
00000000
00011000
00000000
00010000
00001000
00000100
00000010
00001000
00000000
00000100
,
00000010
00000101
00000010
00001100
,
00000001
00000100
00000000
00001000
00000000
00010000
00001000
00000000
01000000
00000000
00100000
00000000
,
20020000
00000000
00000000
00000000
,
00000000
30030000
20000000
30200000
,
00320000
00032000
00003200
00000000
,
00000000
00000000
00000320
00002030
,
00003002
00000023
00002030
00023000
,
02030000
03200000
00302000
00003020
,
00000230
00000000
00000000
00020300
00000000
00000000
00032000
00000000
02003000
00000000
03200000
00000000
,
20300000
00000000
00000000
30010000
,
10010000
00000000
00000000
10000000
01000000
00100000
00010000
00000000
00000000
01000000
00100000
00010000
,
00001000
00000000
00000000
00010000
00001000
00000100
00000010
00000000
00000000
00001000
00000100
00000010
,
00000001
00000000
00000000
00000001
00000100
00000010
00001000
00000000
00000000
00000100
00000010
00001000
,
00010000
00000000
00000000
00001000
00010000
01000000
00100000
00000000
00000000
00010000
01000000
00100000
,
10000000
00000000
00000000
01000000
00100000
00001000
00010000
00000000
00000000
00001000
00010000
01000000
,
10000000
00000000
00000000
00010000
10000000
00100000
00010000
00000000
00000000
00001000
00000100
00000010
,
00001000
00000000
00000000
00000100
00000010
00000001
00001000
00000000
00000000
00000001
00000010
00000100
,
00000010
00000000
00000000
00001000
00010000
01000000
00100000
00010000
10000000
00100000
01000000
00001000
,
00010000
00000000
00000100
00000000
00001000
00000000
00002002
00000000
00000000
00003003
00000000
00000000
,
00000001
00000000
00000100
00000000
00000010
00000000
00020020
00000000
00000000
00030030
00000000
00000000
,
00010000
00000000
00001000
00000000
00000010
00000000
00001000
00000000
00010000
00000000
00001000
00000000
,
00100000
00000000
00010000
00000000
01000000
00000000
02200000
00000000
00000000
03300000
00010000
00000000
,
10000000
00000000
01000000
00000000
00100000
00000000
00202000
00000000
00000000
00303000
00000000
00000000
,
00001000
00000000
00010000
00000000
00000010
00000000
00002020
00000000
00000000
00003030
00001000
00000000
,
00000002
00000000
00000000
00000000
00000000
00000003
00000011
00000000
00001010
00000000
00011000
00000000
,
01010000
00000000
11000000
00000000
01100000
00000000
20020000
00000000
00000000
30030000
10000000
00000000
,
01000000
00100000
01000000
00100000
00000000
00001000
00010000
00000010
00010000
00001000
00010000
00000100
,
00001000
00000000
00000001
00001000
00000100
00000010
00000001
00000010
00000100
00001000
00000000
00000000
,
00000001
00000010
00000100
00010000
00000000
00010000
00001000
01000000
00010000
10000000
00000000
10000000
,
01000000
00100000
00001000
00010000
00000000
00010000
00000010
00001000
00000001
00001000
00000000
00001000
,
00000100
00000000
00001000
00000010
00000001
00000010
00000100
00000000
00000001
00001000
00000000
00000010
,
00010000
00000000
00001000
00010000
00000000
00000010
00001000
00000000
00000100
00010000
00000000
00001000
,
00100000
00000000
00010000
10000000
00000000
00010000
02000000
00000000
00000000
03020000
00000000
00000000
,
00130000
00000000
01000000
00000000
00010000
00000000
00011000
00000000
00000000
00001010
00000000
00000000
,
00001001
00000000
00000001
00000100
00000001
00001000
00000010
00000100
00001000
00010000
00100000
01000000
,
00010000
00000000
00000000
10000000
00010000
01000000
00001000
00000000
00010000
00000000
00000010
00000000
,
00000110
00000000
00001000
00000001
00000000
00000000
00000110
00000000
00000001
00001000
00000000
00000000
,
00001100
00000000
00000000
00000001
00000100
00001000
00010000
00001000
00100000
01000000
10000000
00010000
,
01000000
00000000
00010000
10010000
00000000
00000000
10000000
00000000
01000000
01100000
00000000
00000000
,
00001000
00000000
00010000
00011000
00000000
00000000
00010000
00000000
00000010
00001010
00000000
00000000
,
00001100
00000000
00000000
00000101
00000000
00000001
00001000
00000001
00000010
00000100
00000010
00000001
,
00001000
00000010
00010000
00001000
00100000
00001000
00010000
00001000
01000000
00010000
10000000
01000000
,
00100000
00000000
00000000
00000000
,
00000000
00000000
00000000
00000000
00000000
00000000
00000000
00000000
00000000
00002000
00000000
00003000
,
00001000
00000000
00011000
00000000
00010010
00000000
00010000
00000000
00011000
00000000
01001000
00000000
,
00001000
00000000
00010100
00000000
00101000
00000000
00001000
00000000
00010010
00000000
01001000
00000000
,
00011000
00000000
00000000
00010010
00000000
00010000
00001000
00000000
00000000
00101000
00000000
00001000
,
00010000
00001000
01000000
00001000
00010000
00000010
00001000
00000000
00000100
00000000
00000010
00000000
,
00000001
00000000
00000100
00000000
00001000
00000000
00010000
00000000
00100000
01000000
00010000
00100000
,
00001000
00000000
00010000
00000000
00100000
00000000
10000000
00000000
00000000
00010000
00000000
10000000
,
01000000
00000000
00000000
00100000
00000000
00001000
00010000
00000010
00001000
00000100
00010000
00001000
,
00010000
00000000
00100000
00000000
01000000
00000000
00001000
00000000
00000000
00011000
00000000
00010000
,
00001000
00000000
00001000
00010000
00100000
00010000
00001000
00000000
00001000
00010000
01000000
00010000
,
00001000
00000000
00001000
00010000
00100000
00010000
00001000
00000000
00100000
00001000
00000000
00010000
,
00000010
00000000
00010000
00001000
00000010
00001000
00010000
00000010
00001000
00000001
00000010
00000001
,
00001000
00000100
00000010
00001000
00000000
00010000
01000000
00100000
00010000
01000000
00000000
00001000
,
00010000
00000000
00010000
00001000
00000100
00001000
00010000
00000000
00010000
00001000
00000010
00001000
,
00010000
00000000
00010000
00001000
00000100
00001000
00010000
00001000
00100000
00001000
00010000
00000100
,
00001000
00000000
00000000
00000110
00000000
00000001
00000100
00000010
00000100
00001000
00010000
00100000
,
10000000
00010000
00100000
01000000
00010000
00001000
00000010
00000000
00000100
00000000
00001000
00000000
,
00002002
00000000
00000000
00000000
,
00000000
00000000
00000000
00000000
,
00000000
00000000
00000000
00000000
,
00000000
00000000
00000000
00000000
,
00000000
00000000
00000000
00000000
,
00000000
00000000
00000000
00000000
,
00003003
00000000
00000000
00000000
;
